osu file format v14

[General]
AudioFilename: audio.mp3
AudioLeadIn: 0
PreviewTime: 165462
Countdown: 0
SampleSet: Soft
StackLeniency: 0.7
Mode: 3
LetterboxInBreaks: 0
SpecialStyle: 0
WidescreenStoryboard: 1

[Editor]
Bookmarks: 16384,31384,46384,61384,76384,91384,106384,121384,128884,136384,151384,166384,181384,196384,211384,226384,241384
DistanceSpacing: 0.8
BeatDivisor: 4
GridSize: 16
TimelineZoom: 1.4

[Metadata]
Title:Artificial Snow
TitleUnicode:Artificial Snow
Artist:Camellia
ArtistUnicode:かめりあ
Creator:Dergo
Version:ash's hard
Source:osu!
Tags:drumstep electronic kamelcamellia cametek dnb dubstep drumstep drum and bass crystallized Asherz007 FAMoss Featured Artist FA Mappers' Guild
BeatmapID:2147852
BeatmapSetID:1026319

[Difficulty]
HPDrainRate:8
CircleSize:4
OverallDifficulty:7.2
ApproachRate:5
SliderMultiplier:1.4
SliderTickRate:1

[Events]
//Background and Video events
0,0,"d0e93cb3-fe75-4e01-bee8-90ba61cfa3de.jpg",0,0
//Break Periods
//Storyboard Layer 0 (Background)
//Storyboard Layer 1 (Fail)
//Storyboard Layer 2 (Pass)
//Storyboard Layer 3 (Foreground)
//Storyboard Layer 4 (Overlay)
//Storyboard Sound Samples
Sample,90755,0,"Laurie Webb OK.wav",70
Sample,105872,0,"Laurie Webb Yeah.wav",70
Sample,180872,0,"Laurie Webb OK.wav",70
Sample,195872,0,"Laurie Webb Yeah.wav",70

[TimingPoints]
1400,468.75,4,2,1,50,1,0
29525,-100,4,2,1,60,0,0
46400,-100,4,2,1,50,0,0
68900,-100,4,2,1,60,0,0
76400,-100,4,2,1,70,0,1
106400,-100,4,2,1,50,0,0
121400,-100,4,2,1,60,0,0
136400,-100,4,2,1,50,0,0
158900,-100,4,2,1,60,0,0
166400,-100,4,2,1,70,0,1
196400,-100,4,2,1,60,0,0
211400,-100,4,2,1,50,0,0

[HitObjects]
64,192,16400,5,0,0:0:0:0:
192,192,17337,1,0,0:0:0:0:
320,192,17689,1,0,0:0:0:0:
64,192,18040,1,0,0:0:0:0:
192,192,19212,1,0,0:0:0:0:
320,192,19564,1,0,0:0:0:0:
192,192,19915,1,0,0:0:0:0:
320,192,21087,1,0,0:0:0:0:
448,192,21439,1,0,0:0:0:0:
192,192,21790,1,0,0:0:0:0:
64,192,22962,1,0,0:0:0:0:
192,192,23079,1,0,0:0:0:0:
320,192,23314,1,0,0:0:0:0:
448,192,23548,1,0,0:0:0:0:
192,192,23900,1,0,0:0:0:0:
64,192,24251,1,0,0:0:0:0:
448,192,24603,1,0,0:0:0:0:
320,192,24954,1,0,0:0:0:0:
64,192,25306,1,0,0:0:0:0:
192,192,25657,1,0,0:0:0:0:
320,192,26712,1,0,0:0:0:0:
448,192,27064,1,0,0:0:0:0:
320,192,27415,1,0,0:0:0:0:
64,192,28587,1,0,0:0:0:0:
192,192,28939,1,0,0:0:0:0:
320,192,29290,1,0,0:0:0:0:
64,192,29993,1,0,0:0:0:0:
448,192,30228,1,0,0:0:0:0:
448,192,30814,1,0,0:0:0:70:K.wav
320,192,30814,1,0,0:0:0:0:
64,192,30931,1,2,0:0:0:70:K.wav
192,192,30931,1,2,0:0:0:0:
320,192,31165,1,0,0:0:0:70:tom03.wav
192,192,31165,1,0,0:0:0:0:
320,192,31400,1,6,0:0:0:0:
448,192,31400,1,4,0:0:0:0:
192,192,31634,1,0,0:0:0:0:
192,192,31868,1,8,0:0:0:0:
448,192,31868,1,0,0:0:0:0:
320,192,32103,1,0,0:0:0:0:
64,192,32220,1,2,0:0:0:0:
448,192,32220,1,0,0:0:0:0:
192,192,32337,1,0,0:0:0:0:
320,192,32571,1,2,0:0:0:0:
64,192,32571,1,0,0:0:0:0:
448,192,32806,1,8,0:0:0:0:
320,192,32806,1,0,0:0:0:0:
192,192,33040,1,0,0:0:0:0:
320,192,33275,1,2,0:0:0:0:
64,192,33275,1,0,0:0:0:0:
448,192,33509,1,0,0:0:0:0:
192,192,33743,1,8,0:0:0:0:
448,192,33743,1,0,0:0:0:0:
64,192,33978,1,0,0:0:0:0:
320,192,34095,1,2,0:0:0:0:
192,192,34095,1,0,0:0:0:0:
448,192,34212,1,0,0:0:0:0:
64,192,34446,1,2,0:0:0:0:
192,192,34446,1,0,0:0:0:0:
320,192,34681,1,8,0:0:0:0:
64,192,34681,1,0,0:0:0:0:
448,192,34915,1,0,0:0:0:0:
64,192,35150,1,2,0:0:0:0:
192,192,35150,1,0,0:0:0:0:
320,192,35384,1,0,0:0:0:0:
448,192,35618,1,8,0:0:0:0:
192,192,35618,1,0,0:0:0:0:
192,192,35853,1,0,0:0:0:0:
448,192,35970,1,2,0:0:0:0:
64,192,35970,1,0,0:0:0:0:
320,192,36087,1,0,0:0:0:0:
448,192,36321,1,2,0:0:0:0:
192,192,36321,1,0,0:0:0:0:
64,192,36556,1,8,0:0:0:0:
320,192,36556,1,0,0:0:0:0:
320,192,36790,1,0,0:0:0:0:
64,192,37025,1,2,0:0:0:0:
192,192,37025,1,0,0:0:0:0:
320,192,37259,1,0,0:0:0:0:
448,192,37493,1,8,0:0:0:0:
64,192,37493,1,0,0:0:0:0:
64,192,37728,1,0,0:0:0:0:
448,192,37845,1,2,0:0:0:0:
320,192,37845,1,0,0:0:0:0:
192,192,37962,1,0,0:0:0:0:
448,192,38079,1,0,0:0:0:0:
64,192,38196,1,2,0:0:0:0:
320,192,38196,1,0,0:0:0:0:
192,192,38314,1,0,0:0:0:0:
320,192,38431,1,8,0:0:0:0:
448,192,38431,1,0,0:0:0:0:
64,192,38548,1,0,0:0:0:0:
448,192,38665,1,0,0:0:0:0:
64,192,38900,1,2,0:0:0:0:
192,192,38900,1,0,0:0:0:0:
320,192,39134,1,0,0:0:0:0:
192,192,39251,1,0,0:0:0:0:
320,192,39368,1,8,0:0:0:0:
64,192,39368,1,0,0:0:0:0:
448,192,39603,1,0,0:0:0:0:
320,192,39720,1,2,0:0:0:0:
192,192,39720,1,0,0:0:0:0:
64,192,39837,1,0,0:0:0:0:
448,192,39954,1,0,0:0:0:0:
64,192,40071,1,2,0:0:0:0:
192,192,40071,1,0,0:0:0:0:
320,192,40306,1,8,0:0:0:0:
192,192,40306,1,0,0:0:0:0:
448,192,40540,1,0,0:0:0:0:
320,192,40657,1,0,0:0:0:0:
64,192,40775,1,2,0:0:0:0:
192,192,40775,1,0,0:0:0:0:
448,192,41009,1,0,0:0:0:0:
64,192,41243,1,8,0:0:0:0:
448,192,41243,1,0,0:0:0:0:
192,192,41478,1,0,0:0:0:0:
320,192,41595,1,2,0:0:0:0:
64,192,41595,1,0,0:0:0:0:
448,192,41712,1,0,0:0:0:0:
64,192,41946,1,2,0:0:0:0:
192,192,41946,1,0,0:0:0:0:
320,192,42181,1,8,0:0:0:0:
64,192,42181,1,0,0:0:0:0:
448,192,42415,1,0,0:0:0:0:
64,192,42650,1,2,0:0:0:0:
192,192,42650,1,0,0:0:0:0:
320,192,42884,1,0,0:0:0:0:
64,192,43118,1,8,0:0:0:0:
320,192,43118,1,0,0:0:0:0:
192,192,43353,1,0,0:0:0:0:
320,192,43470,1,2,0:0:0:0:
448,192,43470,1,0,0:0:0:0:
64,192,43587,1,0,0:0:0:0:
448,192,43821,1,2,0:0:0:0:
192,192,43821,1,0,0:0:0:0:
320,192,44056,1,8,0:0:0:0:
192,192,44056,1,0,0:0:0:0:
64,192,44290,1,0,0:0:0:0:
192,192,44349,1,0,0:0:0:0:
320,192,44407,1,0,0:0:0:0:
448,192,44466,1,0,0:0:0:0:
64,192,44525,1,8,0:0:0:0:
192,192,44525,1,10,0:0:0:0:
320,192,44759,1,0,0:0:0:0:
64,192,44876,1,8,0:0:0:0:
192,192,44876,1,0,0:0:0:0:
448,192,44993,1,0,0:0:0:0:
64,192,45228,1,8,0:0:0:0:
192,192,45228,1,0,0:0:0:0:
320,192,45345,1,2,0:0:0:0:
448,192,45403,1,2,0:0:0:0:
64,192,45462,1,8,0:0:0:0:
192,192,45462,1,2,0:0:0:0:
448,192,45696,1,0,0:0:0:0:
64,192,45814,1,8,0:0:0:0:
192,192,45814,1,2,0:0:0:0:
320,192,45931,1,0,0:0:0:0:
64,192,46165,1,10,0:0:0:0:
192,192,46165,1,8,0:0:0:0:
448,192,46400,128,6,46634:0:0:0:70:push_scratch.wav
64,192,46400,1,6,0:0:0:0:
320,192,46634,1,0,0:0:0:0:
192,192,46751,128,0,46985:0:0:0:0:
64,192,46985,1,0,0:0:0:0:
320,192,47103,128,0,47337:0:0:0:0:
192,192,47337,1,0,0:0:0:0:
448,192,47454,128,0,47689:0:0:0:0:
320,192,47689,1,0,0:0:0:0:
64,192,47806,128,0,48040:0:0:0:50:Clap.wav
192,192,48040,1,0,0:0:0:0:
320,192,48157,128,0,48392:0:0:0:0:
64,192,48392,1,0,0:0:0:0:
448,192,48509,128,0,48743:0:0:0:0:
192,192,48743,1,0,0:0:0:50:Clap.wav
320,192,48860,128,0,49095:0:0:0:0:
64,192,49095,1,0,0:0:0:0:
192,192,49212,128,0,49446:0:0:0:0:
448,192,49446,1,0,0:0:0:0:
64,192,49564,128,0,49798:0:0:0:0:
320,192,49798,1,0,0:0:0:0:
192,192,49915,128,0,50150:0:0:0:0:
448,192,50150,1,0,0:0:0:0:
320,192,50267,128,0,50501:0:0:0:0:
192,192,50501,1,0,0:0:0:0:
64,192,50618,128,0,50853:0:0:0:50:Clap.wav
448,192,50853,1,0,0:0:0:0:
192,192,50970,128,0,51204:0:0:0:0:
448,192,51204,1,0,0:0:0:0:
320,192,51321,128,0,51556:0:0:0:0:
448,192,51556,1,0,0:0:0:50:Clap.wav
64,192,51673,128,0,51907:0:0:0:0:
448,192,51907,1,0,0:0:0:0:
192,192,52025,128,0,52259:0:0:0:0:
448,192,52259,1,0,0:0:0:0:
320,192,52376,128,0,52610:0:0:0:0:
192,192,52610,1,0,0:0:0:0:
448,192,52728,128,0,52962:0:0:0:0:
320,192,52962,1,0,0:0:0:0:
192,192,53079,128,0,53314:0:0:0:0:
448,192,53314,1,0,0:0:0:0:
64,192,53431,128,0,53665:0:0:0:50:Clap.wav
192,192,53665,1,0,0:0:0:0:
320,192,53782,128,0,54017:0:0:0:0:
64,192,54017,1,0,0:0:0:0:
448,192,54134,128,0,54368:0:0:0:0:
192,192,54368,1,0,0:0:0:50:Clap.wav
64,192,54485,128,0,54720:0:0:0:0:
320,192,54720,1,0,0:0:0:0:
192,192,54837,128,0,55071:0:0:0:0:
448,192,55071,1,0,0:0:0:0:
320,192,55189,128,0,55423:0:0:0:0:
64,192,55423,1,0,0:0:0:0:
448,192,55540,128,0,55775:0:0:0:0:
320,192,55775,1,0,0:0:0:0:
64,192,55892,128,0,56126:0:0:0:0:
448,192,56126,1,0,0:0:0:0:
192,192,56243,128,0,56478:0:0:0:50:Clap.wav
64,192,56478,1,0,0:0:0:0:
320,192,56595,128,0,56829:0:0:0:0:
192,192,56829,1,0,0:0:0:0:
448,192,56946,128,0,57181:0:0:0:0:
192,192,57181,1,0,0:0:0:50:Clap.wav
64,192,57298,128,0,57532:0:0:0:0:
192,192,57532,1,0,0:0:0:0:
320,192,57650,128,0,57884:0:0:0:0:
192,192,57884,1,0,0:0:0:0:
448,192,58001,128,0,58235:0:0:0:0:
192,192,58235,1,0,0:0:0:0:
64,192,58353,128,0,58587:0:0:0:0:
320,192,58587,1,0,0:0:0:0:
192,192,58704,128,0,58939:0:0:0:0:
448,192,58939,1,0,0:0:0:0:
320,192,59056,128,0,59290:0:0:0:50:Clap.wav
64,192,59290,1,0,0:0:0:0:
448,192,59407,128,0,59642:0:0:0:0:
192,192,59642,1,0,0:0:0:0:
320,192,59759,128,0,59993:0:0:0:0:
448,192,59993,1,0,0:0:0:50:Clap.wav
64,192,60110,128,0,60345:0:0:0:0:
320,192,60345,1,0,0:0:0:0:
192,192,60462,128,0,60696:0:0:0:0:
64,192,60696,1,0,0:0:0:0:
320,192,60814,128,0,60931:0:0:0:0:
64,192,60931,128,0,61048:0:0:0:50:Clap.wav
192,192,61048,128,0,61165:0:0:0:0:
448,192,61165,128,0,61282:0:0:0:0:
64,192,61282,128,0,61400:0:0:0:0:
320,192,61400,128,0,61517:0:0:0:0:
192,192,61517,1,0,0:0:0:0:
448,192,61634,1,0,0:0:0:0:
320,192,61751,1,0,0:0:0:0:
64,192,61868,1,0,0:0:0:50:Clap.wav
448,192,61985,1,0,0:0:0:0:
192,192,62103,1,0,0:0:0:0:
64,192,62220,1,0,0:0:0:0:
320,192,62337,1,0,0:0:0:0:
192,192,62454,1,0,0:0:0:0:
448,192,62571,1,0,0:0:0:0:
320,192,62689,1,0,0:0:0:0:
64,192,62806,1,0,0:0:0:50:Clap.wav
448,192,62923,1,0,0:0:0:0:
192,192,63040,1,0,0:0:0:0:
64,192,63157,1,0,0:0:0:0:
320,192,63275,1,0,0:0:0:0:
448,192,63392,1,0,0:0:0:0:
192,192,63509,1,0,0:0:0:0:
320,192,63626,1,0,0:0:0:0:
64,192,63743,1,0,0:0:0:50:Clap.wav
192,192,63860,1,0,0:0:0:0:
448,192,63978,1,0,0:0:0:0:
320,192,64095,1,0,0:0:0:0:
64,192,64212,128,0,64329:0:0:0:0:
448,192,64329,1,0,0:0:0:0:
192,192,64446,128,0,64564:0:0:0:0:
64,192,64564,1,0,0:0:0:0:
320,192,64681,128,0,64798:0:0:0:50:Clap.wav
192,192,64798,1,0,0:0:0:0:
448,192,64915,128,0,65032:0:0:0:0:
320,192,65032,1,0,0:0:0:0:
192,192,65150,128,0,65267:0:0:0:0:
448,192,65267,1,0,0:0:0:0:
64,192,65384,1,0,0:0:0:0:
320,192,65501,1,0,0:0:0:0:
192,192,65618,1,0,0:0:0:50:Clap.wav
448,192,65735,1,0,0:0:0:0:
64,192,65853,1,0,0:0:0:0:
320,192,65970,1,0,0:0:0:0:
192,192,66087,1,0,0:0:0:0:
448,192,66204,1,0,0:0:0:0:
64,192,66321,1,0,0:0:0:0:
192,192,66439,1,0,0:0:0:0:
320,192,66556,1,0,0:0:0:50:Clap.wav
448,192,66673,1,0,0:0:0:0:
64,192,66790,1,0,0:0:0:0:
192,192,66907,1,0,0:0:0:0:
320,192,67025,1,0,0:0:0:0:
64,192,67142,1,0,0:0:0:0:
448,192,67259,1,0,0:0:0:0:
192,192,67376,1,0,0:0:0:0:
320,192,67493,1,0,0:0:0:50:Clap.wav
64,192,67610,1,0,0:0:0:0:
448,192,67728,1,0,0:0:0:0:
192,192,67845,1,0,0:0:0:0:
320,192,67962,128,0,68079:0:0:0:0:
64,192,68079,1,0,0:0:0:0:
448,192,68196,128,0,68314:0:0:0:0:
320,192,68314,1,0,0:0:0:0:
192,192,68431,128,0,68548:0:0:0:50:Clap.wav
64,192,68548,1,0,0:0:0:0:
448,192,68665,128,0,68782:0:0:0:0:
320,192,68782,1,0,0:0:0:0:
192,192,68900,1,2,0:0:0:0:
64,192,68900,128,0,69017:0:0:0:0:
448,192,69017,1,0,0:0:0:0:
320,192,69134,1,0,0:0:0:0:
192,192,69251,1,0,0:0:0:0:
448,192,69368,1,0,0:0:0:70:tom01.wav
64,192,69368,1,0,0:0:0:50:Clap.wav
320,192,69485,1,0,0:0:0:0:
64,192,69603,1,0,0:0:0:0:
192,192,69720,1,0,0:0:0:0:
320,192,69837,1,2,0:0:0:0:
448,192,69837,1,0,0:0:0:0:
64,192,69954,1,0,0:0:0:0:
192,192,70071,1,0,0:0:0:0:
320,192,70189,1,0,0:0:0:0:
64,192,70306,1,0,0:0:0:70:tom01.wav
448,192,70306,1,0,0:0:0:50:Clap.wav
192,192,70423,1,0,0:0:0:0:
320,192,70540,1,0,0:0:0:0:
448,192,70657,1,0,0:0:0:0:
64,192,70775,1,2,0:0:0:0:
192,192,70775,128,0,70892:0:0:0:0:
448,192,70892,1,0,0:0:0:0:
320,192,71009,1,0,0:0:0:0:
192,192,71126,1,0,0:0:0:0:
448,192,71243,1,0,0:0:0:70:tom01.wav
64,192,71243,1,0,0:0:0:50:Clap.wav
320,192,71360,1,0,0:0:0:0:
64,192,71478,1,0,0:0:0:0:
192,192,71595,1,0,0:0:0:0:
448,192,71712,1,2,0:0:0:0:
320,192,71712,1,0,0:0:0:0:
64,192,71829,1,0,0:0:0:0:
192,192,71946,1,0,0:0:0:0:
320,192,72064,1,0,0:0:0:0:
448,192,72181,1,0,0:0:0:70:tom01.wav
64,192,72181,128,0,72298:0:0:0:50:Clap.wav
192,192,72298,1,0,0:0:0:0:
320,192,72415,128,0,72532:0:0:0:0:
192,192,72532,1,0,0:0:0:0:
448,192,72650,128,2,72767:0:0:0:0:
320,192,72650,1,0,0:0:0:0:
64,192,72767,1,0,0:0:0:0:
448,192,72884,1,0,0:0:0:0:
320,192,73001,1,0,0:0:0:0:
192,192,73118,128,0,73235:0:0:0:70:tom01.wav
64,192,73118,1,0,0:0:0:50:Clap.wav
448,192,73235,1,0,0:0:0:0:
192,192,73353,1,0,0:0:0:0:
64,192,73470,1,0,0:0:0:0:
320,192,73587,128,2,73704:0:0:0:0:
448,192,73587,1,0,0:0:0:0:
192,192,73704,1,0,0:0:0:0:
64,192,73821,128,0,74056:0:0:0:0:
448,192,73939,128,0,74056:0:0:0:0:
320,192,74056,128,0,74173:0:0:0:70:tom02.wav
192,192,74056,1,0,0:0:0:50:Clap.wav
64,192,74173,128,0,74290:0:0:0:0:
448,192,74290,1,0,0:0:0:0:
320,192,74349,1,0,0:0:0:0:
192,192,74407,1,0,0:0:0:0:
64,192,74466,1,0,0:0:0:0:
320,192,74525,128,0,74642:0:0:0:100:LR_Tom Hit.wav
448,192,74525,1,0,0:0:0:0:
192,192,74642,128,0,74759:0:0:0:0:
448,192,74759,128,0,74876:0:0:0:0:
64,192,74876,128,0,74993:0:0:0:0:
320,192,74993,128,0,75110:0:0:0:0:
448,192,75110,128,0,75345:0:0:0:0:
64,192,75228,128,0,75345:0:0:0:0:
192,192,75345,128,0,75462:0:0:0:0:
320,192,75462,128,0,75579:0:0:0:0:
448,192,75579,1,0,0:0:0:0:
192,192,75696,1,0,0:0:0:0:
64,192,75696,1,0,0:0:0:0:
448,192,75814,1,0,0:0:0:70:K.wav
320,192,75814,1,0,0:0:0:0:
192,192,75931,1,2,0:0:0:100:Laurie Webb Kick.wav
64,192,75931,1,2,0:0:0:70:K.wav
448,192,76048,1,0,0:0:0:70:tom02.wav
320,192,76165,1,0,0:0:0:70:LR_Tom Hit.wav
192,192,76165,1,0,0:0:0:0:
64,192,76282,1,0,0:0:0:0:
448,192,76400,128,6,76751:0:0:0:0:
320,192,76400,128,4,76634:0:0:0:0:
64,192,76517,128,0,76634:0:0:0:0:
192,192,76634,1,0,0:0:0:0:
320,192,76751,128,0,76868:0:0:0:0:
192,192,76868,1,8,0:0:0:0:
448,192,76868,1,0,0:0:0:0:
64,192,76985,1,0,0:0:0:0:
320,192,77044,1,0,0:0:0:0:
448,192,77103,1,0,0:0:0:0:
64,192,77161,1,0,0:0:0:0:
192,192,77220,1,0,0:0:0:0:
320,192,77278,1,0,0:0:0:0:
64,192,77337,128,2,77571:0:0:0:0:
448,192,77337,1,0,0:0:0:0:
320,192,77571,1,0,0:0:0:0:
320,192,77689,1,0,0:0:0:0:
448,192,77806,1,8,0:0:0:0:
64,192,77806,1,0,0:0:0:0:
192,192,77923,128,0,78040:0:0:0:0:
64,192,78040,1,0,0:0:0:0:
192,192,78157,128,0,78275:0:0:0:0:
64,192,78275,1,2,0:0:0:0:
320,192,78275,1,0,0:0:0:0:
448,192,78392,128,0,78509:0:0:0:0:
192,192,78509,1,0,0:0:0:0:
192,192,78626,1,0,0:0:0:0:
448,192,78743,1,8,0:0:0:0:
64,192,78743,1,0,0:0:0:0:
320,192,78860,128,0,78978:0:0:0:0:
448,192,78978,1,0,0:0:0:0:
320,192,79095,128,0,79212:0:0:0:0:
64,192,79212,128,2,79329:0:0:0:0:
448,192,79212,1,0,0:0:0:0:
192,192,79329,128,0,79446:0:0:0:0:
320,192,79446,128,0,79564:0:0:0:0:
448,192,79564,128,0,79681:0:0:0:0:
320,192,79681,128,8,79915:0:0:0:0:
192,192,79681,128,0,80032:0:0:0:0:
64,192,79798,1,0,0:0:0:0:
448,192,79915,1,0,0:0:0:0:
320,192,80032,1,0,0:0:0:0:
64,192,80150,128,2,80501:0:0:0:0:
192,192,80150,128,0,80384:0:0:0:0:
448,192,80267,128,0,80384:0:0:0:0:
320,192,80384,1,0,0:0:0:0:
192,192,80501,128,0,80618:0:0:0:0:
448,192,80618,1,8,0:0:0:0:
64,192,80618,1,0,0:0:0:0:
320,192,80735,1,0,0:0:0:0:
192,192,80794,1,0,0:0:0:0:
64,192,80853,1,0,0:0:0:0:
448,192,80911,1,0,0:0:0:0:
192,192,80970,1,0,0:0:0:0:
64,192,81028,1,0,0:0:0:0:
320,192,81087,128,2,81321:0:0:0:0:
448,192,81087,1,0,0:0:0:0:
64,192,81321,1,0,0:0:0:0:
64,192,81439,1,0,0:0:0:0:
320,192,81556,1,8,0:0:0:0:
192,192,81556,1,0,0:0:0:0:
448,192,81673,128,0,81790:0:0:0:0:
320,192,81790,1,0,0:0:0:0:
448,192,81907,128,0,82025:0:0:0:0:
64,192,82025,1,2,0:0:0:0:
320,192,82025,1,0,0:0:0:0:
192,192,82142,128,0,82259:0:0:0:0:
448,192,82259,1,0,0:0:0:0:
448,192,82376,1,0,0:0:0:0:
192,192,82493,1,8,0:0:0:0:
320,192,82493,1,0,0:0:0:0:
64,192,82610,128,0,82728:0:0:0:0:
192,192,82728,1,0,0:0:0:0:
448,192,82845,1,2,0:0:0:0:
64,192,82845,128,0,82962:0:0:0:0:
192,192,82962,128,0,83196:0:0:0:0:
320,192,82962,128,0,83196:0:0:0:0:
448,192,83196,1,2,0:0:0:0:
64,192,83196,1,0,0:0:0:0:
320,192,83314,128,0,83548:0:0:0:0:
192,192,83314,128,0,83548:0:0:0:0:
448,192,83431,1,8,0:0:0:0:
64,192,83431,1,0,0:0:0:0:
192,192,83665,128,0,83782:0:0:0:0:
320,192,83665,128,0,83782:0:0:0:0:
448,192,83900,128,2,84134:0:0:0:0:
320,192,83900,128,0,84251:0:0:0:0:
192,192,84017,1,0,0:0:0:0:
64,192,84134,1,0,0:0:0:0:
448,192,84251,1,0,0:0:0:0:
64,192,84368,128,8,84603:0:0:0:0:
320,192,84368,1,0,0:0:0:0:
192,192,84485,1,0,0:0:0:0:
448,192,84603,128,0,84837:0:0:0:0:
320,192,84720,1,0,0:0:0:0:
64,192,84837,1,2,0:0:0:0:
192,192,84837,1,0,0:0:0:0:
320,192,84954,1,0,0:0:0:0:
320,192,85071,1,0,0:0:0:0:
64,192,85189,128,0,85306:0:0:0:0:
192,192,85306,1,8,0:0:0:0:
448,192,85306,1,0,0:0:0:0:
320,192,85423,128,0,85657:0:0:0:0:
192,192,85540,128,0,85775:0:0:0:0:
64,192,85657,128,0,85775:0:0:0:0:
448,192,85775,128,2,86009:0:0:0:0:
320,192,85775,1,0,0:0:0:0:
192,192,85892,1,0,0:0:0:0:
64,192,86009,128,0,86243:0:0:0:0:
320,192,86126,1,0,0:0:0:0:
448,192,86243,1,8,0:0:0:0:
192,192,86243,1,0,0:0:0:0:
320,192,86360,128,0,86478:0:0:0:0:
64,192,86478,1,0,0:0:0:0:
64,192,86595,1,0,0:0:0:0:
448,192,86712,1,2,0:0:0:0:
320,192,86712,1,0,0:0:0:0:
192,192,86829,128,0,87064:0:0:0:0:
320,192,86946,128,0,87064:0:0:0:0:
448,192,87064,1,0,0:0:0:0:
64,192,87181,128,8,87415:0:0:0:0:
192,192,87181,1,0,0:0:0:0:
320,192,87298,1,0,0:0:0:0:
192,192,87415,128,0,87650:0:0:0:0:
64,192,87532,128,0,87650:0:0:0:0:
448,192,87650,128,2,87884:0:0:0:0:
320,192,87650,128,0,88001:0:0:0:0:
192,192,87767,1,0,0:0:0:0:
64,192,87884,1,0,0:0:0:0:
448,192,88001,1,0,0:0:0:0:
64,192,88118,128,8,88353:0:0:0:0:
320,192,88118,1,0,0:0:0:0:
192,192,88235,1,0,0:0:0:0:
448,192,88353,128,0,88587:0:0:0:0:
320,192,88470,1,0,0:0:0:0:
64,192,88587,1,2,0:0:0:0:
192,192,88587,1,0,0:0:0:0:
320,192,88704,1,0,0:0:0:0:
320,192,88821,1,0,0:0:0:0:
64,192,88939,128,0,89056:0:0:0:0:
448,192,89056,1,8,0:0:0:0:
192,192,89056,128,0,89173:0:0:0:0:
320,192,89173,128,0,89407:0:0:0:0:
64,192,89290,128,0,89525:0:0:0:0:
448,192,89407,128,0,89525:0:0:0:0:
320,192,89525,128,2,89759:0:0:0:0:
192,192,89525,128,0,89876:0:0:0:0:
64,192,89642,128,0,89759:0:0:0:0:
448,192,89759,1,0,0:0:0:0:
64,192,89876,128,0,89993:0:0:0:0:
320,192,89993,128,8,90345:0:0:0:0:
192,192,89993,128,0,90228:0:0:0:0:
448,192,90110,1,0,0:0:0:0:
64,192,90228,1,0,0:0:0:0:
64,192,90345,1,2,0:0:0:0:
448,192,90345,1,0,0:0:0:0:
448,192,90462,128,8,90696:0:0:0:0:
320,192,90462,128,0,90696:0:0:0:0:
64,192,90696,1,2,0:0:0:0:
192,192,90696,1,0,0:0:0:0:
448,192,90814,1,8,0:0:0:0:
320,192,90814,1,0,0:0:0:0:
320,192,90931,1,8,0:0:0:0:
448,192,90931,1,0,0:0:0:0:
64,192,91048,1,2,0:0:0:0:
192,192,91107,1,2,0:0:0:0:
448,192,91165,1,8,0:0:0:0:
320,192,91165,1,0,0:0:0:0:
320,192,91282,1,8,0:0:0:0:
448,192,91282,1,0,0:0:0:0:
64,192,91400,128,6,91634:0:0:0:0:
192,192,91400,128,4,91751:0:0:0:0:
448,192,91517,128,0,91634:0:0:0:0:
320,192,91634,1,0,0:0:0:0:
64,192,91751,128,0,91868:0:0:0:0:
448,192,91868,1,8,0:0:0:0:
192,192,91868,1,0,0:0:0:0:
320,192,91985,1,0,0:0:0:0:
64,192,92044,1,0,0:0:0:0:
448,192,92103,1,0,0:0:0:0:
320,192,92161,1,0,0:0:0:0:
192,192,92220,1,0,0:0:0:0:
64,192,92278,1,0,0:0:0:0:
448,192,92337,128,2,92571:0:0:0:0:
320,192,92337,1,0,0:0:0:0:
192,192,92571,1,0,0:0:0:0:
192,192,92689,1,0,0:0:0:0:
448,192,92806,1,8,0:0:0:0:
64,192,92806,1,0,0:0:0:0:
320,192,92923,128,0,93040:0:0:0:0:
448,192,93040,1,0,0:0:0:0:
320,192,93157,128,0,93275:0:0:0:0:
192,192,93275,1,2,0:0:0:0:
448,192,93275,1,0,0:0:0:0:
64,192,93392,128,0,93509:0:0:0:0:
320,192,93509,1,0,0:0:0:0:
320,192,93626,1,0,0:0:0:0:
448,192,93743,1,8,0:0:0:0:
64,192,93743,1,0,0:0:0:0:
192,192,93860,128,0,93978:0:0:0:0:
64,192,93978,1,0,0:0:0:0:
192,192,94095,128,0,94212:0:0:0:0:
448,192,94212,128,2,94329:0:0:0:0:
64,192,94212,1,0,0:0:0:0:
320,192,94329,128,0,94446:0:0:0:0:
192,192,94446,128,0,94564:0:0:0:0:
448,192,94564,128,8,94798:0:0:0:0:
64,192,94564,128,0,94798:0:0:0:0:
320,192,94681,1,0,0:0:0:0:
192,192,94798,1,2,0:0:0:0:
320,192,94857,1,2,0:0:0:0:
448,192,94915,128,8,95032:0:0:0:0:
64,192,94915,128,0,95032:0:0:0:0:
320,192,95150,128,2,95501:0:0:0:0:
448,192,95150,128,0,95384:0:0:0:0:
64,192,95267,128,0,95384:0:0:0:0:
192,192,95384,1,0,0:0:0:0:
448,192,95501,128,0,95618:0:0:0:0:
64,192,95618,1,8,0:0:0:0:
320,192,95618,1,0,0:0:0:0:
192,192,95735,1,0,0:0:0:0:
448,192,95794,1,0,0:0:0:0:
64,192,95853,1,0,0:0:0:0:
192,192,95911,1,0,0:0:0:0:
320,192,95970,1,0,0:0:0:0:
448,192,96028,1,0,0:0:0:0:
192,192,96087,128,2,96321:0:0:0:0:
64,192,96087,1,0,0:0:0:0:
448,192,96321,1,0,0:0:0:0:
448,192,96439,1,0,0:0:0:0:
192,192,96556,1,8,0:0:0:0:
320,192,96556,1,0,0:0:0:0:
64,192,96673,128,0,96790:0:0:0:0:
192,192,96790,1,0,0:0:0:0:
64,192,96907,128,0,97025:0:0:0:0:
448,192,97025,1,2,0:0:0:0:
192,192,97025,1,0,0:0:0:0:
320,192,97142,128,0,97259:0:0:0:0:
64,192,97259,1,0,0:0:0:0:
64,192,97376,1,0,0:0:0:0:
320,192,97493,1,8,0:0:0:0:
192,192,97493,1,0,0:0:0:0:
448,192,97610,128,0,97728:0:0:0:0:
320,192,97728,1,0,0:0:0:0:
64,192,97845,1,2,0:0:0:0:
448,192,97845,128,0,97962:0:0:0:0:
192,192,97962,128,0,98196:0:0:0:0:
320,192,97962,128,0,98196:0:0:0:0:
448,192,98196,1,2,0:0:0:0:
64,192,98196,1,0,0:0:0:0:
320,192,98314,128,8,98548:0:0:0:0:
192,192,98314,128,0,98548:0:0:0:0:
64,192,98548,1,2,0:0:0:0:
448,192,98607,1,2,0:0:0:0:
320,192,98665,128,8,98782:0:0:0:0:
192,192,98665,128,0,98782:0:0:0:0:
448,192,98782,1,2,0:0:0:0:
64,192,98782,1,0,0:0:0:0:
192,192,98900,128,2,99251:0:0:0:0:
64,192,98900,128,0,99134:0:0:0:0:
320,192,99017,1,0,0:0:0:0:
448,192,99134,1,0,0:0:0:0:
64,192,99251,1,0,0:0:0:0:
192,192,99368,128,8,99603:0:0:0:0:
320,192,99368,1,0,0:0:0:0:
64,192,99485,1,0,0:0:0:0:
320,192,99603,128,0,99837:0:0:0:0:
448,192,99720,1,0,0:0:0:0:
192,192,99837,1,2,0:0:0:0:
64,192,99837,1,0,0:0:0:0:
448,192,99954,1,0,0:0:0:0:
448,192,100071,1,0,0:0:0:0:
64,192,100189,128,0,100306:0:0:0:0:
320,192,100306,1,8,0:0:0:0:
448,192,100306,1,0,0:0:0:0:
192,192,100423,128,0,100657:0:0:0:0:
320,192,100540,128,0,100775:0:0:0:0:
448,192,100657,128,0,100775:0:0:0:0:
192,192,100775,128,2,101009:0:0:0:0:
64,192,100775,1,0,0:0:0:0:
448,192,100892,1,0,0:0:0:0:
320,192,101009,128,0,101243:0:0:0:0:
64,192,101126,1,0,0:0:0:0:
448,192,101243,1,8,0:0:0:0:
192,192,101243,1,0,0:0:0:0:
64,192,101360,128,0,101478:0:0:0:0:
320,192,101478,1,0,0:0:0:0:
320,192,101595,1,0,0:0:0:0:
64,192,101712,1,2,0:0:0:0:
192,192,101712,1,0,0:0:0:0:
448,192,101829,128,0,102064:0:0:0:0:
320,192,101946,128,0,102064:0:0:0:0:
64,192,102064,128,8,102298:0:0:0:0:
192,192,102064,1,0,0:0:0:0:
448,192,102181,128,0,102298:0:0:0:0:
192,192,102298,1,2,0:0:0:0:
320,192,102357,1,2,0:0:0:0:
64,192,102415,128,8,102650:0:0:0:0:
448,192,102415,1,0,0:0:0:0:
192,192,102532,128,0,102650:0:0:0:0:
448,192,102650,128,2,102767:0:0:0:0:
320,192,102650,128,0,102767:0:0:0:0:
192,192,102767,128,8,103001:0:0:0:0:
64,192,102767,128,0,102884:0:0:0:0:
320,192,102884,1,0,0:0:0:0:
64,192,103001,1,2,0:0:0:0:
448,192,103001,1,0,0:0:0:0:
320,192,103118,1,8,0:0:0:0:
192,192,103118,1,0,0:0:0:0:
64,192,103235,1,0,0:0:0:0:
448,192,103353,128,2,103587:0:0:0:0:
320,192,103353,1,0,0:0:0:0:
64,192,103470,128,0,103587:0:0:0:0:
192,192,103587,1,8,0:0:0:0:
320,192,103646,1,8,0:0:0:0:
448,192,103704,1,8,0:0:0:0:
64,192,103821,1,2,0:0:0:0:
192,192,103821,1,0,0:0:0:0:
448,192,103939,1,2,0:0:0:0:
320,192,103939,1,0,0:0:0:0:
64,192,104056,1,2,0:0:0:0:
192,192,104056,1,0,0:0:0:0:
448,192,104173,1,8,0:0:0:0:
320,192,104173,1,0,0:0:0:0:
64,192,104290,1,8,0:0:0:0:
192,192,104349,1,8,0:0:0:0:
320,192,104407,1,2,0:0:0:0:
448,192,104466,1,2,0:0:0:0:
64,192,104525,1,8,0:0:0:0:
192,192,104525,1,0,0:0:0:0:
448,192,104759,128,0,104993:0:0:0:0:
64,192,104993,1,0,0:0:0:0:
64,192,105110,128,0,105462:0:0:0:0:
320,192,105345,1,0,0:0:0:0:
448,192,105462,128,0,105696:0:0:0:0:
192,192,105462,1,0,0:0:0:0:
64,192,105696,1,0,0:0:0:70:tom01.wav
192,192,105696,1,0,0:0:0:0:
448,192,105814,128,0,106048:0:0:0:70:tom02.wav
64,192,105931,1,0,0:0:0:70:tom03.wav
320,192,105931,1,0,0:0:0:0:
192,192,106048,1,0,0:0:0:0:
448,192,106165,128,0,106282:0:0:0:70:tom04.wav
320,192,106165,1,0,0:0:0:0:
192,192,106282,1,0,0:0:0:0:
448,192,106400,1,6,0:0:0:70:push_scratch.wav
64,192,106400,1,6,0:0:0:0:
320,192,106517,1,0,0:0:0:0:
192,192,106634,1,0,0:0:0:0:
448,192,106751,1,0,0:0:0:0:
64,192,106985,1,0,0:0:0:0:
192,192,107103,1,0,0:0:0:0:
320,192,107220,1,0,0:0:0:0:
64,192,107337,1,8,0:0:0:0:
448,192,107337,1,0,0:0:0:0:
192,192,107454,1,0,0:0:0:0:
320,192,107571,1,0,0:0:0:0:
448,192,107689,1,0,0:0:0:0:
64,192,107923,1,0,0:0:0:0:
448,192,108040,1,0,0:0:0:0:
192,192,108157,1,0,0:0:0:0:
320,192,108275,1,2,0:0:0:0:
64,192,108275,1,0,0:0:0:0:
448,192,108392,1,0,0:0:0:0:
192,192,108509,1,0,0:0:0:0:
320,192,108626,1,0,0:0:0:0:
64,192,108860,1,0,0:0:0:0:
448,192,108978,1,0,0:0:0:0:
320,192,109095,1,0,0:0:0:0:
64,192,109212,1,8,0:0:0:0:
192,192,109212,1,0,0:0:0:0:
320,192,109329,1,0,0:0:0:0:
448,192,109446,1,0,0:0:0:0:
192,192,109564,1,0,0:0:0:0:
64,192,109798,1,0,0:0:0:0:
320,192,109915,1,0,0:0:0:0:
192,192,110032,1,0,0:0:0:0:
448,192,110150,1,2,0:0:0:0:
64,192,110150,1,0,0:0:0:0:
320,192,110267,1,0,0:0:0:0:
192,192,110384,1,0,0:0:0:0:
448,192,110501,1,0,0:0:0:0:
64,192,110735,1,0,0:0:0:0:
320,192,110853,1,0,0:0:0:0:
192,192,110970,1,0,0:0:0:0:
448,192,111087,1,8,0:0:0:0:
320,192,111087,1,0,0:0:0:0:
64,192,111204,1,0,0:0:0:0:
192,192,111321,1,0,0:0:0:0:
448,192,111439,1,0,0:0:0:0:
64,192,111673,1,0,0:0:0:0:
448,192,111790,1,0,0:0:0:0:
192,192,111907,1,0,0:0:0:0:
320,192,112025,1,2,0:0:0:0:
64,192,112025,1,0,0:0:0:0:
448,192,112142,1,0,0:0:0:0:
192,192,112259,1,0,0:0:0:0:
320,192,112376,1,0,0:0:0:0:
192,192,112610,1,0,0:0:0:0:
64,192,112728,1,0,0:0:0:0:
320,192,112845,1,0,0:0:0:0:
448,192,112962,1,8,0:0:0:0:
64,192,112962,1,0,0:0:0:0:
192,192,113079,1,0,0:0:0:0:
448,192,113196,1,0,0:0:0:0:
320,192,113314,1,0,0:0:0:0:
192,192,113548,1,0,0:0:0:0:
320,192,113665,1,0,0:0:0:0:
64,192,113782,1,0,0:0:0:0:
448,192,113900,1,2,0:0:0:0:
192,192,113900,1,0,0:0:0:0:
320,192,114017,1,0,0:0:0:0:
64,192,114134,1,0,0:0:0:0:
448,192,114251,1,0,0:0:0:0:
192,192,114485,1,0,0:0:0:0:
448,192,114603,1,0,0:0:0:0:
320,192,114720,1,0,0:0:0:0:
64,192,114837,1,8,0:0:0:0:
192,192,114837,1,0,0:0:0:0:
320,192,114954,1,0,0:0:0:0:
448,192,115071,1,0,0:0:0:0:
64,192,115189,1,0,0:0:0:0:
320,192,115423,1,0,0:0:0:0:
64,192,115540,1,0,0:0:0:0:
448,192,115657,1,0,0:0:0:0:
320,192,115775,1,2,0:0:0:0:
192,192,115775,1,0,0:0:0:0:
64,192,115892,1,0,0:0:0:0:
448,192,116009,1,0,0:0:0:0:
192,192,116126,1,0,0:0:0:0:
320,192,116360,1,0,0:0:0:0:
448,192,116478,1,0,0:0:0:0:
64,192,116595,1,0,0:0:0:0:
448,192,116712,1,8,0:0:0:0:
192,192,116712,1,0,0:0:0:0:
320,192,116829,1,0,0:0:0:0:
192,192,116946,1,0,0:0:0:0:
64,192,117064,1,0,0:0:0:0:
448,192,117298,1,0,0:0:0:0:
192,192,117415,1,0,0:0:0:0:
320,192,117532,1,0,0:0:0:0:
64,192,117650,1,2,0:0:0:0:
448,192,117650,1,0,0:0:0:0:
192,192,117767,1,0,0:0:0:0:
320,192,117884,1,0,0:0:0:0:
64,192,118001,1,0,0:0:0:0:
320,192,118235,1,0,0:0:0:0:
192,192,118353,1,0,0:0:0:0:
448,192,118470,1,0,0:0:0:0:
320,192,118587,1,8,0:0:0:0:
64,192,118587,1,0,0:0:0:0:
192,192,118704,1,0,0:0:0:0:
448,192,118821,1,0,0:0:0:0:
64,192,118939,1,0,0:0:0:0:
320,192,119173,1,0,0:0:0:0:
192,192,119290,1,0,0:0:0:0:
64,192,119407,1,0,0:0:0:0:
448,192,119525,1,2,0:0:0:0:
320,192,119525,1,0,0:0:0:0:
192,192,119642,1,0,0:0:0:0:
64,192,119759,1,0,0:0:0:0:
448,192,119876,1,0,0:0:0:0:
192,192,120110,1,0,0:0:0:0:
320,192,120228,1,0,0:0:0:0:
448,192,120345,1,0,0:0:0:0:
64,192,120462,1,8,0:0:0:0:
192,192,120462,1,0,0:0:0:0:
320,192,120579,1,0,0:0:0:0:
448,192,120696,1,0,0:0:0:0:
64,192,120814,1,0,0:0:0:0:
448,192,121048,1,0,0:0:0:0:
320,192,121165,1,0,0:0:0:0:
192,192,121282,1,0,0:0:0:0:
448,192,121400,1,4,0:0:0:0:
64,192,121400,1,2,0:0:0:0:
320,192,121517,1,0,0:0:0:0:
192,192,121634,1,0,0:0:0:0:
64,192,121751,1,0,0:0:0:0:
448,192,121868,1,8,0:0:0:0:
320,192,121868,1,0,0:0:0:0:
192,192,121985,1,0,0:0:0:0:
448,192,122103,1,0,0:0:0:0:
320,192,122220,1,2,0:0:0:0:
64,192,122220,1,0,0:0:0:0:
448,192,122454,1,0,0:0:0:0:
192,192,122571,1,2,0:0:0:0:
64,192,122571,1,0,0:0:0:0:
320,192,122689,1,0,0:0:0:0:
448,192,122806,1,8,0:0:0:0:
64,192,122806,1,0,0:0:0:0:
192,192,122923,1,0,0:0:0:0:
320,192,123040,1,0,0:0:0:0:
64,192,123157,1,0,0:0:0:0:
448,192,123275,1,2,0:0:0:0:
192,192,123275,1,0,0:0:0:0:
320,192,123392,1,0,0:0:0:0:
64,192,123509,1,0,0:0:0:0:
448,192,123626,1,0,0:0:0:0:
192,192,123743,1,8,0:0:0:0:
320,192,123743,1,0,0:0:0:0:
64,192,123860,1,0,0:0:0:0:
320,192,123978,1,0,0:0:0:0:
448,192,124095,1,2,0:0:0:0:
64,192,124095,1,0,0:0:0:0:
192,192,124329,1,0,0:0:0:0:
448,192,124446,1,2,0:0:0:0:
320,192,124446,1,0,0:0:0:0:
64,192,124564,1,0,0:0:0:0:
448,192,124681,1,8,0:0:0:0:
192,192,124681,1,0,0:0:0:0:
320,192,124798,1,0,0:0:0:0:
64,192,124915,1,0,0:0:0:0:
448,192,125032,1,0,0:0:0:0:
192,192,125150,1,2,0:0:0:0:
320,192,125150,1,0,0:0:0:0:
64,192,125267,1,0,0:0:0:0:
448,192,125384,1,0,0:0:0:0:
192,192,125501,1,0,0:0:0:0:
320,192,125618,1,8,0:0:0:0:
64,192,125618,1,0,0:0:0:0:
448,192,125735,1,0,0:0:0:0:
192,192,125853,1,0,0:0:0:0:
448,192,125970,1,2,0:0:0:0:
320,192,125970,1,0,0:0:0:0:
64,192,126204,1,0,0:0:0:0:
448,192,126321,1,2,0:0:0:0:
192,192,126321,1,0,0:0:0:0:
320,192,126439,1,0,0:0:0:0:
192,192,126556,1,8,0:0:0:0:
64,192,126556,1,0,0:0:0:0:
448,192,126673,1,0,0:0:0:0:
320,192,126790,1,0,0:0:0:0:
192,192,126907,1,0,0:0:0:0:
448,192,127025,1,2,0:0:0:0:
64,192,127025,1,0,0:0:0:0:
320,192,127142,1,0,0:0:0:0:
192,192,127259,1,0,0:0:0:0:
448,192,127376,1,0,0:0:0:0:
320,192,127493,1,8,0:0:0:0:
64,192,127493,1,0,0:0:0:0:
192,192,127610,1,0,0:0:0:0:
448,192,127728,1,0,0:0:0:0:
192,192,127845,1,2,0:0:0:0:
64,192,127845,1,0,0:0:0:0:
320,192,128079,1,0,0:0:0:0:
448,192,128196,1,2,0:0:0:0:
192,192,128196,1,0,0:0:0:0:
64,192,128314,1,0,0:0:0:0:
448,192,128431,1,8,0:0:0:0:
320,192,128431,1,0,0:0:0:0:
192,192,128548,1,0,0:0:0:0:
320,192,128665,1,0,0:0:0:0:
64,192,128782,1,0,0:0:0:0:
448,192,128900,1,2,0:0:0:0:
192,192,128900,1,0,0:0:0:0:
320,192,129017,1,0,0:0:0:0:
192,192,129134,1,0,0:0:0:0:
64,192,129251,1,0,0:0:0:0:
448,192,129368,1,8,0:0:0:0:
320,192,129368,1,0,0:0:0:0:
192,192,129485,1,0,0:0:0:0:
448,192,129603,1,0,0:0:0:0:
64,192,129720,1,2,0:0:0:0:
320,192,129720,1,0,0:0:0:0:
192,192,129954,1,0,0:0:0:0:
448,192,130071,1,2,0:0:0:0:
64,192,130071,1,0,0:0:0:0:
320,192,130189,1,0,0:0:0:0:
64,192,130306,1,8,0:0:0:0:
192,192,130306,1,0,0:0:0:0:
448,192,130423,1,0,0:0:0:0:
64,192,130540,1,0,0:0:0:0:
320,192,130657,1,0,0:0:0:0:
448,192,130775,1,2,0:0:0:0:
192,192,130775,1,0,0:0:0:0:
64,192,130892,1,0,0:0:0:0:
320,192,131009,1,0,0:0:0:0:
192,192,131126,1,0,0:0:0:0:
320,192,131243,1,8,0:0:0:0:
64,192,131243,1,0,0:0:0:0:
448,192,131360,1,0,0:0:0:0:
192,192,131478,1,0,0:0:0:0:
448,192,131595,1,2,0:0:0:0:
320,192,131595,1,0,0:0:0:0:
64,192,131829,1,0,0:0:0:0:
448,192,131946,1,2,0:0:0:0:
192,192,131946,1,0,0:0:0:0:
320,192,132064,1,0,0:0:0:0:
64,192,132181,1,8,0:0:0:0:
192,192,132181,1,0,0:0:0:0:
448,192,132298,1,0,0:0:0:0:
64,192,132415,1,0,0:0:0:0:
192,192,132532,1,0,0:0:0:0:
448,192,132650,1,2,0:0:0:0:
320,192,132650,1,0,0:0:0:0:
64,192,132767,1,0,0:0:0:0:
192,192,132884,1,0,0:0:0:0:
448,192,133001,1,0,0:0:0:0:
192,192,133118,1,8,0:0:0:0:
320,192,133118,1,0,0:0:0:0:
64,192,133235,1,0,0:0:0:0:
448,192,133353,1,0,0:0:0:0:
64,192,133470,1,2,0:0:0:0:
192,192,133470,1,0,0:0:0:0:
448,192,133704,1,0,0:0:0:0:
320,192,133821,1,2,0:0:0:0:
64,192,133821,1,0,0:0:0:0:
192,192,133939,1,0,0:0:0:0:
320,192,134056,1,8,0:0:0:0:
448,192,134056,1,0,0:0:0:0:
64,192,134173,1,0,0:0:0:0:
448,192,134290,1,0,0:0:0:0:
320,192,134349,1,0,0:0:0:0:
192,192,134407,1,0,0:0:0:0:
64,192,134466,1,0,0:0:0:0:
448,192,134525,1,10,0:0:0:0:
320,192,134525,1,8,0:0:0:0:
192,192,134642,1,0,0:0:0:0:
64,192,134759,1,0,0:0:0:0:
448,192,134876,1,8,0:0:0:0:
320,192,134876,1,0,0:0:0:0:
192,192,135110,1,0,0:0:0:0:
448,192,135228,1,8,0:0:0:0:
320,192,135228,1,0,0:0:0:0:
64,192,135345,1,2,0:0:0:0:
192,192,135403,1,2,0:0:0:0:
448,192,135462,1,8,0:0:0:0:
320,192,135462,1,2,0:0:0:0:
64,192,135579,1,0,0:0:0:0:
192,192,135696,1,0,0:0:0:0:
448,192,135814,1,8,0:0:0:0:
320,192,135814,1,2,0:0:0:0:
64,192,136048,1,0,0:0:0:0:
448,192,136165,1,10,0:0:0:0:
320,192,136165,1,8,0:0:0:0:
192,192,136282,1,0,0:0:0:0:
448,192,136400,128,6,136634:0:0:0:70:push_scratch.wav
64,192,136400,1,6,0:0:0:0:
320,192,136634,1,0,0:0:0:0:
192,192,136751,128,0,136985:0:0:0:0:
64,192,136985,1,0,0:0:0:0:
320,192,137103,128,0,137337:0:0:0:0:
192,192,137337,1,0,0:0:0:0:
448,192,137454,128,0,137689:0:0:0:0:
320,192,137689,1,0,0:0:0:0:
64,192,137806,128,0,138040:0:0:0:50:Clap.wav
192,192,138040,1,0,0:0:0:0:
320,192,138157,128,0,138392:0:0:0:0:
64,192,138392,1,0,0:0:0:0:
448,192,138509,128,0,138743:0:0:0:0:
192,192,138743,1,0,0:0:0:50:Clap.wav
320,192,138860,128,0,139095:0:0:0:0:
64,192,139095,1,0,0:0:0:0:
192,192,139212,128,0,139446:0:0:0:0:
448,192,139446,1,0,0:0:0:0:
64,192,139564,128,0,139798:0:0:0:0:
320,192,139798,1,0,0:0:0:0:
192,192,139915,128,0,140150:0:0:0:0:
448,192,140150,1,0,0:0:0:0:
320,192,140267,128,0,140501:0:0:0:0:
192,192,140501,1,0,0:0:0:0:
64,192,140618,128,0,140853:0:0:0:50:Clap.wav
448,192,140853,1,0,0:0:0:0:
192,192,140970,128,0,141204:0:0:0:0:
448,192,141204,1,0,0:0:0:0:
320,192,141321,128,0,141556:0:0:0:0:
448,192,141556,1,0,0:0:0:50:Clap.wav
64,192,141673,128,0,141907:0:0:0:0:
448,192,141907,1,0,0:0:0:0:
192,192,142025,128,0,142259:0:0:0:0:
448,192,142259,1,0,0:0:0:0:
320,192,142376,128,0,142610:0:0:0:0:
192,192,142610,1,0,0:0:0:0:
448,192,142728,128,0,142962:0:0:0:0:
320,192,142962,1,0,0:0:0:0:
192,192,143079,128,0,143314:0:0:0:0:
448,192,143314,1,0,0:0:0:0:
64,192,143431,128,0,143665:0:0:0:50:Clap.wav
192,192,143665,1,0,0:0:0:0:
320,192,143782,128,0,144017:0:0:0:0:
64,192,144017,1,0,0:0:0:0:
448,192,144134,128,0,144368:0:0:0:0:
192,192,144368,1,0,0:0:0:50:Clap.wav
64,192,144485,128,0,144720:0:0:0:0:
320,192,144720,1,0,0:0:0:0:
192,192,144837,128,0,145071:0:0:0:0:
448,192,145071,1,0,0:0:0:0:
320,192,145189,128,0,145423:0:0:0:0:
64,192,145423,1,0,0:0:0:0:
448,192,145540,128,0,145775:0:0:0:0:
320,192,145775,1,0,0:0:0:0:
64,192,145892,128,0,146126:0:0:0:0:
448,192,146126,1,0,0:0:0:0:
192,192,146243,128,0,146478:0:0:0:50:Clap.wav
64,192,146478,1,0,0:0:0:0:
320,192,146595,128,0,146829:0:0:0:0:
192,192,146829,1,0,0:0:0:0:
448,192,146946,128,0,147181:0:0:0:0:
192,192,147181,1,0,0:0:0:50:Clap.wav
64,192,147298,128,0,147532:0:0:0:0:
192,192,147532,1,0,0:0:0:0:
320,192,147650,128,0,147884:0:0:0:0:
192,192,147884,1,0,0:0:0:0:
448,192,148001,128,0,148235:0:0:0:0:
192,192,148235,1,0,0:0:0:0:
64,192,148353,128,0,148587:0:0:0:0:
320,192,148587,1,0,0:0:0:0:
192,192,148704,128,0,148939:0:0:0:0:
448,192,148939,1,0,0:0:0:0:
320,192,149056,128,0,149290:0:0:0:50:Clap.wav
64,192,149290,1,0,0:0:0:0:
448,192,149407,128,0,149642:0:0:0:0:
192,192,149642,1,0,0:0:0:0:
320,192,149759,128,0,149993:0:0:0:0:
448,192,149993,1,0,0:0:0:50:Clap.wav
64,192,150110,128,0,150345:0:0:0:0:
320,192,150345,1,0,0:0:0:0:
192,192,150462,128,0,150696:0:0:0:0:
64,192,150696,1,0,0:0:0:0:
320,192,150814,128,0,150931:0:0:0:0:
64,192,150931,128,0,151048:0:0:0:50:Clap.wav
192,192,151048,128,0,151165:0:0:0:0:
448,192,151165,128,0,151282:0:0:0:0:
64,192,151282,128,0,151400:0:0:0:0:
320,192,151400,1,0,0:0:0:50:S.wav
192,192,151400,1,0,0:0:0:0:
448,192,151634,1,2,0:0:0:0:
64,192,151634,1,0,0:0:0:0:
448,192,151868,1,0,0:0:0:50:Clap.wav
320,192,151868,1,0,0:0:0:50:S.wav
64,192,152103,1,2,0:0:0:0:
192,192,152103,1,0,0:0:0:0:
320,192,152337,1,0,0:0:0:50:S.wav
64,192,152337,1,0,0:0:0:0:
448,192,152571,1,2,0:0:0:0:
192,192,152571,1,0,0:0:0:0:
448,192,152806,1,0,0:0:0:50:Clap.wav
64,192,152806,1,0,0:0:0:50:S.wav
192,192,153040,1,2,0:0:0:0:
320,192,153040,1,0,0:0:0:0:
64,192,153275,1,0,0:0:0:50:S.wav
192,192,153275,1,0,0:0:0:0:
448,192,153509,1,2,0:0:0:0:
320,192,153509,1,0,0:0:0:0:
64,192,153743,1,0,0:0:0:50:Clap.wav
320,192,153743,1,0,0:0:0:50:S.wav
448,192,153978,1,2,0:0:0:0:
192,192,153978,1,0,0:0:0:0:
64,192,154212,1,0,0:0:0:50:S.wav
192,192,154212,1,0,0:0:0:0:
448,192,154446,1,2,0:0:0:0:
320,192,154446,1,0,0:0:0:0:
448,192,154681,1,0,0:0:0:50:Clap.wav
64,192,154681,1,0,0:0:0:50:S.wav
320,192,154915,1,2,0:0:0:0:
192,192,154915,1,0,0:0:0:0:
448,192,155150,1,0,0:0:0:50:S.wav
192,192,155150,1,0,0:0:0:0:
64,192,155384,1,2,0:0:0:0:
320,192,155384,1,0,0:0:0:0:
448,192,155618,1,0,0:0:0:50:Clap.wav
64,192,155618,1,0,0:0:0:50:S.wav
320,192,155853,1,2,0:0:0:0:
192,192,155853,1,0,0:0:0:0:
448,192,156087,1,0,0:0:0:50:S.wav
192,192,156087,1,0,0:0:0:0:
320,192,156321,1,2,0:0:0:0:
64,192,156321,1,0,0:0:0:0:
448,192,156556,1,0,0:0:0:50:Clap.wav
64,192,156556,1,0,0:0:0:50:S.wav
320,192,156790,1,2,0:0:0:0:
192,192,156790,1,0,0:0:0:0:
64,192,157025,1,0,0:0:0:50:S.wav
320,192,157025,1,0,0:0:0:0:
192,192,157259,1,2,0:0:0:0:
448,192,157259,1,0,0:0:0:0:
448,192,157493,1,0,0:0:0:50:Clap.wav
64,192,157493,1,0,0:0:0:50:S.wav
320,192,157728,1,2,0:0:0:0:
192,192,157728,1,0,0:0:0:0:
320,192,157962,1,0,0:0:0:50:S.wav
64,192,157962,1,0,0:0:0:0:
448,192,158196,1,2,0:0:0:0:
192,192,158196,1,0,0:0:0:0:
64,192,158431,1,0,0:0:0:50:Clap.wav
448,192,158431,1,0,0:0:0:50:S.wav
192,192,158665,1,2,0:0:0:0:
320,192,158665,1,0,0:0:0:0:
192,192,158900,1,2,0:0:0:50:S.wav
64,192,158900,1,2,0:0:0:0:
64,192,159134,1,0,0:0:0:50:S.wav
192,192,159134,1,0,0:0:0:0:
320,192,159368,1,2,0:0:0:70:tom01.wav
64,192,159368,1,2,0:0:0:50:Clap.wav
320,192,159603,1,0,0:0:0:50:S.wav
64,192,159603,1,0,0:0:0:0:
320,192,159837,1,2,0:0:0:50:S.wav
192,192,159837,1,2,0:0:0:0:
320,192,160071,1,0,0:0:0:50:S.wav
192,192,160071,1,0,0:0:0:0:
448,192,160306,1,2,0:0:0:70:tom01.wav
192,192,160306,1,2,0:0:0:50:Clap.wav
448,192,160540,1,0,0:0:0:50:S.wav
192,192,160540,1,0,0:0:0:0:
64,192,160775,1,2,0:0:0:50:S.wav
448,192,160775,1,2,0:0:0:0:
64,192,161009,1,0,0:0:0:50:S.wav
448,192,161009,1,0,0:0:0:0:
320,192,161243,1,2,0:0:0:70:tom01.wav
64,192,161243,1,2,0:0:0:50:Clap.wav
64,192,161478,1,0,0:0:0:50:S.wav
320,192,161478,1,0,0:0:0:0:
192,192,161712,1,2,0:0:0:50:S.wav
320,192,161712,1,2,0:0:0:0:
320,192,161946,1,0,0:0:0:50:S.wav
192,192,161946,1,0,0:0:0:0:
192,192,162181,1,2,0:0:0:70:tom01.wav
64,192,162181,1,2,0:0:0:50:Clap.wav
64,192,162415,1,0,0:0:0:50:S.wav
192,192,162415,1,0,0:0:0:0:
448,192,162650,1,2,0:0:0:50:S.wav
320,192,162650,1,0,0:0:0:0:
64,192,162767,1,0,0:0:0:50:S.wav
192,192,162767,1,0,0:0:0:0:
448,192,162884,1,0,0:0:0:50:S.wav
320,192,162884,1,0,0:0:0:0:
64,192,163001,1,0,0:0:0:50:S.wav
192,192,163001,1,0,0:0:0:0:
448,192,163118,1,2,0:0:0:70:tom01.wav
320,192,163118,1,0,0:0:0:50:Clap.wav
192,192,163235,1,0,0:0:0:50:S.wav
64,192,163353,1,0,0:0:0:50:S.wav
448,192,163353,1,0,0:0:0:0:
320,192,163470,1,0,0:0:0:50:S.wav
192,192,163587,1,2,0:0:0:50:S.wav
320,192,163704,1,0,0:0:0:50:S.wav
448,192,163821,128,0,164056:0:0:0:50:S.wav
64,192,163939,128,0,164056:0:0:0:50:S.wav
192,192,164056,1,2,0:0:0:70:tom02.wav
320,192,164173,1,0,0:0:0:50:S.wav
64,192,164290,1,0,0:0:0:50:S.wav
192,192,164349,1,0,0:0:0:0:
320,192,164407,1,0,0:0:0:50:S.wav
448,192,164466,1,0,0:0:0:0:
192,192,164525,128,0,164642:0:0:0:100:LR_Tom Hit.wav
64,192,164525,1,0,0:0:0:50:S.wav
320,192,164642,128,0,164876:0:0:0:70:tom01.wav
64,192,164759,128,0,164876:0:0:0:70:tom02.wav
448,192,164876,1,0,0:0:0:70:tom03.wav
192,192,164876,128,0,164993:0:0:0:0:
320,192,164993,128,0,165110:0:0:0:70:tom04.wav
448,192,165110,128,0,165345:0:0:0:0:
192,192,165228,128,0,165345:0:0:0:70:tom04.wav
64,192,165345,128,0,165579:0:0:0:0:
320,192,165462,128,0,165814:0:0:0:0:
448,192,165579,128,0,165814:0:0:0:50:S.wav
192,192,165696,128,8,165931:0:0:0:0:
64,192,165814,128,0,165931:0:0:0:70:K.wav
448,192,165931,1,2,0:0:0:100:Laurie Webb Dance.wav
320,192,165931,1,0,0:0:0:70:K.wav
192,192,166048,1,0,0:0:0:70:tom02.wav
448,192,166165,128,0,166400:0:0:0:70:LR_Tom Hit.wav
64,192,166165,1,0,0:0:0:0:
320,192,166282,1,0,0:0:0:0:
64,192,166400,128,6,166751:0:0:0:0:
192,192,166400,128,4,166634:0:0:0:0:
320,192,166517,128,0,166634:0:0:0:0:
448,192,166751,128,0,166868:0:0:0:0:
320,192,166868,1,2,0:0:0:0:
192,192,166868,1,0,0:0:0:0:
64,192,166985,1,0,0:0:0:0:
192,192,167044,1,0,0:0:0:0:
448,192,167103,1,0,0:0:0:0:
64,192,167161,1,0,0:0:0:0:
320,192,167220,1,0,0:0:0:0:
448,192,167278,1,0,0:0:0:0:
64,192,167337,1,2,0:0:0:0:
192,192,167337,1,0,0:0:0:0:
320,192,167454,128,0,167571:0:0:0:0:
192,192,167571,1,0,0:0:0:0:
192,192,167689,1,0,0:0:0:0:
448,192,167806,1,2,0:0:0:0:
64,192,167806,1,0,0:0:0:0:
320,192,167923,128,0,168275:0:0:0:0:
192,192,168040,1,0,0:0:0:0:
448,192,168157,128,0,168275:0:0:0:0:
64,192,168275,1,2,0:0:0:0:
192,192,168275,1,0,0:0:0:0:
448,192,168392,128,0,168509:0:0:0:0:
64,192,168509,1,0,0:0:0:0:
64,192,168626,1,0,0:0:0:0:
320,192,168743,1,2,0:0:0:0:
192,192,168743,1,0,0:0:0:0:
448,192,168860,128,0,169212:0:0:0:0:
64,192,168978,1,0,0:0:0:0:
320,192,169095,128,0,169212:0:0:0:0:
64,192,169212,128,2,169329:0:0:0:0:
192,192,169212,1,0,0:0:0:0:
320,192,169329,128,0,169446:0:0:0:0:
192,192,169446,128,0,169564:0:0:0:0:
448,192,169564,128,0,169681:0:0:0:0:
64,192,169681,128,2,170032:0:0:0:0:
320,192,169681,128,0,169915:0:0:0:0:
192,192,169915,128,0,170032:0:0:0:0:
448,192,170150,128,2,170501:0:0:0:0:
320,192,170150,128,0,170384:0:0:0:0:
192,192,170267,128,0,170384:0:0:0:0:
64,192,170501,128,0,170618:0:0:0:0:
192,192,170618,1,2,0:0:0:0:
320,192,170618,1,0,0:0:0:0:
448,192,170735,1,0,0:0:0:0:
320,192,170794,1,0,0:0:0:0:
64,192,170853,1,0,0:0:0:0:
448,192,170911,1,0,0:0:0:0:
192,192,170970,1,0,0:0:0:0:
64,192,171028,1,0,0:0:0:0:
448,192,171087,1,2,0:0:0:0:
320,192,171087,1,0,0:0:0:0:
192,192,171204,128,0,171321:0:0:0:0:
320,192,171321,1,0,0:0:0:0:
320,192,171439,1,0,0:0:0:0:
64,192,171556,1,2,0:0:0:0:
448,192,171556,1,0,0:0:0:0:
192,192,171673,128,0,172025:0:0:0:0:
320,192,171790,1,0,0:0:0:0:
64,192,171907,128,0,172025:0:0:0:0:
448,192,172025,1,2,0:0:0:0:
320,192,172025,1,0,0:0:0:0:
64,192,172142,128,0,172259:0:0:0:0:
448,192,172259,1,0,0:0:0:0:
448,192,172376,1,0,0:0:0:0:
192,192,172493,1,2,0:0:0:0:
320,192,172493,1,0,0:0:0:0:
64,192,172610,128,0,172962:0:0:0:0:
448,192,172728,1,0,0:0:0:0:
192,192,172845,128,0,172962:0:0:0:0:
320,192,172962,128,2,173196:0:0:0:0:
448,192,172962,128,0,173196:0:0:0:0:
192,192,173314,128,0,173548:0:0:0:0:
320,192,173314,128,0,173548:0:0:0:0:
448,192,173431,1,2,0:0:0:0:
64,192,173431,1,0,0:0:0:0:
192,192,173665,128,0,173782:0:0:0:0:
64,192,173665,128,0,173782:0:0:0:0:
448,192,173900,128,2,174251:0:0:0:0:
64,192,173900,128,0,174251:0:0:0:0:
448,192,174368,128,2,174603:0:0:0:0:
192,192,174368,1,0,0:0:0:0:
64,192,174603,128,0,174837:0:0:0:0:
448,192,174837,1,2,0:0:0:0:
320,192,174837,1,0,0:0:0:0:
192,192,174954,1,0,0:0:0:0:
192,192,175071,1,0,0:0:0:0:
448,192,175189,128,0,175306:0:0:0:0:
64,192,175306,1,2,0:0:0:0:
192,192,175306,1,0,0:0:0:0:
320,192,175423,128,0,175657:0:0:0:0:
448,192,175540,128,0,175775:0:0:0:0:
64,192,175657,128,0,175775:0:0:0:0:
192,192,175775,128,2,176009:0:0:0:0:
320,192,175775,1,0,0:0:0:0:
320,192,176009,128,0,176243:0:0:0:0:
448,192,176243,1,2,0:0:0:0:
64,192,176243,1,0,0:0:0:0:
192,192,176360,128,0,176478:0:0:0:0:
320,192,176478,1,0,0:0:0:0:
320,192,176595,1,0,0:0:0:0:
192,192,176712,1,2,0:0:0:0:
64,192,176712,1,0,0:0:0:0:
448,192,176829,128,0,177064:0:0:0:0:
320,192,176946,128,0,177064:0:0:0:0:
192,192,177064,1,0,0:0:0:0:
64,192,177181,128,2,177415:0:0:0:0:
448,192,177181,1,0,0:0:0:0:
320,192,177415,128,0,177650:0:0:0:0:
192,192,177532,128,0,177650:0:0:0:0:
448,192,177650,128,2,178001:0:0:0:0:
64,192,177650,128,0,178001:0:0:0:0:
64,192,178118,128,2,178353:0:0:0:0:
320,192,178118,1,0,0:0:0:0:
448,192,178353,128,0,178587:0:0:0:0:
64,192,178587,1,2,0:0:0:0:
192,192,178587,1,0,0:0:0:0:
320,192,178704,1,0,0:0:0:0:
320,192,178821,1,0,0:0:0:0:
64,192,178939,128,0,179056:0:0:0:0:
448,192,179056,1,2,0:0:0:0:
320,192,179056,128,0,179173:0:0:0:0:
192,192,179173,128,0,179407:0:0:0:0:
64,192,179290,128,0,179525:0:0:0:0:
448,192,179407,128,0,179525:0:0:0:0:
320,192,179525,128,6,179876:0:0:0:0:
192,192,179525,1,4,0:0:0:0:
448,192,179642,1,0,0:0:0:0:
64,192,179876,1,0,0:0:0:50:S.wav
320,192,179993,128,0,180189:0:0:0:0:
64,192,180189,1,0,0:0:0:0:
192,192,180306,1,0,0:0:0:0:
320,192,180423,1,0,0:0:0:0:
64,192,180462,128,0,180696:0:0:0:0:
192,192,180579,128,0,180931:0:0:0:0:
320,192,180696,128,0,181165:0:0:0:0:
64,192,180814,128,0,181048:0:0:0:0:
448,192,180931,128,0,181400:0:0:0:0:
192,192,181048,128,0,181282:0:0:0:0:
64,192,181165,128,0,181282:0:0:0:0:
320,192,181282,128,0,181400:0:0:0:0:
64,192,181400,128,6,181751:0:0:0:0:
192,192,181400,128,4,181634:0:0:0:0:
448,192,181517,128,0,181634:0:0:0:0:
320,192,181634,1,0,0:0:0:0:
192,192,181751,128,0,181868:0:0:0:0:
320,192,181868,1,2,0:0:0:50:Clap.wav
64,192,181868,1,2,0:0:0:0:
448,192,181985,1,0,0:0:0:0:
192,192,182044,1,0,0:0:0:0:
64,192,182103,1,0,0:0:0:0:
448,192,182161,1,0,0:0:0:0:
320,192,182220,1,0,0:0:0:0:
192,192,182278,1,0,0:0:0:0:
448,192,182337,128,2,182571:0:0:0:0:
64,192,182337,1,0,0:0:0:0:
192,192,182571,1,0,0:0:0:0:
192,192,182689,1,0,0:0:0:0:
64,192,182806,1,2,0:0:0:50:Clap.wav
448,192,182806,1,2,0:0:0:0:
320,192,182923,128,0,183040:0:0:0:0:
448,192,183040,1,0,0:0:0:0:
320,192,183157,128,0,183275:0:0:0:0:
448,192,183275,1,2,0:0:0:0:
192,192,183275,1,0,0:0:0:0:
64,192,183392,128,0,183509:0:0:0:0:
320,192,183509,1,0,0:0:0:0:
320,192,183626,1,0,0:0:0:0:
64,192,183743,1,2,0:0:0:50:Clap.wav
448,192,183743,1,2,0:0:0:0:
192,192,183860,128,0,183978:0:0:0:0:
64,192,183978,1,0,0:0:0:0:
192,192,184095,128,0,184212:0:0:0:0:
448,192,184212,128,2,184329:0:0:0:0:
64,192,184212,1,0,0:0:0:0:
320,192,184329,128,0,184446:0:0:0:0:
192,192,184446,128,0,184564:0:0:0:0:
64,192,184564,128,0,184681:0:0:0:0:
192,192,184681,128,2,184915:0:0:0:50:Clap.wav
320,192,184681,128,2,185032:0:0:0:0:
448,192,184798,1,0,0:0:0:0:
64,192,184915,1,0,0:0:0:0:
192,192,185032,1,0,0:0:0:0:
448,192,185150,128,2,185501:0:0:0:0:
320,192,185150,128,0,185384:0:0:0:0:
64,192,185267,128,0,185384:0:0:0:0:
192,192,185384,1,0,0:0:0:0:
320,192,185501,128,0,185618:0:0:0:0:
64,192,185618,1,2,0:0:0:50:Clap.wav
448,192,185618,1,2,0:0:0:0:
192,192,185735,1,0,0:0:0:0:
320,192,185794,1,0,0:0:0:0:
448,192,185853,1,0,0:0:0:0:
64,192,185911,1,0,0:0:0:0:
320,192,185970,1,0,0:0:0:0:
448,192,186028,1,0,0:0:0:0:
192,192,186087,128,2,186321:0:0:0:0:
64,192,186087,1,0,0:0:0:0:
448,192,186321,1,0,0:0:0:0:
448,192,186439,1,0,0:0:0:0:
192,192,186556,1,2,0:0:0:50:Clap.wav
320,192,186556,1,2,0:0:0:0:
64,192,186673,128,0,186790:0:0:0:0:
192,192,186790,1,0,0:0:0:0:
64,192,186907,128,0,187025:0:0:0:0:
448,192,187025,1,2,0:0:0:0:
192,192,187025,1,0,0:0:0:0:
320,192,187142,128,0,187259:0:0:0:0:
64,192,187259,1,0,0:0:0:0:
64,192,187376,1,0,0:0:0:0:
320,192,187493,1,2,0:0:0:50:Clap.wav
192,192,187493,1,2,0:0:0:0:
448,192,187610,128,0,187728:0:0:0:0:
320,192,187728,1,0,0:0:0:0:
448,192,187845,128,0,187962:0:0:0:0:
64,192,187845,1,0,0:0:0:0:
192,192,187962,128,2,188196:0:0:0:0:
320,192,187962,128,0,188196:0:0:0:0:
448,192,188196,1,0,0:0:0:0:
64,192,188196,1,0,0:0:0:0:
192,192,188314,128,0,188548:0:0:0:0:
320,192,188314,128,0,188548:0:0:0:0:
64,192,188431,1,2,0:0:0:50:Clap.wav
448,192,188431,1,2,0:0:0:0:
320,192,188665,128,0,188782:0:0:0:0:
192,192,188665,128,0,188782:0:0:0:0:
64,192,188900,128,2,189134:0:0:0:0:
192,192,188900,128,0,189251:0:0:0:0:
320,192,189017,1,0,0:0:0:0:
448,192,189134,1,0,0:0:0:0:
64,192,189251,1,0,0:0:0:0:
448,192,189368,128,2,189603:0:0:0:50:Clap.wav
192,192,189368,1,2,0:0:0:0:
320,192,189485,1,0,0:0:0:0:
64,192,189603,128,0,189837:0:0:0:0:
192,192,189720,1,0,0:0:0:0:
448,192,189837,1,2,0:0:0:0:
320,192,189837,1,0,0:0:0:0:
192,192,189954,1,0,0:0:0:0:
192,192,190071,1,0,0:0:0:0:
448,192,190189,128,0,190306:0:0:0:0:
320,192,190306,1,2,0:0:0:50:Clap.wav
64,192,190306,1,2,0:0:0:0:
192,192,190423,128,0,190657:0:0:0:0:
320,192,190540,128,0,190775:0:0:0:0:
448,192,190657,128,0,190775:0:0:0:0:
64,192,190775,128,2,191009:0:0:0:0:
192,192,190775,1,0,0:0:0:0:
320,192,190892,1,0,0:0:0:0:
448,192,191009,128,0,191243:0:0:0:0:
192,192,191126,1,0,0:0:0:0:
64,192,191243,1,2,0:0:0:50:Clap.wav
320,192,191243,1,2,0:0:0:0:
192,192,191360,128,0,191478:0:0:0:0:
448,192,191478,1,0,0:0:0:0:
448,192,191595,1,0,0:0:0:0:
64,192,191712,1,2,0:0:0:0:
192,192,191712,1,0,0:0:0:0:
320,192,191829,128,0,192064:0:0:0:0:
192,192,191946,128,0,192064:0:0:0:0:
64,192,192064,1,0,0:0:0:0:
448,192,192181,128,2,192415:0:0:0:50:Clap.wav
320,192,192181,1,2,0:0:0:0:
192,192,192298,1,0,0:0:0:0:
320,192,192415,128,0,192650:0:0:0:0:
448,192,192532,128,0,192650:0:0:0:0:
64,192,192650,128,6,192884:0:0:0:0:
192,192,192650,128,4,193001:0:0:0:0:
320,192,192767,1,0,0:0:0:0:
448,192,192884,1,0,0:0:0:0:
320,192,193001,1,2,0:0:0:0:
64,192,193001,1,0,0:0:0:0:
448,192,193118,1,0,0:0:0:50:Clap.wav
192,192,193118,1,0,0:0:0:0:
64,192,193235,1,0,0:0:0:0:
320,192,193353,128,2,193587:0:0:0:0:
448,192,193353,1,0,0:0:0:0:
192,192,193470,128,0,193587:0:0:0:0:
64,192,193587,1,0,0:0:0:0:
448,192,193704,1,2,0:0:0:0:
320,192,193704,1,0,0:0:0:0:
192,192,193821,1,0,0:0:0:0:
448,192,193939,128,0,194056:0:0:0:0:
64,192,194056,1,2,0:0:0:50:Clap.wav
320,192,194056,1,2,0:0:0:0:
192,192,194173,128,0,194290:0:0:0:0:
320,192,194290,128,0,194525:0:0:0:0:
448,192,194407,1,0,0:0:0:0:
64,192,194525,1,6,0:0:0:70:push_scratch.wav
192,192,194525,1,6,0:0:0:0:
448,192,194759,128,0,194993:0:0:0:0:
64,192,194993,1,0,0:0:0:0:
192,192,195110,1,0,0:0:0:0:
448,192,195345,1,0,0:0:0:0:
320,192,195462,1,0,0:0:0:0:
192,192,195462,1,0,0:0:0:0:
192,192,195696,1,0,0:0:0:0:
64,192,195696,1,0,0:0:0:0:
320,192,195814,1,0,0:0:0:70:K.wav
448,192,195931,1,2,0:0:0:70:K.wav
64,192,195931,1,2,0:0:0:0:
192,192,196048,1,0,0:0:0:70:tom02.wav
448,192,196165,1,0,0:0:0:70:tom03.wav
320,192,196165,1,0,0:0:0:0:
192,192,196282,1,0,0:0:0:0:
448,192,196400,1,6,0:0:0:0:
64,192,196400,1,4,0:0:0:0:
320,192,196517,1,0,0:0:0:0:
192,192,196634,1,0,0:0:0:0:
64,192,196751,1,0,0:0:0:0:
448,192,196868,1,8,0:0:0:0:
320,192,196868,1,0,0:0:0:0:
192,192,196985,1,0,0:0:0:0:
448,192,197103,1,0,0:0:0:0:
64,192,197220,1,2,0:0:0:0:
320,192,197220,1,0,0:0:0:0:
192,192,197454,1,0,0:0:0:0:
448,192,197571,1,2,0:0:0:0:
320,192,197571,1,0,0:0:0:0:
64,192,197689,1,0,0:0:0:0:
448,192,197806,1,8,0:0:0:0:
192,192,197806,1,0,0:0:0:0:
320,192,197923,1,0,0:0:0:0:
64,192,198040,1,0,0:0:0:0:
448,192,198157,1,0,0:0:0:0:
192,192,198275,1,2,0:0:0:0:
320,192,198275,1,0,0:0:0:0:
64,192,198392,1,0,0:0:0:0:
448,192,198509,1,0,0:0:0:0:
192,192,198626,1,0,0:0:0:0:
64,192,198743,1,8,0:0:0:0:
320,192,198743,1,0,0:0:0:0:
448,192,198860,1,0,0:0:0:0:
192,192,198978,1,0,0:0:0:0:
448,192,199095,1,2,0:0:0:0:
64,192,199095,1,0,0:0:0:0:
320,192,199329,1,0,0:0:0:0:
64,192,199446,1,2,0:0:0:0:
192,192,199446,1,0,0:0:0:0:
448,192,199564,1,0,0:0:0:0:
64,192,199681,1,8,0:0:0:0:
320,192,199681,1,0,0:0:0:0:
192,192,199798,1,0,0:0:0:0:
448,192,199915,1,0,0:0:0:0:
64,192,200032,1,0,0:0:0:0:
448,192,200150,1,2,0:0:0:0:
192,192,200150,1,0,0:0:0:0:
320,192,200267,1,0,0:0:0:0:
64,192,200384,1,0,0:0:0:0:
448,192,200501,1,0,0:0:0:0:
192,192,200618,1,8,0:0:0:0:
320,192,200618,1,0,0:0:0:0:
64,192,200735,1,0,0:0:0:0:
448,192,200853,1,0,0:0:0:0:
64,192,200970,1,2,0:0:0:0:
192,192,200970,1,0,0:0:0:0:
320,192,201204,1,0,0:0:0:0:
448,192,201321,1,2,0:0:0:0:
64,192,201321,1,0,0:0:0:0:
192,192,201439,1,0,0:0:0:0:
448,192,201556,1,8,0:0:0:0:
320,192,201556,1,0,0:0:0:0:
64,192,201673,1,0,0:0:0:0:
192,192,201790,1,0,0:0:0:0:
448,192,201907,1,0,0:0:0:0:
320,192,202025,1,2,0:0:0:0:
64,192,202025,1,0,0:0:0:0:
192,192,202142,1,0,0:0:0:0:
448,192,202259,1,0,0:0:0:0:
64,192,202376,1,0,0:0:0:0:
320,192,202493,1,8,0:0:0:0:
192,192,202493,1,0,0:0:0:0:
448,192,202610,1,0,0:0:0:0:
192,192,202728,1,0,0:0:0:0:
320,192,202845,1,2,0:0:0:0:
64,192,202845,1,0,0:0:0:0:
448,192,203079,1,0,0:0:0:0:
192,192,203196,1,2,0:0:0:0:
320,192,203196,1,0,0:0:0:0:
64,192,203314,1,0,0:0:0:0:
448,192,203431,1,8,0:0:0:0:
320,192,203431,1,0,0:0:0:0:
192,192,203548,1,0,0:0:0:0:
64,192,203665,1,0,0:0:0:0:
448,192,203782,1,0,0:0:0:0:
64,192,203900,1,2,0:0:0:0:
320,192,203900,1,0,0:0:0:0:
192,192,204017,1,0,0:0:0:0:
448,192,204134,1,0,0:0:0:0:
64,192,204251,1,0,0:0:0:0:
320,192,204368,1,8,0:0:0:0:
192,192,204368,1,0,0:0:0:0:
448,192,204485,1,0,0:0:0:0:
64,192,204603,1,0,0:0:0:0:
448,192,204720,1,2,0:0:0:0:
320,192,204720,1,0,0:0:0:0:
192,192,204954,1,0,0:0:0:0:
448,192,205071,1,2,0:0:0:0:
64,192,205071,1,0,0:0:0:0:
320,192,205189,1,0,0:0:0:0:
64,192,205306,1,8,0:0:0:0:
192,192,205306,1,0,0:0:0:0:
448,192,205423,1,0,0:0:0:0:
320,192,205540,1,0,0:0:0:0:
64,192,205657,1,0,0:0:0:0:
192,192,205775,1,2,0:0:0:0:
448,192,205775,1,0,0:0:0:0:
320,192,205892,1,0,0:0:0:0:
64,192,206009,1,0,0:0:0:0:
448,192,206126,1,0,0:0:0:0:
64,192,206243,1,8,0:0:0:0:
192,192,206243,1,0,0:0:0:0:
320,192,206360,1,0,0:0:0:0:
192,192,206478,1,0,0:0:0:0:
448,192,206595,1,2,0:0:0:0:
64,192,206595,1,0,0:0:0:0:
320,192,206829,1,0,0:0:0:0:
192,192,206946,1,2,0:0:0:0:
448,192,207064,1,0,0:0:0:0:
64,192,207181,1,8,0:0:0:0:
320,192,207181,1,0,0:0:0:0:
192,192,207298,1,0,0:0:0:0:
320,192,207415,1,0,0:0:0:0:
448,192,207532,1,0,0:0:0:0:
64,192,207650,1,2,0:0:0:0:
192,192,207650,1,0,0:0:0:0:
320,192,207767,1,0,0:0:0:0:
64,192,207884,1,0,0:0:0:0:
192,192,208001,1,0,0:0:0:0:
448,192,208118,1,8,0:0:0:0:
320,192,208118,1,0,0:0:0:0:
64,192,208235,1,0,0:0:0:0:
448,192,208353,1,0,0:0:0:0:
320,192,208470,1,2,0:0:0:0:
192,192,208470,1,0,0:0:0:0:
64,192,208704,1,0,0:0:0:0:
192,192,208821,1,2,0:0:0:0:
320,192,208821,1,0,0:0:0:0:
448,192,208939,1,0,0:0:0:0:
192,192,209056,1,8,0:0:0:0:
64,192,209056,1,0,0:0:0:0:
320,192,209173,1,0,0:0:0:0:
64,192,209290,1,0,0:0:0:0:
192,192,209349,1,0,0:0:0:0:
320,192,209407,1,0,0:0:0:0:
448,192,209466,1,0,0:0:0:0:
64,192,209525,1,8,0:0:0:0:
192,192,209525,1,2,0:0:0:0:
320,192,209642,1,0,0:0:0:0:
448,192,209759,1,0,0:0:0:0:
64,192,209876,1,8,0:0:0:0:
192,192,209876,1,0,0:0:0:0:
320,192,210110,1,0,0:0:0:0:
64,192,210228,1,8,0:0:0:0:
192,192,210228,1,0,0:0:0:0:
448,192,210345,1,2,0:0:0:0:
320,192,210403,1,2,0:0:0:0:
64,192,210462,1,8,0:0:0:0:
192,192,210462,1,2,0:0:0:0:
448,192,210579,1,0,0:0:0:0:
320,192,210696,1,0,0:0:0:0:
64,192,210814,1,8,0:0:0:0:
192,192,210814,1,2,0:0:0:0:
320,192,211048,1,0,0:0:0:0:
64,192,211165,1,10,0:0:0:0:
192,192,211165,1,8,0:0:0:0:
448,192,211282,1,0,0:0:0:0:
320,192,211400,1,6,0:0:0:70:push_scratch.wav
64,192,211400,1,4,0:0:0:0:
192,192,212337,1,0,0:0:0:0:
320,192,212689,1,0,0:0:0:0:
64,192,213040,1,0,0:0:0:0:
192,192,214212,1,0,0:0:0:0:
320,192,214564,1,0,0:0:0:0:
192,192,214915,1,0,0:0:0:0:
320,192,216087,1,0,0:0:0:0:
448,192,216439,1,0,0:0:0:0:
192,192,216790,1,0,0:0:0:0:
64,192,217962,1,0,0:0:0:0:
192,192,218079,1,0,0:0:0:0:
320,192,218314,1,0,0:0:0:0:
448,192,218548,1,0,0:0:0:0:
192,192,218900,1,0,0:0:0:0:
64,192,219251,1,0,0:0:0:0:
448,192,219603,1,0,0:0:0:0:
320,192,219954,1,0,0:0:0:0:
64,192,220306,1,0,0:0:0:50:Clap.wav
192,192,220657,1,0,0:0:0:0:
320,192,221712,1,0,0:0:0:0:
448,192,222064,1,0,0:0:0:0:
320,192,222415,1,0,0:0:0:0:
64,192,223587,1,0,0:0:0:0:
192,192,223939,1,0,0:0:0:0:
320,192,224290,1,0,0:0:0:0:
64,192,224993,1,0,0:0:0:50:Clap.wav
448,192,225228,1,0,0:0:0:0:
192,192,226400,1,0,0:0:0:0:
448,192,227337,1,0,0:0:0:0:
192,192,227689,1,0,0:0:0:0:
448,192,228040,1,0,0:0:0:0:
320,192,229212,1,0,0:0:0:0:
64,192,229564,1,0,0:0:0:0:
320,192,229915,1,0,0:0:0:0:
64,192,231087,1,0,0:0:0:0:
320,192,231439,1,0,0:0:0:0:
448,192,231790,1,0,0:0:0:0:
192,192,232259,1,0,0:0:0:0:
320,192,232728,1,0,0:0:0:0:
64,192,233196,1,0,0:0:0:0:
320,192,234134,1,0,0:0:0:0:
320,192,234368,1,0,0:0:0:0:
192,192,234485,1,0,0:0:0:0:
320,192,234837,1,0,0:0:0:0:
448,192,235189,1,0,0:0:0:0:
64,192,235540,1,0,0:0:0:0:
448,192,236009,1,0,0:0:0:0:
192,192,236946,1,0,0:0:0:0:
448,192,237298,1,0,0:0:0:0:
320,192,237415,1,0,0:0:0:0:
64,192,237532,1,0,0:0:0:0:
64,192,237884,1,0,0:0:0:0:
64,192,238118,1,0,0:0:0:0:
448,192,238235,1,0,0:0:0:0:
64,192,238587,1,0,0:0:0:0:
320,192,238939,1,0,0:0:0:0:
448,192,239290,1,0,0:0:0:0:
320,192,239759,1,0,0:0:0:0:
320,192,241400,1,0,0:0:0:0:
192,192,242337,1,0,0:0:0:0:
64,192,242689,1,0,0:0:0:0:
192,192,243040,1,0,0:0:0:0:
64,192,244212,1,0,0:0:0:0:
448,192,244564,1,0,0:0:0:0:
64,192,244915,1,0,0:0:0:0:
448,192,246087,1,0,0:0:0:0:
64,192,246439,1,0,0:0:0:0:
192,192,246790,1,0,0:0:0:0:
320,192,247259,1,0,0:0:0:0:
448,192,247728,1,0,0:0:0:0:
64,192,248196,1,0,0:0:0:0:
192,192,249134,1,0,0:0:0:0:
192,192,249368,1,0,0:0:0:0:
64,192,249485,1,0,0:0:0:0:
192,192,249837,1,0,0:0:0:0:
320,192,250189,1,0,0:0:0:0:
448,192,250540,1,0,0:0:0:0:
320,192,251009,128,0,256400:0:0:0:0:
192,192,254759,128,0,256400:0:0:0:0:
