osu file format v14

[General]
AudioFilename: audio.mp3
AudioLeadIn: 0
PreviewTime: 166380
Countdown: 0
SampleSet: Soft
StackLeniency: 0.7
Mode: 0
LetterboxInBreaks: 0
WidescreenStoryboard: 1

[Editor]
Bookmarks: 16380,31380,76380,106380,136380,166380,196380,211380
DistanceSpacing: 1
BeatDivisor: 4
GridSize: 4
TimelineZoom: 1

[Metadata]
Title:Artificial Snow
TitleUnicode:Artificial Snow
Artist:Camellia
ArtistUnicode:Camellia
Creator:Adore
Version:Precipitance
Source:
Tags:Planet//shaper drumstep electronic kamelcamellia cametek girlsu dnb dubstep drumstep drum and bass
BeatmapID:1157264
BeatmapSetID:546333

[Difficulty]
HPDrainRate:5
CircleSize:4
OverallDifficulty:8
ApproachRate:9.7
SliderMultiplier:2.6
SliderTickRate:1

[Events]
//Background and Video events
0,0,"Gemi.png",0,0
//Break Periods
2,46580,60885
2,136579,150885
//Storyboard Layer 0 (Background)
//Storyboard Layer 1 (Fail)
//Storyboard Layer 2 (Pass)
//Storyboard Layer 3 (Foreground)
//Storyboard Sound Samples

[TimingPoints]
1380,468.75,4,2,1,70,1,0
16380,-1600,4,2,1,70,0,0
30442,-66.6666666666667,4,2,1,70,0,0
31380,-200,4,2,1,70,0,0
44270,-133.333333333333,4,2,1,70,0,0
44505,-66.6666666666667,4,2,1,70,0,0
61380,-133.333333333333,4,2,1,70,0,0
72630,-50,4,2,1,70,0,0
73801,-100,4,2,1,70,0,0
74036,-40,4,2,1,70,0,0
76145,-100,4,2,1,70,0,0
76380,-66.6666666666667,4,2,1,70,0,1
77317,-50,4,2,1,70,0,1
77551,-66.6666666666667,4,2,1,70,0,1
77786,-50,4,2,1,70,0,1
78020,-66.6666666666667,4,2,1,70,0,1
79192,-100,4,2,1,70,0,1
79426,-66.6666666666667,4,2,1,70,0,1
80130,-66.6666666666667,4,2,1,70,0,1
81067,-50,4,2,1,70,0,1
81301,-66.6666666666667,4,2,1,70,0,1
81536,-50,4,2,1,70,0,1
82942,-80,4,2,1,70,0,1
83880,-66.6666666666667,4,2,1,70,0,1
84348,-50,4,2,1,70,0,1
84817,-66.6666666666667,4,2,1,70,0,1
85403,-50,4,2,1,70,0,1
85755,-100,4,2,1,70,0,1
85989,-50,4,2,1,70,0,1
86692,-100,4,2,1,70,0,1
87161,-50,4,2,1,70,0,1
87630,-66.6666666666667,4,2,1,70,0,1
88098,-50,4,2,1,70,0,1
88919,-200,4,2,1,70,0,1
89153,-66.6666666666667,4,2,1,70,0,1
89505,-100,4,2,1,70,0,1
90442,-50,4,2,1,70,0,1
91380,-66.6666666666667,4,2,1,70,0,1
92317,-50,4,2,1,70,0,1
92551,-66.6666666666667,4,2,1,70,0,1
92786,-50,4,2,1,70,0,1
93020,-66.6666666666667,4,2,1,70,0,1
93255,-50,4,2,1,70,0,1
94192,-100,4,2,1,70,0,1
94426,-66.6666666666667,4,2,1,70,0,1
94661,-50,4,2,1,70,0,1
95130,-66.6666666666667,4,2,1,70,0,1
95598,-66.6666666666667,4,2,1,70,0,1
96067,-50,4,2,1,70,0,1
97473,-66.6666666666667,4,2,1,70,0,1
97942,-80,4,2,1,70,0,1
98892,-66.6666666666667,4,2,1,70,0,1
99348,-50,4,2,1,70,0,1
100286,-200,4,2,1,70,0,1
100403,-66.6666666666667,4,2,1,70,0,1
100755,-100,4,2,1,70,0,1
100989,-50,4,2,1,70,0,1
101692,-66.6666666666667,4,2,1,70,0,1
102395,-50,4,2,1,70,0,1
103684,-66.6666666666667,4,2,1,70,0,1
104505,-50,4,2,1,70,0,1
104739,-200,4,2,1,70,0,1
106380,-133.333333333333,4,2,1,70,0,0
116458,-100,4,2,1,70,0,0
116809,-133.333333333333,4,2,1,70,0,0
118333,-100,4,2,1,70,0,0
121380,-100,4,2,1,70,0,0
129348,-66.6666666666667,4,2,1,70,0,0
130286,-50,4,2,1,70,0,0
130755,-100,4,2,1,70,0,0
131223,-66.6666666666667,4,2,1,70,0,0
132161,-50,4,2,1,70,0,0
132630,-100,4,2,1,70,0,0
133098,-66.6666666666667,4,2,1,70,0,0
134270,-133.333333333333,4,2,1,70,0,0
134505,-66.6666666666667,4,2,1,70,0,0
135442,-50,4,2,1,70,0,0
136145,-40,4,2,1,70,0,0
136380,-100,4,2,1,70,0,0
162630,-66.6666666666667,4,2,1,70,0,0
162981,-50,4,2,1,70,0,0
163801,-100,4,2,1,70,0,0
164036,-40,4,2,1,70,0,0
166145,-100,4,2,1,70,0,0
166380,-66.6666666666667,4,2,1,70,0,1
167317,-50,4,2,1,70,0,1
169192,-100,4,2,1,70,0,1
169426,-66.6666666666667,4,2,1,70,0,1
170130,-66.6666666666667,4,2,1,70,0,1
170598,-66.6666666666667,4,2,1,70,0,1
171067,-50,4,2,1,70,0,1
172473,-100,4,2,1,70,0,1
172942,-66.6666666666667,4,2,1,70,0,1
173880,-66.6666666666667,4,2,1,70,0,1
174348,-50,4,2,1,70,0,1
174817,-66.6666666666667,4,2,1,70,0,1
175755,-100,4,2,1,70,0,1
175989,-50,4,2,1,70,0,1
176692,-100,4,2,1,70,0,1
177161,-50,4,2,1,70,0,1
177630,-66.6666666666667,4,2,1,70,0,1
178098,-50,4,2,1,70,0,1
178919,-200,4,2,1,70,0,1
179153,-66.6666666666667,4,2,1,70,0,1
179505,-100,4,2,1,70,0,1
180442,-50,4,2,1,70,0,1
180911,-40,4,2,1,70,0,1
181380,-66.6666666666667,4,2,1,70,0,1
182317,-50,4,2,1,70,0,1
184192,-100,4,2,1,70,0,1
184426,-66.6666666666667,4,2,1,70,0,1
186067,-50,4,2,1,70,0,1
186536,-100,4,2,1,70,0,1
187942,-66.6666666666667,4,2,1,70,0,1
188880,-100,4,2,1,70,0,1
189348,-50,4,2,1,70,0,1
190286,-200,4,2,1,70,0,1
190403,-66.6666666666667,4,2,1,70,0,1
190755,-100,4,2,1,70,0,1
190989,-50,4,2,1,70,0,1
191692,-100,4,2,1,70,0,1
192161,-50,4,2,1,70,0,1
192630,-40,4,2,1,70,0,1
193098,-66.6666666666667,4,2,1,70,0,1
194270,-133.333333333333,4,2,1,70,0,1
196380,-100,4,2,1,70,0,0

[Colours]
Combo1 : 204,241,255
Combo2 : 239,141,175
Combo3 : 223,45,227
Combo4 : 255,0,6

[HitObjects]
420,48,16380,6,0,B|372:60|332:40|332:40|360:88|344:136|344:136|288:100|220:128|220:128|236:64|192:24|192:24|152:80|84:76|84:76|140:156|80:232,1,728
17,155,30794,5,0,0:0:0:0:
80,231,30911,2,0,B|42:267|-6:254|-6:254|28:111,1,195.00000743866
48,4,31380,6,0,L|128:24,1,65
296,60,31731,1,0,0:0:0:0:
316,72,31848,2,0,L|236:92,1,65
156,112,32200,2,0,L|140:200,1,65
120,276,32551,1,0,0:0:0:0:
104,260,32669,1,0,0:0:0:0:
20,252,32786,2,0,P|56:240|104:256,1,65
236,208,33255,6,0,L|216:300,1,65
296,372,33606,1,0,0:0:0:0:
320,384,33723,2,0,L|306:320,1,65
348,176,34075,2,0,P|360:208|344:248,1,65
222,271,34426,1,0,0:0:0:0:
202,275,34544,1,0,0:0:0:0:
120,292,34661,2,0,L|204:300,1,65
344,312,35130,6,0,P|332:280|348:240,1,65
436,128,35481,1,0,0:0:0:0:
424,112,35598,2,0,L|336:96,1,65
136,176,35950,2,0,L|224:160,1,65
256,76,36301,1,0,0:0:0:0:
264,96,36419,1,0,0:0:0:0:
208,184,36536,2,0,L|192:268,1,65
216,340,37005,6,0,P|184:352|144:336,1,65
28,308,37356,1,0,0:0:0:0:
40,288,37473,2,0,L|31:223,1,65
120,52,37825,1,0,0:0:0:0:
120,52,37942,5,0,0:0:0:0:
120,52,38059,2,0,L|112:104,1,32.5
192,200,38294,2,0,L|187:167,1,32.5
248,84,38528,2,0,P|288:100|328:84,1,65
420,56,38880,6,0,L|412:128,1,65
364,204,39231,1,0,0:0:0:0:
344,196,39348,2,0,L|352:268,1,65
409,284,39700,2,0,P|353:260|325:268,1,65
184,296,40051,1,0,0:0:0:0:
164,304,40169,1,0,0:0:0:0:
256,248,40286,2,0,P|269:307|257:333,1,65
132,380,40755,6,0,L|144:308,1,65,2|0,0:0|0:0,0:0:0:0:
92,148,41106,1,0,0:0:0:0:
76,164,41223,2,0,L|86:228,1,65,2|0,0:0|0:0,0:0:0:0:
180,172,41575,2,0,P|220:164|260:188,1,65
336,248,41926,1,0,0:0:0:0:
320,232,42044,1,0,0:0:0:0:
288,320,42161,2,0,P|248:328|208:304,1,65
136,272,42630,6,0,L|124:352,1,65
36,204,42981,1,0,0:0:0:0:
60,220,43098,2,0,L|50:155,1,65
132,112,43450,2,0,L|141:47,1,65
268,24,43801,2,0,L|212:32,1,32.5
216,148,44036,2,0,L|267:171,1,32.5
352,52,44270,6,0,L|388:48,1,24.3750009298325
392,144,44387,2,0,L|367:146,1,24.3750009298325
245,161,44505,6,0,B|293:117|293:117|277:281,1,195.00000743866
315,331,44856,2,0,B|267:375|267:375|283:211,1,195.00000743866
411,342,45208,2,0,L|279:326,1,97.50000371933
118,245,45383,1,0,0:0:0:0:
118,245,45442,6,0,B|153:205|202:214|202:214|192:316,1,195.00000743866
118,243,45794,2,0,B|83:283|34:274|34:274|45:173,1,195.00000743866
52,76,46145,2,0,B|32:68|4:80|4:80|40:96|60:88,1,97.50000371933
204,100,46380,5,14,0:0:0:0:
52,132,61380,6,0,P|112:108|160:132,1,97.50000371933
208,180,61731,2,0,P|255:188|297:164,1,97.50000371933
372,108,62083,2,0,L|388:224,1,97.50000371933
472,252,62434,2,0,L|485:155,1,97.50000371933
500,60,62786,6,0,P|440:36|392:60,1,97.50000371933
336,100,63137,2,0,P|288:108|246:84,1,97.50000371933
148,108,63489,2,0,L|168:-12,1,97.50000371933
246,84,63840,2,0,L|262:180,1,97.50000371933
192,252,64192,6,0,P|257:262|284:300,1,97.50000371933
291,372,64544,2,0,P|267:310|286:267,1,97.50000371933
344,225,64895,2,0,P|320:266|275:281,1,97.50000371933
192,252,65247,6,0,L|174:347,1,97.50000371933
92,280,65598,2,0,L|74:184,1,97.50000371933
60,92,65950,2,0,P|116:76|156:96,1,97.50000371933
215,156,66301,2,0,P|260:171|305:154,1,97.50000371933
347,80,66653,2,0,P|301:64|256:81,1,97.50000371933
304,264,67005,6,0,B|320:300|312:340|312:340|300:308,1,97.50000371933
308,122,67356,2,0,B|322:85|356:62|356:62|341:93,1,97.50000371933
224,236,67708,2,0,B|193:260|152:263|152:263|180:243,1,97.50000371933
359,193,68059,2,0,B|398:197|428:224|428:224|395:218,1,97.50000371933
224,149,68411,2,0,B|192:125|179:87|179:87|205:108,1,97.50000371933
194,99,68880,5,0,0:0:0:0:
193,104,69348,1,0,0:0:0:0:
193,109,69817,1,0,0:0:0:0:
192,114,70286,1,0,0:0:0:0:
192,119,70755,5,0,0:0:0:0:
191,123,70872,1,0,0:0:0:0:
190,128,70990,1,0,0:0:0:0:
190,133,71107,1,0,0:0:0:0:
296,160,71223,5,0,0:0:0:0:
295,155,71340,1,0,0:0:0:0:
294,150,71458,1,0,0:0:0:0:
294,145,71575,1,0,0:0:0:0:
400,104,71692,5,0,0:0:0:0:
399,109,71809,1,0,0:0:0:0:
399,114,71927,1,0,0:0:0:0:
398,119,72044,1,0,0:0:0:0:
504,145,72160,5,0,0:0:0:0:
503,140,72277,1,0,0:0:0:0:
502,135,72395,1,0,0:0:0:0:
502,130,72512,1,0,0:0:0:0:
428,216,72630,6,0,B|360:164|360:164|396:352,1,260
216,336,72981,2,0,B|300:296|388:336|388:336|340:332|288:356,1,260
332,108,73333,2,0,P|418:170|318:207,1,260
204,140,73684,1,0,0:0:0:0:
204,140,73801,6,0,L|208:188,3,32.5
160,64,74036,6,0,B|128:17|128:17|176:221|176:221|229:135,1,325
300,24,74387,6,0,B|332:44|416:24|416:24|448:68|416:116|416:116|332:92|252:148,1,325
8,248,74739,6,0,B|56:228|68:152|68:152|28:296|152:388,1,325
224,216,75090,6,0,B|448:216|448:216|320:268,1,325
106,345,75442,6,0,B|125:223|125:223|108:151|108:151|128:25,1,325
262,44,75794,6,0,P|358:80|230:144,1,325
128,60,76145,6,0,L|32:44,1,65
36,68,76380,6,0,B|87:76|87:76|130:58|130:58|166:112|166:112|213:96|213:96|304:110,1,292.50001115799,14|0,0:0|0:0,0:0:0:0:
448,284,76848,1,0,0:0:0:0:
500,212,76926,2,0,L|484:124,1,65.0000024795533
416,0,77083,2,0,L|404:63,1,65.0000024795533
376,224,77239,1,0,0:0:0:0:
376,223,77317,6,0,B|331:217|331:217|297:233|297:233|250:228,1,130
352,344,77551,6,0,L|344:268,1,48.750001859665
291,108,77669,2,0,L|285:156,1,48.750001859665
212,324,77786,6,0,P|150:242|176:166,1,130
200,72,78020,2,0,L|140:60,1,48.750001859665
52,136,78137,2,0,L|112:124,1,48.750001859665
364,8,78255,6,0,B|371:55|371:55|392:84|392:84|404:163,1,130
340,352,78489,2,0,B|332:304|332:304|311:275|311:275|299:196,1,130
288,136,78723,1,0,0:0:0:0:
215,193,78840,1,0,0:0:0:0:
124,176,78957,1,0,0:0:0:0:
50,232,79075,1,0,0:0:0:0:
76,376,79192,6,0,L|82:311,1,65
144,192,79426,6,0,L|136:280,1,48.750001859665
36,212,79544,2,0,L|40:163,1,48.750001859665
156,0,79661,2,0,P|63:83|182:47,1,292.50001115799
276,16,80130,6,0,B|236:-20|236:-20|276:160,1,195.00000743866
404,180,80481,1,0,0:0:0:0:
404,180,80598,6,0,L|339:190,1,65.0000024795533
208,280,80755,2,0,L|272:269,1,65.0000024795533
432,332,80911,2,0,L|367:342,1,65.0000024795533
180,336,81067,6,0,B|208:279|208:279|166:229,1,130
68,136,81301,6,0,L|-12:152,1,48.750001859665
40,272,81419,2,0,L|87:281,1,48.750001859665
252,104,81536,6,0,B|260:147|260:147|278:176|278:176|287:227,1,130
380,331,81770,2,0,B|389:280|389:280|407:251|407:251|421:181,1,130
384,60,82005,5,0,0:0:0:0:
497,166,82122,1,0,0:0:0:0:
366,135,82239,5,0,0:0:0:0:
510,89,82356,1,0,0:0:0:0:
462,17,82473,5,0,0:0:0:0:
416,208,82590,1,0,0:0:0:0:
284,296,82708,5,0,0:0:0:0:
240,106,82825,1,0,0:0:0:0:
128,64,82942,6,0,B|76:24|16:64|16:64|48:56|104:80,1,162.5
240,106,83294,2,0,B|292:66|352:106|352:106|320:98|264:122,1,162.5
152,176,83645,2,0,P|160:252|140:292,1,81.25
107,314,83880,6,0,B|77:349|77:349|199:369|199:369|151:236,1,292.50001115799
80,104,84348,6,0,B|137:73|137:73|211:90,1,130
260,192,84583,2,0,B|323:206|323:206|380:175,1,130
488,116,84817,5,0,0:0:0:0:
484,228,84934,1,0,0:0:0:0:
312,124,85051,5,0,0:0:0:0:
200,87,85168,1,0,0:0:0:0:
108,168,85286,6,0,L|128:241,1,48.750001859665
148,328,85403,6,0,P|223:303|121:247,1,260
148,328,85755,6,0,L|248:344,1,65
352,364,85989,6,0,B|320:384|320:384|348:244,1,130
374,106,86223,5,0,0:0:0:0:
235,235,86340,1,0,0:0:0:0:
422,212,86458,5,0,0:0:0:0:
257,120,86575,1,0,0:0:0:0:
104,172,86692,6,0,B|72:164|48:132|48:132|88:292,1,195
84,384,87161,6,0,B|131:376|131:376|163:351|163:351|230:340,1,130
368,248,87395,2,0,B|320:240|320:240|288:215|288:215|221:204,1,130
103,171,87630,6,0,B|53:138|53:138|68:306|68:306|112:258,1,292.50001115799
211,85,88098,6,0,B|220:132|220:132|237:157|237:157|251:231,1,130
331,370,88333,6,0,B|340:319|340:319|357:294|357:294|367:247,1,130
388,132,88567,1,0,0:0:0:0:
508,176,88684,1,0,0:0:0:0:
292,44,88801,5,0,0:0:0:0:
177,123,88919,2,0,L|190:178,1,32.5
177,123,89153,6,0,B|230:90|230:90|202:250,1,195.00000743866
184,344,89505,5,0,0:0:0:0:
252,268,89622,2,0,B|205:220|205:220|146:243,1,130
252,268,89973,2,0,B|298:315|298:315|357:292,1,130
512,228,90325,1,0,0:0:0:0:
420,384,90442,6,0,B|438:302|438:302|420:220|420:220|449:95,1,260
472,24,90794,5,0,0:0:0:0:
359,52,90911,2,0,L|331:182,1,86.6666666666667
259,160,91067,1,0,0:0:0:0:
191,104,91145,2,0,B|229:68|277:81|277:81|247:212,1,173.333333333333
232,264,91380,6,0,P|308:344|284:228,1,292.50001115799
76,240,91848,1,0,0:0:0:0:
76,240,91926,2,0,L|104:132,1,65.0000024795533
207,41,92083,2,0,L|190:103,1,65.0000024795533
259,158,92239,1,0,0:0:0:0:
364,181,92317,6,0,B|318:134|318:134|259:157,1,130
76,240,92551,6,0,L|96:316,1,48.750001859665
208,360,92669,2,0,L|220:312,1,48.750001859665
252,50,92786,6,0,P|284:122|216:166,1,130
88,156,93020,6,0,L|28:140,1,48.750001859665
180,64,93137,2,0,L|227:55,1,48.750001859665
436,28,93255,6,0,P|464:100|396:164,1,130
376,384,93489,2,0,P|348:312|416:247,1,130
464,248,93723,5,0,0:0:0:0:
340,176,93840,1,0,0:0:0:0:
224,256,93958,5,0,0:0:0:0:
100,184,94075,1,0,0:0:0:0:
200,80,94192,6,0,L|212:176,1,65
204,316,94426,6,0,L|220:240,1,48.750001859665
328,168,94544,2,0,L|338:215,1,48.750001859665
324,320,94661,5,0,0:0:0:0:
324,320,94778,2,0,B|356:320|356:320|372:312|372:312|400:328|400:328|416:320|416:320|468:320,2,130
147,344,95130,6,0,B|185:380|233:367|233:367|210:249,1,195.00000743866
177,105,95481,1,0,0:0:0:0:
177,105,95598,6,0,L|242:115,1,65.0000024795533
373,205,95755,2,0,L|309:194,1,65.0000024795533
149,257,95911,2,0,L|214:267,1,65.0000024795533
420,312,96067,6,0,B|429:269|429:269|447:244|447:244|463:178,1,130
488,68,96301,1,0,0:0:0:0:
336,104,96419,1,0,0:0:0:0:
216,56,96536,6,0,B|160:40|120:72|120:72|192:84,1,130
336,104,96770,2,0,B|316:68|316:68|300:208,1,130
126,179,97005,5,0,0:0:0:0:
226,259,97122,1,0,0:0:0:0:
305,156,97239,5,0,0:0:0:0:
405,236,97356,1,0,0:0:0:0:
480,72,97473,6,0,L|468:200,1,97.50000371933
500,380,97708,2,0,L|509:282,1,97.50000371933
468,168,97942,6,0,P|404:144|312:228,1,162.5
325,292,98294,2,0,P|259:335|184:312,1,162.5
128,224,98587,1,0,0:0:0:0:
128,224,98645,2,0,L|148:120,1,81.25
172,0,98880,6,0,P|120:40|236:64,1,243.75
300,8,99348,6,0,B|351:52|351:52|340:112,1,130
296,340,99583,2,0,B|244:295|244:295|255:235,1,130
352,208,99817,1,0,0:0:0:0:
448,180,99934,1,0,0:0:0:0:
444,0,100051,5,0,0:0:0:0:
416,96,100168,1,0,0:0:0:0:
452,196,100286,6,0,L|444:224,1,16.25
420,316,100403,6,0,B|476:292|476:292|304:248,1,195.00000743866
144,208,100755,6,0,P|128:280|136:300,1,65
208,312,100989,6,0,B|256:265|256:265|233:206,1,130
184,88,101223,5,0,0:0:0:0:
56,116,101340,1,0,0:0:0:0:
136,12,101458,5,0,0:0:0:0:
264,40,101575,1,0,0:0:0:0:
392,24,101692,6,0,B|354:-12|306:1|306:1|340:144,1,195.00000743866
296,248,102044,2,0,B|352:208|424:248|424:248|392:280|328:256,1,195.00000743866
160,216,102337,1,0,0:0:0:0:
160,216,102395,6,0,B|168:248|168:248|188:116,1,130
204,32,102630,5,0,0:0:0:0:
8,76,102747,2,0,B|84:60|84:60|152:88,1,130
264,132,102981,1,0,0:0:0:0:
132,79,103098,2,0,B|204:32|204:32|168:248,1,260
224,248,103450,6,0,B|176:204|176:204|68:236,1,130
8,264,103626,1,0,0:0:0:0:
8,264,103684,6,0,L|24:352,1,48.750001859665
144,360,103801,2,0,L|152:312,1,48.750001859665
176,204,103919,1,0,0:0:0:0:
260,152,104036,5,0,0:0:0:0:
336,204,104153,1,0,0:0:0:0:
424,164,104270,6,0,L|408:248,1,48.750001859665
360,328,104387,2,0,L|369:280,1,48.750001859665
420,76,104505,6,0,B|448:52|448:52|404:268,1,130
392,304,104739,6,0,L|388:324,3,16.25
256,192,104973,12,0,106145,0:0:0:0:
256,192,106380,6,0,L|240:276,1,48.750001859665
280,372,106614,2,0,L|289:324,1,48.750001859665
360,288,106848,1,0,0:0:0:0:
396,218,106965,1,0,0:0:0:0:
389,140,107082,1,0,0:0:0:0:
340,79,107199,1,0,0:0:0:0:
232,100,107317,6,0,L|136:88,1,97.50000371933
72,156,107669,2,0,L|168:168,1,97.50000371933
200,248,108020,2,0,L|151:241,1,48.750001859665
276,164,108255,6,0,L|296:236,1,48.750001859665
328,312,108489,2,0,L|341:265,1,48.750001859665
424,192,108723,1,0,0:0:0:0:
354,157,108840,1,0,0:0:0:0:
276,164,108957,1,0,0:0:0:0:
215,213,109074,1,0,0:0:0:0:
216,308,109192,6,0,L|96:276,1,97.50000371933
44,200,109544,2,0,L|164:168,1,97.50000371933
215,213,109895,2,0,L|236:136,1,48.750001859665
304,32,110130,6,0,L|368:40,1,48.750001859665
200,66,110364,2,0,L|152:60,1,48.750001859665
76,96,110598,1,0,0:0:0:0:
27,157,110715,1,0,0:0:0:0:
20,235,110832,1,0,0:0:0:0:
55,305,110949,1,0,0:0:0:0:
168,280,111067,6,0,L|292:308,1,97.50000371933
320,184,111419,2,0,L|196:212,1,97.50000371933
148,140,111770,2,0,L|124:224,1,48.750001859665
188,304,112005,6,0,L|268:324,1,48.750001859665
252,220,112239,2,0,L|299:208,1,48.750001859665
344,128,112473,1,0,0:0:0:0:
393,189,112590,1,0,0:0:0:0:
400,267,112707,1,0,0:0:0:0:
365,337,112824,1,0,0:0:0:0:
235,315,112942,5,0,0:0:0:0:
235,315,113059,2,0,L|152:344,1,48.750001859665
0,296,113294,2,0,L|83:267,1,48.750001859665
118,353,113528,2,0,L|118:225,1,97.50000371933
108,172,113880,5,0,0:0:0:0:
142,100,113997,1,0,0:0:0:0:
209,61,114114,1,0,0:0:0:0:
287,63,114231,1,0,0:0:0:0:
368,160,114348,2,0,L|444:144,1,48.750001859665
416,36,114583,2,0,L|340:20,1,48.750001859665
209,61,114817,5,0,0:0:0:0:
249,128,114934,1,0,0:0:0:0:
243,205,115051,1,0,0:0:0:0:
197,269,115168,1,0,0:0:0:0:
86,299,115286,6,0,L|76:252,1,48.750001859665
160,136,115520,2,0,L|149:183,1,48.750001859665
197,269,115755,1,0,0:0:0:0:
273,291,115872,1,0,0:0:0:0:
349,313,115989,1,0,0:0:0:0:
468,296,116106,6,0,B|459:244|459:244|479:184,1,97.50000371933
411,52,116458,6,0,L|427:145,1,65
473,201,116692,1,0,0:0:0:0:
422,116,116809,6,0,P|378:143|306:131,1,97.50000371933
246,172,117161,2,0,P|289:144|361:156,1,97.50000371933
473,201,117630,5,0,0:0:0:0:
451,277,117747,1,0,0:0:0:0:
429,353,117864,1,0,0:0:0:0:
316,316,117981,6,0,P|260:312|216:336,1,97.50000371933
120,320,118333,6,0,L|148:408,1,65
224,328,118567,1,0,0:0:0:0:
188,245,118684,2,0,L|208:184,1,65
184,64,118919,2,0,B|272:64|272:64|220:88,1,130
128,136,119270,2,0,L|108:197,1,65
188,245,119505,6,0,P|256:264|316:200,1,130
416,222,119856,2,0,P|348:203|288:267,1,130
186,244,120208,2,0,P|241:212|301:233,1,130
415,221,120559,2,0,P|360:253|301:233,1,130
301,233,120911,2,0,B|296:304|296:304|268:216,1,130
232,88,121380,5,0,0:0:0:0:
155,74,121497,1,0,0:0:0:0:
85,107,121614,1,0,0:0:0:0:
42,173,121731,1,0,0:0:0:0:
60,284,121848,6,0,L|208:320,1,130
182,195,122200,2,0,B|210:259|210:259|182:323,1,130
181,194,122551,2,0,L|246:186,1,65
320,252,122786,5,0,0:0:0:0:
397,266,122903,1,0,0:0:0:0:
467,233,123020,1,0,0:0:0:0:
510,167,123137,1,0,0:0:0:0:
416,120,123255,5,0,0:0:0:0:
383,190,123372,1,0,0:0:0:0:
397,266,123489,1,0,0:0:0:0:
451,325,123606,1,0,0:0:0:0:
467,233,123723,6,0,P|408:190|321:244,1,130
268,284,124075,2,0,P|205:291|156:251,1,130
183,192,124426,2,0,L|139:288,1,65
110,351,124661,5,0,0:0:0:0:
56,292,124778,1,0,0:0:0:0:
42,216,124895,1,0,0:0:0:0:
75,146,125012,1,0,0:0:0:0:
28,16,125130,5,0,0:0:0:0:
86,68,125247,1,0,0:0:0:0:
162,76,125364,1,0,0:0:0:0:
235,43,125481,1,0,0:0:0:0:
320,116,125598,6,0,B|410:130|410:130|334:150,1,130
235,191,125950,2,0,B|257:251|257:251|211:316,1,130
257,251,126301,2,0,L|339:264,1,65
448,256,126536,5,0,0:0:0:0:
383,213,126653,1,0,0:0:0:0:
356,142,126770,1,0,0:0:0:0:
369,63,126887,1,0,0:0:0:0:
433,117,127005,5,0,0:0:0:0:
356,142,127122,1,0,0:0:0:0:
282,126,127239,1,0,0:0:0:0:
230,69,127356,1,0,0:0:0:0:
116,56,127473,6,0,B|154:20|202:33|202:33|168:176,1,195.00000743866
152,236,127942,1,0,0:0:0:0:
152,236,128059,2,0,L|168:320,1,65
289,352,128294,2,0,L|276:288,1,65
164,299,128528,2,0,B|227:324|227:324|279:286,1,130
412,200,128880,6,0,B|412:335|412:335|388:280,1,195
336,137,129348,6,0,B|434:113|434:113|447:161|411:199,1,195.00000743866
148,176,129700,2,0,B|49:199|49:199|36:151|72:113,1,195.00000743866
224,20,130051,2,0,P|236:96|196:160,1,97.50000371933
136,267,130286,6,0,B|96:183|136:95|136:95|132:143|156:195,1,260
64,376,130755,6,0,B|123:366|123:366|157:377|157:377|186:356|186:356|285:340,1,195
400,320,131223,6,0,B|440:264|400:192|400:192|368:224|392:288,1,195.00000743866
192,212,131575,2,0,B|152:156|192:84|192:84|224:116|200:180,1,195.00000743866
94,216,131926,2,0,B|192:212,1,97.50000371933
382,246,132161,6,0,B|334:226|322:150|322:150|362:294|230:354,1,260
448,236,132630,6,0,B|408:305|448:372|448:372|428:328|480:280,1,195
36,36,133098,6,0,B|103:25|103:25|158:40|158:40|249:26,1,195.00000743866
340,88,133450,2,0,P|408:96|332:148,1,195.00000743866
188,152,133801,2,0,B|204:200|204:200|188:244,1,97.50000371933
316,384,134036,2,0,B|300:340|300:340|316:292,1,97.50000371933
372,128,134270,6,0,L|372:160,2,24.3750009298325
304,104,134505,6,0,B|372:64|432:104|432:104|400:96|344:120,1,195.00000743866
304,104,134856,2,0,B|236:144|176:104|176:104|208:112|264:88,1,195.00000743866
432,104,135208,2,0,P|448:160|424:208,1,97.50000371933
332,328,135442,6,0,B|320:358|320:358|435:340|435:340|354:239,1,260
240,128,135794,2,0,B|252:198|252:198|229:296|229:296|247:402,1,260
44,164,136145,6,0,B|93:85|237:125|237:125|161:113|141:65,1,325,0|14,0:0|0:0,0:0:0:0:
72,68,151380,6,0,L|51:182,1,65
46,209,151614,1,0,0:0:0:0:
148,320,151848,6,0,L|127:205,1,65
122,179,152082,1,0,0:0:0:0:
224,68,152317,6,0,L|203:182,1,65
198,209,152551,1,0,0:0:0:0:
300,320,152785,6,0,L|279:205,1,65
274,179,153019,1,0,0:0:0:0:
248,48,153255,6,0,L|363:69,1,65
389,74,153489,1,0,0:0:0:0:
504,128,153723,6,0,L|389:149,1,65
363,154,153957,1,0,0:0:0:0:
248,208,154192,6,0,L|363:229,1,65
389,234,154426,1,0,0:0:0:0:
504,288,154660,6,0,L|389:309,1,65
363,314,154894,1,0,0:0:0:0:
244,344,155130,5,0,0:0:0:0:
244,344,155247,1,0,0:0:0:0:
244,344,155364,1,0,0:0:0:0:
132,280,155598,5,0,0:0:0:0:
132,280,155715,1,0,0:0:0:0:
132,280,155832,1,0,0:0:0:0:
216,180,156067,5,0,0:0:0:0:
216,180,156184,1,0,0:0:0:0:
216,180,156301,1,0,0:0:0:0:
104,116,156535,5,0,0:0:0:0:
104,116,156652,1,0,0:0:0:0:
104,116,156769,1,0,0:0:0:0:
288,32,157005,5,0,0:0:0:0:
288,32,157122,1,0,0:0:0:0:
288,32,157239,1,0,0:0:0:0:
212,216,157473,5,0,0:0:0:0:
212,216,157590,1,0,0:0:0:0:
212,216,157707,1,0,0:0:0:0:
440,160,157942,5,0,0:0:0:0:
440,160,158059,1,0,0:0:0:0:
440,160,158176,1,0,0:0:0:0:
364,344,158410,5,0,0:0:0:0:
364,344,158527,1,0,0:0:0:0:
364,344,158644,1,0,0:0:0:0:
308,48,158880,5,0,0:0:0:0:
211,67,159114,1,0,0:0:0:0:
116,86,159348,1,0,0:0:0:0:
21,108,159583,1,0,0:0:0:0:
37,26,159817,5,0,0:0:0:0:
116,86,160051,1,0,0:0:0:0:
193,145,160285,1,0,0:0:0:0:
269,206,160520,1,0,0:0:0:0:
290,125,160755,5,0,0:0:0:0:
193,145,160989,1,0,0:0:0:0:
98,164,161223,1,0,0:0:0:0:
3,185,161458,1,0,0:0:0:0:
19,104,161692,5,0,0:0:0:0:
98,164,161926,1,0,0:0:0:0:
175,223,162160,1,0,0:0:0:0:
251,284,162395,1,0,0:0:0:0:
427,297,162630,6,0,B|386:265|386:265|298:256|298:256|251:283,1,195.00000743866
159,377,162981,6,0,B|159:261|159:261|183:217|183:217|183:97,1,260
183,105,163333,2,0,P|87:81|183:161,1,260
323,161,163684,1,0,0:0:0:0:
323,161,163801,6,0,L|336:104,3,32.5
452,264,164036,6,0,B|365:250|365:250|305:269|305:269|254:232|254:232|144:215,1,325
0,200,164387,6,0,B|48:172|48:104|48:104|70:314,1,325
252,348,164739,6,0,B|176:360|120:296|144:217|144:217|214:246|268:196,1,325
192,112,165090,6,0,P|332:120|248:204,1,325
261,134,165442,6,0,B|497:135|497:135|380:208,1,325
180,344,165794,6,0,B|208:284|184:220|184:220|236:268|308:240|308:240|312:280|264:304,1,325
280,294,166145,6,0,L|196:284,1,65
72,276,166380,6,0,B|48:88|48:88|20:228,1,292.50001115799,14|0,0:0|0:0,0:0:0:0:
72,276,166848,5,0,0:0:0:0:
140,208,166926,2,0,L|212:220,1,65.0000024795533
432,252,167083,2,0,L|360:264,1,65.0000024795533
280,276,167239,1,0,0:0:0:0:
204,336,167317,6,0,B|176:276|176:276|208:208,1,130
416,112,167551,2,0,P|424:148|408:188,1,65
328,372,167669,2,0,P|320:336|336:296,1,65
432,252,167786,6,0,B|387:252|387:252|355:232|355:232|307:232,1,130
80,300,168020,2,0,L|67:236,1,65
196,80,168137,2,0,L|183:143,1,65
168,268,168255,6,0,B|260:268|260:268|192:304,1,130
64,348,168489,2,0,L|-28:324,1,65
119,160,168606,2,0,L|211:136,1,65
296,72,168723,6,0,B|268:132|268:132|300:188,1,130
364,292,168958,2,0,L|448:272,1,65
455,147,169075,2,0,L|392:132,1,65
120,56,169192,6,0,L|184:72,1,65
296,72,169426,6,0,L|268:136,1,48.750001859665
206,258,169544,2,0,L|186:213,1,48.750001859665
203,145,169661,2,0,P|253:236|123:182,1,292.50001115799
64,76,170130,6,0,B|132:76|132:76|176:56|176:56|312:56,1,195.00000743866
404,88,170481,1,0,0:0:0:0:
404,88,170598,6,0,L|368:208,1,65.0000024795533
364,320,170755,2,0,L|382:257,1,65.0000024795533
512,152,170911,2,0,L|493:214,1,65.0000024795533
381,257,171067,6,0,P|320:272|248:236,1,130
172,112,171301,2,0,L|136:208,1,65
120,308,171419,2,0,L|97:247,1,65
54,112,171536,6,0,B|114:84|114:84|182:116,1,130
380,200,171770,2,0,L|464:180,1,65
360,104,171887,2,0,L|296:119,1,65
171,111,172005,6,0,B|171:151|171:151|187:191|187:191|187:283,1,130
108,336,172239,2,0,L|24:316,1,65
312,264,172356,2,0,L|375:279,1,65
428,160,172473,5,0,0:0:0:0:
428,160,172532,2,0,L|420:212,1,32.5
472,368,172708,5,0,0:0:0:0:
472,368,172767,2,0,L|464:316,1,32.5
347,129,172942,6,0,B|445:105|445:105|458:153|422:191,1,195.00000743866
308,280,173294,2,0,B|245:266|245:266|211:276|211:276|182:256|182:256|82:244,1,195.00000743866
232,88,173645,2,0,P|248:148|200:204,1,97.50000371933
123,249,173880,6,0,P|40:268|153:293,1,292.50001115799
404,172,174348,6,0,B|404:216|404:216|416:252|416:252|416:332,1,130
280,340,174583,2,0,B|280:296|280:296|268:260|268:260|268:180,1,130
304,80,174817,5,0,0:0:0:0:
195,107,174934,1,0,0:0:0:0:
60,188,175051,5,0,0:0:0:0:
169,215,175168,1,0,0:0:0:0:
376,184,175286,6,0,L|308:168,1,48.750001859665
304,80,175403,2,0,B|344:149|304:216|304:216|324:172|272:124,1,195
88,208,175755,6,0,L|168:192,1,65
180,134,175989,6,0,B|150:192|150:192|191:241,1,130
256,320,176223,1,0,0:0:0:0:
144,344,176340,1,0,0:0:0:0:
300,232,176458,5,0,0:0:0:0:
412,256,176575,1,0,0:0:0:0:
374,87,176692,2,0,B|321:54|321:54|349:214,1,195.00000743866
405,207,177161,6,0,B|346:184|346:184|299:232,1,130
194,256,177395,2,0,B|253:279|253:279|299:232,1,130
236,176,177630,6,0,P|108:236|200:348,1,292.50001115799
319,279,178098,6,0,B|269:264|269:264|242:269|242:269|181:251,1,130
160,80,178333,2,0,B|209:94|209:94|236:89|236:89|297:107,1,130
408,132,178567,1,0,0:0:0:0:
496,60,178684,1,0,0:0:0:0:
388,112,178801,5,0,0:0:0:0:
423,219,178919,6,0,L|416:256,1,32.5
288,252,179153,6,0,B|344:212|416:252|416:252|384:284|320:260,1,195.00000743866
200,300,179505,5,0,0:0:0:0:
104,263,179622,2,0,B|76:324|76:324|118:370,1,130
104,263,179973,2,0,B|131:203|131:203|88:156,1,130
0,64,180325,1,0,0:0:0:0:
88,155,180442,6,0,B|136:135|148:59|148:59|108:203|240:263,1,260
244,280,180794,5,0,0:0:0:0:
368,320,180911,6,0,L|348:240,1,81.25
320,116,181067,1,0,0:0:0:0:
318,115,181145,2,0,B|244:100|244:100|228:146|264:184,1,162.5
368,320,181380,6,0,P|462:280|344:252,1,292.50001115799
256,352,181848,1,0,0:0:0:0:
208,284,181926,2,0,L|104:264,1,65.0000024795533
4,312,182083,2,0,L|67:324,1,65.0000024795533
92,204,182239,1,0,0:0:0:0:
196,88,182317,6,0,B|196:136|196:136|212:168|212:168|212:260,1,130
352,132,182551,2,0,P|312:116|272:124,1,65
68,180,182669,2,0,P|108:196|148:188,1,65
228,340,182786,6,0,B|228:292|228:292|212:260|212:260|212:168,1,130
356,248,183020,2,0,P|316:231|276:240,1,65
72,296,183137,2,0,P|112:312|152:304,1,65
294,232,183255,6,0,B|350:200|350:200|410:228,1,130
512,276,183489,2,0,L|496:352,1,65
376,384,183606,2,0,L|362:320,1,65
344,96,183723,6,0,P|376:168|308:212,1,130
128,148,183958,2,0,L|144:224,1,65
232,320,184075,2,0,L|245:256,1,65
252,56,184192,6,0,L|239:120,1,65
94,225,184426,2,0,L|157:206,1,48.750001859665
291,270,184544,2,0,L|244:255,1,48.750001859665
24,156,184661,6,0,B|47:121|19:65|19:65|71:113|143:85|143:85|147:125|117:138,1,292.50001115799
71,246,185130,6,0,P|154:322|140:210,1,292.50001115799
140,210,185598,6,0,L|247:199,1,65.0000024795533
356,152,185755,2,0,L|291:158,1,65.0000024795533
184,76,185911,2,0,L|248:69,1,65.0000024795533
444,52,186067,6,0,B|420:28|420:28|448:184,1,130
470,312,186301,2,0,L|460:248,1,65
328,204,186419,2,0,L|338:268,1,65
360,384,186536,5,0,0:0:0:0:
360,384,186594,2,0,L|320:372,1,32.5
216,312,186770,5,0,0:0:0:0:
216,312,186828,2,0,L|175:324,1,32.5
76,360,187005,5,0,0:0:0:0:
104,252,187122,1,0,0:0:0:0:
32,160,187239,5,0,0:0:0:0:
60,52,187356,1,0,0:0:0:0:
180,112,187473,5,0,0:0:0:0:
288,140,187590,1,0,0:0:0:0:
368,52,187708,5,0,0:0:0:0:
260,24,187825,1,0,0:0:0:0:
288,140,187942,6,0,B|307:209|307:209|299:265|299:265|327:365,1,195.00000743866
324,348,188294,2,0,P|416:328|368:260,1,195.00000743866
160,220,188645,2,0,B|220:220|220:220|160:252,1,97.50000371933
56,308,188880,6,0,B|24:267|24:267|15:179|15:179|42:132,1,195.00000743866
156,116,189348,6,0,B|204:160|204:160|266:141,1,130
436,88,189583,2,0,B|388:44|388:44|325:62,1,130
328,220,189817,5,0,0:0:0:0:
269,299,189934,1,0,0:0:0:0:
456,384,190051,5,0,0:0:0:0:
417,294,190168,1,0,0:0:0:0:
460,200,190286,6,0,L|437:204,1,16.25
488,132,190403,6,0,B|511:230|511:230|463:243|425:207,1,195.00000743866
324,80,190755,6,0,L|300:152,1,65
324,272,190989,6,0,B|260:282|260:282|216:234,1,130
124,120,191223,5,0,0:0:0:0:
152,16,191340,1,0,0:0:0:0:
24,172,191458,5,0,0:0:0:0:
44,288,191575,1,0,0:0:0:0:
232,168,191692,2,0,B|265:221|265:221|105:193,1,195.00000743866
112,137,192161,6,0,B|135:196|135:196|87:243,1,130
63,348,192395,2,0,B|40:289|40:289|87:243,1,130
264,224,192630,6,0,B|324:252|388:228|388:228|340:280|368:352|368:352|328:356|304:308,1,325
472,304,192981,1,0,0:0:0:0:
436,119,193098,6,0,B|447:177|447:177|470:210|470:210|461:248|461:248|479:342,1,195.00000743866
316,324,193684,1,0,0:0:0:0:
232,316,193801,2,0,L|148:308,1,48.750001859665
76,212,193919,6,0,B|36:281|76:348|76:348|56:304|108:256,1,195.00000743866
160,88,194270,6,0,P|180:144|160:200,1,97.50000371933
88,312,194739,6,0,L|92:352,3,24.3750009298325
256,192,194973,12,0,196380,0:0:0:0:
