osu file format v14

[General]
AudioFilename: audio.mp3
AudioLeadIn: 0
PreviewTime: 60607
Countdown: 0
SampleSet: Soft
StackLeniency: 0.7
Mode: 0
LetterboxInBreaks: 0
WidescreenStoryboard: 1

[Editor]
Bookmarks: 8548,22666,36784,61489,89725,117960,132078,146195,156784,160313,170901,177960,185019,199137,213254,223842,230901,237960,269725
DistanceSpacing: 0.3
BeatDivisor: 6
GridSize: 32
TimelineZoom: 2.800003

[Metadata]
Title:Arcology On Permafrost
TitleUnicode:Arcology On Permafrost
Artist:Camellia
ArtistUnicode:かめりあ
Creator:Mir
Version:Mun's Extra
Source:
Tags:heart of android c95 comiket mun trigger me elmo
BeatmapID:2056126
BeatmapSetID:977977

[Difficulty]
HPDrainRate:6
CircleSize:3
OverallDifficulty:8.5
ApproachRate:9.3
SliderMultiplier:2.4
SliderTickRate:1

[Events]
//Background and Video events
0,0,"arcology.jpg",0,0
//Break Periods
2,118160,131524
//Storyboard Layer 0 (Background)
//Storyboard Layer 1 (Fail)
//Storyboard Layer 2 (Pass)
//Storyboard Layer 3 (Foreground)
//Storyboard Layer 4 (Overlay)
//Storyboard Sound Samples

[TimingPoints]
1490,441.176470588235,4,2,1,30,1,0
3254,-100,4,2,1,30,0,0
8548,-166.666666666667,4,2,1,30,0,0
22666,-200,4,2,1,50,0,0
36342,-66.6666666666667,4,2,1,70,0,0
36784,-50,4,2,1,70,0,0
37225,-133.333333333333,4,2,1,70,0,0
37556,-66.6666666666667,4,2,1,70,0,0
38107,-133.333333333333,4,2,1,70,0,0
38438,-50,4,2,1,70,0,0
38879,-333.333333333333,4,2,1,70,0,0
40313,-50,4,2,1,70,0,0
40754,-133.333333333333,4,2,1,70,0,0
41085,-66.6666666666667,4,2,1,70,0,0
41637,-133.333333333333,4,2,1,70,0,0
41967,-50,4,2,1,70,0,0
42960,-200,4,2,1,70,0,0
43622,-66.6666666666667,4,2,1,70,0,0
43842,-50,4,2,1,70,0,0
44284,-133.333333333333,4,2,1,70,0,0
44614,-66.6666666666667,4,2,1,70,0,0
45166,-133.333333333333,4,2,1,70,0,0
45497,-50,4,2,1,70,0,0
47372,-133.333333333333,4,1,1,80,0,0
54431,-100,4,3,1,90,0,0
60717,-100,4,2,1,90,0,0
61489,-66.6666666666667,4,2,1,100,0,1
62758,-66.6666666666667,4,2,1,5,0,1
62813,-142.857142857143,4,2,1,100,0,1
63144,-66.6666666666667,4,2,1,100,0,1
64026,-76.9230769230769,4,2,1,100,0,1
64578,-125,4,2,1,100,0,1
64798,-58.8235294117647,4,2,1,100,0,1
65019,-52.6315789473684,4,2,1,100,0,1
65460,-100,4,2,1,100,0,1
65791,-52.6315789473684,4,2,1,100,0,1
66122,-100,4,2,1,100,0,1
66673,-50,4,2,1,100,0,1
67114,-100,4,2,1,100,0,1
67225,-50,4,2,1,100,0,1
67887,-45.4545454545455,4,2,1,100,0,1
68328,-41.6666666666667,4,2,1,100,0,1
68548,-52.6315789473684,4,2,1,100,0,1
69651,-100,4,2,1,100,0,1
69817,-100,4,2,1,5,0,1
69872,-100,4,2,1,100,0,1
70203,-66.6666666666667,4,2,1,100,0,1
71637,-50,4,2,1,100,0,1
72078,-47.6190476190476,4,2,1,100,0,1
72409,-66.6666666666667,4,2,1,100,0,1
73842,-58.8235294117647,4,2,1,100,0,1
74008,-58.8235294117647,4,2,1,5,0,1
74063,-58.8235294117647,4,2,1,100,0,1
74284,-76.9230769230769,4,2,1,100,0,1
74614,-66.6666666666667,4,2,1,100,0,1
75497,-66.6666666666667,4,2,1,100,0,0
75607,-66.6666666666667,4,2,1,100,0,1
76048,-166.666666666667,4,2,1,100,0,1
76379,-66.6666666666667,4,2,1,100,0,1
78695,-100,4,2,1,100,0,1
78916,-58.8235294117647,4,2,1,100,0,1
79137,-52.6315789473684,4,2,1,100,0,1
79578,-100,4,2,1,100,0,1
79909,-52.6315789473684,4,2,1,100,0,1
80791,-66.6666666666667,4,2,1,100,0,1
82666,-55.5555555555556,4,2,1,100,0,1
83438,-100,4,2,1,100,0,1
83659,-55.5555555555556,4,2,1,100,0,1
84320,-83.3333333333333,4,2,1,100,0,1
84872,-55.5555555555556,4,2,1,100,0,1
85203,-100,4,2,1,100,0,1
86195,-66.6666666666667,4,2,1,100,0,0
88291,-66.6666666666667,4,2,1,50,0,0
89173,-66.6666666666667,4,2,1,75,0,0
89725,-50,4,2,1,100,0,1
90497,-66.6666666666667,4,2,1,100,0,1
91048,-50,4,2,1,100,0,1
91379,-66.6666666666667,4,2,1,100,0,1
93254,-50,4,2,1,100,0,1
93695,-58.8235294117647,4,2,1,100,0,1
96784,-50,4,2,1,100,0,1
97556,-66.6666666666667,4,2,1,100,0,1
100092,-50,4,2,1,100,0,1
100313,-100,4,2,1,100,0,1
102298,-66.6666666666667,4,2,1,100,0,1
103732,-66.6666666666667,4,2,1,100,0,0
103842,-50,4,2,1,100,0,1
104614,-66.6666666666667,4,2,1,100,0,1
106710,-50,4,2,1,100,0,1
107372,-100,4,2,1,100,0,1
109137,-66.6666666666667,4,2,1,100,0,1
110791,-66.6666666666667,4,2,1,5,0,1
110901,-66.6666666666667,4,2,1,100,0,1
111342,-50,4,2,1,100,0,1
111784,-66.6666666666667,4,2,1,100,0,1
113769,-50,4,2,1,100,0,1
117078,-66.6666666666667,4,2,1,100,0,0
132078,-142.857142857143,4,2,1,60,0,0
159872,-66.6666666666667,4,2,1,70,0,0
160313,-50,4,2,1,70,0,0
160754,-133.333333333333,4,2,1,70,0,0
161085,-66.6666666666667,4,2,1,70,0,0
161637,-133.333333333333,4,2,1,70,0,0
161967,-50,4,2,1,70,0,0
162409,-333.333333333333,4,2,1,70,0,0
163842,-50,4,2,1,70,0,0
164283,-133.333333333333,4,2,1,70,0,0
164614,-66.6666666666667,4,2,1,70,0,0
165166,-133.333333333333,4,2,1,70,0,0
165496,-50,4,2,1,70,0,0
165883,-100,4,2,1,70,0,0
166489,-200,4,2,1,70,0,0
167151,-66.6666666666667,4,2,1,70,0,0
167372,-50,4,2,1,70,0,0
167813,-133.333333333333,4,2,1,70,0,0
168144,-66.6666666666667,4,2,1,70,0,0
168695,-133.333333333333,4,2,1,70,0,0
169026,-50,4,2,1,70,0,0
170901,-100,4,2,1,80,0,0
172225,-333.333333333333,4,2,1,70,0,0
172666,-100,4,2,1,70,0,0
175975,-133.333333333333,4,2,1,70,0,0
176195,-100,4,2,1,70,0,0
178622,-333.333333333333,4,2,1,70,0,0
178842,-90.9090909090909,4,2,1,70,0,0
179504,-333.333333333333,4,2,1,70,0,0
179724,-83.3333333333333,4,2,1,70,0,0
180387,-333.333333333333,4,2,1,70,0,0
180607,-76.9230769230769,4,2,1,70,0,0
181269,-333.333333333333,4,2,1,70,0,0
181489,-66.6666666666667,4,2,1,90,0,0
182813,-200,4,2,1,90,0,0
184247,-100,4,2,1,90,0,0
185019,-66.6666666666667,4,2,1,100,0,1
198364,-133.333333333333,4,2,1,100,0,1
198695,-66.6666666666667,4,2,1,100,0,1
199026,-66.6666666666667,4,2,1,100,0,0
199137,-66.6666666666667,4,2,2,100,0,1
208291,-66.6666666666667,4,2,1,100,0,1
209284,-50,4,2,1,100,0,1
210166,-200,4,2,1,100,0,0
210717,-50,4,2,1,100,0,0
211048,-200,4,2,1,100,0,0
211820,-66.6666666666667,4,2,1,100,0,0
212519,-62.5,4,2,1,100,0,0
212666,-58.8235294117647,4,2,1,100,0,0
212813,-55.5555555555556,4,2,1,100,0,0
212960,-52.6315789473684,4,2,1,100,0,0
213107,-50,4,2,1,100,0,0
213254,-50,4,2,1,100,0,1
214026,-100,4,2,1,100,0,1
214909,-66.6666666666667,4,2,1,100,0,1
215460,-50,4,2,1,100,0,1
216673,-250,4,2,1,100,0,1
217004,-50,4,2,1,100,0,1
218107,-100,4,2,1,100,0,1
218438,-50,4,2,1,100,0,1
220313,-250,4,2,1,100,0,1
220754,-50,4,2,1,100,0,1
221195,-100,4,2,1,100,0,1
221637,-50,4,2,1,100,0,1
222960,-66.6666666666667,4,2,1,100,0,1
223695,-66.6666666666667,4,2,1,100,0,0
223842,-66.6666666666667,4,2,1,100,0,1
225166,-500,4,2,1,100,0,1
225607,-66.6666666666667,4,2,1,100,0,1
228695,-250,4,2,1,100,0,1
228916,-100,4,2,1,100,0,1
229137,-66.6666666666667,4,2,1,100,0,1
230791,-66.6666666666667,4,2,1,100,0,0
230901,-66.6666666666667,4,2,1,100,0,1
231563,-333.333333333333,4,2,1,100,0,1
231784,-66.6666666666667,4,2,1,100,0,1
232445,-333.333333333333,4,2,1,100,0,1
232666,-66.6666666666667,4,2,1,100,0,1
233327,-333.333333333333,4,2,1,100,0,1
233548,-66.6666666666667,4,2,1,100,0,1
234210,-333.333333333333,4,2,1,100,0,0
234431,-100,4,2,1,100,0,1
235754,-66.6666666666667,4,2,1,100,0,1
237078,-133.333333333333,4,2,1,70,0,0
237960,-333.333333333333,4,2,2,50,0,0

[Colours]
Combo1 : 139,111,187
Combo2 : 224,183,238
Combo3 : 179,224,227
Combo4 : 107,143,203

[HitObjects]
256,192,3254,12,0,8328,0:2:0:0:
126,152,8548,6,0,L|122:99,6,35.9999989013672,2|0|0|0|0|0|0,0:2|0:2|0:2|0:2|0:2|0:2|0:2,0:0:0:0:
223,171,9320,2,0,L|227:118,7,35.9999989013672,2|0|0|0|0|0|0|0,0:2|0:2|0:2|0:2|0:2|0:2|0:2|0:2,0:0:0:0:
323,140,10203,2,0,L|319:87,16,35.9999989013672,2|0|0|0|0|0|0|0|0|0|0|0|0|0|0|0|0,0:2|0:2|0:2|0:2|0:2|0:2|0:2|0:2|0:2|0:2|0:2|0:2|0:2|0:2|0:2|0:2|0:2,0:0:0:0:
382,214,12078,6,0,P|381:237|376:257,6,35.9999989013672,2|0|0|0|0|0|0,0:2|0:2|0:2|0:2|0:2|0:2|0:2,0:0:0:0:
292,248,12850,2,0,P|279:268|265:282,7,35.9999989013672,2|0|0|0|0|0|0|0,0:2|0:2|0:2|0:2|0:2|0:2|0:2|0:2,0:0:0:0:
205,214,13732,2,0,P|184:225|164:230,16,35.9999989013672,2|0|0|0|0|0|0|0|0|0|0|0|0|0|0|0|0,0:2|0:2|0:2|0:2|0:2|0:2|0:2|0:2|0:2|0:2|0:2|0:2|0:2|0:2|0:2|0:2|0:2,0:0:0:0:
268,142,15607,6,0,L|266:99,6,35.9999989013672,2|0|0|0|0|0|0,0:2|0:2|0:2|0:2|0:2|0:2|0:2,0:0:0:0:
342,194,16379,2,0,L|340:237,7,35.9999989013672,2|0|0|0|0|0|0|0,0:2|0:2|0:2|0:2|0:2|0:2|0:2|0:2,0:0:0:0:
407,134,17262,2,0,L|405:91,16,35.9999989013672,2|0|0|0|0|0|0|0|0|0|0|0|0|0|0|0|0,0:2|0:2|0:2|0:2|0:2|0:2|0:2|0:2|0:2|0:2|0:2|0:2|0:2|0:2|0:2|0:2|0:2,0:0:0:0:
460,271,19137,6,0,L|458:314,14,35.9999989013672,2|0|0|0|0|0|0|0|0|0|0|0|0|0|0,0:2|0:2|0:2|0:2|0:2|0:2|0:2|0:2|0:2|0:2|0:2|0:2|0:2|0:2|0:2,0:0:0:0:
308,270,20791,2,0,L|309:305,7,35.9999989013672,2|0|0|0|0|0|0|0,0:2|0:2|0:2|0:2|0:2|0:2|0:2|0:2,0:0:0:0:
302,174,21673,2,0,L|301:139,8,35.9999989013672,2|0|0|0|0|0|0|0|0,0:2|0:2|0:2|0:2|0:2|0:2|0:2|0:2|0:2,0:0:0:0:
223,227,22666,5,2,0:2:0:0:
215,213,22776,1,0,0:0:0:0:
209,199,22887,1,0,0:0:0:0:
204,184,22997,1,0,0:2:0:0:
201,169,23107,1,0,0:2:0:0:
200,154,23217,1,0,0:2:0:0:
199,138,23328,1,0,0:2:0:0:
241,57,23438,5,2,0:2:0:0:
225,56,23548,1,0,0:0:0:0:
210,55,23659,1,0,0:0:0:0:
194,52,23769,1,0,0:2:0:0:
180,47,23879,1,0,0:0:0:0:
167,40,23989,1,0,0:2:0:0:
152,33,24100,1,0,0:2:0:0:
139,25,24210,1,0,0:2:0:0:
7,112,24320,5,2,0:2:0:0:
22,111,24431,1,0,0:0:0:0:
36,112,24541,1,0,0:0:0:0:
50,115,24651,1,0,0:2:0:0:
64,119,24762,1,0,0:2:0:0:
77,125,24872,1,0,0:2:0:0:
89,133,24982,1,0,0:2:0:0:
99,143,25092,1,0,0:2:0:0:
107,155,25203,1,0,0:2:0:0:
115,167,25313,1,0,0:2:0:0:
125,177,25423,1,0,0:2:0:0:
137,185,25534,1,0,0:2:0:0:
151,190,25644,1,0,0:2:0:0:
165,192,25754,1,0,0:2:0:0:
179,190,25864,1,0,0:2:0:0:
192,183,25975,1,0,0:2:0:0:
202,172,26085,1,0,0:2:0:0:
291,122,26195,5,2,0:2:0:0:
287,136,26306,1,0,0:0:0:0:
284,150,26416,1,0,0:0:0:0:
282,164,26526,1,0,0:2:0:0:
282,179,26637,1,0,0:2:0:0:
284,193,26747,1,0,0:2:0:0:
288,207,26857,1,0,0:2:0:0:
379,235,26967,5,2,0:2:0:0:
368,245,27078,1,0,0:0:0:0:
359,255,27188,1,0,0:0:0:0:
350,267,27298,1,0,0:2:0:0:
343,280,27409,1,0,0:0:0:0:
337,293,27519,1,0,0:2:0:0:
334,307,27629,1,0,0:2:0:0:
335,321,27739,1,0,0:2:0:0:
418,370,27850,5,2,0:2:0:0:
403,367,27960,1,0,0:0:0:0:
388,365,28070,1,0,0:0:0:0:
372,364,28181,1,0,0:2:0:0:
357,365,28291,1,0,0:2:0:0:
342,366,28401,1,0,0:2:0:0:
327,361,28512,1,0,0:2:0:0:
313,353,28622,1,0,0:2:0:0:
303,341,28732,1,0,0:2:0:0:
296,327,28842,1,0,0:2:0:0:
294,311,28953,1,0,0:2:0:0:
296,296,29063,1,0,0:2:0:0:
292,281,29173,1,0,0:2:0:0:
282,268,29284,1,0,0:2:0:0:
269,259,29394,1,0,0:2:0:0:
254,255,29504,1,0,0:2:0:0:
239,257,29614,1,0,0:2:0:0:
153,292,29725,5,2,0:2:0:0:
162,276,29835,1,0,0:0:0:0:
167,258,29945,1,0,0:0:0:0:
169,240,30056,1,0,0:2:0:0:
168,222,30166,1,0,0:2:0:0:
164,204,30276,1,0,0:2:0:0:
153,189,30387,1,0,0:2:0:0:
112,101,30497,5,2,0:2:0:0:
129,104,30607,1,0,0:0:0:0:
146,106,30717,1,0,0:0:0:0:
163,108,30828,1,0,0:2:0:0:
180,110,30938,1,0,0:0:0:0:
197,112,31048,1,0,0:2:0:0:
214,114,31159,1,0,0:2:0:0:
231,116,31269,1,0,0:2:0:0:
311,66,31379,5,2,0:2:0:0:
328,64,31489,1,0,0:0:0:0:
345,67,31600,1,0,0:0:0:0:
361,73,31710,1,0,0:2:0:0:
373,85,31820,1,0,0:2:0:0:
383,99,31931,1,0,0:2:0:0:
390,115,32041,1,0,0:2:0:0:
393,132,32151,1,0,0:2:0:0:
392,150,32262,1,0,0:2:0:0:
386,167,32372,1,0,0:2:0:0:
377,182,32482,1,0,0:2:0:0:
370,198,32592,1,0,0:2:0:0:
366,215,32703,1,0,0:2:0:0:
366,232,32813,1,0,0:2:0:0:
370,249,32923,1,0,0:2:0:0:
376,265,33034,1,0,0:2:0:0:
386,279,33144,1,0,0:2:0:0:
463,329,33254,5,2,0:2:0:0:
442,331,33364,1,0,0:0:0:0:
420,333,33475,1,0,0:2:0:0:
399,335,33585,1,0,0:2:0:0:
378,337,33695,1,0,0:2:0:0:
357,339,33806,1,0,0:2:0:0:
336,341,33916,1,0,0:2:0:0:
315,343,34026,1,0,0:2:0:0:
294,346,34137,1,0,0:2:0:0:
273,349,34247,1,0,0:2:0:0:
251,350,34357,1,0,0:2:0:0:
230,352,34467,1,0,0:2:0:0:
209,354,34577,1,0,0:2:0:0:
188,356,34688,1,0,0:2:0:0:
167,358,34798,1,0,0:2:0:0:
95,297,34908,5,2,0:2:0:0:
117,287,35019,1,0,0:0:0:0:
135,272,35129,1,0,0:0:0:0:
149,253,35239,1,0,0:2:0:0:
155,229,35350,1,0,0:2:0:0:
153,205,35460,1,0,0:2:0:0:
144,182,35570,1,0,0:2:0:0:
126,165,35681,1,0,0:2:0:0:
80,64,35791,5,2,0:2:0:0:
108,73,35901,1,0,0:0:0:0:
137,77,36012,1,0,0:0:0:0:
166,77,36122,1,0,0:2:0:0:
194,69,36232,1,0,0:0:0:0:
277,35,36342,6,0,L|273:107,6,45.0000017166138,2|2|2|2|2|2|2,0:2|0:2|0:2|0:2|0:2|0:2|0:2,0:0:0:0:
373,40,36784,6,0,B|368:133|368:133|351:149|351:149|349:242|349:242|394:285|394:285|393:358|393:358|362:338,1,360,6|0,3:2|0:2,0:0:0:0:
494,208,37225,2,0,P|463:203|440:202,2,45.0000017166138,2|2|2,0:2|0:2|0:2,0:0:0:0:
373,40,37556,6,0,B|360:132|360:132|342:146|342:146|331:239|331:239|373:286|373:286|365:359|365:359|336:335,1,360,6|0,3:2|0:0,0:0:0:0:
231,205,38107,1,2,0:2:0:0:
236,173,38217,1,2,0:2:0:0:
242,141,38328,1,2,0:2:0:0:
373,40,38438,6,0,B|352:130|352:130|332:143|332:143|314:235|314:235|351:285|351:285|338:357|338:357|310:331,1,360,6|2,3:2|0:2,0:0:0:0:
100,268,40313,6,0,B|154:265|181:212|181:212|208:280|293:287|293:287|343:227|305:149,1,360,6|0,3:2|0:2,0:0:0:0:
241,302,40754,2,0,P|277:313|297:313,2,45.0000017166138,2|2|2,0:2|0:2|0:2,0:0:0:0:
100,268,41085,6,0,B|154:269|185:219|185:219|206:289|290:303|290:303|345:248|314:167,1,360,6|0,3:2|0:0,0:0:0:0:
109,137,41637,1,2,0:2:0:0:
108,152,41747,1,2,0:2:0:0:
107,167,41857,1,2,0:2:0:0:
100,268,41967,6,0,B|153:273|188:226|188:226|203:298|286:319|286:319|345:269|321:186,1,360,6|2,3:2|0:2,0:0:0:0:
319,195,42372,1,0,0:0:0:0:
309,173,42445,1,0,0:0:0:0:
295,152,42519,1,2,0:2:0:0:
438,96,42739,1,2,0:2:0:0:
423,115,42813,1,0,0:0:0:0:
412,136,42887,1,0,0:0:0:0:
407,155,42960,1,2,0:2:0:0:
161,110,43622,6,0,P|181:104|216:103,2,45.0000017166138,2|2|2,0:2|0:2|0:2,0:0:0:0:
48,120,43842,6,0,B|88:175|74:245|74:245|140:215|200:235|226:308|153:353|116:311,1,360,6|0,3:2|0:2,0:0:0:0:
208,263,44284,1,2,0:2:0:0:
199,252,44394,1,2,0:2:0:0:
189,242,44504,1,2,0:2:0:0:
48,120,44614,6,0,B|83:178|63:246|63:246|131:222|189:247|208:322|132:361|99:316,1,360,2|0,3:2|0:0,0:0:0:0:
196,129,45166,2,0,P|163:148|145:179,2,45.0000017166138,2|2|2,0:2|0:2|0:2,0:0:0:0:
48,120,45497,6,0,B|77:181|51:247|51:247|122:229|177:259|190:336|110:367|81:319,1,360,6|0,3:2|0:0,0:0:0:0:
82,323,45901,1,0,0:0:0:0:
82,323,45965,6,0,P|125:312|165:311,3,60,0|0|0|0,0:0|0:0|0:0|0:0,0:0:0:0:
173,273,46186,2,0,P|216:284|256:285,3,60,0|0|0|0,0:0|0:0|0:0|0:0,0:0:0:0:
271,317,46406,6,0,P|314:306|366:308,1,90,0|0,0:0|0:0,0:0:0:0:
294,203,46572,2,0,P|249:203|205:192,1,90,0|0,0:0|0:0,0:0:0:0:
41,266,46765,6,0,P|99:255|158:263,1,120,0|0,0:0|0:0,0:0:0:0:
382,79,47013,2,0,P|298:111|210:102,1,180,0|0,0:0|0:0,0:0:0:0:
81,15,47372,5,2,0:2:0:0:
81,15,47482,2,0,L|85:80,1,45.0000017166138,0|2,0:2|0:2,0:0:0:0:
183,156,47703,1,2,0:2:0:0:
183,156,47813,2,0,L|187:91,1,45.0000017166138,0|2,0:2|0:2,0:0:0:0:
285,15,48034,1,2,0:2:0:0:
285,15,48144,2,0,L|289:80,1,45.0000017166138,0|2,0:2|0:2,0:0:0:0:
192,160,48364,6,0,L|196:95,2,45.0000017166138,0|2|0,0:2|0:2|0:2,0:0:0:0:
238,240,48695,2,0,P|287:248|304:245,1,45.0000017166138,2|2,0:2|0:2,0:0:0:0:
164,291,48916,2,0,P|202:322|218:328,1,45.0000017166138,2|2,0:2|0:2,0:0:0:0:
114,212,49137,5,2,0:2:0:0:
114,212,49247,2,0,L|37:207,1,45.0000017166138,0|2,0:2|0:2,0:0:0:0:
207,154,49467,1,2,0:2:0:0:
207,154,49577,2,0,L|284:149,1,45.0000017166138,0|2,0:2|0:2,0:0:0:0:
114,96,49798,1,2,0:2:0:0:
114,96,49908,2,0,L|37:91,1,45.0000017166138,0|2,0:2|0:2,0:0:0:0:
198,33,50129,1,0,0:2:0:0:
198,33,50239,2,0,L|231:28,3,22.5000008583069,2|0|0|0,0:2|0:0|0:2|0:0,0:0:0:0:
252,57,50460,6,0,L|286:63,4,22.5000008583069,2|0|0|0|2,0:2|0:2|0:2|0:2|0:2,0:0:0:0:
217,136,50791,1,0,0:2:0:0:
299,183,50901,5,2,0:2:0:0:
299,183,51012,2,0,P|300:215|293:234,1,45.0000017166138,0|2,0:2|0:2,0:0:0:0:
211,240,51232,1,2,0:2:0:0:
211,240,51343,2,0,P|195:268|180:281,1,45.0000017166138,0|2,0:2|0:2,0:0:0:0:
104,257,51562,1,2,0:2:0:0:
104,257,51673,2,0,P|76:273|56:277,1,45.0000017166138,0|2,0:2|0:2,0:0:0:0:
0,171,51894,2,0,P|8:191|11:226,2,45.0000017166138,0|2|0,0:2|0:2|0:2,0:0:0:0:
45,98,52225,6,0,L|121:111,2,45.0000017166138,2|2|2,0:2|0:2|0:2,0:0:0:0:
7,17,52556,1,2,0:2:0:0:
7,17,52611,1,0,0:2:0:0:
7,17,52666,6,0,L|65:15,2,45.0000017166138,2|0|2,0:2|0:2|0:2,0:0:0:0:
109,100,52997,2,0,L|167:102,2,45.0000017166138,2|0|2,0:2|0:2|0:2,0:0:0:0:
211,17,53328,1,2,0:2:0:0:
211,17,53438,2,0,L|269:15,1,45.0000017166138,0|2,0:2|0:2,0:0:0:0:
315,106,53659,1,0,0:2:0:0:
315,106,53769,6,0,L|357:101,2,22.5000008583069,2|0|0,0:2|0:2|0:2,0:0:0:0:
244,172,53989,2,0,L|202:167,2,22.5000008583069,2|0|0,0:2|0:2|0:2,0:0:0:0:
315,238,54210,2,0,L|357:233,2,22.5000008583069,2|0|0,0:2|0:2|0:2,0:0:0:0:
249,298,54431,6,0,L|175:287,1,60,0|0,0:2|0:2,0:0:0:0:
128,224,54651,2,0,L|53:226,1,60,0|0,0:2|0:2,0:0:0:0:
319,359,54872,6,0,L|393:348,1,60,0|0,0:2|0:2,0:0:0:0:
440,285,55092,2,0,L|514:287,1,60,0|0,0:2|3:2,0:0:0:0:
499,286,55258,1,0,3:2:0:0:
499,286,55313,6,0,L|440:285,1,60,0|0,0:2|0:2,0:0:0:0:
384,199,55534,2,0,L|324:200,1,60,0|0,0:2|0:2,0:0:0:0:
113,168,55754,6,0,L|172:166,1,60,0|0,0:2|0:2,0:0:0:0:
240,86,55975,2,0,L|299:87,1,60,0|0,0:2|3:2,0:0:0:0:
299,87,56140,1,0,3:2:0:0:
299,87,56195,6,0,L|239:85,1,60,0|0,0:2|0:2,0:0:0:0:
396,147,56416,2,0,L|455:145,1,60,0|0,0:2|0:2,0:0:0:0:
268,192,56637,6,0,L|208:190,1,60,0|0,0:2|0:2,0:0:0:0:
365,252,56858,2,0,L|424:250,1,60,0|0,0:2|3:2,0:0:0:0:
424,250,57023,1,0,3:2:0:0:
424,250,57078,6,0,L|365:252,1,60,0|0,0:2|0:2,0:0:0:0:
290,351,57298,2,0,L|230:349,1,60,0|0,0:2|0:2,0:0:0:0:
243,149,57519,6,0,L|303:151,1,60,0|0,0:2|0:2,0:0:0:0:
138,63,57739,2,0,L|79:65,1,60,0|0,0:2|3:2,0:0:0:0:
78,65,57905,1,0,3:2:0:0:
79,65,57960,6,0,L|138:63,2,60,0|0|0,0:2|0:2|0:2,0:0:0:0:
35,155,58291,1,0,3:2:0:0:
35,155,58346,1,0,3:2:0:0:
35,155,58401,2,0,L|94:153,2,60,0|0|0,0:2|0:2|0:2,0:0:0:0:
71,249,58732,1,0,0:2:0:0:
71,249,58787,1,0,3:2:0:0:
71,249,58842,2,0,L|130:247,2,60,0|0|0,0:2|0:2|0:2,0:0:0:0:
32,356,59173,1,0,0:2:0:0:
32,356,59228,1,0,3:2:0:0:
32,356,59283,2,0,L|91:354,1,60,0|0,0:2|0:2,0:0:0:0:
196,329,59504,2,0,L|255:330,1,60,0|0,0:2|0:2,0:0:0:0:
354,384,59725,5,8,0:2:0:0:
360,360,59835,1,8,0:2:0:0:
366,336,59945,1,8,0:2:0:0:
372,312,60056,1,8,0:2:0:0:
466,248,60166,5,8,0:2:0:0:
467,272,60276,1,8,0:2:0:0:
279,289,60387,5,8,0:2:0:0:
276,266,60497,1,8,0:2:0:0:
375,267,60717,5,0,1:2:0:0:
375,267,60828,2,0,P|378:238|385:205,1,60,0|0,1:2|1:2,0:0:0:0:
316,104,61048,1,0,1:2:0:0:
316,104,61159,1,0,1:2:0:0:
265,201,61269,1,0,1:2:0:0:
265,201,61379,1,0,1:2:0:0:
92,77,61489,6,0,B|140:55|140:55|186:101|164:225,1,180.000006866455,4|0,3:2|0:0,0:0:0:0:
51,268,61931,1,10,0:2:0:0:
76,271,62041,1,2,0:2:0:0:
42,265,62151,1,2,0:2:0:0:
92,77,62262,6,0,B|141:59|141:59|183:109|150:230,1,180.000006866455,4|0,3:2|0:2,0:0:0:0:
161,181,62813,2,0,P|181:133|190:123,2,41.9999987182618,10|2|2,0:2|0:2|0:2,0:0:0:0:
286,290,63144,2,0,P|289:243|275:185,1,90.0000034332277,6|0,3:2|0:2,0:0:0:0:
293,196,63364,2,0,P|301:240|298:284,1,90.0000034332277,0|0,3:2|0:0,0:0:0:0:
151,354,63585,5,0,0:2:0:0:
92,265,63695,2,0,B|137:248|137:248|195:253,2,90.0000034332277,10|2|2,0:2|0:2|0:2,0:0:0:0:
1,170,64026,6,0,P|51:176|94:166,1,77.9999964294435,0|0,3:2|0:2,0:0:0:0:
254,32,64247,1,0,3:2:0:0:
169,52,64357,2,0,L|163:137,1,77.9999964294435,0|0,3:2|0:2,0:0:0:0:
297,234,64578,2,0,L|284:179,1,48,10|0,0:2|0:2,0:0:0:0:
267,182,64798,2,0,B|292:273|292:273|270:346,1,153.000002918243,2|0,0:2|0:0,0:0:0:0:
264,354,65019,6,0,B|326:269|421:313|421:313|403:333|358:327,1,227.999993911743,4|0,3:2|0:0,0:0:0:0:
151,315,65460,2,0,L|161:275,1,30,10|0,0:2|0:2,0:0:0:0:
138,316,65570,2,0,L|148:276,1,30,2|0,0:2|0:2,0:0:0:0:
124,321,65681,1,2,0:2:0:0:
264,354,65791,6,0,B|333:274|423:326|423:326|404:345|359:335,1,227.999993911743,4|0,3:2|0:2,0:0:0:0:
300,224,66122,1,2,0:2:0:0:
300,224,66177,2,0,L|307:190,1,30,0|0,0:0|0:0,0:0:0:0:
439,152,66342,2,0,P|380:145|342:100,1,120,10|2,0:2|0:2,0:0:0:0:
119,132,66673,6,0,P|180:116|255:132,1,120,4|0,3:2|0:2,0:0:0:0:
236,109,66894,2,0,P|176:101|119:117,1,120,4|0,3:2|0:0,0:0:0:0:
28,214,67114,6,0,P|35:193|41:183,1,30,2|2,0:2|0:2,0:0:0:0:
41,213,67225,2,0,P|121:212|108:361,1,240,10|0,0:2|0:2,0:0:0:0:
275,351,67556,6,0,P|257:263|282:207,1,120,2|0,3:2|0:2,0:0:0:0:
373,340,67776,5,2,3:2:0:0:
373,340,67887,1,2,3:2:0:0:
250,209,67997,2,0,P|317:149|378:143,1,132.00000402832,0|10,0:2|0:2,0:0:0:0:
248,50,68217,5,2,3:2:0:0:
376,165,68328,2,0,P|463:183|520:157,1,143.999995605469,2|0,3:2|0:2,0:0:0:0:
158,250,68548,6,0,B|75:202|1:251|1:251|37:253|62:282,1,227.999993911743,4|0,3:2|0:0,0:0:0:0:
233,370,68989,1,10,0:2:0:0:
301,281,69100,1,2,0:2:0:0:
286,291,69210,1,2,0:2:0:0:
158,250,69320,6,0,B|70:210|1:267|1:267|37:265|65:291,1,227.999993911743,4|0,3:2|0:2,0:0:0:0:
197,147,69651,2,0,P|153:150|132:113,1,90,2|0,0:2|0:2,0:0:0:0:
134,101,69872,1,10,0:2:0:0:
45,156,69982,1,2,0:2:0:0:
40,141,70092,1,2,0:2:0:0:
134,0,70203,6,0,P|141:65|129:115,1,90.0000034332277,4|0,3:2|0:2,0:0:0:0:
148,89,70423,2,0,P|152:44|144:0,1,90.0000034332277,0|0,3:2|0:0,0:0:0:0:
278,88,70644,1,0,0:2:0:0:
380,64,70754,2,0,L|475:47,2,90.0000034332277,10|2|2,0:2|0:2|0:2,0:0:0:0:
373,247,71085,6,0,P|354:206|348:162,1,90.0000034332277,2|0,3:2|0:2,0:0:0:0:
435,358,71306,1,0,3:2:0:0:
375,265,71416,2,0,P|334:246|289:239,1,90.0000034332277,2|0,3:2|0:2,0:0:0:0:
137,331,71637,2,0,B|164:331|182:320|182:320|193:331|193:331|194:336|194:336|194:331|194:331|279:333,1,120,8|0,0:2|0:2,0:0:0:0:
246,323,71857,6,0,L|47:324,1,180,0|0,0:2|0:0,0:0:0:0:
51,333,72078,6,0,B|115:313|127:256|127:256|37:242|25:126,1,251.999992309571,4|0,3:2|0:2,0:0:0:0:
161,59,72409,1,0,3:2:0:0:
119,147,72519,2,0,P|57:152|18:139,1,90.0000034332277,8|0,0:2|0:2,0:0:0:0:
252,22,72739,2,0,B|311:52|311:52|296:212,1,180.000006866455,2|2,0:2|0:2,0:0:0:0:
332,204,73015,6,0,L|329:59,1,135.000005149841,0|2,0:0|3:2,0:0:0:0:
450,15,73291,1,0,0:2:0:0:
450,15,73401,2,0,P|468:78|454:122,1,90.0000034332277,8|0,0:2|0:2,0:0:0:0:
361,238,73622,1,2,0:2:0:0:
396,232,73695,1,0,0:0:0:0:
431,227,73769,1,0,0:0:0:0:
466,222,73842,6,0,B|501:281|485:352,1,102.000001945496,2|0,0:2|0:0,0:0:0:0:
276,197,74063,1,2,3:2:0:0:
276,197,74173,1,0,0:2:0:0:
322,113,74284,2,0,P|377:114|423:138,2,77.9999964294435,10|2|2,0:2|0:2|0:2,0:0:0:0:
185,202,74614,6,0,L|203:311,1,90.0000034332277,2|0,3:2|0:2,0:0:0:0:
182,65,74834,1,2,3:2:0:0:
87,184,74945,2,0,L|105:293,1,90.0000034332277,2|0,3:2|0:0,0:0:0:0:
350,274,75166,5,10,0:2:0:0:
265,243,75276,1,0,0:0:0:0:
199,290,75387,1,0,0:0:0:0:
189,352,75497,1,2,0:2:0:0:
189,352,75607,6,0,B|225:278|197:220|197:220|161:263,1,180.000006866455,4|0,3:2|0:0,0:0:0:0:
25,84,76048,2,0,P|26:101|25:119,2,35.9999989013672,2|2|2,0:2|0:2|0:2,0:0:0:0:
189,352,76379,6,0,B|218:275|185:219|185:219|153:265,1,180.000006866455,4|0,3:2|0:2,0:0:0:0:
160,254,77041,1,2,0:2:0:0:
149,271,77151,1,2,0:2:0:0:
282,282,77262,6,0,P|299:208|290:166,1,90.0000034332277,4|0,3:2|0:2,0:0:0:0:
308,194,77482,2,0,P|307:238|292:281,1,90.0000034332277,0|0,3:2|0:0,0:0:0:0:
209,128,77703,1,0,0:2:0:0:
297,61,77813,2,0,L|401:73,2,90.0000034332277,10|2|2,0:2|0:2|0:2,0:0:0:0:
118,197,78144,6,0,P|99:146|104:87,1,90.0000034332277,0|0,3:2|0:2,0:0:0:0:
164,286,78364,1,0,3:2:0:0:
28,254,78475,2,0,P|62:212|116:186,1,90.0000034332277,2|0,3:2|0:2,0:0:0:0:
267,141,78695,6,0,P|224:129|194:128,1,60,10|0,0:2|0:2,0:0:0:0:
195,119,78916,2,0,P|282:119|330:61,1,153.000002918243,2|0,0:2|0:0,0:0:0:0:
340,55,79137,6,0,B|351:95|391:115|391:115|335:155|323:326,1,227.999993911743,4|0,3:2|0:0,0:0:0:0:
151,280,79578,2,0,P|155:254|160:235,1,30,10|0,0:2|0:2,0:0:0:0:
168,286,79688,2,0,P|172:260|177:241,1,30,2|0,0:2|0:2,0:0:0:0:
181,291,79798,1,2,0:2:0:0:
340,55,79909,6,0,B|354:93|396:110|396:110|343:155|346:326,1,227.999993911743,4|0,3:2|0:2,0:0:0:0:
452,292,80239,2,0,P|447:367|439:384,2,75.9999979705811,0|0|0,1:2|1:2|1:2,0:0:0:0:
443,278,80460,1,8,0:2:0:0:
496,207,80570,1,0,0:0:0:0:
444,137,80681,1,0,0:2:0:0:
347,244,80791,6,0,P|260:260|216:249,1,90.0000034332277,4|0,3:2|0:2,0:0:0:0:
261,271,81012,2,0,P|305:269|348:255,1,90.0000034332277,4|0,3:2|0:0,0:0:0:0:
184,187,81232,1,2,0:2:0:0:
184,187,81287,1,2,0:2:0:0:
184,187,81342,2,0,B|193:201|211:215|211:215|209:278|142:322|63:310|23:252,1,270.000010299683,10|0,0:2|3:2,0:0:0:0:
34,265,81728,1,0,3:2:0:0:
34,265,81784,6,0,L|50:175,1,90.0000034332277,10|0,0:2|0:2,0:0:0:0:
18,84,82004,1,0,3:2:0:0:
130,250,82114,6,0,L|145:159,1,90.0000034332277,10|0,0:2|0:2,0:0:0:0:
113,68,82334,1,0,3:2:0:0:
228,246,82445,6,0,L|243:155,1,90.0000034332277,10|0,0:2|0:2,0:0:0:0:
376,27,82666,6,0,B|348:39|318:34|318:34|395:62|416:172,1,215.999993408203,4|0,3:2|0:0,0:0:0:0:
220,109,83107,1,10,0:2:0:0:
230,23,83217,1,2,0:2:0:0:
256,23,83328,1,2,0:2:0:0:
279,33,83438,2,0,P|343:46|383:37,1,90,2|0,0:2|0:0,0:0:0:0:
376,27,83659,6,0,B|348:39|318:34|318:34|395:62|416:172,1,215.999993408203,4|0,3:2|0:2,0:0:0:0:
336,318,83989,1,10,0:2:0:0:
428,260,84100,1,2,0:2:0:0:
496,343,84210,1,2,0:2:0:0:
317,334,84320,5,2,3:2:0:0:
317,334,84431,2,0,P|299:268|304:240,2,71.9999978027344,0|0|0,1:2|1:2|1:2,0:0:0:0:
354,156,84762,1,0,3:2:0:0:
354,156,84817,1,0,3:2:0:0:
354,156,84872,6,0,P|288:183|130:162,1,215.999993408203,12|0,0:2|0:2,0:0:0:0:
37,142,85203,2,0,P|41:185|33:224,1,60,0|2,3:2|0:2,0:0:0:0:
0,55,85423,1,0,0:0:0:0:
101,35,85534,2,0,P|140:53|170:79,1,60,0|0,3:2|0:0,0:0:0:0:
146,170,85754,5,10,0:2:0:0:
268,70,85901,1,2,0:2:0:0:
396,178,86048,1,2,0:2:0:0:
84,29,86195,5,2,3:2:0:0:
256,192,86342,12,0,87960,0:0:0:0:
79,271,89725,6,0,B|74:222|48:194|48:194|98:266|191:282|191:282|241:236|327:239,1,360,4|0,3:2|0:2,0:0:0:0:
421,348,90166,1,2,0:2:0:0:
390,244,90276,1,2,0:2:0:0:
472,173,90387,1,2,0:2:0:0:
422,363,90497,6,0,P|332:328|236:362,1,180.000006866455,2|2,0:2|0:2,0:0:0:0:
129,229,90828,2,0,P|215:249|267:231,1,90.0000034332277,2|0,0:2|0:2,0:0:0:0:
390,244,91048,1,2,0:2:0:0:
301,181,91159,1,2,0:2:0:0:
295,73,91269,1,2,0:2:0:0:
115,211,91379,5,2,3:2:0:0:
60,117,91489,2,0,P|84:38|112:10,1,90.0000034332277,2|0,3:2|0:2,0:0:0:0:
0,258,91710,2,0,P|5:302|28:340,1,90.0000034332277,2|0,0:2|0:2,0:0:0:0:
312,327,91931,1,2,0:2:0:0:
208,296,92041,1,2,0:2:0:0:
137,378,92152,1,2,0:2:0:0:
327,328,92262,6,0,B|343:235|343:235|305:139,1,180.000006866455,2|2,0:2|0:2,0:0:0:0:
241,23,92592,1,2,0:2:0:0:
323,61,92703,1,0,3:2:0:0:
220,36,92813,6,0,P|141:43|94:67,1,90.0000034332277,2|0,0:2|3:2,0:0:0:0:
0,170,93034,2,0,P|52:161|136:181,1,135.000005149841,0|0,0:0|0:0,0:0:0:0:
151,191,93254,6,0,B|190:238|176:306|176:306|213:237|283:233,1,240,4|2,3:2|0:2,0:0:0:0:
466,272,93695,1,2,0:2:0:0:
385,208,93806,1,2,0:2:0:0:
405,108,93916,1,2,0:2:0:0:
381,224,94026,2,0,B|312:253|246:202|246:202|272:229|268:256,1,204.000003890991,2|2,0:2|0:2,0:0:0:0:
114,349,94357,2,0,P|158:301|174:256,1,102.000001945496,2|0,0:2|0:2,0:0:0:0:
61,166,94578,5,2,0:2:0:0:
152,122,94688,1,2,0:2:0:0:
235,179,94798,1,2,0:2:0:0:
342,100,94909,5,2,3:2:0:0:
342,100,95019,2,0,L|319:-22,1,102.000001945496,2|0,3:2|0:2,0:0:0:0:
421,172,95239,6,0,L|406:243,2,51.0000009727478,2|2|2,0:2|0:2|3:2,0:0:0:0:
476,97,95460,2,0,L|461:26,2,51.0000009727478,2|0|2,0:2|0:0|3:2,0:0:0:0:
323,201,95681,2,0,L|308:272,2,51.0000009727478,2|0|0,3:2|0:0|0:2,0:0:0:0:
207,87,95901,6,0,B|229:132|309:134|349:61|306:2|306:2|281:62|372:115|323:235,1,408.000007781983,8|0,0:2|0:2,0:0:0:0:
308,332,96453,2,0,P|340:251|344:126,1,204.000003890991,0|0,3:2|0:2,0:0:0:0:
0,283,96784,6,0,B|-23:219|33:171|82:168|132:194|144:250|144:250|153:292|210:310|238:273,1,360,4|0,3:2|0:2,0:0:0:0:
389,82,97225,1,2,0:2:0:0:
303,165,97335,1,2,0:2:0:0:
354,272,97445,1,2,0:2:0:0:
395,70,97556,6,0,B|353:36|309:40|309:40|268:76|177:71,1,180.000006866455,0|2,0:2|0:2,0:0:0:0:
56,102,97887,2,0,P|109:126|156:129,1,90.0000034332277,2|0,0:2|0:2,0:0:0:0:
325,210,98107,1,2,0:2:0:0:
218,227,98217,1,2,0:2:0:0:
105,248,98328,1,2,0:2:0:0:
285,316,98438,5,2,3:2:0:0:
331,194,98548,2,0,P|324:149|303:110,1,90.0000034332277,2|0,3:2|0:2,0:0:0:0:
432,301,98769,2,0,P|410:340|404:384,1,90.0000034332277,2|0,0:2|0:2,0:0:0:0:
512,182,98989,5,2,0:2:0:0:
424,134,99100,1,2,0:2:0:0:
335,176,99210,1,2,0:2:0:0:
305,270,99320,5,2,0:2:0:0:
229,319,99431,1,10,0:2:0:0:
152,291,99541,1,2,0:2:0:0:
126,223,99651,1,2,0:2:0:0:
142,171,99762,1,2,3:2:0:0:
221,227,99872,6,0,P|235:280|230:336,1,90.0000034332277,2|0,0:2|3:2,0:0:0:0:
19,106,100092,2,0,B|50:120|60:138|60:138|134:150|199:80,1,180,0|0,0:0|0:0,0:0:0:0:
185,84,100313,6,0,P|231:93|285:171,1,120,6|2,3:2|0:2,0:0:0:0:
377,196,100754,2,0,P|370:152|370:124,1,60,0|0,0:0|0:0,0:0:0:0:
426,294,100975,2,0,P|370:284|341:271,2,80,2|0|0,0:2|0:0|0:0,0:0:0:0:
219,345,101444,2,0,P|268:340|318:351,2,90
52,297,101967,1,0,3:2:0:0:
52,297,102078,6,0,L|54:216,1,60,0|0,3:2|0:0,0:0:0:0:
154,81,102298,2,0,L|142:184,1,90.0000034332277,2|0,0:2|3:2,0:0:0:0:
219,345,102519,2,0,L|208:255,1,90.0000034332277,2|0,0:2|3:2,0:0:0:0:
203,9,102739,2,0,P|146:26|86:22,2,120.000004577637,2|2|2,3:2|0:2|0:2,0:0:0:0:
319,65,103181,1,2,0:2:0:0:
264,189,103291,1,0,3:2:0:0:
264,189,103401,2,0,L|372:170,1,90.0000034332277,8|0,0:2|3:2,0:0:0:0:
224,309,103622,2,0,L|332:290,1,90.0000034332277,0|8,3:2|0:2,0:0:0:0:
141,218,103842,6,0,B|66:225|31:293|31:293|96:168|49:85|-10:111|-4:191|76:216,1,360,4|0,3:2|0:2,0:0:0:0:
141,341,104284,1,2,0:2:0:0:
238,294,104394,1,2,0:2:0:0:
336,338,104504,1,2,0:2:0:0:
476,246,104614,6,0,P|375:258|286:206,1,180.000006866455,2|2,0:2|0:2,0:0:0:0:
305,26,104945,1,2,0:2:0:0:
327,132,105056,1,2,0:2:0:0:
229,178,105166,1,2,0:2:0:0:
320,121,105276,2,0,P|380:120|425:125,1,90.0000034332277,2|2,0:2|0:2,0:0:0:0:
220,193,105497,5,0,3:2:0:0:
147,113,105607,2,0,L|27:122,1,90.0000034332277,0|0,3:2|0:2,0:0:0:0:
189,361,105828,1,2,0:2:0:0:
274,295,105938,1,2,0:2:0:0:
209,208,106048,2,0,L|157:206,1,45.0000017166138,2|0,0:2|0:2,0:0:0:0:
275,122,106159,2,0,L|327:120,1,45.0000017166138,2|0,0:2|0:2,0:0:0:0:
211,36,106269,2,0,P|149:21|106:23,1,90.0000034332277,2|2,0:2|0:2,0:0:0:0:
344,214,106489,6,0,P|388:211|431:199,1,90.0000034332277,10|0,0:2|0:2,0:0:0:0:
223,209,106710,2,0,B|204:250|204:250|221:357,1,120,2|0,0:2|3:2,0:0:0:0:
53,152,106931,2,0,B|72:111|72:111|60:37,1,120,2|0,0:2|3:2,0:0:0:0:
0,226,107151,2,0,P|88:237|139:128,1,180,2|0,0:2|0:0,0:0:0:0:
147,161,107372,6,0,P|128:245|140:301,1,120,6|2,3:2|0:2,0:0:0:0:
426,138,107813,5,2,0:2:0:0:
423,129,107868,1,0,0:2:0:0:
420,120,107923,2,0,L|433:46,1,60,2|2,0:2|0:2,0:0:0:0:
332,162,108254,5,10,0:2:0:0:
329,153,108309,1,0,0:2:0:0:
326,144,108364,2,0,L|340:69,1,60,2|2,0:2|0:2,0:0:0:0:
238,186,108695,5,2,0:2:0:0:
235,177,108750,1,0,0:2:0:0:
232,168,108806,2,0,L|246:93,1,60,2|2,0:2|0:2,0:0:0:0:
154,49,109026,1,2,3:2:0:0:
154,49,109137,6,0,B|108:95|108:95|140:225,1,180.000006866455,2|0,3:2|0:2,0:0:0:0:
223,346,109467,1,2,3:2:0:0:
295,291,109578,2,0,P|249:258|199:257,1,90.0000034332277,2|0,0:2|3:2,0:0:0:0:
27,292,109798,1,2,3:2:0:0:
27,292,109909,1,2,0:2:0:0:
47,204,110019,6,0,B|84:218|106:247|106:247|224:242|232:144|232:144|284:192|372:176,1,360.000013732911,10|0,0:2|0:2,0:0:0:0:
485,104,110570,2,0,P|331:170|240:140,1,270.000010299683,0|0,3:2|0:0,0:0:0:0:
106,48,111012,1,0,1:2:0:0:
125,36,111122,1,0,1:2:0:0:
145,30,111232,1,0,1:2:0:0:
101,189,111342,6,0,B|31:174|2:111|2:111|56:220|32:290|32:290|17:273|21:249,1,360,0|0,3:2|0:2,0:0:0:0:
121,368,111784,1,10,0:2:0:0:
212,311,111894,1,2,0:2:0:0:
305,363,112004,1,2,0:2:0:0:
391,298,112114,1,2,0:2:0:0:
373,190,112225,2,0,P|307:228|278:280,2,90.0000034332277,2|2|2,0:2|0:2|0:2,0:0:0:0:
501,88,112556,1,2,3:2:0:0:
501,88,112666,6,0,P|454:92|399:79,1,90.0000034332277,2|0,3:2|0:2,0:0:0:0:
218,114,112887,2,0,P|262:105|306:110,1,90.0000034332277,2|2,0:2|0:2,0:0:0:0:
168,223,113107,2,0,P|154:258|152:278,1,45.0000017166138,2|0,0:2|0:2,0:0:0:0:
110,141,113217,2,0,P|72:146|54:154,1,45.0000017166138,2|0,0:2|0:2,0:0:0:0:
152,37,113328,2,0,P|73:24|17:34,1,90.0000034332277,2|2,0:2|0:2,0:0:0:0:
218,114,113548,2,0,P|262:112|306:101,1,90.0000034332277,10|0,0:2|0:2,0:0:0:0:
486,53,113769,6,0,B|476:108|476:108|505:173,1,120,2|0,0:2|3:2,0:0:0:0:
391,282,113989,2,0,B|409:227|409:227|375:153,1,120,2|0,0:2|3:2,0:0:0:0:
180,224,114210,2,0,L|347:242,1,120,2|0,0:2|0:2,0:0:0:0:
374,54,114431,5,2,3:2:0:0:
256,192,114541,12,0,116967,0:2:0:0:
356,146,117078,5,4,3:2:0:0:
256,192,117188,12,0,117960,0:2:0:0:
136,323,132078,6,0,P|130:279|251:244,1,167.999994873047,2|0,0:2|0:2,0:0:0:0:
123,322,132629,2,0,P|120:292|130:262,1,41.9999987182618,0|0,0:2|0:2,0:0:0:0:
223,225,132850,2,0,P|279:245|389:215,1,167.999994873047,2|0,0:2|0:2,0:0:0:0:
194,194,133401,1,0,0:2:0:0:
194,194,133512,2,0,P|213:217|235:231,1,41.9999987182618,0|0,0:2|0:2,0:0:0:0:
381,220,133732,6,0,L|390:168,1,41.9999987182618,2|0,0:2|0:0,0:0:0:0:
317,339,133953,1,0,0:0:0:0:
317,339,134063,2,0,L|308:287,1,41.9999987182618,0|0,0:2|0:0,0:0:0:0:
477,254,134284,1,2,0:2:0:0:
477,254,134394,2,0,L|484:295,2,41.9999987182618,0|0|0,0:2|0:2|0:2,0:0:0:0:
388,178,134725,5,2,0:2:0:0:
388,178,134835,2,0,L|395:137,1,41.9999987182618,2|2,0:2|0:2,0:0:0:0:
285,204,135056,1,2,0:2:0:0:
285,204,135166,2,0,L|284:162,1,41.9999987182618,2|0,0:2|0:2,0:0:0:0:
183,244,135387,2,0,L|175:203,1,41.9999987182618,0|0,0:2|0:2,0:0:0:0:
104,320,135607,6,0,B|65:218|65:218|93:144,1,167.999994873047,2|0,0:2|0:2,0:0:0:0:
97,330,136159,2,0,L|76:276,1,41.9999987182618,0|0,0:2|0:2,0:0:0:0:
16,98,136379,2,0,P|81:130|162:63,1,167.999994873047,2|0,0:2|0:2,0:0:0:0:
3,134,136931,2,0,P|32:130|54:133,2,41.9999987182618,0|0|0,0:2|0:2|0:2,0:0:0:0:
141,224,137262,5,2,0:2:0:0:
141,224,137372,2,0,P|154:196|159:171,1,41.9999987182618,0|0,0:0|0:0,0:0:0:0:
254,197,137592,1,0,0:2:0:0:
254,197,137702,2,0,P|251:166|243:142,1,41.9999987182618,0|2,0:0|0:2,0:0:0:0:
339,117,137924,1,0,0:2:0:0:
339,117,138034,2,0,P|320:91|301:74,1,41.9999987182618,0|0,0:2|0:2,0:0:0:0:
259,202,138254,5,2,0:2:0:0:
259,202,138364,2,0,L|317:214,1,41.9999987182618,0|0,0:2|0:2,0:0:0:0:
472,155,138585,1,0,0:2:0:0:
472,155,138695,2,0,L|430:163,1,41.9999987182618,2|0,0:2|0:2,0:0:0:0:
251,287,138916,2,0,L|309:299,1,41.9999987182618,0|0,0:2|0:2,0:0:0:0:
165,319,139137,6,0,P|159:275|257:199,1,167.999994873047,2|0,0:2|0:2,0:0:0:0:
150,324,139688,2,0,P|147:294|157:264,1,41.9999987182618,0|0,0:2|0:2,0:0:0:0:
242,198,139909,2,0,P|301:182|351:72,1,167.999994873047,2|0,0:2|0:2,0:0:0:0:
234,203,140460,1,0,0:2:0:0:
247,208,140570,2,0,P|267:204|286:196,1,41.9999987182618,0|0,0:2|0:2,0:0:0:0:
143,132,140791,6,0,L|152:80,1,41.9999987182618,2|0,0:2|0:0,0:0:0:0:
79,251,141012,1,0,0:0:0:0:
79,251,141122,2,0,L|70:199,1,41.9999987182618,0|0,0:2|0:0,0:0:0:0:
239,166,141343,1,2,0:2:0:0:
239,166,141453,2,0,L|246:207,2,41.9999987182618,0|0|0,0:2|0:2|0:2,0:0:0:0:
369,84,141784,5,2,0:2:0:0:
369,84,141894,2,0,L|328:77,1,41.9999987182618,0|0,0:2|0:2,0:0:0:0:
395,187,142115,1,0,0:2:0:0:
395,187,142225,2,0,L|353:188,1,41.9999987182618,2|0,0:2|0:2,0:0:0:0:
435,289,142446,2,0,L|394:297,1,41.9999987182618,0|0,0:2|0:2,0:0:0:0:
218,318,142666,6,0,B|320:279|320:279|394:307,1,167.999994873047,2|2,0:2|0:2,0:0:0:0:
209,311,143218,2,0,L|267:289,1,41.9999987182618,0|0,0:2|0:2,0:0:0:0:
336,148,143438,2,0,P|270:194|196:163,1,167.999994873047,0|0,0:2|0:2,0:0:0:0:
347,155,143989,2,0,P|312:191|294:203,1,41.9999987182618,2|0,0:2|0:2,0:0:0:0:
167,59,144210,1,0,0:2:0:0:
167,59,144320,6,0,L|236:64,1,41.9999987182618,2|0,0:2|0:0,0:0:0:0:
345,59,144541,1,0,0:0:0:0:
345,59,144651,2,0,L|303:62,2,41.9999987182618,0|0|0,0:2|0:2|0:2,0:0:0:0:
109,134,144983,1,0,0:2:0:0:
88,124,145092,1,0,0:2:0:0:
140,217,145203,6,0,L|285:200,1,125.999996154785,2|0,0:2|0:0,0:0:0:0:
91,296,145754,1,0,0:0:0:0:
91,296,145864,1,0,0:0:0:0:
161,353,145975,2,0,P|196:355|224:346,1,41.9999987182618,0|0,0:0|0:2,0:0:0:0:
332,267,146195,5,2,0:2:0:0:
184,63,146967,5,2,0:2:0:0:
423,141,147850,5,2,0:2:0:0:
423,141,149725,5,2,0:2:0:0:
184,218,150497,5,2,0:2:0:0:
332,15,151379,5,2,0:2:0:0:
234,276,151710,1,0,0:0:0:0:
228,248,151784,1,0,0:0:0:0:
223,220,151857,1,0,0:0:0:0:
217,192,151931,1,2,0:2:0:0:
123,270,152151,1,0,0:0:0:0:
117,242,152225,1,0,0:0:0:0:
112,214,152298,1,0,0:0:0:0:
106,186,152372,1,2,0:2:0:0:
320,324,153034,5,0,0:0:0:0:
303,346,153107,1,0,0:0:0:0:
282,365,153181,1,0,0:0:0:0:
255,374,153254,5,2,0:2:0:0:
107,170,154026,5,2,0:2:0:0:
346,248,154909,5,2,0:2:0:0:
346,248,156784,5,2,0:2:0:0:
256,192,156894,12,0,158438,0:2:0:0:
256,192,158548,12,0,159651,0:0:0:0:
344,231,159872,6,0,L|354:185,3,45.0000017166138,2|2|2|2,0:2|0:2|0:2|0:2,0:0:0:0:
319,152,160092,2,0,L|309:106,3,45.0000017166138,2|2|2|0,0:2|0:2|0:2|0:0,0:0:0:0:
309,108,160313,6,0,B|409:200|589:172|565:38|496:9|406:18|401:128,1,360,4|0,3:2|0:2,0:0:0:0:
402,292,160754,1,2,0:2:0:0:
391,280,160864,1,2,0:2:0:0:
374,273,160975,1,2,0:2:0:0:
309,108,161085,6,0,B|400:208|582:196|570:60|503:25|413:26|401:127,1,360.000013732911,4|0,3:2|0:0,0:0:0:0:
202,93,161637,2,0,P|182:104|166:119,2,45.0000017166138,2|2|2,0:2|0:2|0:2,0:0:0:0:
309,108,161967,6,0,B|390:215|573:219|573:82|509:42|419:35|398:134,1,360,4|2,3:2|0:2,0:0:0:0:
102,218,163842,6,0,B|155:246|165:318|165:318|147:217|214:132|309:144,1,360,4|0,3:2|0:2,0:0:0:0:
376,50,164284,1,2,0:2:0:0:
347,62,164394,1,2,0:2:0:0:
315,63,164504,1,2,0:2:0:0:
102,218,164614,6,0,B|152:250|156:323|156:323|146:220|221:142|314:162,1,360.000013732911,4|0,3:2|0:0,0:0:0:0:
390,244,165166,2,0,P|360:236|326:235,2,45.0000017166138,2|2|2,0:2|0:2|0:2,0:0:0:0:
102,218,165497,6,0,B|149:254|146:327|146:327|146:224|227:152|318:181,1,360.000013732911,4|2,3:2|0:2,0:0:0:0:
371,83,165883,2,0,P|322:83|316:84,2,30,2|2|2,0:2|0:2|0:2,0:0:0:0:
392,94,166048,1,2,0:2:0:0:
480,196,166269,2,0,P|529:196|535:197,1,30,2|2,0:2|0:2,0:0:0:0:
460,215,166379,2,0,P|502:239|507:243,1,30,2|2,0:2|0:2,0:0:0:0:
437,222,166489,6,0,P|456:261|470:309,1,90,2|0,0:2|0:0,0:0:0:0:
175,360,167151,6,0,L|184:290,3,45.0000017166138,2|2|2|0,0:2|0:2|0:2|0:0,0:0:0:0:
193,215,167372,6,0,B|151:222|71:155|94:96|94:96|110:148|82:185|76:185|46:227|92:295,1,360,4|0,3:2|0:2,0:0:0:0:
29,381,167813,1,2,0:2:0:0:
30,354,167923,1,2,0:2:0:0:
17,329,168034,1,2,0:2:0:0:
193,215,168144,6,0,B|151:225|66:165|84:105|84:105|104:155|79:194|73:195|47:239|99:303,1,360,4|0,3:2|0:0,0:0:0:0:
186,375,168695,2,0,P|146:361|113:362,2,45.0000017166138,2|2|2,0:2|0:2|0:2,0:0:0:0:
193,215,169026,6,0,B|152:229|62:177|74:114|74:114|99:163|78:204|72:205|50:252|107:311,1,360,4|2,3:2|0:2,0:0:0:0:
208,362,169431,1,0,0:0:0:0:
208,362,169495,2,0,P|251:351|291:350,3,60,0|0|0|0,0:0|0:0|0:0|0:0,0:0:0:0:
299,312,169716,2,0,P|342:323|382:324,3,60,0|0|0|0,0:0|0:0|0:0|0:0,0:0:0:0:
397,356,169936,6,0,P|440:345|492:347,1,90,0|0,0:0|0:0,0:0:0:0:
420,242,170102,2,0,P|375:242|331:231,1,90,0|0,0:0|0:0,0:0:0:0:
167,305,170295,6,0,P|225:294|284:302,1,120,0|0,0:0|0:0,0:0:0:0:
508,118,170543,2,0,P|424:150|336:141,1,180,0|0,0:0|0:0,0:0:0:0:
70,47,170901,5,8,3:2:0:0:
70,47,171012,2,0,L|60:134,1,60,0|0,0:0|0:2,0:0:0:0:
161,97,171232,1,8,3:2:0:0:
161,97,171343,2,0,L|151:184,1,60,0|0,0:0|0:2,0:0:0:0:
252,147,171563,1,8,3:2:0:0:
252,147,171674,2,0,L|242:234,1,60,0|0,0:0|0:2,0:0:0:0:
343,197,171893,1,8,3:2:0:0:
343,197,172004,2,0,L|333:284,1,60,0|0,0:0|0:2,0:0:0:0:
326,261,172225,6,0,L|329:200,1,53.9999983520508,0|0,3:2|1:2,0:0:0:0:
412,71,172666,5,8,3:2:0:0:
442,51,172776,2,0,P|484:45|517:46,1,60,0|0,0:0|0:2,0:0:0:0:
311,91,172997,1,8,3:2:0:0:
308,55,173107,2,0,P|323:15|341:-12,1,60,0|0,0:0|0:2,0:0:0:0:
277,188,173328,1,8,3:2:0:0:
245,173,173438,2,0,P|218:139|203:110,1,60,0|0,0:0|0:2,0:0:0:0:
344,265,173659,1,8,3:2:0:0:
315,286,173769,2,0,P|273:292|239:291,1,60,0|0,0:0|0:2,0:0:0:0:
428,234,173989,6,0,L|470:241,2,30,0|0|0,1:2|1:2|1:2,0:0:0:0:
349,172,174210,2,0,L|307:179,2,30,0|0|0,1:2|1:2|1:2,0:0:0:0:
431,114,174431,5,8,3:2:0:0:
455,59,174541,2,0,L|452:-4,1,60,0|0,0:0|0:2,0:0:0:0:
344,265,174762,5,8,3:2:0:0:
368,320,174872,2,0,L|365:383,1,60,0|0,0:0|0:2,0:0:0:0:
257,114,175093,5,8,3:2:0:0:
281,59,175203,2,0,L|278:-4,1,60,0|0,0:0|0:2,0:0:0:0:
170,265,175424,5,8,3:2:0:0:
194,320,175534,2,0,L|191:383,1,60,0|0,0:0|0:2,0:0:0:0:
96,214,175754,6,0,P|128:186|218:186,1,120,0|2,3:2|0:2,0:0:0:0:
373,286,176085,1,0,1:2:0:0:
373,286,176140,1,0,1:2:0:0:
373,286,176195,6,0,P|405:291|440:287,1,60,8|0,3:2|0:0,0:0:0:0:
510,224,176416,1,0,0:2:0:0:
291,210,176526,6,0,P|321:198|349:177,1,60,8|0,3:2|0:0,0:0:0:0:
378,87,176747,1,0,0:2:0:0:
181,185,176857,6,0,P|201:159|215:127,1,60,8|0,3:2|0:0,0:0:0:0:
195,35,177078,1,0,0:2:0:0:
73,218,177188,6,0,P|78:186|74:151,1,60,8|0,3:2|0:0,0:0:0:0:
10,81,177409,1,0,0:2:0:0:
61,237,177519,6,0,L|64:283,2,30,0|0|0,1:2|1:2|1:2,0:0:0:0:
88,146,177739,2,0,L|91:100,2,30,0|0|0,1:2|1:2|1:2,0:0:0:0:
160,219,177960,6,0,P|208:220|239:203,1,60,8|0,3:2|0:0,0:0:0:0:
277,143,178181,1,0,0:2:0:0:
243,53,178291,6,0,P|239:93|245:118,1,60,8|0,3:2|0:0,0:0:0:0:
324,265,178512,1,0,0:2:0:0:
324,265,178622,2,0,P|309:265|294:267,1,26.9999991760254,0|0,3:2|0:0,0:0:0:0:
289,281,178842,6,0,P|336:275|371:280,1,66.0000020141602,8|0,3:2|0:0,0:0:0:0:
426,342,179063,1,0,0:2:0:0:
512,137,179173,6,0,P|465:131|430:136,1,66.0000020141602,8|0,3:2|0:0,0:0:0:0:
375,198,179394,1,0,0:2:0:0:
375,198,179504,2,0,L|349:195,1,26.9999991760254,0|0,3:2|0:0,0:0:0:0:
330,189,179725,6,0,P|291:190|253:205,1,71.9999978027344,8|0,3:2|0:0,0:0:0:0:
201,273,179945,1,0,0:2:0:0:
36,279,180056,6,0,P|75:280|113:295,1,71.9999978027344,8|0,3:2|0:0,0:0:0:0:
165,363,180276,1,0,0:2:0:0:
165,363,180387,2,0,P|188:372|194:373,1,26.9999991760254,0|0,3:2|0:0,0:0:0:0:
209,367,180607,6,0,P|248:345|305:341,1,77.9999964294435,8|0,3:2|0:0,0:0:0:0:
369,365,180828,1,0,0:2:0:0:
275,239,180938,6,0,P|314:261|371:265,1,77.9999964294435,8|0,3:2|0:0,0:0:0:0:
435,241,181159,1,0,0:2:0:0:
435,241,181269,2,0,L|441:209,1,26.9999991760254,0|0,3:2|0:0,0:0:0:0:
429,194,181489,5,10,0:2:0:0:
365,142,181600,1,10,0:2:0:0:
288,168,181710,1,10,0:2:0:0:
265,245,181820,1,10,0:2:0:0:
308,313,181931,6,0,P|242:288|189:291,1,90.0000034332277,10|10,0:2|0:2,0:0:0:0:
11,253,182151,2,0,P|55:246|95:226,1,90.0000034332277,10|10,0:2|0:2,0:0:0:0:
190,17,182372,5,10,0:2:0:0:
124,77,182482,1,10,0:2:0:0:
173,152,182592,1,10,0:2:0:0:
117,223,182703,1,10,0:2:0:0:
162,305,182813,6,0,P|179:295|184:290,7,15,8|8|8|8|8|8|8|8,0:2|0:2|0:2|0:2|0:2|0:2|0:2|0:2,0:0:0:0:
184,286,183254,5,6,3:2:0:0:
176,290,184247,1,0,1:2:0:0:
258,225,184357,2,0,P|297:246|323:290,1,60,0|0,1:2|1:2,0:0:0:0:
81,255,184578,1,0,1:2:0:0:
81,255,184688,2,0,L|71:175,1,60,0|0,1:2|1:2,0:0:0:0:
59,116,184909,1,0,1:2:0:0:
139,12,185019,6,0,B|212:88|169:182|169:182|195:130|265:120,1,270.000010299683,6|2,3:2|0:2,0:0:0:0:
413,213,185460,1,0,3:2:0:0:
381,122,185570,2,0,P|405:159|417:202,1,90.0000034332277,2|0,0:2|0:2,0:0:0:0:
295,310,185791,2,0,L|313:205,1,90.0000034332277,2|0,0:2|3:2,0:0:0:0:
200,312,186012,2,0,L|218:207,1,90.0000034332277,2|0,0:2|0:0,0:0:0:0:
244,74,186232,5,0,0:2:0:0:
328,44,186342,2,0,P|271:39|198:79,2,90.0000034332277,2|0|2,3:2|0:2|0:2,0:0:0:0:
417,202,186673,2,0,P|407:98|469:18,1,180.000006866455,2|2,0:2|0:2,0:0:0:0:
486,283,187004,1,0,0:0:0:0:
486,283,187114,1,0,0:2:0:0:
486,283,187225,6,0,P|435:303|348:290,1,90.0000034332277,2|2,3:2|0:2,0:0:0:0:
176,287,187445,1,2,0:2:0:0:
236,219,187556,2,0,P|280:222|321:240,1,90.0000034332277,0|2,0:2|3:2,0:0:0:0:
86,279,187776,6,0,L|71:159,1,90.0000034332277,2|0,0:2|0:2,0:0:0:0:
52,21,187997,1,2,0:2:0:0:
207,63,188107,1,2,3:2:0:0:
207,63,188217,2,0,P|152:93|93:95,1,90.0000034332277,0|0,0:0|0:2,0:0:0:0:
269,131,188438,1,2,0:2:0:0:
363,171,188548,6,0,B|399:169|425:116|425:116|382:210|455:287,1,270.000010299683,4|2,3:2|0:2,0:0:0:0:
392,33,188989,1,2,3:2:0:0:
295,31,189099,2,0,P|338:20|383:24,1,90.0000034332277,2|0,0:2|0:2,0:0:0:0:
217,129,189320,2,0,L|112:111,1,90.0000034332277,2|0,0:2|3:2,0:0:0:0:
219,224,189541,2,0,L|114:206,1,90.0000034332277,2|0,0:2|0:0,0:0:0:0:
321,134,189761,5,0,0:2:0:0:
408,150,189871,2,0,P|361:117|277:115,2,90.0000034332277,2|2|2,3:2|0:2|0:2,0:0:0:0:
429,334,190202,2,0,P|455:233|541:179,1,180.000006866455,2|2,0:2|0:2,0:0:0:0:
265,359,190533,1,0,0:0:0:0:
265,359,190643,1,0,0:2:0:0:
265,359,190754,6,0,P|245:308|258:221,1,90.0000034332277,2|2,3:2|0:2,0:0:0:0:
261,49,190974,1,2,0:2:0:0:
329,109,191085,2,0,P|325:153|307:194,1,90.0000034332277,0|2,0:2|3:2,0:0:0:0:
83,214,191305,6,0,L|203:199,1,90.0000034332277,2|0,0:2|0:2,0:0:0:0:
290,190,191526,1,2,0:2:0:0:
149,38,191636,1,2,3:2:0:0:
149,38,191746,2,0,P|119:93|117:152,1,90.0000034332277,0|2,0:2|3:2,0:0:0:0:
243,273,191967,1,0,0:2:0:0:
118,364,192078,6,0,B|194:291|288:334|288:334|330:354|388:323,1,270.000010299683,6|2,3:2|0:2,0:0:0:0:
468,241,192519,1,2,3:2:0:0:
452,145,192629,2,0,P|469:185|473:230,1,90.0000034332277,2|0,0:2|0:2,0:0:0:0:
285,350,192850,2,0,L|390:368,1,90.0000034332277,2|0,0:2|3:2,0:0:0:0:
283,255,193071,2,0,L|388:273,1,90.0000034332277,2|0,0:2|0:0,0:0:0:0:
229,149,193291,5,0,0:2:0:0:
145,179,193401,2,0,P|202:184|275:144,2,90.0000034332277,2|0|2,3:2|0:2|0:2,0:0:0:0:
16,313,193732,2,0,P|94:272|182:286,1,180.000006866455,2|2,0:2|0:2,0:0:0:0:
32,186,194063,1,0,0:0:0:0:
32,186,194173,1,0,0:2:0:0:
32,186,194284,6,0,P|12:135|25:48,1,90.0000034332277,2|2,3:2|0:2,0:0:0:0:
205,192,194504,2,0,P|150:183|81:129,1,90.0000034332277,0|2,0:2|0:2,0:0:0:0:
232,12,194725,2,0,B|283:12|302:66|302:66|273:117|189:112,1,180.000006866455,0|2,3:2|0:2,0:0:0:0:
13,85,195056,1,2,0:2:0:0:
85,249,195166,1,0,3:2:0:0:
85,249,195276,2,0,P|115:194|117:135,1,90.0000034332277,0|0,0:0|0:2,0:0:0:0:
91,22,195497,1,2,3:2:0:0:
148,90,195607,5,2,3:2:0:0:
237,87,195717,2,0,P|269:33|277:-9,1,90.0000034332277,2|0,3:2|0:0,0:0:0:0:
470,201,195938,1,0,0:2:0:0:
370,256,196048,2,0,P|359:213|427:93,1,180.000006866455,2|0,3:2|0:2,0:0:0:0:
270,253,196379,1,2,0:2:0:0:
270,253,196489,2,0,P|215:250|165:235,1,90.0000034332277,2|0,3:2|0:2,0:0:0:0:
178,98,196710,2,0,P|221:87|266:86,1,90.0000034332277,2|0,0:2|0:0,0:0:0:0:
46,141,196931,1,0,3:2:0:0:
46,141,197041,6,0,B|33:95|33:95|47:26,1,90.0000034332277,2|0,0:2|0:2,0:0:0:0:
149,233,197262,2,0,B|115:267|115:267|48:289,1,90.0000034332277,2|0,0:2|3:2,0:0:0:0:
178,98,197482,2,0,B|224:109|224:109|277:156,1,90.0000034332277,2|0,0:2|3:2,0:0:0:0:
343,288,197703,1,0,0:2:0:0:
265,359,197813,6,0,P|245:308|246:282,2,45.0000017166138,0|0|0,3:2|3:2|3:2,0:0:0:0:
432,333,198034,1,0,3:2:0:0:
432,333,198144,1,0,3:2:0:0:
407,196,198254,1,0,3:2:0:0:
486,143,198364,2,0,P|497:177|500:209,2,45.0000017166138,8|0|0,0:2|0:2|3:2,0:0:0:0:
323,142,198695,1,8,0:2:0:0:
49,377,199137,6,0,B|103:299|103:299|43:81,1,270.000010299683,4|0,3:2|0:2,0:0:0:0:
13,24,199578,1,10,3:2:0:0:
97,52,199688,1,2,0:2:0:0:
173,5,199798,1,2,0:2:0:0:
250,52,199909,2,0,L|234:140,1,90.0000034332277,2|0,0:2|3:2,0:0:0:0:
331,89,200130,2,0,L|316:178,1,90.0000034332277,2|0,0:2|0:0,0:0:0:0:
281,317,200350,1,0,0:2:0:0:
365,287,200460,2,0,P|308:282|235:322,2,90.0000034332277,10|2|2,3:2|0:2|0:2,0:0:0:0:
486,283,200791,6,0,P|455:250|438:208,1,90.0000034332277,2|0,0:2|3:2,0:0:0:0:
371,107,201012,2,0,P|358:149|330:185,1,90.0000034332277,2|0,0:2|0:0,0:0:0:0:
199,52,201232,1,0,0:2:0:0:
199,52,201342,2,0,L|303:38,1,90.0000034332277,10|2,3:2|0:2,0:0:0:0:
460,119,201563,2,0,L|356:105,1,90.0000034332277,2|0,0:2|0:2,0:0:0:0:
118,120,201784,1,2,3:2:0:0:
118,120,201894,6,0,P|98:69|108:8,1,90.0000034332277,2|0,0:2|0:2,0:0:0:0:
181,202,202115,1,0,0:2:0:0:
5,227,202225,1,10,3:2:0:0:
5,227,202335,2,0,P|42:251|86:261,1,90.0000034332277,2|2,0:2|0:2,0:0:0:0:
278,257,202556,1,2,0:2:0:0:
343,195,202666,6,0,P|247:173|234:336,1,270.000010299683,6|0,3:2|0:2,0:0:0:0:
460,332,203107,1,10,3:2:0:0:
493,246,203217,1,2,0:2:0:0:
403,263,203328,1,2,0:2:0:0:
461,343,203438,6,0,P|498:280|501:238,1,90.0000034332277,2|0,0:2|3:2,0:0:0:0:
392,88,203659,2,0,P|429:151|432:193,1,90.0000034332277,2|0,0:2|0:0,0:0:0:0:
261,244,203879,1,0,0:2:0:0:
238,157,203989,2,0,L|360:175,2,90.0000034332277,10|2|2,3:2|0:2|0:2,0:0:0:0:
493,246,204320,6,0,B|449:221|448:171|448:171|448:222|384:271,1,180.000006866455,2|0,0:2|0:2,0:0:0:0:
436,80,204651,2,0,P|475:85|494:93,1,45.0000017166138,2|2,0:2|0:2,0:0:0:0:
415,58,204762,2,0,P|453:49|473:50,1,45.0000017166138,2|2,0:2|0:2,0:0:0:0:
389,53,204872,1,10,3:2:0:0:
339,171,205092,2,0,P|362:139|379:127,1,45.0000017166138,2|2,0:2|0:2,0:0:0:0:
308,178,205203,2,0,P|319:140|330:123,1,45.0000017166138,2|2,0:2|0:2,0:0:0:0:
291,198,205313,5,2,3:2:0:0:
330,278,205423,2,0,P|381:283|437:268,1,90.0000034332277,2|0,3:2|0:0,0:0:0:0:
255,336,205644,2,0,P|168:315|81:332,1,180.000006866455,0|0,3:2|0:2,0:0:0:0:
2,377,205975,6,0,B|61:370|99:289|67:236|67:236|1:177|1:310|144:252|146:243|209:172|310:295,1,450.000017166138,6|2,3:2|3:2,0:0:0:0:
397,371,206636,1,10,3:2:0:0:
459,306,206746,1,2,3:2:0:0:
423,223,206856,1,0,0:2:0:0:
332,224,206967,6,0,P|289:241|244:240,1,90.0000034332277,2|0,0:2|3:2,0:0:0:0:
402,124,207188,2,0,P|446:123|488:140,1,90.0000034332277,2|0,0:2|0:0,0:0:0:0:
226,234,207408,1,0,0:2:0:0:
150,185,207518,2,0,L|138:64,2,90.0000034332277,10|2|2,3:2|0:2|0:2,0:0:0:0:
311,273,207850,6,0,P|307:325|286:373,1,90.0000034332277,2|0,0:2|3:2,0:0:0:0:
92,324,208070,2,0,P|77:281|74:236,1,90.0000034332277,2|0,0:2|0:2,0:0:0:0:
262,54,208290,1,10,0:2:0:0:
262,54,208401,2,0,L|276:158,1,90.0000034332277,0|2,0:2|3:2,0:0:0:0:
195,315,208621,2,0,L|209:211,1,90.0000034332277,10|0,0:2|0:2,0:0:0:0:
433,199,208842,1,2,3:2:0:0:
433,199,208952,6,0,P|382:219|321:209,1,90.0000034332277,10|0,0:2|0:2,0:0:0:0:
175,123,209173,1,2,3:2:0:0:
262,54,209284,2,0,B|218:59|184:98|184:98|130:93|102:57|102:57|76:93|26:112|26:112|60:159|57:240,1,360,8|0,3:2|0:2,0:0:0:0:
54,184,209725,6,0,B|61:273|37:335|37:335|61:284|121:258,1,240,4|0,3:2|0:0,0:0:0:0:
262,54,210166,1,10,0:2:0:0:
239,41,210276,1,2,0:2:0:0:
212,41,210387,1,2,0:2:0:0:
190,55,210497,2,0,P|185:89|186:93,1,30,2|0,0:2|0:2,0:0:0:0:
54,184,210717,6,0,B|68:272|50:335|50:335|69:283|127:251,1,240,4|0,3:2|0:2,0:0:0:0:
240,220,211048,1,10,0:2:0:0:
304,274,211159,1,2,0:2:0:0:
382,245,211269,1,2,0:2:0:0:
395,162,211379,5,0,1:2:0:0:
278,134,211489,2,0,P|244:131|235:132,1,30,0|0,1:2|1:2,0:0:0:0:
358,60,211710,2,0,P|372:59|387:56,1,30,0|0,1:2|3:2,0:0:0:0:
405,53,211876,1,0,3:2:0:0:
419,52,211931,5,8,3:2:0:0:
304,273,212078,1,0,3:2:0:0:
206,56,212225,1,0,3:2:0:0:
405,198,212372,6,0,P|424:240|423:293,1,60.0000022888184,2|0,1:2|0:2,0:0:0:0:
304,273,212519,2,0,P|299:318|271:373,1,64,2|0,1:2|0:2,0:0:0:0:
186,287,212666,2,0,P|159:324|107:357,1,68.0000012969971,2|0,1:2|0:2,0:0:0:0:
0,141,212813,6,0,P|19:111|47:89,1,71.9999978027344,2|0,1:2|0:2,0:0:0:0:
111,189,212960,2,0,P|146:172|183:165,1,75.9999979705811,2|0,1:2|0:2,0:0:0:0:
186,286,213107,2,0,P|225:290|263:304,1,80,2|0,1:2|0:2,0:0:0:0:
460,138,213254,6,0,B|412:188|401:254|401:254|410:171|366:114|293:153|266:200|339:259,1,360,4|0,3:2|0:2,0:0:0:0:
460,138,213695,6,0,B|421:196|423:262|423:262|417:179|363:130|298:181|280:233|361:278,1,360,4|10,3:2|0:2,0:0:0:0:
348,279,214109,5,0,0:0:0:0:
348,279,214173,1,0,0:0:0:0:
348,279,214247,2,0,P|297:269|264:285,1,60,2|2,0:2|0:2,0:0:0:0:
172,327,214467,6,0,P|196:316|215:312,1,30,2|2,0:2|0:2,0:0:0:0:
94,293,214578,2,0,P|109:271|123:258,1,30,2|0,0:2|0:0,0:0:0:0:
8,303,214688,2,0,P|10:255|22:228,1,60,0|0,1:2|1:2,0:0:0:0:
101,128,214909,6,0,L|86:177,4,45.0000017166138,2|2|2|2|2,3:2|0:2|0:2|0:2|0:2,0:0:0:0:
169,70,215239,1,2,3:2:0:0:
224,141,215350,1,0,3:2:0:0:
341,116,215460,5,8,0:2:0:0:
308,0,215570,2,0,B|367:-4|367:-4|421:21,2,120,0|2|2,0:2|0:2|0:2,0:0:0:0:
218,154,215901,1,8,0:2:0:0:
303,238,216012,2,0,B|358:253|408:224|408:224|386:255|401:317,1,180,2|0,0:2|0:0,0:0:0:0:
403,305,216232,5,2,3:2:0:0:
297,225,216342,2,0,P|346:232|429:194,1,120,2|0,0:2|3:2,0:0:0:0:
224,141,216563,1,0,0:2:0:0:
122,194,216673,2,0,L|126:246,1,48,10|2,0:2|0:2,0:0:0:0:
163,370,217004,6,0,B|151:263|151:263|160:246|160:246|147:112,1,240,4|0,3:2|0:2,0:0:0:0:
16,28,217335,1,2,0:2:0:0:
110,41,217445,1,2,0:2:0:0:
255,18,217556,6,0,B|189:-1|132:24|132:24|105:94|188:184,1,240,12|0,0:2|0:2,0:0:0:0:
311,162,217887,1,2,3:2:0:0:
303,149,217997,1,2,0:2:0:0:
273,239,218107,2,0,P|306:248|360:251,2,60,10|2|2,0:2|0:2|0:2,0:0:0:0:
148,132,218438,6,0,B|101:97|122:25|122:25|177:-3|244:9,1,240,4|0,3:2|0:2,0:0:0:0:
401,93,218769,1,2,0:2:0:0:
307,74,218879,1,2,3:2:0:0:
395,110,218989,2,0,P|482:121|532:107,1,120,0|0,0:2|3:2,0:0:0:0:
325,188,219210,2,0,P|226:153|145:180,1,180,2|0,3:2|0:0,0:0:0:0:
143,191,219431,6,0,P|176:180|211:178,1,60,8|0,0:2|0:0,0:0:0:0:
162,273,219762,2,0,P|195:262|230:260,1,60,8|0,0:2|0:0,0:0:0:0:
181,355,220092,2,0,P|214:344|249:342,1,60,8|0,0:2|0:0,0:0:0:0:
380,369,220313,6,0,P|409:372|456:363,1,72,0|2,3:2|0:2,0:0:0:0:
486,307,220754,6,0,P|418:358|456:216,1,360,4|0,3:2|0:2,0:0:0:0:
434,206,221195,5,10,0:2:0:0:
318,231,221342,2,0,P|311:288|323:345,1,80,2|2,0:2|0:2,0:0:0:0:
434,206,221637,6,0,B|463:178|468:161|468:161|386:102|274:129,1,240,4|0,3:2|0:2,0:0:0:0:
99,229,221967,2,0,P|158:231|213:208,1,120,0|0,3:2|0:2,0:0:0:0:
32,144,222225,5,2,3:2:0:0:
0,268,222372,1,2,3:2:0:0:
213,208,222519,5,2,3:2:0:0:
244,331,222666,1,2,3:2:0:0:
213,208,222813,1,2,3:2:0:0:
435,238,222960,5,10,0:2:0:0:
435,238,223070,2,0,P|353:227|311:180,1,135.000005149841,0|0,0:2|0:0,0:0:0:0:
318,193,223291,2,0,L|330:141,3,45.0000017166138,2|2|2|2,0:2|0:2|0:2|0:2,0:0:0:0:
354,66,223548,1,0,0:0:0:0:
354,66,223622,1,2,0:2:0:0:
354,66,223695,2,0,P|360:116|373:148,1,60.0000022888184,0|0,0:0|0:0,0:0:0:0:
431,338,223842,5,12,0:2:0:0:
431,338,223953,2,0,P|376:336|314:353,1,90.0000034332277,0|0,0:0|0:2,0:0:0:0:
317,225,224173,1,0,3:2:0:0:
317,225,224284,2,0,P|268:250|223:296,1,90.0000034332277,8|0,0:2|0:0,0:0:0:0:
161,184,224503,1,0,3:2:0:0:
161,184,224614,2,0,P|131:230|115:292,1,90.0000034332277,0|8,0:2|0:2,0:0:0:0:
5,226,224835,1,0,3:2:0:0:
5,226,224946,2,0,P|2:281|19:343,1,90.0000034332277,0|0,0:0|0:2,0:0:0:0:
18,319,225166,6,0,L|15:283,1,36,8|0,0:2|1:2,0:0:0:0:
8,95,225607,5,4,3:2:0:0:
53,66,225717,2,0,P|114:62|173:83,1,90.0000034332277,0|0,0:0|0:2,0:0:0:0:
110,228,225938,1,0,3:2:0:0:
134,180,226048,2,0,P|184:146|246:134,1,90.0000034332277,8|0,0:2|0:0,0:0:0:0:
264,292,226269,1,0,3:2:0:0:
261,238,226379,2,0,P|288:183|335:142,1,90.0000034332277,0|8,0:2|0:2,0:0:0:0:
430,270,226600,1,0,3:2:0:0:
400,225,226710,2,0,P|396:164|417:105,1,90.0000034332277,0|0,0:0|0:2,0:0:0:0:
481,77,226931,6,0,P|448:96|420:106,2,60.0000022888184,8|0|0,1:2|0:0|0:0,0:0:0:0:
347,57,227151,2,0,P|314:38|286:28,2,60.0000022888184,8|0|0,1:2|0:0|0:0,0:0:0:0:
210,88,227372,5,4,3:2:0:0:
133,26,227482,2,0,L|13:31,1,90.0000034332277,0|0,0:0|0:2,0:0:0:0:
194,183,227703,5,0,3:2:0:0:
294,149,227813,2,0,L|414:154,1,90.0000034332277,8|0,0:2|0:0,0:0:0:0:
178,278,228034,5,0,3:2:0:0:
101,216,228144,2,0,L|-19:221,1,90.0000034332277,0|8,0:2|0:2,0:0:0:0:
162,373,228364,5,0,3:2:0:0:
268,339,228475,2,0,L|388:344,1,90.0000034332277,0|0,0:0|0:2,0:0:0:0:
206,255,228695,6,0,P|191:266|178:278,1,36,8|0,0:2|0:0,0:0:0:0:
231,253,228916,6,0,P|267:258|312:251,1,60,2|0,0:2|1:2,0:0:0:0:
468,184,229137,6,0,P|490:138|494:77,1,90.0000034332277,4|0,3:2|0:0,0:0:0:0:
465,17,229357,1,0,0:2:0:0:
380,218,229467,6,0,P|376:167|349:112,1,90.0000034332277,0|8,3:2|0:2,0:0:0:0:
280,68,229687,1,0,0:0:0:0:
326,296,229799,6,0,P|297:253|246:219,1,90.0000034332277,0|0,3:2|0:2,0:0:0:0:
163,214,230019,1,8,0:2:0:0:
306,380,230130,6,0,P|260:358|199:354,1,90.0000034332277,0|0,3:2|0:0,0:0:0:0:
137,384,230350,1,0,0:2:0:0:
76,318,230460,6,0,P|67:293|71:256,2,60.0000022888184,8|0|0,1:2|0:0|0:0,0:0:0:0:
164,280,230681,2,0,P|173:251|170:222,2,60.0000022888184,0|0|0,1:2|0:0|0:0,0:0:0:0:
72,241,230901,5,12,3:2:0:0:
177,200,231012,2,0,P|195:157|195:88,1,90.0000034332277,8|8,0:2|0:2,0:0:0:0:
11,47,231232,5,8,3:2:0:0:
99,116,231343,2,0,P|145:110|204:75,1,90.0000034332277,8|8,0:2|0:2,0:0:0:0:
205,14,231563,6,0,P|189:12|172:16,1,17.9999994506836,0|0,3:2|0:2,0:0:0:0:
285,296,231784,5,12,3:2:0:0:
301,184,231895,2,0,P|272:146|213:112,1,90.0000034332277,8|8,0:2|0:2,0:0:0:0:
86,251,232115,5,8,3:2:0:0:
190,210,232226,2,0,P|208:166|208:97,1,90.0000034332277,8|8,0:2|0:2,0:0:0:0:
189,111,232445,5,0,3:2:0:0:
423,145,232666,5,12,3:2:0:0:
334,74,232777,2,0,P|287:79|228:114,1,90.0000034332277,8|8,0:2|0:2,0:0:0:0:
285,294,232997,5,8,3:2:0:0:
301,184,233108,2,0,P|272:146|213:112,1,90.0000034332277,8|8,0:2|0:2,0:0:0:0:
174,184,233328,6,0,P|180:198|192:211,1,17.9999994506836,0|0,3:2|0:2,0:0:0:0:
52,145,233548,5,12,3:2:0:0:
141,74,233659,2,0,P|187:79|246:114,1,90.0000034332277,8|8,0:2|0:2,0:0:0:0:
190,294,233879,5,8,3:2:0:0:
174,184,233990,2,0,P|202:146|261:112,1,90.0000034332277,8|8,0:2|0:2,0:0:0:0:
321,60,234210,6,0,P|314:74|302:87,1,17.9999994506836,0|0,3:2|0:2,0:0:0:0:
326,280,234431,6,0,L|338:214,2,60,12|8|8,3:2|3:2|3:2,0:0:0:0:
413,343,234762,1,8,3:2:0:0:
413,343,234817,1,0,0:2:0:0:
413,343,234872,2,0,L|424:281,2,60,8|8|8,3:2|3:2|3:2,0:0:0:0:
242,221,235203,1,8,3:2:0:0:
242,221,235258,1,0,0:2:0:0:
242,221,235313,2,0,L|253:159,2,60,8|8|8,3:2|3:2|3:2,0:0:0:0:
445,186,235644,1,8,3:2:0:0:
445,186,235699,1,0,0:2:0:0:
445,186,235754,6,0,L|451:139,6,45.0000017166138,0|0|0|0|0|0|0,3:2|3:2|3:2|3:2|3:2|3:2|3:2,0:0:0:0:
345,178,236195,5,8,3:2:0:0:
274,194,236306,1,8,3:2:0:0:
215,152,236416,1,8,3:2:0:0:
215,80,236526,1,8,3:2:0:0:
275,40,236637,5,8,3:2:0:0:
246,125,236747,1,8,3:2:0:0:
163,160,236857,1,8,3:2:0:0:
82,120,236967,1,8,3:2:0:0:
92,102,237078,5,2,0:2:0:0:
256,192,237188,12,0,237850,0:0:0:0:
44,292,237960,6,0,P|108:278|162:282,1,107.999996704102,6|0,3:2|0:0,0:0:0:0:
171,251,238732,2,0,P|235:265|298:256,1,125.999996154785,0|0,0:0|0:0,0:0:0:0:
322,279,239614,2,0,P|348:265|392:354,1,161.999995056153,2|0,0:2|0:0,0:0:0:0:
495,291,240938,2,0,P|487:263|485:233,1,53.9999983520508,0|0,0:0|0:2,0:0:0:0:
494,203,241379,1,0,0:0:0:0:
487,167,241489,6,0,P|420:208|383:202,1,107.999996704102,2|0,0:2|0:0,0:0:0:0:
368,231,242262,2,0,P|301:190|251:203,1,125.999996154785,2|0,0:2|0:0,0:0:0:0:
223,209,243144,2,0,P|250:159|240:118,1,89.9999972534181,2|0,0:2|0:0,0:0:0:0:
224,98,243806,6,0,L|222:73,1,17.9999994506836,0|0,0:0|0:0,0:0:0:0:
311,55,244026,2,0,L|309:72,1,17.9999994506836,0|0,0:0|0:0,0:0:0:0:
143,49,244247,2,0,L|141:24,1,17.9999994506836,0|0,0:0|0:0,0:0:0:0:
321,57,244467,2,0,L|319:74,1,17.9999994506836,0|0,0:0|0:0,0:0:0:0:
142,165,244688,2,0,L|140:140,2,17.9999994506836,0|0|0,0:0|0:2|0:0,0:0:0:0:
258,235,245019,6,0,P|218:234|151:273,1,107.999996704102,2|0,0:2|0:0,0:0:0:0:
153,300,245791,2,0,P|113:301|37:244,1,125.999996154785,2|0,0:2|0:0,0:0:0:0:
25,224,246673,2,0,P|33:257|28:353,1,125.999996154785,2|0,0:2|0:0,0:0:0:0:
215,128,248328,5,2,0:2:0:0:
215,128,248438,1,2,0:2:0:0:
215,128,248548,2,0,P|268:116|320:131,1,107.999996704102,2|0,0:2|0:0,0:0:0:0:
354,122,249320,2,0,P|390:161|403:214,1,107.999996704102,2|0,0:2|0:0,0:0:0:0:
433,233,250092,1,0,0:0:0:0:
433,233,250203,2,0,P|416:284|391:314,1,89.9999972534181,2|0,0:2|0:2,0:0:0:0:
263,288,250864,5,0,0:2:0:0:
263,288,250975,1,0,0:2:0:0:
263,288,251085,2,0,P|296:276|368:332,1,125.999996154785,2|2,0:2|0:2,0:0:0:0:
164,344,252078,6,0,P|175:306|182:231,1,107.999996704102,2|0,0:2|0:0,0:0:0:0:
88,252,252850,2,0,P|78:213|33:131,1,125.999996154785,2|0,0:2|0:0,0:0:0:0:
0,41,253732,6,0,B|40:64|94:49|94:49|133:37|150:45|165:77|135:92|111:78,1,197.99999395752,2|0,0:2|0:2,0:0:0:0:
257,43,255166,1,2,0:2:0:0:
287,62,255276,1,0,0:2:0:0:
297,96,255387,1,0,0:2:0:0:
272,144,255497,1,0,0:2:0:0:
298,204,255607,6,0,P|342:205|406:168,1,107.999996704102,2|0,0:2|0:0,0:0:0:0:
444,108,256379,2,0,P|443:152|487:224,1,125.999996154785,2|0,0:2|0:0,0:0:0:0:
510,317,257262,2,0,P|441:302|412:307,1,89.9999972534181,2|0,0:2|0:0,0:0:0:0:
351,351,257923,1,0,0:0:0:0:
317,338,258034,1,0,0:0:0:0:
283,351,258144,1,0,0:0:0:0:
249,339,258254,1,0,0:0:0:0:
232,301,258364,5,0,0:2:0:0:
247,255,258475,1,0,0:0:0:0:
308,227,258585,1,2,0:2:0:0:
293,161,258695,2,0,L|288:136,2,17.9999994506836,0|0|0,0:2|0:2|0:2,0:0:0:0:
400,199,259026,1,0,0:0:0:0:
400,199,259137,2,0,P|391:139|401:78,1,107.999996704102,2|0,0:2|0:0,0:0:0:0:
342,0,259909,2,0,P|310:42|291:121,1,125.999996154785,2|0,0:2|0:0,0:0:0:0:
385,137,260791,6,0,B|413:199|358:250|358:250|288:303|329:381|372:369|438:366|436:274|358:250|358:250|306:219|273:222|273:222|225:286|244:346|244:346|219:268|148:250|102:275|92:366|171:365,1,881.999973083497,2|0,0:2|0:0,0:0:0:0:
256,192,266306,12,0,269725,0:0:0:0:
