osu file format v14

[General]
AudioFilename: audio.mp3
AudioLeadIn: 0
PreviewTime: 185469
Countdown: 0
SampleSet: Normal
StackLeniency: 0.7
Mode: 1
LetterboxInBreaks: 0
WidescreenStoryboard: 1

[Editor]
Bookmarks: 1978,9036,23154,37272,47860,54918,61977,76095,90212,118448,132565,146683,160801,171389,178447,185506,199624,213741,224330,231388,238447,252565,263153,270212
DistanceSpacing: 0.2
BeatDivisor: 16
GridSize: 32
TimelineZoom: 2.464641

[Metadata]
Title:Arcology On Permafrost
TitleUnicode:Arcology On Permafrost
Artist:Camellia
ArtistUnicode:かめりあ
Creator:KatK1
Version:HiroK's Inner Oni
Source:
Tags:mpg mappers' guild fa featured artist ulqui ulko hirok hardcore tano*c tanoc CTCD-0018 comiket 95 c95 comic market コミックマーケット コミケット コミケ 冬コミ かめるかめりあ kamelcamellia kamel camellia cametek 大箭将也 masaya oya dubstep tech technical double bpm electronic instrumental
BeatmapID:4377053
BeatmapSetID:2072681

[Difficulty]
HPDrainRate:5
CircleSize:5
OverallDifficulty:6
ApproachRate:5
SliderMultiplier:1.4
SliderTickRate:1

[Events]
//Background and Video events
0,0,"bg.jpg",0,50
//Break Periods
//Storyboard Layer 0 (Background)
//Storyboard Layer 1 (Fail)
//Storyboard Layer 2 (Pass)
//Storyboard Layer 3 (Foreground)
//Storyboard Layer 4 (Overlay)
//Storyboard Sound Samples

[TimingPoints]
214,441.176470588235,4,1,0,100,1,8
214,-100,4,1,0,10,0,8
1978,441.176470588235,4,1,0,100,1,0
1978,-133.333333333333,4,1,0,10,0,0
3737,-133.333333333333,4,1,0,10,0,0
3743,-133.333333333333,4,1,0,11,0,0
5507,-133.333333333333,4,1,0,12,0,0
7272,-133.333333333333,4,1,0,14,0,0
9036,-133.333333333333,4,1,0,15,0,0
9808,-133.333333333333,4,1,0,17,0,0
10691,-133.333333333333,4,1,0,20,0,0
10801,-133.333333333333,4,1,0,20,0,0
12566,-133.333333333333,4,1,0,25,0,0
13338,-133.333333333333,4,1,0,27,0,0
14220,-133.333333333333,4,1,0,30,0,0
14330,-133.333333333333,4,1,0,30,0,0
16095,-133.333333333333,4,1,0,35,0,0
16096,-133.333333333333,4,1,0,35,0,0
16867,-133.333333333333,4,1,0,38,0,0
17750,-133.333333333333,4,1,0,41,0,0
17860,-133.333333333333,4,1,0,41,0,0
19625,-133.333333333333,4,1,0,48,0,0
21279,-133.333333333333,4,1,0,53,0,0
21389,-133.333333333333,4,1,0,54,0,0
22161,-133.333333333333,4,1,0,56,0,0
23154,-100,4,1,0,60,0,0
33737,-100,4,1,0,60,0,0
33743,-100,4,1,0,60,0,0
34184,-100,4,1,0,62,0,0
34515,-100,4,1,0,64,0,0
34735,-100,4,1,0,65,0,0
34956,-100,4,1,0,66,0,0
35176,-100,4,1,0,67,0,0
35397,-100,4,1,0,68,0,0
35507,-100,4,1,0,69,0,0
35948,-100,4,1,0,71,0,0
36224,-100,4,1,0,72,0,0
36334,-100,4,1,0,72,0,0
36500,-100,4,1,0,73,0,0
36775,-100,4,1,0,85,0,0
37244,-66.6666666666667,4,1,0,90,0,0
46205,-20,4,1,0,50,0,0
47805,-66.6666666666667,4,1,0,90,0,0
47860,441.176470588235,4,1,0,100,1,0
47860,-66.6666666666667,4,1,0,100,0,0
48080,-100,4,1,0,60,0,0
48466,-100,4,1,0,61,0,0
48576,-100,4,1,0,61,0,0
48687,-100,4,1,0,62,0,0
48797,-100,4,1,0,62,0,0
49017,-100,4,1,0,63,0,0
49128,-100,4,1,0,63,0,0
49514,-100,4,1,0,64,0,0
49624,-100,4,1,0,65,0,0
49625,-100,4,1,0,65,0,0
50010,-100,4,1,0,66,0,0
50231,-100,4,1,0,66,0,0
50396,-100,4,1,0,67,0,0
50507,-100,4,1,0,67,0,0
50617,-100,4,1,0,67,0,0
50727,-100,4,1,0,68,0,0
50837,-100,4,1,0,68,0,0
50948,-100,4,1,0,68,0,0
51058,-100,4,1,0,69,0,0
51168,-100,4,1,0,69,0,0
51279,-100,4,1,0,69,0,0
51389,-100,4,1,0,70,0,0
51715,-100,4,1,0,71,0,0
51775,-100,4,1,0,71,0,0
51995,-100,4,1,0,71,0,0
52106,-100,4,1,0,72,0,0
52216,-100,4,1,0,72,0,0
52326,-100,4,1,0,72,0,0
52492,-100,4,1,0,73,0,0
52712,-100,4,1,0,74,0,0
52823,-100,4,1,0,74,0,0
53043,-100,4,1,0,75,0,0
53154,-100,4,1,0,75,0,0
53374,-100,4,1,0,75,0,0
53595,-100,4,1,0,76,0,0
53705,-100,4,1,0,76,0,0
53926,-100,4,1,0,77,0,0
54036,-100,4,1,0,77,0,0
54146,-100,4,1,0,78,0,0
54477,-100,4,1,0,79,0,0
54918,-100,4,1,0,80,0,0
55029,-99.2607966361632,4,1,0,80,0,0
55139,-98.5336434790932,4,1,0,80,0,0
55249,-97.8118172157391,4,1,0,81,0,0
55359,-100,4,1,0,81,0,0
55470,-96.3775472557787,4,1,0,81,0,0
55580,-95.6715158704515,4,1,0,81,0,0
55690,-94.9706566474305,4,1,0,81,0,0
55801,-94.2686303588348,4,1,0,82,0,0
55911,-93.5780482307329,4,1,0,82,0,0
56021,-92.8925250885719,4,1,0,82,0,0
56132,-92.2058604183642,4,1,0,82,0,0
56242,-91.5303894895006,4,1,0,83,0,0
56352,-100,4,1,0,83,0,0
56462,-90.1942562404413,4,1,0,83,0,0
56573,-89.5275372643244,4,1,0,83,0,0
56683,-88.8716868825762,4,1,0,83,0,0
56684,-100,4,1,0,83,0,0
56793,-88.2206410529958,4,1,0,84,0,0
56904,-87.5685111067337,4,1,0,84,0,0
57014,-86.9270119301294,4,1,0,84,0,0
57124,-100,4,1,0,84,0,0
57234,-85.6580774098132,4,1,0,84,0,0
57345,-85.0248900202019,4,1,0,85,0,0
57455,-84.402024606031,4,1,0,85,0,0
57565,-83.7837221066028,4,1,0,85,0,0
57676,-83.1643900144431,4,1,0,85,0,0
57786,-82.5551540340342,4,1,0,85,0,0
57896,-81.9503811234531,4,1,0,86,0,0
58007,-81.3446011495114,4,1,0,86,0,0
58117,-100,4,1,0,86,0,0
58227,-80.1571569920735,4,1,0,86,0,0
58337,-79.569951048299,4,1,0,86,0,0
58448,-78.9817672935467,4,1,0,87,0,0
58558,-78.4031718824199,4,1,0,87,0,0
58668,-77.8288150780153,4,1,0,87,0,0
58779,-77.2535018589243,4,1,0,87,0,0
58889,-76.6875671729743,4,1,0,88,0,0
58999,-76.1257783452839,4,1,0,88,0,0
59109,-75.5681050046085,4,1,0,88,0,0
59220,-75.0095030304268,4,1,0,88,0,0
59330,-74.4600071691478,4,1,0,88,0,0
59440,-73.9145367405055,4,1,0,89,0,0
59551,-73.3681579985553,4,1,0,89,0,0
59661,-72.8306861111131,4,1,0,89,0,0
59771,-72.2971515724836,4,1,0,89,0,0
59882,-71.7627285961016,4,1,0,89,0,0
59992,-71.2370175759706,4,1,0,90,0,0
60102,-70.7151577482635,4,1,0,90,0,0
60157,-100,4,1,0,90,0,0
60185,-70.1971209003643,4,1,0,100,0,0
60318,-69.6782214213523,4,1,0,100,0,0
60428,-69.167780840553,4,1,0,100,0,0
60538,-68.6610795857757,4,1,0,100,0,0
60649,-68.153534575831,4,1,0,100,0,0
60759,-67.6542633679447,4,1,0,100,0,0
60869,-67.1586496627921,4,1,0,100,0,0
60979,-66.6666666666667,4,1,0,100,0,0
61095,-100,4,1,0,80,0,0
61922,-66.6666666666667,4,1,0,100,0,0
61977,-66.6666666666667,4,1,0,100,0,1
62198,-100,4,1,0,80,0,1
62418,-100,4,1,0,80,0,0
62694,-66.6666666666667,4,1,0,100,0,0
62749,-66.6666666666667,4,1,0,100,0,1
62970,-100,4,1,0,90,0,1
63190,-100,4,1,0,80,0,1
63301,-100,4,1,0,80,0,0
63576,-66.6666666666667,4,1,0,100,0,0
63632,-66.6666666666667,4,1,0,100,0,1
63687,-80,4,1,0,100,0,1
65396,-66.6666666666667,4,1,0,100,0,1
65727,-100,4,1,0,80,0,1
65948,-100,4,1,0,80,0,0
66223,-66.6666666666667,4,1,0,100,0,0
66279,-66.6666666666667,4,1,0,100,0,1
66499,-100,4,1,0,80,0,1
66830,-100,4,1,0,80,0,0
67106,-66.6666666666667,4,1,0,100,0,0
67161,-66.6666666666667,4,1,0,100,0,1
67216,-80,4,1,0,100,0,1
68926,-66.6666666666667,4,1,0,100,0,1
69257,-100,4,1,0,80,0,1
69477,-100,4,1,0,80,0,0
69753,-66.6666666666667,4,1,0,100,0,0
69808,-66.6666666666667,4,1,0,100,0,1
70029,-100,4,1,0,80,0,1
70359,-100,4,1,0,80,0,0
70635,-66.6666666666667,4,1,0,100,0,0
70690,-66.6666666666667,4,1,0,100,0,1
70746,-80,4,1,0,100,0,1
75249,-80,4,1,0,98,0,1
75323,-80,4,1,0,96,0,1
75433,-80,4,1,0,94,0,1
75516,-80,4,1,0,92,0,1
75617,-80,4,1,0,89,0,1
75727,-80,4,1,0,86,0,1
76095,-66.6666666666667,4,1,0,100,0,0
76315,-100,4,1,0,80,0,0
76812,-66.6666666666667,4,1,0,100,0,0
77087,-100,4,1,0,90,0,0
77418,-100,4,1,0,80,0,0
77694,-66.6666666666667,4,1,0,100,0,0
77749,-66.6666666666667,4,1,0,100,0,1
77804,-80,4,1,0,100,0,1
79514,-66.6666666666667,4,1,0,100,0,1
80065,-100,4,1,0,80,0,0
80396,-66.6666666666667,4,1,0,100,0,1
80617,-100,4,1,0,80,0,1
80948,-100,4,1,0,80,0,0
81223,-66.6666666666667,4,1,0,100,0,0
81279,-66.6666666666667,4,1,0,100,0,1
81334,-80,4,1,0,100,0,1
83374,-100,4,1,0,60,0,1
83595,-100,4,1,0,60,0,0
84036,-66.6666666666667,4,1,0,100,0,0
84146,-66.6666666666667,4,1,0,100,0,1
84312,-100,4,1,0,70,0,1
84808,-100,4,1,0,70,0,0
84918,-100,4,1,0,74,0,0
85249,-66.6666666666667,4,1,0,86,0,0
85359,-66.6666666666667,4,1,0,100,0,1
85690,-80,4,1,0,95,0,1
85801,-80,4,1,0,93,0,1
85911,-80,4,1,0,92,0,1
86021,-80,4,1,0,90,0,1
86132,-80,4,1,0,88,0,1
86242,-80,4,1,0,87,0,1
86389,-80,4,1,0,84,0,1
86536,-80,4,1,0,82,0,1
86683,-80,4,1,0,83,0,1
86821,-20,4,1,0,40,0,1
88779,-100,4,1,0,46,0,0
88889,-100,4,1,0,49,0,0
88999,-97.5674480318443,4,1,0,51,0,0
89109,-95.2504317789292,4,1,0,53,0,0
89330,-90.9128374201525,4,1,0,57,0,0
89440,-88.89784404594,4,1,0,59,0,0
89551,-86.9530942057548,4,1,0,61,0,0
89661,-85.108024691358,4,1,0,64,0,0
89882,-81.6281221091582,4,1,0,68,0,0
89992,-80,4,1,0,70,0,0
90102,-66.6666666666667,4,1,0,100,0,0
90212,-66.6666666666667,4,1,0,80,0,0
90543,-100,4,1,0,80,0,0
93632,-66.6666666666667,4,1,0,80,0,0
93962,-80,4,1,0,80,0,0
97161,-66.6666666666667,4,1,0,80,0,0
97382,-100,4,1,0,80,0,0
100690,-66.6666666666667,4,1,0,80,0,0
100911,-80,4,1,0,80,0,0
104220,-66.6666666666667,4,1,0,80,0,0
104440,-100,4,1,0,80,0,0
107749,-66.6666666666667,4,1,0,80,0,0
107970,-80,4,1,0,80,0,0
110451,-40,4,1,0,40,0,0
110948,-20,4,1,0,40,0,0
111389,-100,4,1,0,60,0,0
111775,-66.6666666666667,4,1,0,80,0,0
112161,-100,4,1,0,80,0,0
112271,-100,4,1,0,81,0,0
112382,-100,4,1,0,82,0,0
112492,-100,4,1,0,82,0,0
112602,-100,4,1,0,83,0,0
112712,-100,4,1,0,83,0,0
112823,-100,4,1,0,83,0,0
112933,-100,4,1,0,84,0,0
113043,-100,4,1,0,84,0,0
113154,-100,4,1,0,84,0,0
113264,-100,4,1,0,85,0,0
113374,-100,4,1,0,85,0,0
113484,-100,4,1,0,86,0,0
113595,-100,4,1,0,86,0,0
113705,-100,4,1,0,86,0,0
113815,-100,4,1,0,87,0,0
113926,-100,4,1,0,87,0,0
114036,-100,4,1,0,87,0,0
114146,-100,4,1,0,88,0,0
114257,-100,4,1,0,88,0,0
114477,-100,4,1,0,89,0,0
114698,-100,4,1,0,90,0,0
114863,-66.6666666666667,4,1,0,100,0,0
114973,-80,4,1,0,80,0,0
115111,-79.5076513639388,4,1,0,80,0,0
115166,-79.0278581466479,4,1,0,81,0,0
115222,-100,4,1,0,81,0,0
115277,-78.5473666913154,4,1,0,82,0,0
115332,-78.0790591310029,4,1,0,82,0,0
115396,-100,4,1,0,83,0,0
115470,-77.377579927155,4,1,0,83,0,0
115543,-76.694745286803,4,1,0,84,0,0
115635,-76.2421245713374,4,1,0,85,0,0
115718,-75.8008246114811,4,1,0,86,0,0
115746,-75.3586630931736,4,1,0,86,0,0
115883,-74.7108471397312,4,1,0,87,0,0
115966,-74.0740740740741,4,1,0,88,0,0
116058,-100,4,1,0,88,0,0
116132,-73.4424214488746,4,1,0,89,0,0
116242,-72.8269977908128,4,1,0,90,0,0
116352,-72.2218025232303,4,1,0,91,0,0
116462,-71.6265827526785,4,1,0,92,0,0
116573,-71.0358151285481,4,1,0,93,0,0
116683,-70.4599056603774,4,1,0,94,0,0
116793,-69.8932592484281,4,1,0,94,0,0
116904,-69.3306258611937,4,1,0,95,0,0
117041,-68.6485710182393,4,1,0,97,0,0
117179,-67.9749715585893,4,1,0,98,0,0
117317,-67.3144627517251,4,1,0,99,0,0
117455,-66.6666666666667,4,1,0,100,0,0
117510,-20,4,1,0,40,0,0
117621,-20,4,1,0,40,0,0
118337,-100,4,1,0,80,0,0
118558,-125,4,1,0,40,0,0
126389,-133.333333333333,4,1,0,45,0,0
127216,-133.333333333333,4,1,0,45,0,0
128154,-133.333333333333,4,1,0,53,0,0
129036,-133.333333333333,4,1,0,58,0,0
129918,-133.333333333333,4,1,0,62,0,0
130580,-133.333333333333,4,1,0,66,0,0
130746,-133.333333333333,4,1,0,66,0,0
131518,-133.333333333333,4,1,0,66,0,0
131628,-133.333333333333,4,1,0,70,0,0
132455,-100,4,1,0,75,0,0
143149,-100,4,1,0,75,0,0
143375,-100,4,1,0,76,0,0
143485,-100,4,1,0,76,0,0
143596,-100,4,1,0,77,0,0
143706,-100,4,1,0,77,0,0
143927,-100,4,1,0,78,0,0
144147,-100,4,1,0,79,0,0
144258,-100,4,1,0,80,0,0
144368,-100,4,1,0,80,0,0
144588,-100,4,1,0,81,0,0
144809,-100,4,1,0,82,0,0
144918,-101.48849797023,4,1,0,82,0,0
145024,-103.036131336722,4,1,0,82,0,0
145134,-104.617101408844,4,1,0,82,0,0
145140,-100,4,1,0,83,0,0
145250,-107.929198445819,4,1,0,84,0,0
145465,-109.681193331383,4,1,0,84,0,0
145471,-111.474435196195,4,1,0,85,0,0
145685,-113.327289211242,4,1,0,85,0,0
145691,-100,4,1,0,86,0,0
145911,-117.242457401907,4,1,0,87,0,0
146021,-119.29378081756,4,1,0,87,0,0
146132,-121.437823834197,4,1,0,88,0,0
146242,-123.639960435213,4,1,0,88,0,0
146352,-125.923438549362,4,1,0,89,0,0
146462,-128.292849811837,4,1,0,89,0,0
146573,-133.333333333333,4,1,0,90,0,0
146628,-133.333333333333,4,1,0,40,0,0
157216,-133.333333333333,4,1,0,60,0,0
157382,-133.333333333333,4,1,0,61,0,0
157602,-133.333333333333,4,1,0,63,0,0
157823,-133.333333333333,4,1,0,64,0,0
157933,-133.333333333333,4,1,0,65,0,0
158043,-133.333333333333,4,1,0,66,0,0
158154,-133.333333333333,4,1,0,67,0,0
158264,-133.333333333333,4,1,0,68,0,0
158374,-133.333333333333,4,1,0,69,0,0
158484,-133.333333333333,4,1,0,70,0,0
158595,-133.333333333333,4,1,0,71,0,0
158705,-133.333333333333,4,1,0,72,0,0
158815,-133.333333333333,4,1,0,73,0,0
158926,-133.333333333333,4,1,0,73,0,0
159036,-100,4,1,0,74,0,0
159146,-133.333333333333,4,1,0,75,0,0
159257,-133.333333333333,4,1,0,76,0,0
159367,-133.333333333333,4,1,0,77,0,0
159477,-133.333333333333,4,1,0,78,0,0
159587,-133.333333333333,4,1,0,79,0,0
159698,-133.333333333333,4,1,0,80,0,0
159808,-133.333333333333,4,1,0,81,0,0
159918,-133.333333333333,4,1,0,81,0,0
160029,-133.333333333333,4,1,0,82,0,0
160139,-133.333333333333,4,1,0,83,0,0
160249,-133.333333333333,4,1,0,84,0,0
160304,-133.333333333333,4,1,0,85,0,0
160415,-133.333333333333,4,1,0,86,0,0
160470,-133.333333333333,4,1,0,87,0,0
160525,-133.333333333333,4,1,0,88,0,0
160580,-133.333333333333,4,1,0,88,0,0
160635,-133.333333333333,4,1,0,89,0,0
160690,-133.333333333333,4,1,0,89,0,0
160746,-133.333333333333,4,1,0,90,0,0
160773,-66.6666666666667,4,1,0,100,0,0
169734,-20,4,1,0,50,0,0
171334,-80,4,1,0,100,0,0
171389,441.176470588235,4,1,0,100,1,0
171389,-80,4,1,0,100,0,0
171714,-70.6049822064057,4,1,0,100,0,0
172045,-63.1645972620185,4,1,0,100,0,0
172376,-57.1428571428571,4,1,0,100,0,0
172657,-100,4,1,0,60,0,0
173043,-80,4,1,0,100,0,0
173153,-80,4,1,0,100,0,0
173478,-70.6049822064057,4,1,0,100,0,0
173809,-63.1645972620185,4,1,0,100,0,0
174140,-57.1428571428571,4,1,0,100,0,0
174863,-80,4,1,0,100,0,0
175243,-70.6049822064057,4,1,0,100,0,0
175574,-63.1645972620185,4,1,0,100,0,0
175905,-57.1428571428571,4,1,0,100,0,0
176186,-100,4,1,0,60,0,0
176627,-80,4,1,0,100,0,0
176683,-80,4,1,0,100,0,0
177008,-70.6049822064057,4,1,0,100,0,0
177339,-63.1645972620185,4,1,0,100,0,0
177670,-57.1428571428571,4,1,0,100,0,0
177951,-100,4,1,0,80,0,0
178392,-100,4,1,0,80,0,0
178420,-100,4,1,0,100,0,0
178773,-92.3053080201472,4,1,0,100,0,0
179325,-81.8075681615274,4,1,0,100,0,0
179656,-76.5848013372766,4,1,0,100,0,0
180207,-69.2276399139885,4,1,0,100,0,0
180538,-65.4505494505494,4,1,0,100,0,0
181089,-60.0010074044225,4,1,0,100,0,0
181420,-57.1428571428571,4,1,0,100,0,0
181811,-80,4,1,0,60,0,0
181922,-80,4,1,0,100,0,0
182082,-79.3700809038982,4,1,0,100,0,0
182192,-78.7451217836418,4,1,0,100,0,0
182303,-78.1194693254472,4,1,0,100,0,0
182413,-77.5043575066292,4,1,0,100,0,0
182523,-76.8940890713227,4,1,0,100,0,0
182634,-76.2831435961186,4,1,0,100,0,0
182744,-75.6824909853452,4,1,0,100,0,0
182854,-75.0865679064425,4,1,0,100,0,0
182964,-74.4953371191298,4,1,0,100,0,0
183075,-73.9034504125389,4,1,0,100,0,0
183185,-73.3215354790055,4,1,0,100,0,0
183295,-72.7442025370839,4,1,0,100,0,0
183369,-72.3583748579781,4,1,0,100,0,0
183442,-71.9797662102257,4,1,0,100,0,0
183516,-71.5979930218358,4,1,0,100,0,0
183589,-71.2233630032237,4,1,0,100,0,0
183663,-70.8456016987179,4,1,0,100,0,0
183736,-70.47490849961,4,1,0,100,0,0
183847,-69.9149652454111,4,1,0,100,0,0
183957,-69.3644555990188,4,1,0,100,0,0
184067,-68.8182806593623,4,1,0,100,0,0
184178,-68.2714997859825,4,1,0,100,0,0
184288,-67.7339307680487,4,1,0,100,0,0
184398,-67.2005945624883,4,1,0,100,0,0
184509,-66.6666666666667,4,1,0,100,0,0
184624,-100,4,1,0,60,0,0
185451,-80,4,1,0,100,0,0
185506,-80,4,1,0,100,0,1
199183,-80,4,1,0,100,0,0
199624,-72.7272727272727,4,1,0,100,0,1
206352,-57.1428571428571,4,1,0,100,0,1
206572,-72.7272727272727,4,1,0,100,0,1
209771,-72.7272727272727,4,1,0,100,0,0
210212,-66.6666666666667,4,1,0,100,0,1
210653,-100,4,1,0,80,0,0
211150,-66.6666666666667,4,1,0,100,0,0
211205,-66.6666666666667,4,1,0,100,0,1
211536,-100,4,1,0,80,0,0
212363,-100,4,1,0,100,0,0
212418,-66.6666666666667,4,1,0,100,0,1
212707,-100,4,1,0,100,0,1
212804,-100,4,1,0,70,0,1
212859,-96,4,1,0,70,0,0
213001,-92.3076923076923,4,1,0,70,0,0
213075,-90.5544147843943,4,1,0,70,0,0
213148,-88.8888888888889,4,1,0,70,0,0
213295,-85.7142857142857,4,1,0,70,0,0
213369,-84.200477326969,4,1,0,70,0,0
213442,-82.7586206896552,4,1,0,70,0,0
213516,-81.3465529167627,4,1,0,70,0,0
213589,-80,4,1,0,70,0,0
213705,-66.6666666666667,4,1,0,100,0,0
213741,-66.6666666666667,4,1,0,100,0,1
214293,-80,4,1,0,100,0,1
214918,-80,4,1,0,70,0,1
214955,-80,4,1,0,70,0,0
215892,-66.6666666666667,4,1,0,100,0,0
215947,-66.6666666666667,4,1,0,100,0,1
216058,-80,4,1,0,100,0,1
217161,-80,4,1,0,100,0,0
217271,-80,4,1,0,80,0,0
217436,-66.6666666666667,4,1,0,100,0,0
217491,-66.6666666666667,4,1,0,100,0,1
217602,-80,4,1,0,100,0,1
218594,-80,4,1,0,100,0,0
218705,-66.6666666666667,4,1,0,80,0,0
218870,-66.6666666666667,4,1,0,100,0,0
218925,-66.6666666666667,4,1,0,100,0,1
218980,-80,4,1,0,100,0,1
220690,-80,4,1,0,70,0,1
220800,-80,4,1,0,70,0,0
221168,-66.6666666666667,4,1,0,100,0,0
221241,-66.6666666666667,4,1,0,100,0,1
221683,-80,4,1,0,80,0,0
222050,-66.6666666666667,4,1,0,80,0,0
222124,-66.6666666666667,4,1,0,100,0,1
222418,-80,4,1,0,100,0,1
223447,-80,4,1,0,100,0,0
223558,-80,4,1,0,97,0,0
223594,-80,4,1,0,96,0,0
223631,-80,4,1,0,95,0,0
223668,-80,4,1,0,94,0,0
223778,-80,4,1,0,91,0,0
223888,-80,4,1,0,89,0,0
223944,-80,4,1,0,87,0,0
224026,-80,4,1,0,85,0,0
224183,-80,4,1,0,80,0,0
224274,-80,4,1,0,100,0,0
224330,441.176470588235,4,1,0,100,1,0
224330,-80,4,1,0,100,0,0
224655,-70.6049822064057,4,1,0,100,0,0
224986,-63.1645972620185,4,1,0,100,0,0
225317,-57.1428571428571,4,1,0,100,0,0
225598,-100,4,1,0,60,0,0
226039,-80,4,1,0,100,0,0
226094,-80,4,1,0,100,0,0
226419,-70.6049822064057,4,1,0,100,0,0
226750,-63.1645972620185,4,1,0,100,0,0
227081,-57.1428571428571,4,1,0,100,0,0
227859,-80,4,1,0,100,0,0
228184,-70.6049822064057,4,1,0,100,0,0
228515,-63.1645972620185,4,1,0,100,0,0
228846,-57.1428571428571,4,1,0,100,0,0
229127,-100,4,1,0,60,0,0
229513,-100,4,1,0,60,0,0
229568,-80,4,1,0,100,0,0
229624,-80,4,1,0,100,0,0
229949,-70.6049822064057,4,1,0,100,0,0
230280,-63.1645972620185,4,1,0,100,0,0
230611,-57.1428571428571,4,1,0,100,0,0
230892,-100,4,1,0,80,0,0
231333,-100,4,1,0,80,0,0
231361,-100,4,1,0,100,0,0
231604,-97.6870375886582,4,1,0,100,0,0
231714,-96.5752170833234,4,1,0,100,0,0
231825,-95.4786522512315,4,1,0,100,0,0
231995,-93.3772490111277,4,1,0,60,0,0
232216,-91.3574112137571,4,1,0,100,0,0
232486,-89.4316732876864,4,1,0,100,0,0
232597,-88.4905412698181,4,1,0,100,0,0
232707,-87.5772273225937,4,1,0,100,0,0
232877,-85.8060136339208,4,1,0,60,0,0
233098,-84.0974460269605,4,1,0,100,0,0
233369,-82.4555919487897,4,1,0,100,0,0
233479,-81.6620453872453,4,1,0,100,0,0
233589,-80.8836272980576,4,1,0,100,0,0
233760,-79.3637297159414,4,1,0,60,0,0
233980,-77.9064018850601,4,1,0,100,0,0
234251,-76.4953600968328,4,1,0,100,0,0
234361,-75.8119134792008,4,1,0,100,0,0
234472,-75.1345226227113,4,1,0,100,0,0
234642,-73.8270958949117,4,1,0,60,0,0
234863,-72.5587514201997,4,1,0,100,0,0
235023,-71.9435550812285,4,1,0,100,0,0
235133,-71.3387030395673,4,1,0,100,0,0
235244,-70.7385750846776,4,1,0,100,0,0
235299,-70.4449398541638,4,1,0,100,0,0
235354,-70.153732301128,4,1,0,100,0,0
235464,-69.5784807876463,4,1,0,100,0,0
235575,-69.0074842466844,4,1,0,100,0,0
235685,-68.450802748412,4,1,0,100,0,0
235740,-68.1758165197409,4,1,0,100,0,0
235795,-67.9030308456821,4,1,0,100,0,0
235905,-67.3639563416719,4,1,0,100,0,0
236016,-66.8285885806498,4,1,0,100,0,0
236126,-66.3063732588703,4,1,0,100,0,0
236236,-65.7922560985528,4,1,0,100,0,0
236310,-65.4508579165116,4,1,0,100,0,0
236383,-65.1175271009982,4,1,0,100,0,0
236457,-64.7830775966087,4,1,0,100,0,0
236530,-64.456496911039,4,1,0,100,0,0
236604,-64.1287860770666,4,1,0,100,0,0
236677,-63.8087525373103,4,1,0,100,0,0
236788,-63.3282012473578,4,1,0,100,0,0
236898,-62.8590670085736,4,1,0,100,0,0
237008,-62.3968323348675,4,1,0,100,0,0
237119,-61.9372358453968,4,1,0,100,0,0
237229,-61.4884107470431,4,1,0,100,0,0
237339,-61.0460436287531,4,1,0,100,0,0
237450,-60.6060606060606,4,1,0,100,0,0
237565,-100,4,1,0,60,0,0
238392,-100,4,1,0,100,0,0
238888,-133.333333333333,4,1,0,98,0,0
239330,-133.333333333333,4,1,0,95,0,0
239771,-133.333333333333,4,1,0,92,0,0
240212,-133.333333333333,4,1,0,90,0,0
240653,-133.333333333333,4,1,0,87,0,0
241094,-133.333333333333,4,1,0,85,0,0
241535,-133.333333333333,4,1,0,83,0,0
241977,-133.333333333333,4,1,0,80,0,0
242418,-133.333333333333,4,1,0,77,0,0
242859,-133.333333333333,4,1,0,75,0,0
243300,-133.333333333333,4,1,0,73,0,0
243741,-133.333333333333,4,1,0,70,0,0
244182,-133.333333333333,4,1,0,68,0,0
244624,-133.333333333333,4,1,0,65,0,0
245065,-133.333333333333,4,1,0,62,0,0
245506,-133.333333333333,4,1,0,60,0,0
245947,-133.333333333333,4,1,0,59,0,0
246388,-133.333333333333,4,1,0,58,0,0
246830,-133.333333333333,4,1,0,56,0,0
247271,-133.333333333333,4,1,0,55,0,0
247712,-133.333333333333,4,1,0,54,0,0
248153,-133.333333333333,4,1,0,52,0,0
248594,-133.333333333333,4,1,0,51,0,0
249035,-133.333333333333,4,1,0,50,0,0
249477,-133.333333333333,4,1,0,51,0,0
249918,-133.333333333333,4,1,0,53,0,0
250359,-133.333333333333,4,1,0,54,0,0
250635,-133.333333333333,4,1,0,55,0,0
250800,-133.333333333333,4,1,0,55,0,0
251241,-133.333333333333,4,1,0,61,0,0
251462,-133.333333333333,4,1,0,64,0,0
251682,-133.333333333333,4,1,0,67,0,0
252124,-133.333333333333,4,1,0,74,0,0
252565,-133.333333333333,4,1,0,80,0,0
263042,-133.333333333333,4,1,0,60,0,0
263153,441.176470588235,4,1,0,100,1,0
263153,-133.333333333333,4,1,0,60,0,0
263263,-133.333333333333,4,1,0,40,0,0

[HitObjects]
448,64,9036,5,8,0:0:0:0:
64,64,9808,1,0,0:0:0:0:
448,64,10691,1,8,0:0:0:0:
448,64,12566,1,8,0:0:0:0:
64,64,13338,1,0,0:0:0:0:
64,64,14220,1,0,0:0:0:0:
448,64,16095,1,8,0:0:0:0:
64,64,16867,1,0,0:0:0:0:
448,64,17750,1,8,0:0:0:0:
448,64,19625,1,8,0:0:0:0:
64,64,21279,1,0,0:0:0:0:
448,64,22161,1,8,0:0:0:0:
448,64,23154,1,8,0:0:0:0:
64,64,23595,1,0,0:0:0:0:
448,64,23926,1,8,0:0:0:0:
64,64,24036,1,0,0:0:0:0:
448,64,24257,1,8,0:0:0:0:
64,64,24477,1,0,0:0:0:0:
64,64,24588,1,0,0:0:0:0:
448,64,24808,1,8,0:0:0:0:
64,64,25029,1,0,0:0:0:0:
448,64,25139,1,8,0:0:0:0:
64,64,25360,1,0,0:0:0:0:
64,64,25470,1,0,0:0:0:0:
448,64,25580,1,8,0:0:0:0:
64,64,25801,1,0,0:0:0:0:
448,64,26022,1,8,0:0:0:0:
64,64,26132,1,0,0:0:0:0:
448,64,26242,1,8,0:0:0:0:
448,64,26352,1,8,0:0:0:0:
64,64,26463,1,0,0:0:0:0:
448,64,26683,1,8,0:0:0:0:
64,64,27125,1,0,0:0:0:0:
448,64,27455,1,8,0:0:0:0:
64,64,27566,1,0,0:0:0:0:
448,64,27786,1,8,0:0:0:0:
64,64,28007,1,0,0:0:0:0:
64,64,28117,1,0,0:0:0:0:
448,64,28338,1,8,0:0:0:0:
64,64,28558,1,0,0:0:0:0:
64,64,28669,1,0,0:0:0:0:
448,64,28779,1,8,0:0:0:0:
64,64,29000,1,0,0:0:0:0:
448,64,29110,1,8,0:0:0:0:
64,64,29220,1,0,0:0:0:0:
64,64,29330,1,0,0:0:0:0:
448,64,29551,1,8,0:0:0:0:
64,64,29661,1,0,0:0:0:0:
448,64,29772,1,8,0:0:0:0:
448,64,29882,1,8,0:0:0:0:
64,64,29992,1,0,0:0:0:0:
448,64,30213,1,8,0:0:0:0:
64,64,30654,1,0,0:0:0:0:
448,64,30985,1,8,0:0:0:0:
64,64,31095,1,0,0:0:0:0:
448,64,31316,1,8,0:0:0:0:
64,64,31536,1,0,0:0:0:0:
64,64,31647,1,0,0:0:0:0:
448,64,31867,1,8,0:0:0:0:
64,64,32088,1,0,0:0:0:0:
448,64,32198,1,8,0:0:0:0:
64,64,32419,1,0,0:0:0:0:
64,64,32529,1,0,0:0:0:0:
448,64,32639,1,8,0:0:0:0:
64,64,32860,1,0,0:0:0:0:
64,64,33080,1,0,0:0:0:0:
64,64,33191,1,0,0:0:0:0:
448,64,33301,1,8,0:0:0:0:
448,64,33411,1,8,0:0:0:0:
64,64,33522,1,0,0:0:0:0:
448,64,33742,1,8,0:0:0:0:
64,64,34183,1,0,0:0:0:0:
448,64,34514,1,8,0:0:0:0:
64,64,34625,1,0,0:0:0:0:
448,64,34845,1,8,0:0:0:0:
64,64,35066,1,0,0:0:0:0:
64,64,35176,1,0,0:0:0:0:
448,64,35397,1,8,0:0:0:0:
64,64,35617,1,0,0:0:0:0:
448,64,35727,1,8,0:0:0:0:
64,64,35948,1,0,0:0:0:0:
64,64,36058,1,0,0:0:0:0:
448,64,36169,1,8,0:0:0:0:
448,64,36279,1,8,0:0:0:0:
64,64,36500,1,0,0:0:0:0:
448,64,36610,1,8,0:0:0:0:
448,64,36720,1,8,0:0:0:0:
64,64,36830,1,0,0:0:0:0:
64,64,36904,1,0,0:0:0:0:
64,64,36977,1,0,0:0:0:0:
448,64,37051,1,8,0:0:0:0:
64,320,37272,1,4,0:0:0:0:
64,320,38044,1,4,0:0:0:0:
448,320,38926,1,12,0:0:0:0:
64,320,40801,1,4,0:0:0:0:
64,320,41573,1,4,0:0:0:0:
448,320,42455,1,12,0:0:0:0:
64,64,42786,1,0,0:0:0:0:
64,64,42860,1,0,0:0:0:0:
64,64,42933,1,0,0:0:0:0:
448,64,43007,1,8,0:0:0:0:
64,64,43227,1,0,0:0:0:0:
64,64,43301,1,0,0:0:0:0:
448,64,43375,1,8,0:0:0:0:
448,64,43448,1,8,0:0:0:0:
448,64,44110,1,8,0:0:0:0:
64,320,44330,1,4,0:0:0:0:
64,320,45102,1,4,0:0:0:0:
448,320,45985,1,12,0:0:0:0:
256,192,46316,12,0,47639,0:0:0:0:
64,320,47860,5,4,0:0:0:0:
448,64,48301,1,8,0:0:0:0:
64,64,48521,1,0,0:0:0:0:
64,64,48632,1,0,0:0:0:0:
448,64,48742,1,8,0:0:0:0:
64,64,48852,1,0,0:0:0:0:
64,64,49073,1,0,0:0:0:0:
448,64,49183,1,8,0:0:0:0:
448,64,49293,1,8,0:0:0:0:
64,64,49404,1,0,0:0:0:0:
448,64,49624,1,8,0:0:0:0:
64,64,49955,1,0,0:0:0:0:
448,64,50065,1,8,0:0:0:0:
64,64,50286,1,0,0:0:0:0:
64,64,50396,1,0,0:0:0:0:
448,64,50507,1,8,0:0:0:0:
64,64,50617,1,0,0:0:0:0:
448,64,50727,1,8,0:0:0:0:
448,64,50837,1,8,0:0:0:0:
64,64,50948,1,0,0:0:0:0:
448,64,51058,1,8,0:0:0:0:
64,64,51168,1,0,0:0:0:0:
64,64,51279,1,0,0:0:0:0:
448,64,51389,1,8,0:0:0:0:
64,64,51720,1,0,0:0:0:0:
448,64,51830,1,8,0:0:0:0:
64,64,52051,1,0,0:0:0:0:
64,64,52161,1,0,0:0:0:0:
448,64,52271,1,8,0:0:0:0:
64,64,52382,1,0,0:0:0:0:
64,64,52602,1,0,0:0:0:0:
448,64,52712,1,8,0:0:0:0:
448,64,52823,1,8,0:0:0:0:
64,64,52933,1,0,0:0:0:0:
64,64,53043,1,0,0:0:0:0:
448,64,53154,1,8,0:0:0:0:
64,64,53485,1,0,0:0:0:0:
448,64,53595,1,8,0:0:0:0:
64,64,53815,1,0,0:0:0:0:
64,64,53926,1,0,0:0:0:0:
448,64,54036,1,8,0:0:0:0:
64,64,54146,1,0,0:0:0:0:
448,64,54257,1,8,0:0:0:0:
448,64,54367,1,8,0:0:0:0:
64,64,54477,1,0,0:0:0:0:
64,64,54587,1,0,0:0:0:0:
448,64,54698,1,8,0:0:0:0:
64,64,54918,1,0,0:0:0:0:
64,64,55029,1,0,0:0:0:0:
64,64,55139,1,0,0:0:0:0:
448,64,55249,1,8,0:0:0:0:
64,64,55470,1,0,0:0:0:0:
448,64,55580,1,8,0:0:0:0:
448,64,55690,1,8,0:0:0:0:
64,64,55801,1,0,0:0:0:0:
448,64,55911,1,8,0:0:0:0:
64,64,56021,1,0,0:0:0:0:
64,64,56132,1,0,0:0:0:0:
448,64,56242,1,8,0:0:0:0:
64,64,56462,1,0,0:0:0:0:
448,64,56573,1,8,0:0:0:0:
64,64,56683,1,0,0:0:0:0:
64,64,56793,1,0,0:0:0:0:
64,64,56904,1,0,0:0:0:0:
448,64,57014,1,8,0:0:0:0:
64,64,57234,1,0,0:0:0:0:
448,64,57345,1,8,0:0:0:0:
448,64,57455,1,8,0:0:0:0:
64,64,57565,1,0,0:0:0:0:
448,64,57676,1,8,0:0:0:0:
64,64,57786,1,0,0:0:0:0:
448,64,57896,1,8,0:0:0:0:
448,64,58007,1,8,0:0:0:0:
64,64,58227,1,0,0:0:0:0:
448,64,58337,1,8,0:0:0:0:
64,64,58448,1,0,0:0:0:0:
64,64,58558,1,0,0:0:0:0:
448,64,58668,1,8,0:0:0:0:
448,64,58779,1,8,0:0:0:0:
64,64,58889,1,0,0:0:0:0:
64,64,58999,1,0,0:0:0:0:
448,64,59109,1,8,0:0:0:0:
448,64,59220,1,8,0:0:0:0:
64,64,59330,1,0,0:0:0:0:
448,64,59440,1,8,0:0:0:0:
448,64,59551,1,8,0:0:0:0:
448,64,59661,1,8,0:0:0:0:
64,64,59771,1,0,0:0:0:0:
448,64,59882,1,8,0:0:0:0:
448,64,59992,1,8,0:0:0:0:
448,64,60102,1,8,0:0:0:0:
64,64,60212,1,0,0:0:0:0:
448,64,60323,1,8,0:0:0:0:
448,64,60433,1,8,0:0:0:0:
448,64,60543,1,8,0:0:0:0:
448,64,60654,1,8,0:0:0:0:
448,64,60764,1,8,0:0:0:0:
448,64,60874,1,8,0:0:0:0:
448,64,60984,1,8,0:0:0:0:
448,320,61977,1,12,0:0:0:0:
64,64,62418,1,0,0:0:0:0:
448,64,62529,1,8,0:0:0:0:
64,320,62749,1,4,0:0:0:0:
448,64,63301,1,8,0:0:0:0:
64,64,63411,1,0,0:0:0:0:
448,320,63632,1,12,0:0:0:0:
64,64,63852,1,0,0:0:0:0:
448,64,63962,1,8,0:0:0:0:
448,64,64073,1,8,0:0:0:0:
448,64,64183,1,8,0:0:0:0:
64,64,64293,1,0,0:0:0:0:
448,64,64404,1,8,0:0:0:0:
64,64,64624,1,0,0:0:0:0:
64,64,64734,1,0,0:0:0:0:
448,64,64955,1,8,0:0:0:0:
64,64,65065,1,0,0:0:0:0:
64,64,65139,1,0,0:0:0:0:
64,64,65212,1,0,0:0:0:0:
448,64,65286,1,8,0:0:0:0:
448,320,65507,1,12,0:0:0:0:
64,64,65948,1,0,0:0:0:0:
448,64,66003,1,8,0:0:0:0:
448,64,66058,1,8,0:0:0:0:
64,320,66279,1,4,0:0:0:0:
448,64,66609,1,8,0:0:0:0:
64,64,66665,1,0,0:0:0:0:
64,64,66720,1,0,0:0:0:0:
448,64,66830,1,8,0:0:0:0:
64,64,66940,1,0,0:0:0:0:
448,320,67161,1,12,0:0:0:0:
64,64,67382,1,0,0:0:0:0:
448,64,67492,1,8,0:0:0:0:
64,64,67602,1,0,0:0:0:0:
448,64,67712,1,8,0:0:0:0:
448,64,67786,1,8,0:0:0:0:
448,64,67859,1,8,0:0:0:0:
64,64,67933,1,0,0:0:0:0:
448,64,68154,1,8,0:0:0:0:
64,64,68264,1,0,0:0:0:0:
64,64,68374,1,0,0:0:0:0:
448,64,68484,1,8,0:0:0:0:
448,64,68595,1,8,0:0:0:0:
64,64,68705,1,0,0:0:0:0:
64,64,68815,1,0,0:0:0:0:
448,320,69036,1,12,0:0:0:0:
448,64,69477,1,8,0:0:0:0:
448,64,69587,1,8,0:0:0:0:
64,320,69808,1,4,0:0:0:0:
64,64,70359,1,0,0:0:0:0:
64,64,70470,1,0,0:0:0:0:
448,320,70690,1,12,0:0:0:0:
64,64,70911,1,0,0:0:0:0:
64,64,71021,1,0,0:0:0:0:
64,64,71132,1,0,0:0:0:0:
448,64,71242,1,8,0:0:0:0:
64,64,71352,1,0,0:0:0:0:
64,64,71462,1,0,0:0:0:0:
448,64,71683,1,8,0:0:0:0:
448,64,71793,1,8,0:0:0:0:
64,64,72014,1,0,0:0:0:0:
448,64,72124,1,8,0:0:0:0:
64,64,72198,1,0,0:0:0:0:
64,64,72271,1,0,0:0:0:0:
448,64,72345,1,8,0:0:0:0:
64,320,72565,1,4,0:0:0:0:
64,64,72896,1,0,0:0:0:0:
448,64,73007,1,8,0:0:0:0:
448,64,73117,1,8,0:0:0:0:
64,64,73227,1,0,0:0:0:0:
64,64,73301,1,0,0:0:0:0:
64,64,73374,1,0,0:0:0:0:
448,64,73448,1,8,0:0:0:0:
64,64,73558,1,0,0:0:0:0:
448,64,73779,1,8,0:0:0:0:
64,64,73889,1,0,0:0:0:0:
64,64,73999,1,0,0:0:0:0:
448,64,74109,1,8,0:0:0:0:
448,64,74165,1,8,0:0:0:0:
64,64,74220,1,0,0:0:0:0:
448,64,74330,1,8,0:0:0:0:
448,64,74440,1,8,0:0:0:0:
64,64,74661,1,0,0:0:0:0:
448,64,74771,1,8,0:0:0:0:
448,64,74882,1,8,0:0:0:0:
448,64,74992,1,8,0:0:0:0:
64,64,75102,1,0,0:0:0:0:
448,64,75176,1,8,0:0:0:0:
448,64,75249,1,8,0:0:0:0:
64,64,75323,1,0,0:0:0:0:
64,64,75433,1,0,0:0:0:0:
448,64,75591,1,8,0:0:0:0:
448,64,75717,1,8,0:0:0:0:
64,64,75843,1,0,0:0:0:0:
64,64,75969,1,0,0:0:0:0:
448,320,76095,1,12,0:0:0:0:
64,64,76536,1,0,0:0:0:0:
448,64,76646,1,8,0:0:0:0:
64,320,76867,1,4,0:0:0:0:
64,64,77529,1,0,0:0:0:0:
448,320,77749,1,12,0:0:0:0:
64,64,77970,1,0,0:0:0:0:
64,64,78080,1,0,0:0:0:0:
448,64,78190,1,8,0:0:0:0:
448,64,78301,1,8,0:0:0:0:
64,64,78411,1,0,0:0:0:0:
448,64,78521,1,8,0:0:0:0:
64,64,78742,1,0,0:0:0:0:
64,64,78852,1,0,0:0:0:0:
448,64,79073,1,8,0:0:0:0:
64,64,79183,1,0,0:0:0:0:
64,64,79257,1,0,0:0:0:0:
64,64,79330,1,0,0:0:0:0:
448,64,79404,1,8,0:0:0:0:
448,320,79624,1,12,0:0:0:0:
448,64,80065,1,8,0:0:0:0:
448,64,80121,1,8,0:0:0:0:
64,64,80176,1,0,0:0:0:0:
64,320,80396,1,4,0:0:0:0:
64,64,80727,1,0,0:0:0:0:
64,64,80782,1,0,0:0:0:0:
448,64,80837,1,8,0:0:0:0:
64,64,80948,1,0,0:0:0:0:
64,64,81058,1,0,0:0:0:0:
448,320,81279,1,12,0:0:0:0:
64,64,81499,1,0,0:0:0:0:
448,64,81609,1,8,0:0:0:0:
64,64,81720,1,0,0:0:0:0:
448,64,81830,1,8,0:0:0:0:
448,64,81904,1,8,0:0:0:0:
448,64,81977,1,8,0:0:0:0:
64,64,82051,1,0,0:0:0:0:
448,64,82271,1,8,0:0:0:0:
64,64,82382,1,0,0:0:0:0:
64,64,82492,1,0,0:0:0:0:
448,64,82602,1,8,0:0:0:0:
448,64,82712,1,8,0:0:0:0:
448,64,82823,1,8,0:0:0:0:
64,64,82933,1,0,0:0:0:0:
448,320,83154,1,12,0:0:0:0:
64,64,83595,1,0,0:0:0:0:
64,64,83705,1,0,0:0:0:0:
448,64,83815,1,8,0:0:0:0:
64,64,83926,1,0,0:0:0:0:
64,320,84146,1,4,0:0:0:0:
448,64,84477,1,8,0:0:0:0:
448,64,84587,1,8,0:0:0:0:
64,64,84698,1,0,0:0:0:0:
448,64,84808,1,8,0:0:0:0:
64,64,85139,1,0,0:0:0:0:
448,320,85359,1,12,0:0:0:0:
64,64,85690,1,0,0:0:0:0:
448,64,85801,1,8,0:0:0:0:
64,64,85911,1,0,0:0:0:0:
64,64,86132,1,0,0:0:0:0:
448,64,86242,1,8,0:0:0:0:
448,64,86389,1,8,0:0:0:0:
448,64,86536,1,8,0:0:0:0:
64,64,86683,1,0,0:0:0:0:
256,192,86904,12,0,88448,0:0:0:0:
448,64,88889,5,8,0:0:0:0:
448,64,88999,1,8,0:0:0:0:
448,64,89109,1,8,0:0:0:0:
448,64,89330,1,8,0:0:0:0:
448,64,89440,1,8,0:0:0:0:
448,64,89551,1,8,0:0:0:0:
448,64,89661,1,8,0:0:0:0:
448,64,89882,1,8,0:0:0:0:
448,64,89992,1,8,0:0:0:0:
64,320,90212,1,4,0:0:0:0:
64,64,90654,1,0,0:0:0:0:
448,64,90764,1,8,0:0:0:0:
448,64,90874,1,8,0:0:0:0:
64,64,90984,1,0,0:0:0:0:
64,64,91095,1,0,0:0:0:0:
448,64,91205,1,8,0:0:0:0:
64,64,91315,1,0,0:0:0:0:
64,64,91536,1,0,0:0:0:0:
64,64,91646,1,0,0:0:0:0:
448,64,91757,1,8,0:0:0:0:
64,64,91867,1,0,0:0:0:0:
64,64,91977,1,0,0:0:0:0:
448,64,92087,1,8,0:0:0:0:
64,64,92198,1,0,0:0:0:0:
64,64,92418,1,0,0:0:0:0:
448,64,92529,1,8,0:0:0:0:
64,64,92639,1,0,0:0:0:0:
64,64,92749,1,0,0:0:0:0:
64,64,92859,1,0,0:0:0:0:
448,64,92970,1,8,0:0:0:0:
64,64,93080,1,0,0:0:0:0:
448,64,93301,1,8,0:0:0:0:
448,64,93356,1,8,0:0:0:0:
64,64,93521,1,0,0:0:0:0:
64,64,93576,1,0,0:0:0:0:
448,320,93742,1,12,0:0:0:0:
64,64,94183,1,0,0:0:0:0:
64,64,94293,1,0,0:0:0:0:
64,64,94404,1,0,0:0:0:0:
448,64,94514,1,8,0:0:0:0:
448,64,94624,1,8,0:0:0:0:
64,64,94734,1,0,0:0:0:0:
448,64,94845,1,8,0:0:0:0:
64,64,95065,1,0,0:0:0:0:
448,64,95176,1,8,0:0:0:0:
448,64,95286,1,8,0:0:0:0:
64,64,95396,1,0,0:0:0:0:
64,64,95507,1,0,0:0:0:0:
448,64,95727,1,8,0:0:0:0:
64,64,95837,1,0,0:0:0:0:
64,64,95893,1,0,0:0:0:0:
448,64,95948,1,8,0:0:0:0:
448,64,96058,1,8,0:0:0:0:
64,64,96168,1,0,0:0:0:0:
64,64,96279,1,0,0:0:0:0:
448,64,96389,1,8,0:0:0:0:
448,64,96462,1,8,0:0:0:0:
448,64,96536,1,8,0:0:0:0:
64,64,96609,1,0,0:0:0:0:
448,64,96720,1,8,0:0:0:0:
64,64,96830,1,0,0:0:0:0:
64,64,96940,1,0,0:0:0:0:
448,64,97051,1,8,0:0:0:0:
64,320,97271,1,4,0:0:0:0:
448,64,97712,1,8,0:0:0:0:
448,64,97823,1,8,0:0:0:0:
64,64,97933,1,0,0:0:0:0:
448,64,98043,1,8,0:0:0:0:
448,64,98154,1,8,0:0:0:0:
448,64,98264,1,8,0:0:0:0:
64,64,98374,1,0,0:0:0:0:
448,64,98595,1,8,0:0:0:0:
448,64,98705,1,8,0:0:0:0:
448,64,98815,1,8,0:0:0:0:
64,64,98926,1,0,0:0:0:0:
64,64,99036,1,0,0:0:0:0:
448,64,99146,1,8,0:0:0:0:
64,64,99257,1,0,0:0:0:0:
448,64,99477,1,8,0:0:0:0:
448,64,99587,1,8,0:0:0:0:
64,64,99698,1,0,0:0:0:0:
64,64,99808,1,0,0:0:0:0:
448,64,99918,1,8,0:0:0:0:
64,64,100029,1,0,0:0:0:0:
64,64,100139,1,0,0:0:0:0:
448,64,100249,1,8,0:0:0:0:
64,64,100359,1,0,0:0:0:0:
64,64,100415,1,0,0:0:0:0:
448,64,100580,1,8,0:0:0:0:
448,64,100635,1,8,0:0:0:0:
448,320,100801,1,12,0:0:0:0:
224,160,101490,1,0,0:0:0:0:
288,160,101628,1,0,0:0:0:0:
288,160,101766,1,8,0:0:0:0:
288,160,101931,1,8,0:0:0:0:
288,160,102097,1,8,0:0:0:0:
288,160,102271,1,8,0:0:0:0:
64,64,102455,1,0,0:0:0:0:
64,64,102565,1,0,0:0:0:0:
448,64,102786,1,8,0:0:0:0:
448,64,102841,1,8,0:0:0:0:
64,64,103007,1,0,0:0:0:0:
64,64,103062,1,0,0:0:0:0:
64,64,103227,1,0,0:0:0:0:
448,64,103374,1,8,0:0:0:0:
448,64,103521,1,8,0:0:0:0:
64,64,103668,1,0,0:0:0:0:
64,64,103779,1,0,0:0:0:0:
448,64,103889,1,8,0:0:0:0:
448,64,103999,1,8,0:0:0:0:
64,64,104109,1,0,0:0:0:0:
64,320,104330,1,4,0:0:0:0:
448,64,104771,1,8,0:0:0:0:
448,64,104882,1,8,0:0:0:0:
448,64,104992,1,8,0:0:0:0:
64,64,105102,1,0,0:0:0:0:
64,64,105212,1,0,0:0:0:0:
448,64,105323,1,8,0:0:0:0:
64,64,105433,1,0,0:0:0:0:
448,64,105543,1,8,0:0:0:0:
448,64,105654,1,8,0:0:0:0:
64,64,105764,1,0,0:0:0:0:
448,64,105874,1,8,0:0:0:0:
64,64,105984,1,0,0:0:0:0:
448,64,106205,1,8,0:0:0:0:
448,64,106315,1,8,0:0:0:0:
448,64,106426,1,8,0:0:0:0:
64,64,106536,1,0,0:0:0:0:
448,64,106609,1,8,0:0:0:0:
448,64,106683,1,8,0:0:0:0:
64,64,106757,1,0,0:0:0:0:
448,64,106867,1,8,0:0:0:0:
448,64,106977,1,8,0:0:0:0:
64,64,107087,1,0,0:0:0:0:
448,64,107198,1,8,0:0:0:0:
448,64,107253,1,8,0:0:0:0:
64,64,107418,1,0,0:0:0:0:
448,64,107473,1,8,0:0:0:0:
64,64,107639,1,0,0:0:0:0:
64,64,107694,1,0,0:0:0:0:
448,320,107859,1,12,0:0:0:0:
64,64,108301,1,0,0:0:0:0:
64,64,108356,1,0,0:0:0:0:
448,64,108411,1,8,0:0:0:0:
64,64,108521,1,0,0:0:0:0:
64,64,108742,1,0,0:0:0:0:
64,64,108797,1,0,0:0:0:0:
448,64,108852,1,8,0:0:0:0:
64,64,108962,1,0,0:0:0:0:
64,64,109183,1,0,0:0:0:0:
64,64,109238,1,0,0:0:0:0:
448,64,109293,1,8,0:0:0:0:
448,64,109404,1,8,0:0:0:0:
64,64,109514,1,0,0:0:0:0:
448,64,109734,1,8,0:0:0:0:
448,64,109808,1,8,0:0:0:0:
448,64,109882,1,8,0:0:0:0:
64,64,109955,1,0,0:0:0:0:
448,64,110065,1,8,0:0:0:0:
64,64,110176,1,0,0:0:0:0:
64,64,110286,1,0,0:0:0:0:
448,64,110396,1,8,0:0:0:0:
256,192,110507,12,0,110837,0:0:0:0:
256,192,111058,12,0,111609,0:0:0:0:
64,320,111830,5,4,0:0:0:0:
448,64,112271,1,8,0:0:0:0:
448,64,112382,1,8,0:0:0:0:
64,64,112492,1,0,0:0:0:0:
448,64,112602,1,8,0:0:0:0:
64,64,112712,1,0,0:0:0:0:
448,64,112823,1,8,0:0:0:0:
64,64,112933,1,0,0:0:0:0:
64,64,113043,1,0,0:0:0:0:
64,64,113154,1,0,0:0:0:0:
448,64,113264,1,8,0:0:0:0:
64,64,113374,1,0,0:0:0:0:
448,64,113484,1,8,0:0:0:0:
64,64,113595,1,0,0:0:0:0:
448,64,113668,1,8,0:0:0:0:
448,64,113742,1,8,0:0:0:0:
64,64,113815,1,0,0:0:0:0:
448,64,113926,1,8,0:0:0:0:
64,64,114036,1,0,0:0:0:0:
448,64,114146,1,8,0:0:0:0:
64,64,114257,1,0,0:0:0:0:
64,64,114312,1,0,0:0:0:0:
448,64,114477,1,8,0:0:0:0:
64,64,114532,1,0,0:0:0:0:
448,64,114698,1,8,0:0:0:0:
448,64,114753,1,8,0:0:0:0:
448,320,114918,1,12,0:0:0:0:
64,64,115065,1,0,0:0:0:0:
64,64,115139,1,0,0:0:0:0:
448,64,115212,1,0,0:0:0:0:
448,64,115286,1,0,0:0:0:0:
64,64,115359,1,8,0:0:0:0:
64,64,115470,1,8,0:0:0:0:
64,64,115580,1,0,0:0:0:0:
64,64,115654,1,0,0:0:0:0:
64,64,115727,1,0,0:0:0:0:
448,64,115801,1,8,0:0:0:0:
64,64,115911,1,0,0:0:0:0:
64,64,116021,1,0,0:0:0:0:
64,64,116132,1,0,0:0:0:0:
448,64,116242,1,8,0:0:0:0:
448,64,116352,1,8,0:0:0:0:
64,64,116462,1,0,0:0:0:0:
64,64,116573,1,0,0:0:0:0:
448,64,116683,1,8,0:0:0:0:
448,64,116793,1,8,0:0:0:0:
448,64,116904,1,8,0:0:0:0:
448,64,117041,1,8,0:0:0:0:
448,64,117179,1,8,0:0:0:0:
448,64,117317,1,8,0:0:0:0:
448,64,117455,1,8,0:0:0:0:
256,192,117565,12,0,118116,0:0:0:0:
64,320,118448,5,4,0:0:0:0:
448,64,120212,1,8,0:0:0:0:
64,64,121977,1,0,0:0:0:0:
448,64,123742,1,8,0:0:0:0:
64,64,125507,1,0,0:0:0:0:
448,64,127271,1,8,0:0:0:0:
64,64,129036,1,0,0:0:0:0:
448,64,130801,1,8,0:0:0:0:
64,64,131573,1,0,0:0:0:0:
448,64,132565,5,8,0:0:0:0:
64,64,133007,1,0,0:0:0:0:
448,64,133337,1,8,0:0:0:0:
64,64,133448,1,0,0:0:0:0:
448,64,133668,1,8,0:0:0:0:
64,64,133889,1,0,0:0:0:0:
64,64,133999,1,0,0:0:0:0:
448,64,134220,1,8,0:0:0:0:
64,64,134440,1,0,0:0:0:0:
448,64,134551,1,8,0:0:0:0:
64,64,134771,1,0,0:0:0:0:
64,64,134882,1,0,0:0:0:0:
448,64,134992,1,8,0:0:0:0:
64,64,135212,1,0,0:0:0:0:
448,64,135433,1,8,0:0:0:0:
64,64,135543,1,0,0:0:0:0:
448,64,135654,1,8,0:0:0:0:
448,64,135764,1,8,0:0:0:0:
64,64,135874,1,0,0:0:0:0:
448,64,136095,1,8,0:0:0:0:
64,64,136536,1,0,0:0:0:0:
448,64,136867,1,8,0:0:0:0:
64,64,136977,1,0,0:0:0:0:
448,64,137198,1,8,0:0:0:0:
64,64,137418,1,0,0:0:0:0:
64,64,137529,1,0,0:0:0:0:
448,64,137749,1,8,0:0:0:0:
64,64,137970,1,0,0:0:0:0:
64,64,138080,1,0,0:0:0:0:
448,64,138190,1,8,0:0:0:0:
64,64,138411,1,0,0:0:0:0:
448,64,138521,1,8,0:0:0:0:
64,64,138632,1,0,0:0:0:0:
64,64,138742,1,0,0:0:0:0:
448,64,138962,1,8,0:0:0:0:
448,64,139073,1,8,0:0:0:0:
64,64,139183,1,0,0:0:0:0:
448,64,139293,1,8,0:0:0:0:
64,64,139404,1,0,0:0:0:0:
448,64,139624,1,8,0:0:0:0:
64,64,140065,1,0,0:0:0:0:
448,64,140396,1,8,0:0:0:0:
64,64,140507,1,0,0:0:0:0:
448,64,140727,1,8,0:0:0:0:
64,64,140948,1,0,0:0:0:0:
64,64,141058,1,0,0:0:0:0:
448,64,141279,1,8,0:0:0:0:
64,64,141499,1,0,0:0:0:0:
448,64,141609,1,8,0:0:0:0:
64,64,141830,1,0,0:0:0:0:
64,64,141940,1,0,0:0:0:0:
448,64,142051,1,8,0:0:0:0:
64,64,142271,1,0,0:0:0:0:
448,64,142492,1,8,0:0:0:0:
64,64,142602,1,0,0:0:0:0:
448,64,142712,1,8,0:0:0:0:
64,64,142823,1,0,0:0:0:0:
64,64,142933,1,0,0:0:0:0:
448,64,143154,1,8,0:0:0:0:
64,64,143595,1,0,0:0:0:0:
448,64,143926,1,8,0:0:0:0:
64,64,144036,1,0,0:0:0:0:
448,64,144257,1,8,0:0:0:0:
64,64,144477,1,0,0:0:0:0:
64,64,144587,1,0,0:0:0:0:
448,64,144808,1,8,0:0:0:0:
64,64,145029,1,0,0:0:0:0:
448,64,145139,1,8,0:0:0:0:
64,64,145359,1,0,0:0:0:0:
64,64,145470,1,0,0:0:0:0:
448,64,145580,1,8,0:0:0:0:
448,64,145690,1,8,0:0:0:0:
64,64,145911,1,0,0:0:0:0:
448,64,146021,1,8,0:0:0:0:
448,64,146132,1,8,0:0:0:0:
448,64,146242,1,8,0:0:0:0:
64,64,146352,1,0,0:0:0:0:
448,64,146462,1,8,0:0:0:0:
64,64,146683,1,0,0:0:0:0:
64,64,147455,1,0,0:0:0:0:
448,64,148337,1,8,0:0:0:0:
64,64,150212,1,0,0:0:0:0:
64,64,150984,1,0,0:0:0:0:
448,64,151867,1,8,0:0:0:0:
64,64,152198,1,0,0:0:0:0:
64,64,152271,1,0,0:0:0:0:
64,64,152345,1,0,0:0:0:0:
448,64,152418,1,8,0:0:0:0:
64,64,152639,1,0,0:0:0:0:
448,64,152712,1,8,0:0:0:0:
448,64,152786,1,8,0:0:0:0:
448,64,152859,1,8,0:0:0:0:
64,64,153742,1,0,0:0:0:0:
64,64,154514,1,0,0:0:0:0:
448,64,155396,1,8,0:0:0:0:
64,64,156609,1,0,0:0:0:0:
448,64,156830,1,8,0:0:0:0:
64,64,157271,1,0,0:0:0:0:
64,320,160801,1,4,0:0:0:0:
64,320,161573,1,4,0:0:0:0:
448,320,162455,1,12,0:0:0:0:
64,320,164330,1,4,0:0:0:0:
64,320,165102,1,4,0:0:0:0:
448,320,165984,1,12,0:0:0:0:
64,64,166315,1,0,0:0:0:0:
64,64,166389,1,0,0:0:0:0:
64,64,166462,1,0,0:0:0:0:
448,64,166536,1,8,0:0:0:0:
64,64,166757,1,0,0:0:0:0:
64,64,166830,1,0,0:0:0:0:
448,64,166904,1,8,0:0:0:0:
448,64,166977,1,8,0:0:0:0:
448,64,167639,1,8,0:0:0:0:
64,320,167859,1,4,0:0:0:0:
64,320,168632,1,4,0:0:0:0:
448,320,169514,1,12,0:0:0:0:
256,192,169845,12,0,170948,0:0:0:0:
64,320,171389,5,4,0:0:0:0:
64,320,171719,1,4,0:0:0:0:
64,320,172050,1,4,0:0:0:0:
64,320,172381,1,4,0:0:0:0:
448,320,173153,1,12,0:0:0:0:
448,320,173484,1,12,0:0:0:0:
448,320,173815,1,12,0:0:0:0:
448,320,174146,1,12,0:0:0:0:
64,320,174918,1,4,0:0:0:0:
64,320,175249,1,4,0:0:0:0:
64,320,175580,1,4,0:0:0:0:
64,320,175911,1,4,0:0:0:0:
448,320,176683,1,12,0:0:0:0:
448,320,177014,1,12,0:0:0:0:
448,320,177344,1,12,0:0:0:0:
448,320,177675,1,12,0:0:0:0:
64,64,178006,1,0,0:0:0:0:
448,64,178227,1,8,0:0:0:0:
64,320,178447,1,4,0:0:0:0:
64,320,178778,1,4,0:0:0:0:
448,320,179330,1,12,0:0:0:0:
448,320,179661,1,12,0:0:0:0:
64,320,180212,1,4,0:0:0:0:
64,320,180543,1,4,0:0:0:0:
448,320,181094,1,12,0:0:0:0:
448,320,181425,1,12,0:0:0:0:
448,64,181977,1,8,0:0:0:0:
448,64,182087,1,8,0:0:0:0:
64,64,182197,1,0,0:0:0:0:
64,64,182308,1,0,0:0:0:0:
448,64,182418,1,8,0:0:0:0:
448,64,182528,1,8,0:0:0:0:
64,64,182639,1,0,0:0:0:0:
64,64,182749,1,0,0:0:0:0:
448,64,182859,1,8,0:0:0:0:
448,64,182969,1,8,0:0:0:0:
64,64,183080,1,0,0:0:0:0:
64,64,183190,1,0,0:0:0:0:
448,64,183300,1,8,0:0:0:0:
64,64,183374,1,0,0:0:0:0:
64,64,183447,1,0,0:0:0:0:
448,64,183521,1,8,0:0:0:0:
64,64,183594,1,0,0:0:0:0:
64,64,183668,1,0,0:0:0:0:
448,64,183741,1,8,0:0:0:0:
448,64,183852,1,8,0:0:0:0:
448,64,183962,1,8,0:0:0:0:
448,64,184072,1,8,0:0:0:0:
448,64,184183,1,8,0:0:0:0:
448,64,184293,1,8,0:0:0:0:
448,64,184403,1,8,0:0:0:0:
448,64,184514,1,8,0:0:0:0:
64,320,185506,1,4,0:0:0:0:
448,64,185727,1,8,0:0:0:0:
448,64,185800,1,8,0:0:0:0:
448,64,185874,1,8,0:0:0:0:
64,64,185947,1,0,0:0:0:0:
448,64,186058,1,8,0:0:0:0:
448,64,186278,1,8,0:0:0:0:
64,64,186389,1,0,0:0:0:0:
448,64,186499,1,8,0:0:0:0:
448,64,186719,1,8,0:0:0:0:
64,64,186830,1,0,0:0:0:0:
448,64,186940,1,8,0:0:0:0:
448,64,187050,1,8,0:0:0:0:
64,64,187161,1,0,0:0:0:0:
448,64,187381,1,8,0:0:0:0:
64,64,187491,1,0,0:0:0:0:
64,64,187602,1,0,0:0:0:0:
448,64,187712,1,8,0:0:0:0:
64,64,187822,1,0,0:0:0:0:
448,64,187933,1,8,0:0:0:0:
64,64,188153,1,0,0:0:0:0:
448,64,188264,1,8,0:0:0:0:
64,64,188374,1,0,0:0:0:0:
64,64,188484,1,0,0:0:0:0:
448,64,188594,1,8,0:0:0:0:
64,64,188705,1,0,0:0:0:0:
448,64,188815,1,8,0:0:0:0:
448,64,188925,1,8,0:0:0:0:
64,64,189036,1,0,0:0:0:0:
448,64,189256,1,8,0:0:0:0:
448,64,189366,1,8,0:0:0:0:
64,64,189477,1,0,0:0:0:0:
448,64,189587,1,8,0:0:0:0:
448,64,189808,1,8,0:0:0:0:
64,64,189918,1,0,0:0:0:0:
448,64,190028,1,8,0:0:0:0:
64,64,190249,1,0,0:0:0:0:
448,64,190359,1,8,0:0:0:0:
448,64,190469,1,8,0:0:0:0:
64,64,190580,1,0,0:0:0:0:
64,64,190690,1,0,0:0:0:0:
448,64,190911,1,8,0:0:0:0:
64,64,191021,1,0,0:0:0:0:
448,64,191131,1,8,0:0:0:0:
448,64,191241,1,8,0:0:0:0:
64,64,191352,1,0,0:0:0:0:
448,64,191462,1,8,0:0:0:0:
64,64,191683,1,0,0:0:0:0:
448,64,191793,1,8,0:0:0:0:
64,64,191903,1,0,0:0:0:0:
448,64,192014,1,8,0:0:0:0:
448,64,192124,1,8,0:0:0:0:
64,64,192234,1,0,0:0:0:0:
64,64,192455,1,0,0:0:0:0:
64,64,192565,1,0,0:0:0:0:
448,64,192786,1,8,0:0:0:0:
448,64,192859,1,8,0:0:0:0:
448,64,192933,1,8,0:0:0:0:
64,64,193006,1,0,0:0:0:0:
448,64,193116,1,8,0:0:0:0:
448,64,193337,1,8,0:0:0:0:
64,64,193447,1,0,0:0:0:0:
448,64,193558,1,8,0:0:0:0:
448,64,193778,1,8,0:0:0:0:
64,64,193889,1,0,0:0:0:0:
448,64,193999,1,8,0:0:0:0:
448,64,194109,1,8,0:0:0:0:
64,64,194219,1,0,0:0:0:0:
448,64,194440,1,8,0:0:0:0:
64,64,194495,1,0,0:0:0:0:
448,64,194550,1,8,0:0:0:0:
64,64,194661,1,0,0:0:0:0:
448,64,194771,1,8,0:0:0:0:
448,64,194881,1,8,0:0:0:0:
64,64,194991,1,0,0:0:0:0:
448,64,195102,1,8,0:0:0:0:
64,64,195322,1,0,0:0:0:0:
448,64,195433,1,8,0:0:0:0:
448,64,195543,1,8,0:0:0:0:
64,64,195653,1,0,0:0:0:0:
448,64,195874,1,8,0:0:0:0:
64,64,195984,1,0,0:0:0:0:
64,64,196094,1,0,0:0:0:0:
448,64,196205,1,8,0:0:0:0:
64,64,196425,1,0,0:0:0:0:
448,64,196536,1,8,0:0:0:0:
64,64,196756,1,0,0:0:0:0:
64,64,196866,1,0,0:0:0:0:
448,64,196977,1,8,0:0:0:0:
64,64,197087,1,0,0:0:0:0:
448,64,197197,1,8,0:0:0:0:
448,64,197308,1,8,0:0:0:0:
64,64,197418,1,0,0:0:0:0:
448,64,197528,1,8,0:0:0:0:
64,64,197749,1,0,0:0:0:0:
64,64,197859,1,0,0:0:0:0:
448,64,197969,1,8,0:0:0:0:
448,64,198080,1,8,0:0:0:0:
64,64,198190,1,0,0:0:0:0:
448,64,198300,1,8,0:0:0:0:
448,64,198374,1,8,0:0:0:0:
448,64,198447,1,8,0:0:0:0:
64,64,198521,1,0,0:0:0:0:
448,64,198631,1,8,0:0:0:0:
64,64,198741,1,0,0:0:0:0:
448,64,198852,1,8,0:0:0:0:
448,64,198962,1,8,0:0:0:0:
64,64,199072,1,0,0:0:0:0:
448,64,199183,1,8,0:0:0:0:
64,64,199293,1,0,0:0:0:0:
64,320,199624,1,4,0:0:0:0:
448,64,199844,1,8,0:0:0:0:
448,64,199955,1,8,0:0:0:0:
64,64,200065,1,0,0:0:0:0:
448,64,200175,1,8,0:0:0:0:
448,64,200396,1,8,0:0:0:0:
64,64,200506,1,0,0:0:0:0:
448,64,200616,1,8,0:0:0:0:
448,64,200837,1,8,0:0:0:0:
64,64,200947,1,0,0:0:0:0:
448,64,201058,1,8,0:0:0:0:
448,64,201168,1,8,0:0:0:0:
64,64,201278,1,0,0:0:0:0:
448,64,201499,1,8,0:0:0:0:
64,64,201609,1,0,0:0:0:0:
64,64,201719,1,0,0:0:0:0:
448,64,201830,1,8,0:0:0:0:
64,64,201940,1,0,0:0:0:0:
448,64,202050,1,8,0:0:0:0:
64,64,202161,1,0,0:0:0:0:
64,64,202271,1,0,0:0:0:0:
448,64,202381,1,8,0:0:0:0:
64,64,202491,1,0,0:0:0:0:
64,64,202602,1,0,0:0:0:0:
448,64,202712,1,8,0:0:0:0:
448,64,202822,1,8,0:0:0:0:
64,64,202933,1,0,0:0:0:0:
448,64,203043,1,8,0:0:0:0:
64,64,203153,1,0,0:0:0:0:
448,64,203374,1,8,0:0:0:0:
448,64,203484,1,8,0:0:0:0:
64,64,203594,1,0,0:0:0:0:
448,64,203705,1,8,0:0:0:0:
448,64,203925,1,8,0:0:0:0:
64,64,204036,1,0,0:0:0:0:
448,64,204146,1,8,0:0:0:0:
64,64,204366,1,0,0:0:0:0:
448,64,204477,1,8,0:0:0:0:
448,64,204587,1,8,0:0:0:0:
64,64,204697,1,0,0:0:0:0:
64,64,204808,1,0,0:0:0:0:
448,64,205028,1,8,0:0:0:0:
64,64,205138,1,0,0:0:0:0:
64,64,205212,1,0,0:0:0:0:
64,64,205286,1,0,0:0:0:0:
448,64,205359,1,8,0:0:0:0:
64,64,205469,1,0,0:0:0:0:
448,64,205580,1,8,0:0:0:0:
448,64,205653,1,8,0:0:0:0:
448,64,205727,1,8,0:0:0:0:
64,64,205800,1,0,0:0:0:0:
448,64,205911,1,8,0:0:0:0:
448,64,206131,1,8,0:0:0:0:
64,64,206241,1,0,0:0:0:0:
448,320,206462,1,12,0:0:0:0:
448,64,206903,1,8,0:0:0:0:
448,64,207013,1,8,0:0:0:0:
64,64,207124,1,0,0:0:0:0:
448,64,207234,1,8,0:0:0:0:
448,64,207455,1,8,0:0:0:0:
64,64,207565,1,0,0:0:0:0:
448,64,207675,1,8,0:0:0:0:
448,64,207896,1,8,0:0:0:0:
64,64,208006,1,0,0:0:0:0:
448,64,208116,1,8,0:0:0:0:
448,64,208227,1,8,0:0:0:0:
64,64,208337,1,0,0:0:0:0:
448,64,208558,1,8,0:0:0:0:
448,64,208613,1,8,0:0:0:0:
64,64,208668,1,0,0:0:0:0:
448,64,208778,1,8,0:0:0:0:
64,64,208888,1,0,0:0:0:0:
64,64,208999,1,0,0:0:0:0:
448,64,209109,1,8,0:0:0:0:
64,64,209219,1,0,0:0:0:0:
64,64,209330,1,0,0:0:0:0:
448,64,209440,1,8,0:0:0:0:
448,64,209550,1,8,0:0:0:0:
64,64,209661,1,0,0:0:0:0:
448,64,209771,1,8,0:0:0:0:
448,64,209844,1,8,0:0:0:0:
448,64,209918,1,8,0:0:0:0:
64,64,209991,1,0,0:0:0:0:
448,320,210212,1,12,0:0:0:0:
64,64,210653,1,0,0:0:0:0:
64,64,210763,1,0,0:0:0:0:
448,64,210874,1,8,0:0:0:0:
64,64,210984,1,0,0:0:0:0:
64,320,211205,1,4,0:0:0:0:
448,64,211536,1,8,0:0:0:0:
64,64,211646,1,0,0:0:0:0:
448,64,211756,1,8,0:0:0:0:
448,64,211866,1,8,0:0:0:0:
64,64,212197,1,0,0:0:0:0:
448,320,212418,1,12,0:0:0:0:
64,64,212712,1,0,0:0:0:0:
64,64,212859,1,0,0:0:0:0:
448,64,213006,1,8,0:0:0:0:
448,64,213080,1,8,0:0:0:0:
64,64,213153,1,0,0:0:0:0:
448,64,213300,1,8,0:0:0:0:
448,64,213374,1,8,0:0:0:0:
64,64,213447,1,0,0:0:0:0:
64,64,213521,1,0,0:0:0:0:
448,64,213594,1,8,0:0:0:0:
64,320,213741,1,4,0:0:0:0:
64,320,214183,1,4,0:0:0:0:
448,64,214403,1,8,0:0:0:0:
64,64,214513,1,0,0:0:0:0:
64,64,214587,1,0,0:0:0:0:
448,64,214661,1,8,0:0:0:0:
448,64,214734,1,8,0:0:0:0:
448,64,214844,1,8,0:0:0:0:
64,64,214955,1,0,0:0:0:0:
64,64,215010,1,0,0:0:0:0:
64,64,215065,1,0,0:0:0:0:
448,64,215175,1,8,0:0:0:0:
64,64,215286,1,0,0:0:0:0:
448,64,215396,1,8,0:0:0:0:
448,64,215451,1,8,0:0:0:0:
448,64,215506,1,8,0:0:0:0:
64,64,215616,1,0,0:0:0:0:
64,64,215727,1,0,0:0:0:0:
448,320,215947,1,12,0:0:0:0:
64,64,216168,1,0,0:0:0:0:
64,64,216278,1,0,0:0:0:0:
448,64,216388,1,8,0:0:0:0:
64,64,216499,1,0,0:0:0:0:
448,64,216572,1,8,0:0:0:0:
448,64,216646,1,8,0:0:0:0:
64,64,216719,1,0,0:0:0:0:
448,64,216830,1,8,0:0:0:0:
64,64,216940,1,0,0:0:0:0:
448,64,217050,1,8,0:0:0:0:
448,64,217161,1,8,0:0:0:0:
64,320,217491,1,4,0:0:0:0:
448,64,217712,1,8,0:0:0:0:
448,64,217767,1,8,0:0:0:0:
64,64,217822,1,0,0:0:0:0:
64,64,217933,1,0,0:0:0:0:
448,64,218043,1,8,0:0:0:0:
64,64,218116,1,0,0:0:0:0:
64,64,218190,1,0,0:0:0:0:
448,64,218263,1,8,0:0:0:0:
64,64,218374,1,0,0:0:0:0:
64,64,218484,1,0,0:0:0:0:
448,64,218594,1,8,0:0:0:0:
448,320,218925,1,12,0:0:0:0:
64,64,219256,1,0,0:0:0:0:
448,64,219366,1,8,0:0:0:0:
64,64,219477,1,0,0:0:0:0:
448,64,219587,1,8,0:0:0:0:
448,64,219697,1,8,0:0:0:0:
64,64,219808,1,0,0:0:0:0:
64,64,219863,1,0,0:0:0:0:
448,64,219918,1,8,0:0:0:0:
448,64,220028,1,8,0:0:0:0:
64,64,220138,1,0,0:0:0:0:
448,64,220249,1,8,0:0:0:0:
64,64,220359,1,0,0:0:0:0:
64,64,220469,1,0,0:0:0:0:
448,64,220580,1,8,0:0:0:0:
64,64,220800,1,0,0:0:0:0:
64,64,220874,1,0,0:0:0:0:
64,64,220947,1,0,0:0:0:0:
64,64,221094,1,0,0:0:0:0:
448,320,221241,1,12,0:0:0:0:
64,64,221683,1,0,0:0:0:0:
448,64,221830,1,8,0:0:0:0:
448,64,221977,1,8,0:0:0:0:
64,320,222124,1,4,0:0:0:0:
448,64,222565,1,8,0:0:0:0:
448,64,222712,1,8,0:0:0:0:
448,64,222859,1,8,0:0:0:0:
64,64,223006,1,0,0:0:0:0:
64,64,223153,1,0,0:0:0:0:
448,64,223300,1,8,0:0:0:0:
64,64,223447,1,0,0:0:0:0:
448,64,223558,1,8,0:0:0:0:
64,64,223741,1,0,0:0:0:0:
64,64,223815,1,0,0:0:0:0:
448,64,223888,1,8,0:0:0:0:
448,64,223962,1,8,0:0:0:0:
64,64,224036,1,0,0:0:0:0:
448,64,224183,1,8,0:0:0:0:
64,320,224330,1,4,0:0:0:0:
64,320,224660,1,4,0:0:0:0:
64,320,224991,1,4,0:0:0:0:
64,320,225322,1,4,0:0:0:0:
448,320,226094,1,12,0:0:0:0:
448,320,226425,1,12,0:0:0:0:
448,320,226756,1,12,0:0:0:0:
448,320,227087,1,12,0:0:0:0:
64,320,227859,1,4,0:0:0:0:
64,320,228190,1,4,0:0:0:0:
64,320,228521,1,4,0:0:0:0:
64,320,228852,1,4,0:0:0:0:
448,320,229624,1,12,0:0:0:0:
448,320,229955,1,12,0:0:0:0:
448,320,230285,1,12,0:0:0:0:
448,320,230616,1,12,0:0:0:0:
64,64,230947,1,0,0:0:0:0:
448,64,231168,1,8,0:0:0:0:
64,320,231388,1,4,0:0:0:0:
448,64,231609,1,8,0:0:0:0:
64,64,231719,1,0,0:0:0:0:
448,64,231830,1,8,0:0:0:0:
64,64,232050,1,0,0:0:0:0:
448,320,232271,1,12,0:0:0:0:
64,64,232491,1,0,0:0:0:0:
448,64,232602,1,8,0:0:0:0:
64,64,232712,1,0,0:0:0:0:
448,64,232932,1,8,0:0:0:0:
64,320,233153,1,4,0:0:0:0:
448,64,233374,1,8,0:0:0:0:
64,64,233484,1,0,0:0:0:0:
448,64,233594,1,8,0:0:0:0:
64,64,233815,1,0,0:0:0:0:
448,320,234035,1,12,0:0:0:0:
64,64,234256,1,0,0:0:0:0:
448,64,234366,1,8,0:0:0:0:
64,64,234477,1,0,0:0:0:0:
448,64,234697,1,8,0:0:0:0:
64,64,234918,1,0,0:0:0:0:
64,64,235028,1,0,0:0:0:0:
448,64,235138,1,8,0:0:0:0:
448,64,235249,1,8,0:0:0:0:
448,64,235304,1,8,0:0:0:0:
64,64,235359,1,0,0:0:0:0:
64,64,235469,1,0,0:0:0:0:
448,64,235580,1,8,0:0:0:0:
448,64,235690,1,8,0:0:0:0:
448,64,235745,1,8,0:0:0:0:
64,64,235800,1,0,0:0:0:0:
64,64,235910,1,0,0:0:0:0:
448,64,236021,1,8,0:0:0:0:
448,64,236131,1,8,0:0:0:0:
64,64,236241,1,0,0:0:0:0:
448,64,236315,1,8,0:0:0:0:
448,64,236388,1,8,0:0:0:0:
64,64,236462,1,0,0:0:0:0:
448,64,236535,1,8,0:0:0:0:
448,64,236609,1,8,0:0:0:0:
64,64,236682,1,0,0:0:0:0:
448,64,236793,1,8,0:0:0:0:
448,64,236903,1,8,0:0:0:0:
448,64,237013,1,8,0:0:0:0:
448,64,237124,1,8,0:0:0:0:
448,64,237234,1,8,0:0:0:0:
448,64,237344,1,8,0:0:0:0:
448,64,237455,1,8,0:0:0:0:
64,320,238447,1,4,0:0:0:0:
448,64,240212,1,8,0:0:0:0:
64,64,241977,1,0,0:0:0:0:
448,64,243741,1,8,0:0:0:0:
64,64,245506,1,0,0:0:0:0:
448,64,247271,1,8,0:0:0:0:
64,64,249035,1,0,0:0:0:0:
448,64,250800,1,8,0:0:0:0:
64,64,252565,1,0,0:0:0:0:
64,64,253337,1,0,0:0:0:0:
448,64,254219,1,8,0:0:0:0:
448,64,255653,1,8,0:0:0:0:
64,64,256094,1,0,0:0:0:0:
64,64,256866,1,0,0:0:0:0:
448,64,257749,1,8,0:0:0:0:
448,64,259182,1,8,0:0:0:0:
448,64,259624,1,8,0:0:0:0:
64,64,260396,1,0,0:0:0:0:
448,64,261278,1,8,0:0:0:0:
64,64,263153,1,0,0:0:0:0:
256,192,263373,12,0,270211,0:0:0:0:
