osu file format v14

[General]
AudioFilename: audio.mp3
AudioLeadIn: 0
PreviewTime: 213090
Countdown: 0
SampleSet: Normal
StackLeniency: 0.7
Mode: 1
LetterboxInBreaks: 0
WidescreenStoryboard: 0

[Editor]
Bookmarks: 94535,116222,140800,152367,309957,320800
DistanceSpacing: 0.5
BeatDivisor: 4
GridSize: 32
TimelineZoom: 2.450002

[Metadata]
Title:Another Xronixle
TitleUnicode:Another Xronixle
Artist:Camellia
ArtistUnicode:かめりあ
Creator:rubies87
Version:Xpert Oni
Source:
Tags:かめるかめりあ cametek kamelcamellia electronic instrumental hardcore techno xronial xero xroniàl xéro featured artist fa axer
BeatmapID:2458489
BeatmapSetID:1178916

[Difficulty]
HPDrainRate:5
CircleSize:2
OverallDifficulty:8
ApproachRate:10
SliderMultiplier:1.4
SliderTickRate:1

[Events]
//Background and Video events
0,0,"bg.png",0,0
//Break Periods
//Storyboard Layer 0 (Background)
//Storyboard Layer 1 (Fail)
//Storyboard Layer 2 (Pass)
//Storyboard Layer 3 (Foreground)
//Storyboard Layer 4 (Overlay)
//Storyboard Sound Samples

[TimingPoints]
560,361.44578313253,4,1,0,50,1,0
560,-133.333333333333,4,1,0,50,0,0
4897,-133.333333333333,4,1,0,75,0,0
5166,-131.147540983607,4,1,0,75,0,0
5437,-129.032258064516,4,1,0,75,0,0
5708,-126.984126984127,4,1,0,75,0,0
5979,-125,4,1,0,75,0,0
6340,-122.448929612682,4,1,0,75,0,0
6521,-121.212121212121,4,1,0,75,0,0
6611,-120.602966591772,4,1,0,75,0,0
6702,-120.000048000019,4,1,0,75,0,0
6792,-119.402985074627,4,1,0,75,0,0
6883,-118.811834133927,4,1,0,75,0,0
7063,-117.647058823529,4,1,0,75,0,0
7154,-117.073125044634,4,1,0,75,0,0
7244,-116.504899613553,4,1,0,75,0,0
7334,-115.942028985507,4,1,0,75,0,0
7425,-115.384571005934,4,1,0,75,0,0
7515,-114.832579840222,4,1,0,75,0,0
7605,-114.285714285714,4,1,0,75,0,0
7786,-113.207589889657,4,1,0,75,0,0
7877,-112.676056338028,4,1,0,75,0,0
8057,-111.627948512725,4,1,0,75,0,0
8148,-111.111111111111,4,1,0,75,0,0
8328,-110.091783519921,4,1,0,75,0,0
8419,-109.58904109589,4,1,0,75,0,0
8599,-108.597324379122,4,1,0,75,0,0
8871,-107.142895408177,4,1,0,75,0,0
9051,-106.194652674459,4,1,0,75,0,0
9142,-105.726909507281,4,1,0,75,0,0
9232,-105.263157894737,4,1,0,75,0,0
9503,-103.896103896104,4,1,0,75,0,0
9774,-102.564102564103,4,1,0,75,0,0
10045,-101.26582278481,4,1,0,75,0,0
10319,-50,4,1,0,100,0,0
10678,-66.6666666666667,4,1,0,100,0,0
12124,-66.6666666666667,4,1,0,100,0,0
12395,-72.7272727272727,4,1,0,100,0,0
12666,-80,4,1,0,100,0,0
12937,-88.8888888888889,4,1,0,100,0,0
13208,-100,4,1,0,100,0,0
13389,-80,4,1,0,100,0,0
13569,-66.6666666666667,4,1,0,100,0,0
15015,-66.6666666666667,4,1,0,100,0,0
15286,-72.7272727272727,4,1,0,100,0,0
15557,-80,4,1,0,100,0,0
15828,-88.8888888888889,4,1,0,100,0,0
16099,-100,4,1,0,100,0,0
16190,-89.0909074710744,4,1,0,100,0,0
16280,-80.3278662187585,4,1,0,100,0,0
16340,-75.3845933491189,4,1,0,100,0,0
16401,-71.0145061331678,4,1,0,100,0,0
16461,-67.1232839932447,4,1,0,100,0,0
17907,-66.6666666666667,4,1,0,100,0,0
18178,-72.7272727272727,4,1,0,100,0,0
18449,-80,4,1,0,100,0,0
18720,-88.8888888888889,4,1,0,100,0,0
18991,-100,4,1,0,100,0,0
19172,-80,4,1,0,100,0,0
19352,-66.6666666666667,4,1,0,100,0,0
19533,-65.935051337031,4,1,0,100,0,0
19624,-65.5752754981262,4,1,0,100,0,0
19714,-65.2193620633319,4,1,0,100,0,0
19804,-64.8672912521917,4,1,0,100,0,0
19895,-64.5190011684391,4,1,0,100,0,0
20166,-63.4962562607309,4,1,0,100,0,0
20437,-62.5054301592451,4,1,0,100,0,0
20708,-61.5450137153063,4,1,0,100,0,0
20979,-60.6137016060206,4,1,0,100,0,0
21160,-60.0083051494327,4,1,0,100,0,0
21431,-59.1225853597107,4,1,0,100,0,0
21702,-58.2626316298505,4,1,0,100,0,0
21883,-57.7030715344978,4,1,0,100,0,0
22154,-56.8836303132866,4,1,0,100,0,0
22425,-56.0871369760059,4,1,0,100,0,0
22605,-55.5683980297669,4,1,0,100,0,0
22877,-54.8080648971335,4,1,0,100,0,0
23148,-54.0682286977937,4,1,0,100,0,0
23328,-53.586030764812,4,1,0,100,0,0
23599,-52.8786334892019,4,1,0,100,0,0
23871,-52.1896425479192,4,1,0,100,0,0
24051,-51.7402309269987,4,1,0,100,0,0
24322,-51.080401573685,4,1,0,100,0,0
24593,-50.437214998212,4,1,0,100,0,0
24654,-50.2964725574901,4,1,0,100,0,0
24714,-50.1565134000649,4,1,0,100,0,0
24774,-50.0173310051933,4,1,0,100,0,0
25138,-66.6666666666667,4,1,0,75,0,0
25407,-67.5716309967289,4,1,0,75,0,0
25678,-68.5015491625343,4,1,0,75,0,0
25949,-69.4573712329795,4,1,0,75,0,0
26220,-70.4402444840006,4,1,0,75,0,0
26581,-71.7948791584491,4,1,0,75,0,0
27575,-75.8037471308282,4,1,0,75,0,0
28027,-77.7777950617322,4,1,0,75,0,0
28298,-79.0123456790123,4,1,0,75,0,0
28569,-80.2867199342291,4,1,0,75,0,0
28840,-81.6029429285338,4,1,0,75,0,0
29111,-82.9629727956116,4,1,0,75,0,0
29473,-84.8485157024906,4,1,0,75,0,0
30196,-88.8888888888889,4,1,0,75,0,0
30919,-93.3332960000149,4,1,0,75,0,0
31190,-95.1167986729304,4,1,0,75,0,0
31461,-96.969696969697,4,1,0,75,0,0
31732,-98.8962192964325,4,1,0,75,0,0
32003,-100.900944533742,4,1,0,75,0,0
32365,-103.703672976689,4,1,0,75,0,0
33358,-112.280701754386,4,1,0,75,0,0
33810,-116.666647222225,4,1,0,75,0,0
34081,-119.466605499765,4,1,0,75,0,0
34352,-122.404414392801,4,1,0,75,0,0
34624,-125.490196078431,4,1,0,75,0,0
34895,-128.735584832888,4,1,0,75,0,0
35258,-133.333333333333,4,1,0,85,0,0
35346,-123.076923076923,4,1,0,85,0,0
35437,-114.285714285714,4,1,0,85,0,0
35497,-109.090869421502,4,1,0,85,0,0
35557,-104.347862381865,4,1,0,85,0,0
35618,-100,4,1,0,85,0,0
35798,-88.8888888888889,4,1,0,85,0,0
35889,-84.2105263157895,4,1,0,85,0,0
35979,-80,4,1,0,85,0,0
36069,-76.1904761904762,4,1,0,85,0,0
36160,-72.7272727272727,4,1,0,85,0,0
36220,-70.588218685125,4,1,0,85,0,0
36280,-68.5714442449015,4,1,0,85,0,0
36340,-66.6666666666667,4,1,0,85,0,0
36704,-66.6666666666667,4,1,0,100,0,0
38148,-100,4,1,0,100,0,0
39142,-66.6666666666667,4,1,0,100,0,0
41039,-100,4,1,0,100,0,0
41762,-66.6666666666667,4,1,0,100,0,0
43931,-100,4,1,0,100,0,0
44925,-66.6666666666667,4,1,0,100,0,0
46822,-100,4,1,0,100,0,0
46913,-96.0265186833996,4,1,0,100,0,0
47003,-92.3566555438468,4,1,0,100,0,0
47093,-88.9570497572362,4,1,0,100,0,0
47184,-85.7988343370367,4,1,0,100,0,0
47274,-82.8571120816441,4,1,0,100,0,0
47365,-80.1104883855814,4,1,0,100,0,0
47455,-77.5401173181975,4,1,0,100,0,0
47545,-75.12956092782,4,1,0,100,0,0
47605,-73.6040441005991,4,1,0,100,0,0
47666,-72.1392980990574,4,1,0,100,0,0
47726,-70.7317124925643,4,1,0,100,0,0
47786,-69.3780053684701,4,1,0,100,0,0
47846,-68.0750949987951,4,1,0,100,0,0
47907,-66.8202641805965,4,1,0,100,0,0
48810,-66.6666666666667,4,1,0,100,0,0
49081,-74.0060981024836,4,1,0,100,0,0
49352,-83.1615354613261,4,1,0,100,0,0
49533,-90.6366864677615,4,1,0,100,0,0
49714,-99.5885003166914,4,1,0,100,0,0
49804,-96.9849324208991,4,1,0,100,0,0
49895,-94.1463561594312,4,1,0,100,0,0
49955,-92.3444596094568,4,1,0,100,0,0
50015,-90.6103239590913,4,1,0,100,0,0
50075,-88.9401183970856,4,1,0,100,0,0
50166,-86.5471162500865,4,1,0,100,0,0
50226,-85.0220121989583,4,1,0,100,0,0
50286,-83.5497969322186,4,1,0,100,0,0
50346,-82.1276312666462,4,1,0,100,0,0
50437,-80.082965952727,4,1,0,100,0,0
50497,-78.7755134194087,4,1,0,100,0,0
50557,-77.5100666199023,4,1,0,100,0,0
50618,-76.2845750300752,4,1,0,100,0,0
50708,-74.517369626273,4,1,0,100,0,0
50768,-73.384046601805,4,1,0,100,0,0
50828,-72.2846279510199,4,1,0,100,0,0
50889,-71.2177161190618,4,1,0,100,0,0
50979,-69.6750980502817,4,1,0,100,0,0
51039,-68.6832527564306,4,1,0,100,0,0
51099,-67.7192953942753,4,1,0,100,0,0
51160,-66.7820214784337,4,1,0,100,0,0
51702,-66.6666666666667,4,1,0,100,0,0
51973,-60.6060606060606,4,1,0,100,0,0
52244,-55.5555555555556,4,1,0,100,0,0
52425,-52.6315789473684,4,1,0,100,0,0
52605,-50,4,1,0,100,0,0
52696,-50.7894715457065,4,1,0,100,0,0
52786,-51.6042736595274,4,1,0,100,0,0
52846,-52.1621742863432,4,1,0,100,0,0
52907,-52.7322420220073,4,1,0,100,0,0
52967,-53.3149077012318,4,1,0,100,0,0
53057,-54.213470963265,4,1,0,100,0,0
53118,-54.8295513736448,4,1,0,100,0,0
53178,-55.4597642183584,4,1,0,100,0,0
53238,-56.104664373482,4,1,0,100,0,0
53328,-57.1006026968615,4,1,0,100,0,0
53389,-57.7844294076518,4,1,0,100,0,0
53449,-58.4848334205732,4,1,0,100,0,0
53509,-59.2024599806171,4,1,0,100,0,0
53599,-60.3125032041017,4,1,0,100,0,0
53660,-61.0759381569481,4,1,0,100,0,0
53720,-61.8589862549333,4,1,0,100,0,0
53780,-62.6623346106006,4,1,0,100,0,0
53871,-63.9072782081933,4,1,0,100,0,0
53931,-64.7651195790785,4,1,0,100,0,0
53991,-65.6462611828406,4,1,0,100,0,0
54051,-66.5517096801458,4,1,0,100,0,0
55497,-66.6666666666667,4,1,0,100,0,0
55587,-68.0775975688128,4,1,0,100,0,0
55678,-69.5495415294222,4,1,0,100,0,0
55738,-70.5667497942979,4,1,0,100,0,0
55798,-71.6141031085534,4,1,0,100,0,0
55858,-72.6930144920794,4,1,0,100,0,0
55949,-74.3737728327483,4,1,0,100,0,0
56009,-75.5381717043073,4,1,0,100,0,0
56069,-76.7395513345392,4,1,0,100,0,0
56130,-77.9798235004675,4,1,0,100,0,0
56220,-79.9172057748173,4,1,0,100,0,0
56280,-81.2631544731303,4,1,0,100,0,0
56340,-82.6552161640541,4,1,0,100,0,0
56401,-84.0958726586658,4,1,0,100,0,0
56491,-86.3534741297944,4,1,0,100,0,0
56551,-87.9270838279232,4,1,0,100,0,0
56611,-89.5591896684519,4,1,0,100,0,0
56672,-91.252948610902,4,1,0,100,0,0
56762,-93.9172607716054,4,1,0,100,0,0
56822,-95.7816790719905,4,1,0,100,0,0
56883,-97.7215249248522,4,1,0,100,0,0
56943,-100,4,1,0,100,0,0
57124,-65.1162911844263,4,1,0,100,0,0
57214,-64.3678338485978,4,1,0,100,0,0
57304,-63.6363462809965,4,1,0,100,0,0
57395,-62.9213370029057,4,1,0,100,0,0
57485,-62.2222166913585,4,1,0,100,0,0
57756,-60.2150641230218,4,1,0,100,0,0
58027,-58.3333236111127,4,1,0,100,0,0
58298,-56.5656611366191,4,1,0,100,0,0
58569,-54.9019478662083,4,1,0,100,0,0
58750,-53.8461497041423,4,1,0,100,0,0
59021,-52.336456424143,4,1,0,100,0,0
59202,-51.3761354768142,4,1,0,100,0,0
59292,-50.9090835041333,4,1,0,100,0,0
59383,-50.4504468143822,4,1,0,100,0,0
59473,-50,4,1,0,100,0,0
59834,-66.6666666666667,4,1,0,100,0,0
60105,-67.8769580805482,4,1,0,100,0,0
60196,-68.2901978298741,4,1,0,100,0,0
60377,-69.1320061831666,4,1,0,100,0,0
60557,-69.9947783895321,4,1,0,100,0,0
60648,-70.4343404035324,4,1,0,100,0,0
60828,-71.3301358411107,4,1,0,100,0,0
60919,-71.7866844314782,4,1,0,100,0,0
61099,-72.7174360413791,4,1,0,100,0,0
61280,-73.6726943209404,4,1,0,100,0,0
61551,-75.1535575063749,4,1,0,100,0,0
61642,-75.6604781439577,4,1,0,100,0,0
61822,-76.6951742629402,4,1,0,100,0,0
62003,-77.7585023090387,4,1,0,100,0,0
62093,-78.3013615823766,4,1,0,100,0,0
62274,-79.410015349956,4,1,0,100,0,0
62365,-79.9762630451282,4,1,0,100,0,0
62455,-80.5505793197665,4,1,0,100,0,0
62545,-81.1332036824738,4,1,0,100,0,0
62636,-81.7243177245335,4,1,0,100,0,0
62726,-82.3241761408073,4,1,0,100,0,0
62997,-84.1776350125088,4,1,0,100,0,0
63087,-84.8141171401697,4,1,0,100,0,0
63268,-86.1164742537577,4,1,0,100,0,0
63449,-87.4593751202566,4,1,0,100,0,0
63539,-88.1466548785207,4,1,0,100,0,0
63720,-89.5542170185252,4,1,0,100,0,0
63810,-90.2749504164835,4,1,0,100,0,0
63991,-91.7518735732584,4,1,0,100,0,0
64172,-93.2779262451437,4,1,0,100,0,0
64443,-95.6645770334223,4,1,0,100,0,0
64533,-96.487470137128,4,1,0,100,0,0
64714,-98.1764702417301,4,1,0,100,0,0
64895,-99.9257551639132,4,1,0,100,0,0
64985,-100.502512562814,4,1,0,100,0,0
65166,-72.7272727272727,4,1,0,100,0,0
65211,-69.5652173913043,4,1,0,100,0,0
65256,-66.6666666666667,4,1,0,100,0,0
65618,-66.6666666666667,4,1,0,100,0,0
65708,-66.2068819405502,4,1,0,100,0,0
65798,-65.7534390692469,4,1,0,100,0,0
65889,-65.3061224489796,4,1,0,100,0,0
65979,-64.8648508400323,4,1,0,100,0,0
66069,-64.4295440385598,4,1,0,100,0,0
66160,-64,4,1,0,100,0,0
66220,-63.7168322029967,4,1,0,100,0,0
66280,-63.4361188767493,4,1,0,100,0,0
66340,-63.1579080332438,4,1,0,100,0,0
66431,-62.7450980392157,4,1,0,100,0,0
66521,-62.3376493843845,4,1,0,100,0,0
66611,-61.9354966576509,4,1,0,100,0,0
66702,-61.5384615384615,4,1,0,100,0,0
66792,-61.1464843523089,4,1,0,100,0,0
66883,-60.7595059766088,4,1,0,100,0,0
66943,-60.5041935456546,4,1,0,100,0,0
67003,-60.2510540921913,4,1,0,100,0,0
67063,-59.9999880000024,4,1,0,100,0,0
67154,-59.6273410439436,4,1,0,100,0,0
67244,-59.2592592592593,4,1,0,100,0,0
67334,-58.8956939591276,4,1,0,100,0,0
67425,-58.5365967876286,4,1,0,100,0,0
67515,-58.1818181818182,4,1,0,100,0,0
67605,-57.8313141529997,4,1,0,100,0,0
67666,-57.6000036864002,4,1,0,100,0,0
67726,-57.3705032999514,4,1,0,100,0,0
67786,-57.1428571428571,4,1,0,100,0,0
67877,-56.8047229718868,4,1,0,100,0,0
67937,-56.5815359736919,4,1,0,100,0,0
67997,-56.360064160297,4,1,0,100,0,0
68057,-56.140350877193,4,1,0,100,0,0
68148,-55.8139431043827,4,1,0,100,0,0
68208,-55.5984590331094,4,1,0,100,0,0
68268,-55.3846017514826,4,1,0,100,0,0
68328,-55.1724137931034,4,1,0,100,0,0
68419,-54.8571328261243,4,1,0,100,0,0
68509,-54.5454644628117,4,1,0,100,0,0
68569,-54.3396160797445,4,1,0,100,0,0
68630,-54.1353448583874,4,1,0,100,0,0
68690,-53.9325745739192,4,1,0,100,0,0
68780,-53.6312945039186,4,1,0,100,0,0
68871,-53.3333333333333,4,1,0,100,0,0
68931,-53.1365439141654,4,1,0,100,0,0
68991,-52.9411733564016,4,1,0,100,0,0
69051,-52.7472620214966,4,1,0,100,0,0
69142,-52.4590163934426,4,1,0,100,0,0
69232,-52.1739039697558,4,1,0,100,0,0
69292,-51.9855625695632,4,1,0,100,0,0
69352,-51.7985492262333,4,1,0,100,0,0
69413,-51.6129032258064,4,1,0,100,0,0
69503,-51.3368896107996,4,1,0,100,0,0
69593,-51.0638384789512,4,1,0,100,0,0
69654,-50.8833864725499,4,1,0,100,0,0
69714,-50.7042310652655,4,1,0,100,0,0
69774,-50.5263072797798,4,1,0,100,0,0
69865,-50.2617885255352,4,1,0,100,0,0
69955,-50,4,1,0,100,0,0
70316,-66.6666666666667,4,1,0,100,0,0
70497,-63.180812745339,4,1,0,100,0,0
70678,-60.0414165691494,4,1,0,100,0,0
70768,-58.5858431996775,4,1,0,100,0,0
70858,-57.199206532607,4,1,0,100,0,0
70949,-55.8766913176003,4,1,0,100,0,0
71039,-54.6139503690265,4,1,0,100,0,0
71130,-53.4069922570543,4,1,0,100,0,0
71220,-52.2522550766985,4,1,0,100,0,0
71280,-51.5097773283836,4,1,0,100,0,0
71340,-50.7880786158827,4,1,0,100,0,0
71403,-50.086348865444,4,1,0,100,0,1
71581,-57.1428571428571,4,1,0,100,0,1
71764,-66.6666666666667,4,1,0,100,0,1
72487,-66.6666666666667,4,1,0,100,0,0
72849,-66.6666666666667,4,1,0,100,0,1
73933,-66.6666666666667,4,1,0,100,0,0
74294,-50,4,1,0,100,0,1
74473,-57.1428571428571,4,1,0,100,0,1
74654,-66.6666666666667,4,1,0,100,0,1
75379,-66.6666666666667,4,1,0,100,0,0
75740,-66.6666666666667,4,1,0,100,0,1
76463,-66.6666666666667,4,1,0,100,0,0
76551,-64.0263891165383,4,1,0,100,0,0
76642,-61.5873144913103,4,1,0,100,0,0
76822,-57.2271281767494,4,1,0,100,0,0
76913,-55.2706659783626,4,1,0,100,0,0
77003,-53.4435267597083,4,1,0,100,0,0
77093,-51.7333250560013,4,1,0,100,0,0
77186,-50,4,1,0,100,0,1
77365,-57.1428571428571,4,1,0,100,0,1
77545,-66.6666666666667,4,1,0,100,0,1
78270,-66.6666666666667,4,1,0,100,0,0
78632,-66.6666666666667,4,1,0,100,0,1
79716,-66.6666666666667,4,1,0,100,0,0
79804,-61.5384615384615,4,1,0,100,0,0
79895,-57.1428571428571,4,1,0,100,0,0
79955,-54.5454644628117,4,1,0,100,0,0
80015,-52.1739039697558,4,1,0,100,0,0
80078,-50,4,1,0,100,0,1
80256,-57.1428571428571,4,1,0,100,0,1
80437,-66.6666666666667,4,1,0,100,0,1
81523,-66.6666666666667,4,1,0,100,0,0
81611,-65.3130323012133,4,1,0,100,0,0
81702,-64.0132737924536,4,1,0,100,0,0
81792,-62.7642374396208,4,1,0,100,0,0
81883,-61.5630109729911,4,1,0,100,0,0
81973,-60.406900884357,4,1,0,100,0,0
82063,-59.2934122647237,4,1,0,100,0,0
82154,-58.2201969356382,4,1,0,100,0,0
82244,-57.1851741717442,4,1,0,100,0,0
82334,-56.1863093067565,4,1,0,100,0,0
82425,-55.2217401364308,4,1,0,100,0,0
82515,-54.2897301746121,4,1,0,100,0,0
82605,-53.388658220225,4,1,0,100,0,0
82666,-52.8043882558816,4,1,0,100,0,0
82726,-52.2327407354788,4,1,0,100,0,0
82786,-51.6733643959151,4,1,0,100,0,0
82877,-50.8563962852454,4,1,0,100,0,0
82969,-50.0648590248667,4,1,0,100,0,1
83148,-57.1428571428571,4,1,0,100,0,1
83328,-66.6666666666667,4,1,0,100,0,1
84413,-50,4,1,0,100,0,1
84593,-57.1428571428571,4,1,0,100,0,1
84774,-66.6666666666667,4,1,0,100,0,1
85858,-50,4,1,0,100,0,1
85949,-53.3333333333333,4,1,0,100,0,1
86130,-66.6666666666667,4,1,0,100,0,1
88752,-66.6666666666667,4,1,0,100,0,0
89475,-50,4,1,0,100,0,1
89563,-51.595753463107,4,1,0,100,0,1
89654,-53.2966936330171,4,1,0,100,0,1
89744,-55.1136360504907,4,1,0,100,0,1
89834,-57.058833934258,4,1,0,100,0,1
89925,-59.1463292013708,4,1,0,100,0,1
90015,-61.3924042861721,4,1,0,100,0,1
90105,-63.8158020689083,4,1,0,100,0,1
90198,-66.6666666666667,4,1,0,100,0,0
90921,-50,4,1,0,100,0,1
91009,-51.595753463107,4,1,0,100,0,1
91099,-53.2966936330171,4,1,0,100,0,1
91190,-55.1136360504907,4,1,0,100,0,1
91280,-57.058833934258,4,1,0,100,0,1
91371,-59.1463292013708,4,1,0,100,0,1
91461,-61.3924042861721,4,1,0,100,0,1
91551,-63.8158020689083,4,1,0,100,0,1
91644,-66.6666666666667,4,1,0,100,0,0
92726,-66.6666666666667,4,1,0,100,0,0
92816,-65.5737704918033,4,1,0,100,0,0
92907,-64.5161290322581,4,1,0,100,0,0
92997,-63.4115409004439,4,1,0,100,0,0
93087,-62.5,4,1,0,100,0,0
93148,-61.855657349349,4,1,0,100,0,0
93208,-61.2245022907148,4,1,0,100,0,0
93268,-60.6060606060606,4,1,0,100,0,0
93358,-59.7014925373134,4,1,0,100,0,0
93449,-58.8235294117647,4,1,0,100,0,0
93509,-58.2524158733173,4,1,0,100,0,0
93569,-57.6923187869844,4,1,0,100,0,0
93630,-57.1428571428571,4,1,0,100,0,0
93720,-56.3380281690141,4,1,0,100,0,0
93810,-55.5555555555556,4,1,0,100,0,0
93871,-55.045861459475,4,1,0,100,0,0
93931,-54.5454644628117,4,1,0,100,0,0
93991,-54.054054054054,4,1,0,100,0,0
94081,-53.3333333333333,4,1,0,100,0,0
94172,-52.6315789473684,4,1,0,100,0,0
94232,-52.1739039697558,4,1,0,100,0,0
94292,-51.7241468489908,4,1,0,100,0,0
94352,-51.2820512820513,4,1,0,100,0,0
94413,-50.8474490089069,4,1,0,100,0,0
94473,-50.4201765412061,4,1,0,100,0,0
94535,-50,4,1,0,100,0,1
114774,-50,4,1,0,100,0,1
114955,-53.3149077012318,4,1,0,100,0,1
115045,-55.1428420179633,4,1,0,100,0,1
115136,-57.1006026968615,4,1,0,100,0,1
115226,-59.2024599806171,4,1,0,100,0,1
115316,-61.4649683486145,4,1,0,100,0,1
115407,-63.9072782081933,4,1,0,100,0,1
115497,-66.5517096801458,4,1,0,100,0,1
115587,-69.4244367074767,4,1,0,100,0,1
115678,-72.5564089801616,4,1,0,100,0,1
115768,-75.9842621396256,4,1,0,100,0,1
115858,-79.7520667748105,4,1,0,100,0,1
115919,-82.478648339911,4,1,0,100,0,1
115979,-85.3982633409167,4,1,0,100,0,1
116039,-88.5320849128933,4,1,0,100,0,1
116084,-91.0377023540529,4,1,0,100,0,1
116130,-93.6892776369316,4,1,0,100,0,1
116175,-96.5000400475166,4,1,0,100,0,1
116222,-99.4845704405475,4,1,0,100,0,0
116581,-80.082965952727,4,1,0,100,0,0
116604,-79.0983421778463,4,1,0,100,0,0
116627,-78.1376363208738,4,1,0,100,0,0
116762,-72.8301884044144,4,1,0,100,0,0
116943,-66.7820214784337,4,1,0,100,0,0
117033,-64.1196215659935,4,1,0,100,0,0
117124,-61.6613288509658,4,1,0,100,0,0
117214,-59.3846091720717,4,1,0,100,0,0
117304,-57.270029333709,4,1,0,100,0,0
117365,-55.9420216887218,4,1,0,100,0,0
117425,-54.6742073333421,4,1,0,100,0,0
117485,-53.462613060061,4,1,0,100,0,0
117545,-52.3035257283658,4,1,0,100,0,0
117605,-51.1936306932437,4,1,0,100,0,0
117666,-50,4,1,0,100,0,0
117846,-57.1428571428571,4,1,0,100,0,0
117907,-59.9999880000024,4,1,0,100,0,0
117967,-63.1579080332438,4,1,0,100,0,0
118027,-66.6666666666667,4,1,0,100,0,0
120557,-50,4,1,0,100,0,0
120738,-56.9767455110871,4,1,0,100,0,0
120798,-59.7561114069039,4,1,0,100,0,0
120858,-62.8205023504291,4,1,0,100,0,0
120919,-66.6666666666667,4,1,0,100,0,0
123449,-50,4,1,0,100,0,0
123630,-57.1428571428571,4,1,0,100,0,0
123690,-59.9999880000024,4,1,0,100,0,0
123750,-63.1579080332438,4,1,0,100,0,0
123810,-66.6666666666667,4,1,0,100,0,0
124895,-50,4,1,0,100,0,0
125075,-57.1428571428571,4,1,0,100,0,0
125136,-59.9999880000024,4,1,0,100,0,0
125196,-63.1579080332438,4,1,0,100,0,0
125256,-66.6666666666667,4,1,0,100,0,0
125979,-66.6666666666667,4,1,0,100,0,0
126099,-59.9999880000024,4,1,0,100,0,0
126220,-54.5454644628117,4,1,0,100,0,0
126340,-50,4,1,0,100,0,0
126521,-56.9767455110871,4,1,0,100,0,0
126581,-59.7561114069039,4,1,0,100,0,0
126642,-62.8205023504291,4,1,0,100,0,0
126702,-66.6666666666667,4,1,0,100,0,0
127877,-64.5161290322581,4,1,0,100,0,0
127967,-66.6666666666667,4,1,0,100,0,0
128057,-64.5161290322581,4,1,0,100,0,0
128148,-66.6666666666667,4,1,0,100,0,0
128238,-64.5161290322581,4,1,0,100,0,0
128328,-66.6666666666667,4,1,0,100,0,0
128419,-64.5161290322581,4,1,0,100,0,0
128509,-66.6666666666667,4,1,0,100,0,0
128599,-64.5161290322581,4,1,0,100,0,0
128690,-66.6666666666667,4,1,0,100,0,0
128780,-64.5161290322581,4,1,0,100,0,0
128871,-66.6666666666667,4,1,0,100,0,0
128961,-64.5161290322581,4,1,0,100,0,0
129051,-66.6666666666667,4,1,0,100,0,0
129232,-66.6666666666667,4,1,0,100,0,0
129503,-68.8114271008301,4,1,0,100,0,0
129594,-69.5573785771621,4,1,0,100,0,0
129775,-71.0987746837171,4,1,0,100,0,0
129955,-72.7100867067784,4,1,0,100,0,0
130046,-73.5434715460309,4,1,0,100,0,0
130226,-75.2688414845725,4,1,0,100,0,0
130317,-76.1622163814265,4,1,0,100,0,0
130497,-78.0141954630065,4,1,0,100,0,0
130678,-79.9584855543002,4,1,0,100,0,0
130949,-83.0636533388266,4,1,0,100,0,0
131040,-84.1529833915672,4,1,0,100,0,0
131220,-86.4197424173157,4,1,0,100,0,0
131401,-88.8119974351095,4,1,0,100,0,0
131491,-90.0584479327083,4,1,0,100,0,0
131672,-92.6594274944613,4,1,0,100,0,0
131763,-94.0171261597012,4,1,0,100,0,0
131943,-96.855302052945,4,1,0,100,0,0
132033,-98.3397303327915,4,1,0,100,0,0
132124,-100,4,1,0,100,0,0
132214,-98.4615384615385,4,1,0,100,0,0
132304,-96.969696969697,4,1,0,100,0,0
132395,-95.5223880597015,4,1,0,100,0,0
132485,-94.1176470588235,4,1,0,100,0,0
132575,-92.7536231884058,4,1,0,100,0,0
132666,-91.4285714285714,4,1,0,100,0,0
132756,-90.1408450704225,4,1,0,100,0,0
132847,-88.8888888888889,4,1,0,100,0,0
132937,-87.6712328767123,4,1,0,100,0,0
133027,-86.4864864864865,4,1,0,100,0,0
133118,-85.3333333333333,4,1,0,100,0,0
133208,-84.2105263157895,4,1,0,100,0,0
133298,-83.1168831168831,4,1,0,100,0,0
133389,-82.0512820512821,4,1,0,100,0,0
133479,-81.0126582278481,4,1,0,100,0,0
133569,-80,4,1,0,100,0,0
133660,-79.0123456790123,4,1,0,100,0,0
133841,-77.1084337349398,4,1,0,100,0,0
133931,-76.1904761904762,4,1,0,100,0,0
134021,-75.2941176470588,4,1,0,100,0,0
134112,-74.4186046511628,4,1,0,100,0,0
134293,-72.7272727272727,4,1,0,100,0,0
134383,-71.9101123595506,4,1,0,100,0,0
134564,-70.3296703296703,4,1,0,100,0,0
134609,-69.9453307295018,4,1,0,100,0,0
134654,-69.5652173913043,4,1,0,100,0,0
134744,-68.8172043010753,4,1,0,100,0,0
134834,-68.0851063829787,4,1,0,100,0,0
134925,-67.3684210526316,4,1,0,100,0,0
135015,-66.6666666666667,4,1,0,100,0,0
135105,-66.2068819405502,4,1,0,100,0,0
135196,-65.7534390692469,4,1,0,100,0,0
135286,-65.3061224489796,4,1,0,100,0,0
135377,-64.8648508400323,4,1,0,100,0,0
135467,-64.4295440385598,4,1,0,100,0,0
135557,-64,4,1,0,100,0,0
135618,-63.7168322029967,4,1,0,100,0,0
135678,-63.4361188767493,4,1,0,100,0,0
135738,-63.1579080332438,4,1,0,100,0,0
135828,-62.7450980392157,4,1,0,100,0,0
135919,-62.3376493843845,4,1,0,100,0,0
136009,-61.9354966576509,4,1,0,100,0,0
136099,-61.5384615384615,4,1,0,100,0,0
136190,-61.1464843523089,4,1,0,100,0,0
136280,-60.7595059766088,4,1,0,100,0,0
136340,-60.5041935456546,4,1,0,100,0,0
136401,-60.2510540921913,4,1,0,100,0,0
136461,-59.9999880000024,4,1,0,100,0,0
136551,-59.6273410439436,4,1,0,100,0,0
136642,-59.2592592592593,4,1,0,100,0,0
136732,-58.8956939591276,4,1,0,100,0,0
136822,-58.5365967876286,4,1,0,100,0,0
136913,-58.1818181818182,4,1,0,100,0,0
137003,-57.8313141529997,4,1,0,100,0,0
137063,-57.6000036864002,4,1,0,100,0,0
137124,-57.3705032999514,4,1,0,100,0,0
137184,-57.1428571428571,4,1,0,100,0,0
137274,-56.8047229718868,4,1,0,100,0,0
137334,-56.5815359736919,4,1,0,100,0,0
137395,-56.360064160297,4,1,0,100,0,0
137455,-56.140350877193,4,1,0,100,0,0
137545,-55.8139431043827,4,1,0,100,0,0
137605,-55.5984590331094,4,1,0,100,0,0
137666,-55.3846017514826,4,1,0,100,0,0
137726,-55.1724137931034,4,1,0,100,0,0
137816,-54.8571328261243,4,1,0,100,0,0
137907,-54.5454644628117,4,1,0,100,0,0
137967,-54.3396160797445,4,1,0,100,0,0
138027,-54.1353448583874,4,1,0,100,0,0
138087,-53.9325745739192,4,1,0,100,0,0
138178,-53.6312945039186,4,1,0,100,0,0
138268,-53.3333333333333,4,1,0,100,0,0
138328,-53.1365439141654,4,1,0,100,0,0
138389,-52.9411733564016,4,1,0,100,0,0
138449,-52.7472620214966,4,1,0,100,0,0
138539,-52.4590163934426,4,1,0,100,0,0
138630,-52.1739039697558,4,1,0,100,0,0
138690,-51.9855625695632,4,1,0,100,0,0
138750,-51.7985492262333,4,1,0,100,0,0
138810,-51.6129032258064,4,1,0,100,0,0
138901,-51.3368896107996,4,1,0,100,0,0
138991,-51.0638384789512,4,1,0,100,0,0
139051,-50.8833864725499,4,1,0,100,0,0
139111,-50.7042310652655,4,1,0,100,0,0
139172,-50.5263072797798,4,1,0,100,0,0
139262,-50.2617885255352,4,1,0,100,0,0
139352,-50,4,1,0,100,0,0
140437,-33.3333333333333,4,1,0,100,0,0
140800,-50,4,1,0,100,0,1
140889,-49.5575256323912,4,1,0,100,0,1
140979,-49.1228139119739,4,1,0,100,0,1
141024,-48.9082935260581,4,1,0,100,0,1
141069,-48.6956623364861,4,1,0,100,0,1
141160,-48.2758520808582,4,1,0,100,0,1
141250,-47.8632413178473,4,1,0,100,0,1
141295,-47.6595809579004,4,1,0,100,0,1
141340,-47.457623901178,4,1,0,100,0,1
141431,-47.0588235294118,4,1,0,100,0,1
141521,-46.666669777778,4,1,0,100,0,1
141566,-46.4730228749513,4,1,0,100,0,1
141611,-46.2809978553386,4,1,0,100,0,1
141702,-45.9016483740948,4,1,0,100,0,1
141792,-45.5284464009535,4,1,0,100,0,1
141837,-45.3441324919276,4,1,0,100,0,1
141883,-45.1612844953181,4,1,0,100,0,1
141973,-44.7999971328002,4,1,0,100,0,1
142063,-44.4444444444444,4,1,0,100,0,1
142108,-44.26876630474,4,1,0,100,0,1
142154,-44.0944909665821,4,1,0,100,0,1
142244,-43.7500054687507,4,1,0,100,0,1
142380,-43.2432432432432,4,1,0,100,0,1
142515,-42.7480863819131,4,1,0,100,0,1
142560,-42.5855565123111,4,1,0,100,0,1
142605,-42.4242398530764,4,1,0,100,0,1
142696,-42.1052631578947,4,1,0,100,0,1
142786,-41.7910472711073,4,1,0,100,0,1
142831,-41.6356827793983,4,1,0,100,0,1
142877,-41.4814863978058,4,1,0,100,0,1
142967,-41.1764778546726,4,1,0,100,0,1
143057,-40.8759052480166,4,1,0,100,0,1
143102,-40.7272750968596,4,1,0,100,0,1
143148,-40.5797054400342,4,1,0,100,0,1
143238,-40.2877674654522,4,1,0,100,0,1
143331,-40,4,1,0,100,0,0
143692,-40,4,1,0,100,0,1
143780,-40.3361290304364,4,1,0,100,0,1
143871,-40.6779716173521,4,1,0,100,0,1
143916,-40.8510582670899,4,1,0,100,0,1
143961,-41.025641025641,4,1,0,100,0,1
144051,-41.3793046373373,4,1,0,100,0,1
144142,-41.7391362419668,4,1,0,100,0,1
144187,-41.9213915219016,4,1,0,100,0,1
144232,-42.1052631578947,4,1,0,100,0,1
144322,-42.477870091629,4,1,0,100,0,1
144413,-42.8571489795927,4,1,0,100,0,1
144458,-43.049321176779,4,1,0,100,0,1
144503,-43.2432432432432,4,1,0,100,0,1
144593,-43.6363572892571,4,1,0,100,0,1
144684,-44.0367037118097,4,1,0,100,0,1
144729,-44.2396248125899,4,1,0,100,0,1
144774,-44.4444444444444,4,1,0,100,0,1
144865,-44.8598063761037,4,1,0,100,0,1
144955,-45.2830257030982,4,1,0,100,0,1
145000,-45.4976234316401,4,1,0,100,0,1
145045,-45.7142857142857,4,1,0,100,0,1
145136,-46.1538390532555,4,1,0,100,0,1
145271,-46.8292609827495,4,1,0,100,0,1
145407,-47.5247449465751,4,1,0,100,0,1
145452,-47.7611940298507,4,1,0,100,0,1
145497,-48.0000076800012,4,1,0,100,0,1
145633,-48.730972382696,4,1,0,100,0,1
145768,-49.4845442448733,4,1,0,100,0,1
145813,-49.7409243952872,4,1,0,100,0,1
145861,-50,4,1,0,100,0,0
146039,-57.1428571428571,4,1,0,100,0,0
146584,-50,4,1,0,100,0,1
146762,-49.1228139119739,4,1,0,100,0,1
146807,-48.9082935260581,4,1,0,100,0,1
146852,-48.6956623364861,4,1,0,100,0,1
146943,-48.2758520808582,4,1,0,100,0,1
147033,-47.8632413178473,4,1,0,100,0,1
147078,-47.6595809579004,4,1,0,100,0,1
147124,-47.457623901178,4,1,0,100,0,1
147214,-47.0588235294118,4,1,0,100,0,1
147304,-46.666669777778,4,1,0,100,0,1
147349,-46.4730228749513,4,1,0,100,0,1
147395,-46.2809978553386,4,1,0,100,0,1
147485,-45.9016483740948,4,1,0,100,0,1
147575,-45.5284464009535,4,1,0,100,0,1
147621,-45.3441324919276,4,1,0,100,0,1
147666,-45.1612844953181,4,1,0,100,0,1
147756,-44.7999971328002,4,1,0,100,0,1
147846,-44.4444444444444,4,1,0,100,0,1
147892,-44.26876630474,4,1,0,100,0,1
147937,-44.0944909665821,4,1,0,100,0,1
148027,-43.7500054687507,4,1,0,100,0,1
148163,-43.2432432432432,4,1,0,100,0,1
148298,-42.7480863819131,4,1,0,100,0,1
148343,-42.5855565123111,4,1,0,100,0,1
148389,-42.4242398530764,4,1,0,100,0,1
148479,-42.1052631578947,4,1,0,100,0,1
148569,-41.7910472711073,4,1,0,100,0,1
148615,-41.6356827793983,4,1,0,100,0,1
148660,-41.4814863978058,4,1,0,100,0,1
148750,-41.1764778546726,4,1,0,100,0,1
148840,-40.8759052480166,4,1,0,100,0,1
148886,-40.7272750968596,4,1,0,100,0,1
148931,-40.5797054400342,4,1,0,100,0,1
149021,-40.2877674654522,4,1,0,100,0,1
149114,-40,4,1,0,100,0,0
149292,-50,4,1,0,100,0,0
149475,-40,4,1,0,100,0,1
151644,-40,4,1,0,100,0,0
152365,-66.6666666666667,4,1,0,100,0,0
152638,-67.0859538784067,4,1,0,75,0,0
152907,-67.5105485232068,4,1,0,75,0,0
153178,-67.9405520169851,4,1,0,75,0,0
153449,-68.3760683760684,4,1,0,75,0,0
153810,-68.9655172413793,4,1,0,75,0,0
154081,-69.41431670282,4,1,0,75,0,0
154352,-69.8689956331878,4,1,0,75,0,0
154624,-70.3296703296703,4,1,0,75,0,0
154895,-70.7964601769911,4,1,0,75,0,0
155075,-71.1111111111111,4,1,0,75,0,0
155256,-71.4285714285714,4,1,0,75,0,0
155527,-71.9101123595506,4,1,0,75,0,0
155798,-72.3981900452489,4,1,0,75,0,0
156069,-72.8929384965831,4,1,0,75,0,0
156340,-73.394495412844,4,1,0,75,0,0
156702,-74.0740740740741,4,1,0,75,0,0
156973,-74.5920745920746,4,1,0,75,0,0
157244,-75.1173708920188,4,1,0,75,0,0
157515,-75.6501182033097,4,1,0,75,0,0
157786,-76.1904761904762,4,1,0,75,0,0
157967,-76.555023923445,4,1,0,75,0,0
158148,-76.9230769230769,4,1,0,75,0,0
158419,-77.4818401937046,4,1,0,75,0,0
158690,-78.0487804878049,4,1,0,75,0,0
158961,-78.6240786240786,4,1,0,75,0,0
159232,-79.2079207920792,4,1,0,75,0,0
159593,-80,4,1,0,75,0,0
159865,-80.6045340050378,4,1,0,75,0,0
160136,-81.2182741116751,4,1,0,75,0,0
160407,-81.8414322250639,4,1,0,75,0,0
160678,-82.4742268041237,4,1,0,75,0,0
160858,-82.9015544041451,4,1,0,75,0,0
161039,-83.3333333333333,4,1,0,75,0,0
161310,-83.989501312336,4,1,0,75,0,0
161581,-84.6560846560847,4,1,0,75,0,0
161852,-85.3333333333333,4,1,0,75,0,0
162124,-86.0215053763441,4,1,0,75,0,0
162485,-86.9565217391304,4,1,0,75,0,0
162756,-87.6712328767123,4,1,0,75,0,0
163027,-88.3977900552486,4,1,0,75,0,0
163298,-89.1364902506964,4,1,0,75,0,0
163479,-89.6358543417367,4,1,0,75,0,0
163569,-89.8876404494382,4,1,0,75,0,0
163660,-90.1408450704225,4,1,0,75,0,0
163750,-90.3954802259887,4,1,0,75,0,0
163840,-90.6515580736544,4,1,0,75,0,0
163931,-90.9090909090909,4,1,0,75,0,0
164202,-91.6905444126075,4,1,0,75,0,0
164473,-92.485549132948,4,1,0,75,0,0
164744,-93.2944606413994,4,1,0,75,0,0
165015,-94.1176470588235,4,1,0,75,0,0
165377,-95.2380952380952,4,1,0,75,0,0
165738,-96.3855421686747,4,1,0,75,0,0
166099,-97.5609756097561,4,1,0,75,0,0
166280,-98.159509202454,4,1,0,75,0,0
166371,-98.4615384615385,4,1,0,75,0,0
166551,-99.0712074303406,4,1,0,75,0,0
166642,-99.3788819875776,4,1,0,75,0,0
166732,-99.6884735202492,4,1,0,75,0,0
166822,-100,4,1,0,75,0,0
167093,-100.946372239748,4,1,0,75,0,0
167365,-101.910828025478,4,1,0,75,0,0
167636,-102.893890675241,4,1,0,75,0,0
167907,-103.896103896104,4,1,0,75,0,0
168268,-105.263157894737,4,1,0,75,0,0
168630,-106.666666666667,4,1,0,75,0,0
168901,-107.744107744108,4,1,0,75,0,0
168991,-108.108108108108,4,1,0,75,0,0
169081,-108.474576271186,4,1,0,75,0,0
169172,-108.843537414966,4,1,0,75,0,0
169352,-109.58904109589,4,1,0,75,0,0
169443,-109.965635738832,4,1,0,75,0,0
169533,-110.344827586207,4,1,0,75,0,0
169624,-110.726643598616,4,1,0,75,0,0
169714,-111.111111111111,4,1,0,75,0,0
169985,-112.280701754386,4,1,0,75,0,0
170256,-113.475177304965,4,1,0,75,0,0
170527,-114.695340501792,4,1,0,75,0,0
170798,-115.942028985507,4,1,0,75,0,0
171160,-117.647058823529,4,1,0,75,0,0
171521,-119.402985074627,4,1,0,75,0,0
171883,-121.212121212121,4,1,0,75,0,0
172063,-122.137404580153,4,1,0,75,0,0
172154,-122.605363984674,4,1,0,75,0,0
172334,-123.552123552124,4,1,0,75,0,0
172425,-124.031007751938,4,1,0,75,0,0
172515,-124.513618677043,4,1,0,75,0,0
172605,-125,4,1,0,75,0,0
172877,-126.482213438735,4,1,0,75,0,0
173148,-128,4,1,0,75,0,0
173419,-129.554655870445,4,1,0,75,0,0
173690,-131.147540983607,4,1,0,75,0,0
174053,-133.333333333333,4,1,0,85,0,0
174119,-123.076923076923,4,1,0,85,0,0
174210,-114.285714285714,4,1,0,85,0,0
174270,-109.090869421502,4,1,0,85,0,0
174330,-104.347862381865,4,1,0,85,0,0
174391,-100,4,1,0,85,0,0
174571,-88.8888888888889,4,1,0,85,0,0
174662,-84.2105263157895,4,1,0,85,0,0
174752,-80,4,1,0,85,0,0
174842,-76.1904761904762,4,1,0,85,0,0
174933,-72.7272727272727,4,1,0,85,0,0
174993,-70.588218685125,4,1,0,85,0,0
175053,-68.5714442449015,4,1,0,85,0,0
175136,-66.6666666666667,4,1,0,85,0,0
175499,-66.6666666666667,4,1,0,100,0,0
176943,-100,4,1,0,100,0,0
177937,-66.6666666666667,4,1,0,100,0,0
179834,-100,4,1,0,100,0,0
180557,-66.6666666666667,4,1,0,100,0,0
182726,-100,4,1,0,100,0,0
183720,-66.6666666666667,4,1,0,100,0,0
185256,-66.6666666666667,4,1,0,100,0,0
185437,-80,4,1,0,100,0,0
185497,-85.7142612244968,4,1,0,100,0,0
185557,-92.3077207100679,4,1,0,100,0,0
185617,-100,4,1,0,100,0,0
185979,-100,4,1,0,100,0,0
186069,-95.9999692800098,4,1,0,100,0,0
186160,-92.3077207100679,4,1,0,100,0,0
186250,-88.8888888888889,4,1,0,100,0,0
186340,-85.7142612244968,4,1,0,100,0,0
186401,-83.7209613845438,4,1,0,100,0,0
186461,-81.8181966942176,4,1,0,100,0,0
186521,-80,4,1,0,100,0,0
186702,-75.0000187500047,4,1,0,100,0,0
186883,-70.588218685125,4,1,0,100,0,0
186973,-68.5714442449015,4,1,0,100,0,0
187063,-66.6666666666667,4,1,0,100,0,0
187154,-71.4285714285714,4,1,0,100,0,0
187244,-76.9230769230769,4,1,0,100,0,0
187334,-66.6666666666667,4,1,0,100,0,0
187425,-71.4285714285714,4,1,0,100,0,0
187515,-76.9230769230769,4,1,0,100,0,0
187605,-66.6666666666667,4,1,0,100,0,0
187696,-71.4285714285714,4,1,0,100,0,0
187786,-76.9230769230769,4,1,0,100,0,0
187877,-66.6666666666667,4,1,0,100,0,0
187967,-71.4285714285714,4,1,0,100,0,0
188057,-76.9230769230769,4,1,0,100,0,0
188148,-66.6666666666667,4,1,0,100,0,0
188509,-66.6666666666667,4,1,0,100,0,0
188690,-72.6591580692718,4,1,0,100,0,0
188871,-79.8354113160309,4,1,0,100,0,0
189051,-88.5844732678635,4,1,0,100,0,0
189232,-99.4871437738458,4,1,0,100,0,0
189413,-88.9908526302581,4,1,0,100,0,0
189503,-84.3478268204159,4,1,0,100,0,0
189593,-80.165268717989,4,1,0,100,0,0
189684,-76.3779732035519,4,1,0,100,0,0
189774,-72.9323319237945,4,1,0,100,0,0
189865,-69.7841576005415,4,1,0,100,0,0
189932,-66.6666666666667,4,1,0,100,0,0
190023,-71.4285714285714,4,1,0,100,0,0
190113,-76.9230769230769,4,1,0,100,0,0
190203,-66.6666666666667,4,1,0,100,0,0
190294,-71.4285714285714,4,1,0,100,0,0
190384,-76.9230769230769,4,1,0,100,0,0
190474,-66.6666666666667,4,1,0,100,0,0
190565,-71.4285714285714,4,1,0,100,0,0
190655,-76.9230769230769,4,1,0,100,0,0
190746,-66.6666666666667,4,1,0,100,0,0
190836,-71.4285714285714,4,1,0,100,0,0
190926,-76.9230769230769,4,1,0,100,0,0
191017,-66.6666666666667,4,1,0,100,0,0
191401,-66.6666666666667,4,1,0,100,0,0
191581,-75.0000187500047,4,1,0,100,0,0
191762,-85.7142612244968,4,1,0,100,0,0
191943,-100,4,1,0,100,0,0
192033,-95.2380952380952,4,1,0,100,0,0
192124,-90.9090909090909,4,1,0,100,0,0
192214,-86.9565217391304,4,1,0,100,0,0
192274,-84.5070660583285,4,1,0,100,0,0
192334,-82.1917583036279,4,1,0,100,0,0
192395,-80,4,1,0,100,0,0
192485,-76.9230769230769,4,1,0,100,0,0
192575,-74.0740740740741,4,1,0,100,0,0
192636,-72.2891740455841,4,1,0,100,0,0
192696,-70.588218685125,4,1,0,100,0,0
192756,-68.9655172413793,4,1,0,100,0,0
192846,-66.6666666666667,4,1,0,100,0,0
192915,-71.4285714285714,4,1,0,100,0,0
193005,-76.9230769230769,4,1,0,100,0,0
193095,-66.6666666666667,4,1,0,100,0,0
193186,-71.4285714285714,4,1,0,100,0,0
193276,-76.9230769230769,4,1,0,100,0,0
193366,-66.6666666666667,4,1,0,100,0,0
193457,-71.4285714285714,4,1,0,100,0,0
193547,-76.9230769230769,4,1,0,100,0,0
193638,-66.6666666666667,4,1,0,100,0,0
193728,-71.4285714285714,4,1,0,100,0,0
193818,-76.9230769230769,4,1,0,100,0,0
193909,-66.6666666666667,4,1,0,100,0,0
194292,-66.6666666666667,4,1,0,100,0,0
194473,-71.386453421053,4,1,0,100,0,0
194654,-76.8253904842535,4,1,0,100,0,0
194834,-83.1615354613261,4,1,0,100,0,0
195015,-90.6366864677615,4,1,0,100,0,0
195196,-100,4,1,0,100,0,0
195286,-92.3077207100679,4,1,0,100,0,0
195377,-85.7142612244968,4,1,0,100,0,0
195467,-80,4,1,0,100,0,0
195557,-75.0000187500047,4,1,0,100,0,0
195648,-70.588218685125,4,1,0,100,0,0
195738,-66.6666666666667,4,1,0,100,0,0
196822,-66.6666666666667,4,1,0,100,0,0
196913,-65.359477124183,4,1,0,100,0,0
197003,-64.1025641025641,4,1,0,100,0,0
197063,-64.9350649350649,4,1,0,100,0,0
197124,-65.7894736842105,4,1,0,100,0,0
197184,-66.6666666666667,4,1,0,100,0,0
197244,-67.5675675675676,4,1,0,100,0,0
197304,-68.4931506849315,4,1,0,100,0,0
197365,-69.4444444444444,4,1,0,100,0,0
197455,-68.0272108843537,4,1,0,100,0,0
197545,-66.6666666666667,4,1,0,100,0,0
197605,-67.5675675675676,4,1,0,100,0,0
197666,-68.4931506849315,4,1,0,100,0,0
197726,-69.4444444444444,4,1,0,100,0,0
197786,-70.4225352112676,4,1,0,100,0,0
197846,-71.4285714285714,4,1,0,100,0,0
197907,-72.463768115942,4,1,0,100,0,0
197997,-70.9219858156028,4,1,0,100,0,0
198087,-69.4444444444444,4,1,0,100,0,0
198148,-70.4225352112676,4,1,0,100,0,0
198208,-71.4285714285714,4,1,0,100,0,0
198268,-72.463768115942,4,1,0,100,0,0
198328,-73.5294117647059,4,1,0,100,0,0
198389,-74.6268656716418,4,1,0,100,0,0
198449,-75.7575757575758,4,1,0,100,0,0
198539,-74.0740740740741,4,1,0,100,0,0
198630,-72.463768115942,4,1,0,100,0,0
200075,-100,4,1,0,100,0,0
201160,-133.333333333333,4,1,0,100,0,0
201250,-131.401037279788,4,1,0,100,0,0
201340,-129.523779918374,4,1,0,100,0,0
201431,-127.699568886255,4,1,0,100,0,0
201521,-125.925869958873,4,1,0,100,0,0
201792,-120.888871695805,4,1,0,100,0,0
202063,-116.239332135293,4,1,0,100,0,0
202244,-113.333325777778,4,1,0,100,0,0
202515,-109.236968848894,4,1,0,100,0,0
202786,-105.426402355648,4,1,0,100,0,0
202967,-103.030328007352,4,1,0,100,0,0
203148,-100.740746710563,4,1,0,100,0,0
203238,-99.6337463484232,4,1,0,100,0,0
203419,-97.4910673809512,4,1,0,100,0,0
203509,-96.4538733464189,4,1,0,100,0,0
203599,-95.4386072071419,4,1,0,100,0,0
203690,-94.4444024691545,4,1,0,100,0,0
203871,-92.5170370123658,4,1,0,100,0,0
203961,-91.5824718475481,4,1,0,100,0,0
204051,-90.6666811733357,4,1,0,100,0,0
204142,-89.76894371577,4,1,0,100,0,0
204232,-88.8888888888889,4,1,0,100,0,0
204322,-88.0259218734733,4,1,0,100,0,0
204413,-87.1794737672604,4,1,0,100,0,0
204593,-85.534565373213,4,1,0,100,0,0
204684,-84.7352067157735,4,1,0,100,0,0
204774,-83.9506504496397,4,1,0,100,0,0
204865,-83.1804199945766,4,1,0,100,0,0
204955,-82.4242624058818,4,1,0,100,0,0
205045,-81.6816620584596,4,1,0,100,0,0
205136,-80.9523886621323,4,1,0,100,0,0
205316,-79.5321600218873,4,1,0,100,0,0
205407,-78.8406016483993,4,1,0,100,0,0
205587,-77.4928880901955,4,1,0,100,0,0
205678,-76.8361338823531,4,1,0,100,0,0
205768,-76.1904761904762,4,1,0,100,0,0
205858,-75.5555790617357,4,1,0,100,0,0
205949,-74.9311195683368,4,1,0,100,0,0
206039,-74.3169528860246,4,1,0,100,0,0
206130,-73.7127179500788,4,1,0,100,0,0
206220,-73.1182827147648,4,1,0,100,0,0
206310,-72.5333580913862,4,1,0,100,0,0
206401,-71.9576658660177,4,1,0,100,0,0
206581,-70.833318576392,4,1,0,100,0,0
206762,-69.7435668533934,4,1,0,100,0,0
206852,-69.2111931109947,4,1,0,100,0,0
206943,-68.6868853382348,4,1,0,100,0,0
207033,-68.17041513056,4,1,0,100,0,0
207124,-67.6616996212975,4,1,0,100,0,0
207214,-67.1604752543871,4,1,0,100,0,0
207304,-66.6666666666667,4,1,0,100,0,0
207394,-66.2068819405502,4,1,0,100,0,0
207484,-65.7534390692469,4,1,0,100,0,0
207575,-65.3061224489796,4,1,0,100,0,0
207665,-64.8648508400323,4,1,0,100,0,0
207755,-64.4295440385598,4,1,0,100,0,0
207846,-64,4,1,0,100,0,0
207906,-63.7168322029967,4,1,0,100,0,0
207966,-63.4361188767493,4,1,0,100,0,0
208026,-63.1579080332438,4,1,0,100,0,0
208117,-62.7450980392157,4,1,0,100,0,0
208207,-62.3376493843845,4,1,0,100,0,0
208297,-61.9354966576509,4,1,0,100,0,0
208388,-61.5384615384615,4,1,0,100,0,0
208478,-61.1464843523089,4,1,0,100,0,0
208569,-60.7595059766088,4,1,0,100,0,0
208629,-60.5041935456546,4,1,0,100,0,0
208689,-60.2510540921913,4,1,0,100,0,0
208749,-59.9999880000024,4,1,0,100,0,0
208840,-59.6273410439436,4,1,0,100,0,0
208930,-59.2592592592593,4,1,0,100,0,0
209020,-58.8956939591276,4,1,0,100,0,0
209111,-58.5365967876286,4,1,0,100,0,0
209201,-58.1818181818182,4,1,0,100,0,0
209291,-57.8313141529997,4,1,0,100,0,0
209352,-57.6000036864002,4,1,0,100,0,0
209412,-57.3705032999514,4,1,0,100,0,0
209472,-57.1428571428571,4,1,0,100,0,0
209563,-56.8047229718868,4,1,0,100,0,0
209623,-56.5815359736919,4,1,0,100,0,0
209683,-56.360064160297,4,1,0,100,0,0
209743,-56.140350877193,4,1,0,100,0,0
209834,-55.8139431043827,4,1,0,100,0,0
209894,-55.5984590331094,4,1,0,100,0,0
209954,-55.3846017514826,4,1,0,100,0,0
210014,-55.1724137931034,4,1,0,100,0,0
210105,-54.8571328261243,4,1,0,100,0,0
210195,-54.5454644628117,4,1,0,100,0,0
210255,-54.3396160797445,4,1,0,100,0,0
210316,-54.1353448583874,4,1,0,100,0,0
210376,-53.9325745739192,4,1,0,100,0,0
210466,-53.6312945039186,4,1,0,100,0,0
210557,-53.3333333333333,4,1,0,100,0,0
210617,-53.1365439141654,4,1,0,100,0,0
210677,-52.9411733564016,4,1,0,100,0,0
210737,-52.7472620214966,4,1,0,100,0,0
210828,-52.4590163934426,4,1,0,100,0,0
210918,-52.1739039697558,4,1,0,100,0,0
210978,-51.9855625695632,4,1,0,100,0,0
211038,-51.7985492262333,4,1,0,100,0,0
211099,-51.6129032258064,4,1,0,100,0,0
211189,-51.3368896107996,4,1,0,100,0,0
211279,-51.0638384789512,4,1,0,100,0,0
211340,-50.8833864725499,4,1,0,100,0,0
211400,-50.7042310652655,4,1,0,100,0,0
211460,-50.5263072797798,4,1,0,100,0,0
211551,-50.2617885255352,4,1,0,100,0,0
211641,-50,4,1,0,100,0,0
213090,-66.6666666666667,4,1,0,100,0,1
223208,-66.6666666666667,4,1,0,100,0,1
223479,-61.1494382201111,4,1,0,100,0,1
223660,-57.9520666866022,4,1,0,100,0,1
223840,-55.0724781348494,4,1,0,100,0,1
224021,-52.4654842695362,4,1,0,100,0,1
224204,-50.0941519586062,4,1,0,100,0,0
224656,-66.6666666666667,4,1,0,100,0,1
225650,-66.6666666666667,4,1,0,100,0,0
226102,-66.6666666666667,4,1,0,100,0,1
227096,-66.6666666666667,4,1,0,100,0,0
227547,-66.6666666666667,4,1,0,100,0,1
228541,-66.6666666666667,4,1,0,100,0,0
228993,-66.6666666666667,4,1,0,100,0,1
229716,-66.6666666666667,4,1,0,100,0,0
230439,-66.6666666666667,4,1,0,100,0,1
231433,-66.6666666666667,4,1,0,100,0,0
231885,-66.6666666666667,4,1,0,100,0,1
232879,-66.6666666666667,4,1,0,100,0,0
233331,-66.6666666666667,4,1,0,100,0,1
233599,-64.1025641025641,4,1,0,100,0,1
233871,-61.7283950617284,4,1,0,100,0,1
234142,-59.5238095238095,4,1,0,100,0,1
234325,-58.1395348837209,4,1,0,100,0,0
234596,-56.1797752808989,4,1,0,100,0,0
234776,-54.9450549450549,4,1,0,100,0,1
235045,-53.1914893617021,4,1,0,100,0,1
235316,-51.5463917525773,4,1,0,100,0,1
235587,-50,4,1,0,100,0,1
236222,-66.6666666666667,4,1,0,100,0,0
238750,-50,4,1,0,100,0,0
239114,-66.6666666666667,4,1,0,100,0,1
242005,-66.6666666666667,4,1,0,100,0,0
244533,-50,4,1,0,100,0,0
244897,-66.6666666666667,4,1,0,100,0,1
246975,-66.6666666666667,4,1,0,100,0,0
250316,-50,4,1,0,100,0,0
250680,-66.6666666666667,4,1,0,100,0,1
251943,-66.6666666666667,4,1,0,100,0,1
252304,-60.5009722506241,4,1,0,100,0,1
252575,-56.576574130022,4,1,0,100,0,1
252846,-53.130276500585,4,1,0,100,0,1
253118,-50.0797520050681,4,1,0,100,0,1
253569,-66.6666666666667,4,1,0,100,0,1
254566,-66.6666666666667,4,1,0,100,0,0
255017,-66.6666666666667,4,1,0,100,0,1
256011,-66.6666666666667,4,1,0,100,0,0
256463,-66.6666666666667,4,1,0,100,0,1
257907,-66.6666666666667,4,1,0,100,0,1
258178,-62.7450980392157,4,1,0,100,0,1
258449,-59.2592592592593,4,1,0,100,0,1
258720,-56.140350877193,4,1,0,100,0,1
259172,-51.6129032258064,4,1,0,100,0,1
259262,-50.7936507936508,4,1,0,100,0,1
259352,-50,4,1,0,100,0,1
260439,-33.3333333333333,4,1,0,100,0,1
260800,-50,4,1,0,100,0,0
260979,-66.6666666666667,4,1,0,100,0,0
261499,-50,4,1,0,100,0,0
261680,-66.6666666666667,4,1,0,100,0,0
262221,-50,4,1,0,100,0,0
262402,-66.6666666666667,4,1,0,100,0,0
262944,-50,4,1,0,100,0,0
263125,-66.6666666666667,4,1,0,100,0,0
263667,-50,4,1,0,100,0,0
263848,-66.6666666666667,4,1,0,100,0,0
265113,-50,4,1,0,100,0,0
265294,-66.6666666666667,4,1,0,100,0,0
266559,-50,4,1,0,100,0,0
266740,-66.6666666666667,4,1,0,100,0,0
267282,-50,4,1,0,100,0,0
267463,-66.6666666666667,4,1,0,100,0,0
268005,-50,4,1,0,100,0,0
268186,-66.6666666666667,4,1,0,100,0,0
268727,-50,4,1,0,100,0,0
268908,-66.6666666666667,4,1,0,100,0,0
269450,-50,4,1,0,100,0,0
269631,-66.6666666666667,4,1,0,100,0,0
270896,-50,4,1,0,100,0,0
271077,-66.6666666666667,4,1,0,100,0,0
272342,-50,4,1,0,100,0,0
272523,-66.6666666666667,4,1,0,100,0,0
273065,-50,4,1,0,100,0,0
273246,-66.6666666666667,4,1,0,100,0,0
273788,-50,4,1,0,100,0,0
273969,-66.6666666666667,4,1,0,100,0,0
274511,-50,4,1,0,100,0,0
274692,-66.6666666666667,4,1,0,100,0,0
275233,-50,4,1,0,100,0,0
275414,-66.6666666666667,4,1,0,100,0,0
276679,-50,4,1,0,100,0,0
276860,-66.6666666666667,4,1,0,100,0,0
278148,-50,4,1,0,100,0,0
278328,-65.3061224489796,4,1,0,100,0,0
278419,-64.6464646464647,4,1,0,100,0,0
278509,-64,4,1,0,100,0,0
278599,-63.3663366336634,4,1,0,100,0,0
278690,-62.7450980392157,4,1,0,100,0,0
278750,-62.3376493843845,4,1,0,100,0,0
278810,-61.9354966576509,4,1,0,100,0,0
278871,-46.9483568075117,4,1,0,100,0,0
279051,-60.377358490566,4,1,0,100,0,0
279142,-59.8130841121495,4,1,0,100,0,0
279232,-59.2592592592593,4,1,0,100,0,0
279322,-58.7155963302752,4,1,0,100,0,0
279413,-58.1818181818182,4,1,0,100,0,0
279473,-57.8313141529997,4,1,0,100,0,0
279533,-57.4850409552174,4,1,0,100,0,0
279593,-44.4444444444445,4,1,0,100,0,0
279774,-56.140350877193,4,1,0,100,0,0
279865,-55.6521739130435,4,1,0,100,0,0
279955,-55.1724137931034,4,1,0,100,0,0
280015,-54.8571328261243,4,1,0,100,0,0
280075,-54.5454644628117,4,1,0,100,0,0
280136,-54.2372881355932,4,1,0,100,0,0
280226,-53.781512605042,4,1,0,100,0,0
280316,-42.0168067226891,4,1,0,100,0,0
280497,-52.4590163934426,4,1,0,100,0,0
280587,-52.0325203252033,4,1,0,100,0,0
280678,-51.6129032258064,4,1,0,100,0,0
280738,-51.3368896107996,4,1,0,100,0,0
280798,-51.0638384789512,4,1,0,100,0,0
280858,-50.7936507936508,4,1,0,100,0,0
280949,-50.3937007874016,4,1,0,100,0,0
281039,-40,4,1,0,100,0,0
281220,-50,4,1,0,100,0,0
281310,-48.7903172687961,4,1,0,100,0,0
281401,-47.6377851478724,4,1,0,100,0,0
281491,-46.538468698226,4,1,0,100,0,0
281581,-45.4887240276444,4,1,0,100,0,0
281672,-44.4852918279629,4,1,0,100,0,0
281762,-43.5251734369349,4,1,0,100,0,0
281852,-42.6056417538698,4,1,0,100,0,0
281943,-41.7241416718196,4,1,0,100,0,0
282033,-40.8783782402758,4,1,0,100,0,0
282124,-33.3333333333333,4,1,0,100,0,0
282487,-66.6666666666667,4,1,0,100,0,1
288270,-66.6666666666667,4,1,0,100,0,0
288632,-66.6666666666667,4,1,0,100,0,1
294053,-66.6666666666667,4,1,0,100,0,0
295138,-66.6666666666667,4,1,0,100,0,1
295497,-66.6666666666667,4,1,0,100,0,1
295678,-72.6591580692718,4,1,0,100,0,1
295858,-79.8354113160309,4,1,0,100,0,1
296039,-88.5844732678635,4,1,0,100,0,1
296220,-100,4,1,0,100,0,1
296401,-88.9908526302581,4,1,0,100,0,1
296491,-84.3478268204159,4,1,0,100,0,1
296581,-80.165268717989,4,1,0,100,0,1
296672,-76.3779732035519,4,1,0,100,0,1
296762,-72.9323319237945,4,1,0,100,0,1
296852,-69.7841576005415,4,1,0,100,0,1
296943,-66.8965678715853,4,1,0,100,0,1
298389,-66.6666666666667,4,1,0,100,0,1
298569,-71.4285714285714,4,1,0,100,0,1
298750,-76.9230769230769,4,1,0,100,0,1
298931,-83.3333333333333,4,1,0,100,0,1
299111,-90.9090909090909,4,1,0,100,0,1
299292,-100,4,1,0,100,0,1
299837,-66.6666666666667,4,1,0,100,0,0
300921,-66.6666666666667,4,1,0,100,0,1
301280,-66.6666666666667,4,1,0,100,0,1
301461,-72.6591580692718,4,1,0,100,0,1
301642,-79.8354113160309,4,1,0,100,0,1
301822,-88.5844732678635,4,1,0,100,0,1
302003,-100,4,1,0,100,0,1
302184,-88.9908526302581,4,1,0,100,0,1
302274,-84.3478268204159,4,1,0,100,0,1
302365,-80.165268717989,4,1,0,100,0,1
302455,-76.3779732035519,4,1,0,100,0,1
302545,-72.9323319237945,4,1,0,100,0,1
302636,-69.7841576005415,4,1,0,100,0,1
302726,-66.6666666666667,4,1,0,100,0,1
302997,-61.5384615384615,4,1,0,100,0,1
303268,-57.1428571428571,4,1,0,100,0,1
303539,-53.3333333333333,4,1,0,100,0,1
303813,-50,4,1,0,100,0,0
304172,-100,4,1,0,100,0,0
307063,-100,4,1,0,100,0,0
307154,-97.966125273203,4,1,0,100,0,0
307244,-96.013334331872,4,1,0,100,0,0
307334,-94.1367845133693,4,1,0,100,0,0
307425,-92.3322668956507,4,1,0,100,0,0
307515,-90.5956300291899,4,1,0,100,0,0
307605,-88.9231144075898,4,1,0,100,0,0
307696,-87.3111568815598,4,1,0,100,0,0
307786,-85.7566740131551,4,1,0,100,0,0
307846,-84.7507184742159,4,1,0,100,0,0
307907,-83.7680897189748,4,1,0,100,0,0
307967,-82.8080542425879,4,1,0,100,0,0
308057,-81.4084309827463,4,1,0,100,0,0
308148,-80.0553983356483,4,1,0,100,0,0
308208,-79.1780683085031,4,1,0,100,0,0
308268,-78.3197592137323,4,1,0,100,0,0
308328,-77.4799191419564,4,1,0,100,0,0
308419,-76.2532798441993,4,1,0,100,0,0
308509,-75.0649311654581,4,1,0,100,0,0
308569,-74.2930459480201,4,1,0,100,0,0
308630,-73.5368735945265,4,1,0,100,0,0
308690,-72.7959921438565,4,1,0,100,0,0
308750,-72.0698385563547,4,1,0,100,0,0
308810,-71.358028919982,4,1,0,100,0,0
308871,-70.6601423801869,4,1,0,100,0,0
308931,-69.9757743869073,4,1,0,100,0,0
308991,-69.3045359125709,4,1,0,100,0,0
309051,-68.6460998375147,4,1,0,100,0,0
309111,-68.0000108800017,4,1,0,100,0,0
309172,-67.3659703495418,4,1,0,100,0,0
309232,-66.7436443364681,4,1,0,100,0,0
309593,-33.3333333333333,4,1,0,100,0,0
309957,-50,4,1,0,100,0,1
310023,-49.5575256323912,4,1,0,100,0,1
310113,-49.1228139119739,4,1,0,100,0,1
310158,-48.9082935260581,4,1,0,100,0,1
310203,-48.6956623364861,4,1,0,100,0,1
310294,-48.2758520808582,4,1,0,100,0,1
310384,-47.8632413178473,4,1,0,100,0,1
310429,-47.6595809579004,4,1,0,100,0,1
310474,-47.457623901178,4,1,0,100,0,1
310565,-47.0588235294118,4,1,0,100,0,1
310655,-46.666669777778,4,1,0,100,0,1
310700,-46.4730228749513,4,1,0,100,0,1
310745,-46.2809978553386,4,1,0,100,0,1
310836,-45.9016483740948,4,1,0,100,0,1
310926,-45.5284464009535,4,1,0,100,0,1
310971,-45.3441324919276,4,1,0,100,0,1
311017,-45.1612844953181,4,1,0,100,0,1
311107,-44.7999971328002,4,1,0,100,0,1
311197,-44.4444444444444,4,1,0,100,0,1
311242,-44.26876630474,4,1,0,100,0,1
311288,-44.0944909665821,4,1,0,100,0,1
311378,-43.7500054687507,4,1,0,100,0,1
311514,-43.2432432432432,4,1,0,100,0,1
311649,-42.7480863819131,4,1,0,100,0,1
311694,-42.5855565123111,4,1,0,100,0,1
311739,-42.4242398530764,4,1,0,100,0,1
311830,-42.1052631578947,4,1,0,100,0,1
311920,-41.7910472711073,4,1,0,100,0,1
311965,-41.6356827793983,4,1,0,100,0,1
312011,-41.4814863978058,4,1,0,100,0,1
312101,-41.1764778546726,4,1,0,100,0,1
312191,-40.8759052480166,4,1,0,100,0,1
312236,-40.7272750968596,4,1,0,100,0,1
312282,-40.5797054400342,4,1,0,100,0,1
312372,-40.2877674654522,4,1,0,100,0,1
312487,-40,4,1,0,100,0,0
312849,-40,4,1,0,100,0,1
312914,-40.3361290304364,4,1,0,100,0,1
313005,-40.6779716173521,4,1,0,100,0,1
313050,-40.8510582670899,4,1,0,100,0,1
313095,-41.025641025641,4,1,0,100,0,1
313185,-41.3793046373373,4,1,0,100,0,1
313276,-41.7391362419668,4,1,0,100,0,1
313321,-41.9213915219016,4,1,0,100,0,1
313366,-42.1052631578947,4,1,0,100,0,1
313456,-42.477870091629,4,1,0,100,0,1
313547,-42.8571489795927,4,1,0,100,0,1
313592,-43.049321176779,4,1,0,100,0,1
313637,-43.2432432432432,4,1,0,100,0,1
313727,-43.6363572892571,4,1,0,100,0,1
313818,-44.0367037118097,4,1,0,100,0,1
313863,-44.2396248125899,4,1,0,100,0,1
313908,-44.4444444444444,4,1,0,100,0,1
313999,-44.8598063761037,4,1,0,100,0,1
314089,-45.2830257030982,4,1,0,100,0,1
314134,-45.4976234316401,4,1,0,100,0,1
314179,-45.7142857142857,4,1,0,100,0,1
314270,-46.1538390532555,4,1,0,100,0,1
314405,-46.8292609827495,4,1,0,100,0,1
314541,-47.5247449465751,4,1,0,100,0,1
314586,-47.7611940298507,4,1,0,100,0,1
314631,-48.0000076800012,4,1,0,100,0,1
314767,-48.730972382696,4,1,0,100,0,1
314902,-49.4845442448733,4,1,0,100,0,1
314947,-49.7409243952872,4,1,0,100,0,1
315017,-50,4,1,0,100,0,0
315173,-57.1428571428571,4,1,0,100,0,0
315740,-50,4,1,0,100,0,1
315896,-49.1228139119739,4,1,0,100,0,1
315941,-48.9082935260581,4,1,0,100,0,1
315986,-48.6956623364861,4,1,0,100,0,1
316077,-48.2758520808582,4,1,0,100,0,1
316167,-47.8632413178473,4,1,0,100,0,1
316212,-47.6595809579004,4,1,0,100,0,1
316258,-47.457623901178,4,1,0,100,0,1
316348,-47.0588235294118,4,1,0,100,0,1
316438,-46.666669777778,4,1,0,100,0,1
316483,-46.4730228749513,4,1,0,100,0,1
316529,-46.2809978553386,4,1,0,100,0,1
316619,-45.9016483740948,4,1,0,100,0,1
316709,-45.5284464009535,4,1,0,100,0,1
316755,-45.3441324919276,4,1,0,100,0,1
316800,-45.1612844953181,4,1,0,100,0,1
316890,-44.7999971328002,4,1,0,100,0,1
316980,-44.4444444444444,4,1,0,100,0,1
317026,-44.26876630474,4,1,0,100,0,1
317071,-44.0944909665821,4,1,0,100,0,1
317161,-43.7500054687507,4,1,0,100,0,1
317297,-43.2432432432432,4,1,0,100,0,1
317432,-42.7480863819131,4,1,0,100,0,1
317477,-42.5855565123111,4,1,0,100,0,1
317523,-42.4242398530764,4,1,0,100,0,1
317613,-42.1052631578947,4,1,0,100,0,1
317703,-41.7910472711073,4,1,0,100,0,1
317749,-41.6356827793983,4,1,0,100,0,1
317794,-41.4814863978058,4,1,0,100,0,1
317884,-41.1764778546726,4,1,0,100,0,1
317974,-40.8759052480166,4,1,0,100,0,1
318020,-40.7272750968596,4,1,0,100,0,1
318065,-40.5797054400342,4,1,0,100,0,1
318155,-40.2877674654522,4,1,0,100,0,1
318270,-40,4,1,0,100,0,0
318426,-50,4,1,0,100,0,0
318632,-40,4,1,0,100,0,1
320800,-40,4,1,0,100,0,0
321521,-66.6666666666667,4,1,0,100,0,0
321794,-67.469326757323,4,1,0,75,0,0
322063,-68.2915969238733,4,1,0,75,0,0
322334,-69.1341091102164,4,1,0,75,0,0
322605,-69.9976690776197,4,1,0,75,0,0
322969,-71.1832434644885,4,1,0,65,0,0
323238,-72.0990929934101,4,1,0,65,0,0
323509,-73.0388698257439,4,1,0,65,0,0
323780,-74.0034145175458,4,1,0,65,0,0
324051,-74.993831757338,4,1,0,65,0,0
324232,-75.6688941066795,4,1,0,65,0,0
324415,-76.356278394991,4,1,0,55,0,0
324684,-77.4111242882047,4,1,0,55,0,0
324955,-78.4954617848769,4,1,0,55,0,0
325226,-79.6106085912584,4,1,0,55,0,0
325497,-80.7579619274664,4,1,0,55,0,0
325861,-82.340105807036,4,1,0,45,0,0
326130,-83.568090026232,4,1,0,45,0,0
326401,-84.8331840269294,4,1,0,45,0,0
326672,-86.1371699977346,4,1,0,45,0,0
326943,-87.4819459134121,4,1,0,45,0,0
327124,-88.4020099080973,4,1,0,45,0,0
327306,-89.3416325753887,4,1,0,35,0,0
327575,-90.7890842468228,4,1,0,35,0,0
327846,-92.2842095257607,4,1,0,35,0,0
328118,-93.8294911720523,4,1,0,35,0,0
328389,-95.4273139692228,4,1,0,35,0,0
328752,-97.6444258703048,4,1,0,25,0,0
329021,-99.3760179830842,4,1,0,25,0,0
329292,-101.170133767151,4,1,0,25,0,0
329563,-103.030328007352,4,1,0,25,0,0
329834,-104.960099418206,4,1,0,25,0,0
330015,-106.287320135282,4,1,0,25,0,0
330198,-107.648536141381,4,1,0,20,0,0
330467,-109.756954200618,4,1,0,20,0,0
330738,-111.949739045158,4,1,0,20,0,0
331009,-114.231796877588,4,1,0,20,0,0
331280,-116.608828687638,4,1,0,20,0,0
331644,-119.936577537798,4,1,0,15,0,0
331913,-122.559683501873,4,1,0,15,0,0
332184,-125.300250725802,4,1,0,15,0,0
332455,-128.16602113714,4,1,0,15,0,0
332726,-131.165947221446,4,1,0,15,0,0
332907,-133.245213831919,4,1,0,15,0,0

[HitObjects]
256,192,4897,5,4,0:0:0:0:
256,192,5168,1,0,0:0:0:0:
256,192,5439,1,0,0:0:0:0:
256,192,5710,1,0,0:0:0:0:
256,192,5981,1,8,0:0:0:0:
256,192,6343,1,0,0:0:0:0:
256,192,6523,1,8,0:0:0:0:
256,192,6614,1,0,0:0:0:0:
256,192,6704,1,8,0:0:0:0:
256,192,6794,1,8,0:0:0:0:
256,192,6885,1,0,0:0:0:0:
256,192,7066,1,0,0:0:0:0:
256,192,7156,1,0,0:0:0:0:
256,192,7246,1,8,0:0:0:0:
256,192,7337,1,0,0:0:0:0:
256,192,7427,1,8,0:0:0:0:
256,192,7517,1,8,0:0:0:0:
256,192,7608,1,0,0:0:0:0:
256,192,7788,1,0,0:0:0:0:
256,192,7879,1,8,0:0:0:0:
256,192,8059,1,0,0:0:0:0:
256,192,8150,1,8,0:0:0:0:
256,192,8331,1,0,0:0:0:0:
256,192,8421,1,8,0:0:0:0:
256,192,8602,1,0,0:0:0:0:
256,192,8873,1,8,0:0:0:0:
256,192,9053,1,8,0:0:0:0:
256,192,9144,1,8,0:0:0:0:
256,192,9234,1,0,0:0:0:0:
256,192,9505,1,0,0:0:0:0:
256,192,9776,1,0,0:0:0:0:
256,192,10047,1,0,0:0:0:0:
256,192,10319,1,0,0:0:0:0:
256,192,10680,1,4,0:0:0:0:
256,192,10861,1,8,0:0:0:0:
256,192,10951,1,8,0:0:0:0:
256,192,11041,1,8,0:0:0:0:
256,192,11132,1,8,0:0:0:0:
256,192,11222,1,4,0:0:0:0:
256,192,11493,1,4,0:0:0:0:
256,192,11764,1,4,0:0:0:0:
256,192,11945,1,0,0:0:0:0:
256,192,12035,1,8,0:0:0:0:
256,192,12126,1,0,0:0:0:0:
256,192,12397,1,0,0:0:0:0:
256,192,12668,1,8,0:0:0:0:
256,192,12939,1,8,0:0:0:0:
256,192,13210,1,8,0:0:0:0:
256,192,13391,1,8,0:0:0:0:
256,192,13572,1,4,0:0:0:0:
256,192,13752,1,8,0:0:0:0:
256,192,13843,1,8,0:0:0:0:
256,192,13933,1,8,0:0:0:0:
256,192,14023,1,8,0:0:0:0:
256,192,14114,1,4,0:0:0:0:
256,192,14385,1,4,0:0:0:0:
256,192,14656,1,4,0:0:0:0:
256,192,14837,1,0,0:0:0:0:
256,192,14927,1,0,0:0:0:0:
256,192,15017,1,8,0:0:0:0:
256,192,15288,1,8,0:0:0:0:
256,192,15559,1,0,0:0:0:0:
256,192,15831,1,0,0:0:0:0:
256,192,16102,1,0,0:0:0:0:
256,192,16192,1,0,0:0:0:0:
256,192,16282,1,8,0:0:0:0:
256,192,16343,1,8,0:0:0:0:
256,192,16403,1,8,0:0:0:0:
256,192,16463,1,4,0:0:0:0:
256,192,16644,1,8,0:0:0:0:
256,192,16734,1,8,0:0:0:0:
256,192,16825,1,8,0:0:0:0:
256,192,16915,1,8,0:0:0:0:
256,192,17005,1,4,0:0:0:0:
256,192,17276,1,4,0:0:0:0:
256,192,17547,1,4,0:0:0:0:
256,192,17728,1,0,0:0:0:0:
256,192,17819,1,8,0:0:0:0:
256,192,17909,1,0,0:0:0:0:
256,192,18180,1,0,0:0:0:0:
256,192,18451,1,8,0:0:0:0:
256,192,18722,1,8,0:0:0:0:
256,192,18993,1,8,0:0:0:0:
256,192,19174,1,8,0:0:0:0:
256,192,19355,1,4,0:0:0:0:
256,192,19535,1,8,0:0:0:0:
256,192,19626,1,8,0:0:0:0:
256,192,19716,1,8,0:0:0:0:
256,192,19806,1,8,0:0:0:0:
256,192,19897,1,4,0:0:0:0:
256,192,20168,1,4,0:0:0:0:
256,192,20439,1,4,0:0:0:0:
256,192,20710,1,4,0:0:0:0:
256,192,20981,1,4,0:0:0:0:
256,192,21162,1,4,0:0:0:0:
256,192,21433,1,4,0:0:0:0:
256,192,21704,1,4,0:0:0:0:
256,192,21885,1,4,0:0:0:0:
256,192,22156,1,4,0:0:0:0:
256,192,22427,1,4,0:0:0:0:
256,192,22608,1,4,0:0:0:0:
256,192,22879,1,4,0:0:0:0:
256,192,23150,1,4,0:0:0:0:
256,192,23331,1,4,0:0:0:0:
256,192,23602,1,4,0:0:0:0:
256,192,23873,1,4,0:0:0:0:
256,192,24053,1,4,0:0:0:0:
256,192,24325,1,4,0:0:0:0:
256,192,24596,1,0,0:0:0:0:
256,192,24656,1,8,0:0:0:0:
256,192,24716,1,8,0:0:0:0:
256,192,24776,1,0,0:0:0:0:
256,192,25138,1,4,0:0:0:0:
256,192,25409,1,0,0:0:0:0:
256,192,25680,1,8,0:0:0:0:
256,192,25951,1,0,0:0:0:0:
256,192,26222,1,8,0:0:0:0:
256,192,27578,1,0,0:0:0:0:
256,192,28029,1,8,0:0:0:0:
256,192,28300,1,8,0:0:0:0:
256,192,28572,1,8,0:0:0:0:
256,192,28843,1,0,0:0:0:0:
256,192,29114,1,8,0:0:0:0:
256,192,30198,1,8,0:0:0:0:
256,192,30921,1,0,0:0:0:0:
256,192,31192,1,0,0:0:0:0:
256,192,31463,1,8,0:0:0:0:
256,192,31734,1,0,0:0:0:0:
256,192,32005,1,8,0:0:0:0:
256,192,33361,1,8,0:0:0:0:
256,192,33813,1,0,0:0:0:0:
256,192,34084,1,0,0:0:0:0:
256,192,34355,1,8,0:0:0:0:
256,192,34626,1,8,0:0:0:0:
256,192,34897,1,8,0:0:0:0:
256,192,35258,1,0,0:0:0:0:
256,192,35349,1,0,0:0:0:0:
256,192,35439,1,8,0:0:0:0:
256,192,35499,1,8,0:0:0:0:
256,192,35559,1,8,0:0:0:0:
256,192,35620,1,0,0:0:0:0:
256,192,35800,1,8,0:0:0:0:
256,192,35891,1,8,0:0:0:0:
256,192,35981,1,0,0:0:0:0:
256,192,36072,1,0,0:0:0:0:
256,192,36162,1,0,0:0:0:0:
256,192,36222,1,0,0:0:0:0:
256,192,36282,1,0,0:0:0:0:
256,192,36343,1,8,0:0:0:0:
256,192,36704,1,12,0:0:0:0:
256,192,36975,1,12,0:0:0:0:
256,192,37246,1,4,0:0:0:0:
256,192,37517,1,12,0:0:0:0:
256,192,37788,1,4,0:0:0:0:
256,192,39144,1,4,0:0:0:0:
256,192,39596,1,12,0:0:0:0:
256,192,39867,1,12,0:0:0:0:
256,192,40138,1,12,0:0:0:0:
256,192,40409,1,4,0:0:0:0:
256,192,40680,1,12,0:0:0:0:
256,192,41764,1,12,0:0:0:0:
256,192,42487,1,12,0:0:0:0:
256,192,42758,1,12,0:0:0:0:
256,192,43029,1,4,0:0:0:0:
256,192,43300,1,12,0:0:0:0:
256,192,43572,1,4,0:0:0:0:
256,192,44927,1,4,0:0:0:0:
256,192,45379,1,4,0:0:0:0:
256,192,45650,1,4,0:0:0:0:
256,192,45921,1,12,0:0:0:0:
256,192,46192,1,12,0:0:0:0:
256,192,46463,1,12,0:0:0:0:
256,192,46825,1,8,0:0:0:0:
256,192,46915,1,8,0:0:0:0:
256,192,47005,1,8,0:0:0:0:
256,192,47096,1,8,0:0:0:0:
256,192,47186,1,8,0:0:0:0:
256,192,47276,1,8,0:0:0:0:
256,192,47367,1,8,0:0:0:0:
256,192,47457,1,8,0:0:0:0:
256,192,47547,1,8,0:0:0:0:
256,192,47608,1,8,0:0:0:0:
256,192,47668,1,8,0:0:0:0:
256,192,47728,1,8,0:0:0:0:
256,192,47788,1,8,0:0:0:0:
256,192,47849,1,8,0:0:0:0:
256,192,47909,1,0,0:0:0:0:
256,192,48270,1,4,0:0:0:0:
256,192,48451,1,8,0:0:0:0:
256,192,48541,1,0,0:0:0:0:
256,192,48632,1,8,0:0:0:0:
256,192,48722,1,8,0:0:0:0:
256,192,48813,1,4,0:0:0:0:
256,192,49084,1,4,0:0:0:0:
256,192,49355,1,4,0:0:0:0:
256,192,49535,1,8,0:0:0:0:
256,192,49716,1,0,0:0:0:0:
256,192,49806,1,0,0:0:0:0:
256,192,49897,1,8,0:0:0:0:
256,192,49957,1,8,0:0:0:0:
256,192,50017,1,8,0:0:0:0:
256,192,50078,1,0,0:0:0:0:
256,192,50168,1,8,0:0:0:0:
256,192,50228,1,0,0:0:0:0:
256,192,50288,1,0,0:0:0:0:
256,192,50349,1,8,0:0:0:0:
256,192,50439,1,0,0:0:0:0:
256,192,50499,1,0,0:0:0:0:
256,192,50559,1,0,0:0:0:0:
256,192,50620,1,8,0:0:0:0:
256,192,50710,1,0,0:0:0:0:
256,192,50770,1,8,0:0:0:0:
256,192,50831,1,8,0:0:0:0:
256,192,50891,1,0,0:0:0:0:
256,192,50981,1,8,0:0:0:0:
256,192,51041,1,8,0:0:0:0:
256,192,51102,1,8,0:0:0:0:
256,192,51162,1,4,0:0:0:0:
256,192,51343,1,8,0:0:0:0:
256,192,51433,1,0,0:0:0:0:
256,192,51523,1,8,0:0:0:0:
256,192,51614,1,8,0:0:0:0:
256,192,51704,1,4,0:0:0:0:
256,192,51975,1,4,0:0:0:0:
256,192,52246,1,4,0:0:0:0:
256,192,52427,1,8,0:0:0:0:
256,192,52608,1,8,0:0:0:0:
256,192,52698,1,8,0:0:0:0:
256,192,52788,1,0,0:0:0:0:
256,192,52849,1,8,0:0:0:0:
256,192,52909,1,8,0:0:0:0:
256,192,52969,1,0,0:0:0:0:
256,192,53059,1,8,0:0:0:0:
256,192,53120,1,8,0:0:0:0:
256,192,53180,1,8,0:0:0:0:
256,192,53240,1,0,0:0:0:0:
256,192,53331,1,8,0:0:0:0:
256,192,53391,1,0,0:0:0:0:
256,192,53451,1,0,0:0:0:0:
256,192,53511,1,8,0:0:0:0:
256,192,53602,1,0,0:0:0:0:
256,192,53662,1,0,0:0:0:0:
256,192,53722,1,0,0:0:0:0:
256,192,53782,1,8,0:0:0:0:
256,192,53873,1,0,0:0:0:0:
256,192,53933,1,8,0:0:0:0:
256,192,53993,1,8,0:0:0:0:
256,192,54053,1,4,0:0:0:0:
256,192,54234,1,8,0:0:0:0:
256,192,54325,1,0,0:0:0:0:
256,192,54415,1,8,0:0:0:0:
256,192,54505,1,8,0:0:0:0:
256,192,54596,1,4,0:0:0:0:
256,192,54867,1,4,0:0:0:0:
256,192,55138,1,4,0:0:0:0:
256,192,55319,1,8,0:0:0:0:
256,192,55499,1,8,0:0:0:0:
256,192,55590,1,8,0:0:0:0:
256,192,55680,1,0,0:0:0:0:
256,192,55740,1,0,0:0:0:0:
256,192,55800,1,0,0:0:0:0:
256,192,55861,1,8,0:0:0:0:
256,192,55951,1,0,0:0:0:0:
256,192,56011,1,8,0:0:0:0:
256,192,56072,1,8,0:0:0:0:
256,192,56132,1,0,0:0:0:0:
256,192,56222,1,8,0:0:0:0:
256,192,56282,1,8,0:0:0:0:
256,192,56343,1,8,0:0:0:0:
256,192,56403,1,0,0:0:0:0:
256,192,56493,1,8,0:0:0:0:
256,192,56553,1,0,0:0:0:0:
256,192,56614,1,0,0:0:0:0:
256,192,56674,1,8,0:0:0:0:
256,192,56764,1,0,0:0:0:0:
256,192,56825,1,8,0:0:0:0:
256,192,56885,1,8,0:0:0:0:
256,192,56945,1,4,0:0:0:0:
256,192,57126,1,8,0:0:0:0:
256,192,57216,1,0,0:0:0:0:
256,192,57306,1,8,0:0:0:0:
256,192,57397,1,8,0:0:0:0:
256,192,57487,1,4,0:0:0:0:
256,192,57758,1,4,0:0:0:0:
256,192,58029,1,4,0:0:0:0:
256,192,58300,1,4,0:0:0:0:
256,192,58572,1,4,0:0:0:0:
256,192,58752,1,4,0:0:0:0:
256,192,59023,1,4,0:0:0:0:
256,192,59204,1,8,0:0:0:0:
256,192,59294,1,0,0:0:0:0:
256,192,59385,1,0,0:0:0:0:
256,192,59475,1,0,0:0:0:0:
256,192,59837,1,4,0:0:0:0:
256,192,60108,1,0,0:0:0:0:
256,192,60198,1,8,0:0:0:0:
256,192,60379,1,0,0:0:0:0:
256,192,60559,1,8,0:0:0:0:
256,192,60650,1,0,0:0:0:0:
256,192,60831,1,8,0:0:0:0:
256,192,60921,1,0,0:0:0:0:
256,192,61102,1,8,0:0:0:0:
256,192,61282,1,0,0:0:0:0:
256,192,61553,1,0,0:0:0:0:
256,192,61644,1,8,0:0:0:0:
256,192,61825,1,0,0:0:0:0:
256,192,62005,1,8,0:0:0:0:
256,192,62096,1,0,0:0:0:0:
256,192,62276,1,8,0:0:0:0:
256,192,62367,1,0,0:0:0:0:
256,192,62457,1,0,0:0:0:0:
256,192,62547,1,8,0:0:0:0:
256,192,62638,1,8,0:0:0:0:
256,192,62728,1,0,0:0:0:0:
256,192,62999,1,0,0:0:0:0:
256,192,63090,1,8,0:0:0:0:
256,192,63270,1,0,0:0:0:0:
256,192,63451,1,8,0:0:0:0:
256,192,63541,1,0,0:0:0:0:
256,192,63722,1,8,0:0:0:0:
256,192,63813,1,0,0:0:0:0:
256,192,63993,1,8,0:0:0:0:
256,192,64174,1,0,0:0:0:0:
256,192,64445,1,0,0:0:0:0:
256,192,64535,1,8,0:0:0:0:
256,192,64716,1,0,0:0:0:0:
256,192,64897,1,8,0:0:0:0:
256,192,64987,1,0,0:0:0:0:
256,192,65168,1,0,0:0:0:0:
256,192,65213,1,0,0:0:0:0:
256,192,65258,1,8,0:0:0:0:
256,192,65620,1,0,0:0:0:0:
256,192,65710,1,0,0:0:0:0:
256,192,65800,1,0,0:0:0:0:
256,192,65891,1,0,0:0:0:0:
256,192,65981,1,0,0:0:0:0:
256,192,66072,1,0,0:0:0:0:
256,192,66162,1,8,0:0:0:0:
256,192,66222,1,8,0:0:0:0:
256,192,66282,1,8,0:0:0:0:
256,192,66343,1,0,0:0:0:0:
256,192,66433,1,0,0:0:0:0:
256,192,66523,1,0,0:0:0:0:
256,192,66614,1,0,0:0:0:0:
256,192,66704,1,0,0:0:0:0:
256,192,66794,1,0,0:0:0:0:
256,192,66885,1,8,0:0:0:0:
256,192,66945,1,8,0:0:0:0:
256,192,67005,1,8,0:0:0:0:
256,192,67066,1,0,0:0:0:0:
256,192,67156,1,0,0:0:0:0:
256,192,67246,1,0,0:0:0:0:
256,192,67337,1,0,0:0:0:0:
256,192,67427,1,0,0:0:0:0:
256,192,67517,1,0,0:0:0:0:
256,192,67608,1,8,0:0:0:0:
256,192,67668,1,8,0:0:0:0:
256,192,67728,1,8,0:0:0:0:
256,192,67788,1,0,0:0:0:0:
256,192,67879,1,8,0:0:0:0:
256,192,67939,1,8,0:0:0:0:
256,192,67999,1,8,0:0:0:0:
256,192,68059,1,0,0:0:0:0:
256,192,68150,1,8,0:0:0:0:
256,192,68210,1,8,0:0:0:0:
256,192,68270,1,8,0:0:0:0:
256,192,68331,1,0,0:0:0:0:
256,192,68421,1,0,0:0:0:0:
256,192,68511,1,8,0:0:0:0:
256,192,68572,1,8,0:0:0:0:
256,192,68632,1,8,0:0:0:0:
256,192,68692,1,0,0:0:0:0:
256,192,68782,1,0,0:0:0:0:
256,192,68873,1,8,0:0:0:0:
256,192,68933,1,0,0:0:0:0:
256,192,68993,1,0,0:0:0:0:
256,192,69053,1,8,0:0:0:0:
256,192,69144,1,0,0:0:0:0:
256,192,69234,1,8,0:0:0:0:
256,192,69294,1,8,0:0:0:0:
256,192,69355,1,8,0:0:0:0:
256,192,69415,1,0,0:0:0:0:
256,192,69505,1,0,0:0:0:0:
256,192,69596,1,8,0:0:0:0:
256,192,69656,1,0,0:0:0:0:
256,192,69716,1,0,0:0:0:0:
256,192,69776,1,8,0:0:0:0:
256,192,69867,1,8,0:0:0:0:
256,192,69957,1,0,0:0:0:0:
256,192,70319,1,0,0:0:0:0:
256,192,70499,1,0,0:0:0:0:
256,192,70590,1,8,0:0:0:0:
256,192,70770,1,8,0:0:0:0:
256,192,70861,1,0,0:0:0:0:
256,192,70951,1,0,0:0:0:0:
256,192,71041,1,8,0:0:0:0:
256,192,71132,1,8,0:0:0:0:
256,192,71222,1,8,0:0:0:0:
256,192,71282,1,8,0:0:0:0:
256,192,71343,1,8,0:0:0:0:
256,192,71403,1,4,0:0:0:0:
256,192,71584,1,8,0:0:0:0:
256,192,71764,1,0,0:0:0:0:
256,192,71855,1,8,0:0:0:0:
256,192,71945,1,8,0:0:0:0:
256,192,72035,1,8,0:0:0:0:
256,192,72126,1,0,0:0:0:0:
256,192,72216,1,8,0:0:0:0:
256,192,72306,1,8,0:0:0:0:
256,192,72397,1,8,0:0:0:0:
256,192,72487,1,0,0:0:0:0:
256,192,72532,1,0,0:0:0:0:
256,192,72668,1,0,0:0:0:0:
256,192,72713,1,0,0:0:0:0:
256,192,72849,1,0,0:0:0:0:
256,192,72939,1,0,0:0:0:0:
256,192,73029,1,0,0:0:0:0:
256,192,73090,1,8,0:0:0:0:
256,192,73150,1,8,0:0:0:0:
256,192,73210,1,0,0:0:0:0:
256,192,73300,1,8,0:0:0:0:
256,192,73391,1,8,0:0:0:0:
256,192,73481,1,8,0:0:0:0:
256,192,73572,1,0,0:0:0:0:
256,192,73662,1,8,0:0:0:0:
256,192,73722,1,8,0:0:0:0:
256,192,73782,1,8,0:0:0:0:
256,192,73843,1,8,0:0:0:0:
256,192,73933,1,0,0:0:0:0:
256,192,74294,1,4,0:0:0:0:
256,192,74475,1,8,0:0:0:0:
256,192,74656,1,0,0:0:0:0:
256,192,74746,1,8,0:0:0:0:
256,192,74837,1,8,0:0:0:0:
256,192,74927,1,8,0:0:0:0:
256,192,75017,1,0,0:0:0:0:
256,192,75108,1,8,0:0:0:0:
256,192,75198,1,8,0:0:0:0:
256,192,75288,1,8,0:0:0:0:
256,192,75379,1,0,0:0:0:0:
256,192,75424,1,0,0:0:0:0:
256,192,75559,1,0,0:0:0:0:
256,192,75605,1,0,0:0:0:0:
256,192,75740,1,0,0:0:0:0:
256,192,75831,1,8,0:0:0:0:
256,192,75921,1,8,0:0:0:0:
256,192,76011,1,8,0:0:0:0:
256,192,76102,1,0,0:0:0:0:
256,192,76192,1,8,0:0:0:0:
256,192,76282,1,8,0:0:0:0:
256,192,76373,1,0,0:0:0:0:
256,192,76553,1,8,0:0:0:0:
256,192,76644,1,0,0:0:0:0:
256,192,76825,1,8,0:0:0:0:
256,192,76915,1,8,0:0:0:0:
256,192,77005,1,8,0:0:0:0:
256,192,77096,1,8,0:0:0:0:
256,192,77186,1,4,0:0:0:0:
256,192,77367,1,8,0:0:0:0:
256,192,77547,1,0,0:0:0:0:
256,192,77638,1,8,0:0:0:0:
256,192,77728,1,8,0:0:0:0:
256,192,77819,1,8,0:0:0:0:
256,192,77909,1,0,0:0:0:0:
256,192,77999,1,8,0:0:0:0:
256,192,78090,1,8,0:0:0:0:
256,192,78180,1,8,0:0:0:0:
256,192,78270,1,0,0:0:0:0:
256,192,78316,1,0,0:0:0:0:
256,192,78451,1,0,0:0:0:0:
256,192,78496,1,0,0:0:0:0:
256,192,78632,1,0,0:0:0:0:
256,192,78722,1,0,0:0:0:0:
256,192,78813,1,0,0:0:0:0:
256,192,78873,1,8,0:0:0:0:
256,192,78933,1,8,0:0:0:0:
256,192,78993,1,0,0:0:0:0:
256,192,79084,1,8,0:0:0:0:
256,192,79174,1,8,0:0:0:0:
256,192,79264,1,8,0:0:0:0:
256,192,79355,1,0,0:0:0:0:
256,192,79445,1,8,0:0:0:0:
256,192,79505,1,8,0:0:0:0:
256,192,79566,1,8,0:0:0:0:
256,192,79626,1,8,0:0:0:0:
256,192,79716,1,0,0:0:0:0:
256,192,79806,1,0,0:0:0:0:
256,192,79897,1,8,0:0:0:0:
256,192,79957,1,8,0:0:0:0:
256,192,80017,1,8,0:0:0:0:
256,192,80078,1,4,0:0:0:0:
256,192,80258,1,8,0:0:0:0:
256,192,80439,1,0,0:0:0:0:
256,192,80529,1,8,0:0:0:0:
256,192,80620,1,8,0:0:0:0:
256,192,80710,1,8,0:0:0:0:
256,192,80800,1,4,0:0:0:0:
256,192,81072,1,4,0:0:0:0:
256,192,81343,1,4,0:0:0:0:
256,192,81523,1,8,0:0:0:0:
256,192,81614,1,8,0:0:0:0:
256,192,81704,1,0,0:0:0:0:
256,192,81794,1,0,0:0:0:0:
256,192,81885,1,8,0:0:0:0:
256,192,81975,1,0,0:0:0:0:
256,192,82066,1,8,0:0:0:0:
256,192,82156,1,8,0:0:0:0:
256,192,82246,1,0,0:0:0:0:
256,192,82337,1,0,0:0:0:0:
256,192,82427,1,8,0:0:0:0:
256,192,82517,1,0,0:0:0:0:
256,192,82608,1,8,0:0:0:0:
256,192,82668,1,8,0:0:0:0:
256,192,82728,1,8,0:0:0:0:
256,192,82788,1,8,0:0:0:0:
256,192,82879,1,8,0:0:0:0:
256,192,82969,1,4,0:0:0:0:
256,192,83150,1,8,0:0:0:0:
256,192,83331,1,8,0:0:0:0:
256,192,83421,1,0,0:0:0:0:
256,192,83511,1,8,0:0:0:0:
256,192,83602,1,8,0:0:0:0:
256,192,83692,1,8,0:0:0:0:
256,192,83737,1,8,0:0:0:0:
256,192,83782,1,8,0:0:0:0:
256,192,83873,1,8,0:0:0:0:
256,192,83963,1,8,0:0:0:0:
256,192,84053,1,0,0:0:0:0:
256,192,84099,1,0,0:0:0:0:
256,192,84234,1,0,0:0:0:0:
256,192,84279,1,0,0:0:0:0:
256,192,84415,1,4,0:0:0:0:
256,192,84596,1,8,0:0:0:0:
256,192,84776,1,8,0:0:0:0:
256,192,84867,1,0,0:0:0:0:
256,192,84957,1,8,0:0:0:0:
256,192,85047,1,8,0:0:0:0:
256,192,85138,1,8,0:0:0:0:
256,192,85183,1,8,0:0:0:0:
256,192,85228,1,8,0:0:0:0:
256,192,85319,1,8,0:0:0:0:
256,192,85409,1,8,0:0:0:0:
256,192,85499,1,0,0:0:0:0:
256,192,85544,1,8,0:0:0:0:
256,192,85680,1,0,0:0:0:0:
256,192,85861,1,4,0:0:0:0:
256,192,85951,1,4,0:0:0:0:
256,192,86132,1,0,0:0:0:0:
256,192,86222,1,8,0:0:0:0:
256,192,86313,1,0,0:0:0:0:
256,192,86403,1,8,0:0:0:0:
256,192,86493,1,8,0:0:0:0:
256,192,86584,1,8,0:0:0:0:
256,192,86629,1,8,0:0:0:0:
256,192,86674,1,8,0:0:0:0:
256,192,86764,1,8,0:0:0:0:
256,192,86855,1,8,0:0:0:0:
256,192,86945,1,0,0:0:0:0:
256,192,86990,1,0,0:0:0:0:
256,192,87126,1,0,0:0:0:0:
256,192,87171,1,0,0:0:0:0:
256,192,87306,1,0,0:0:0:0:
256,192,87397,1,8,0:0:0:0:
256,192,87487,1,8,0:0:0:0:
256,192,87578,1,0,0:0:0:0:
256,192,87668,1,8,0:0:0:0:
256,192,87758,1,0,0:0:0:0:
256,192,87849,1,0,0:0:0:0:
256,192,87939,1,0,0:0:0:0:
256,192,88029,1,8,0:0:0:0:
256,192,88210,1,0,0:0:0:0:
256,192,88270,1,0,0:0:0:0:
256,192,88331,1,0,0:0:0:0:
256,192,88391,1,8,0:0:0:0:
256,192,88451,1,8,0:0:0:0:
256,192,88511,1,8,0:0:0:0:
256,192,88572,1,0,0:0:0:0:
256,192,88752,1,0,0:0:0:0:
256,192,89023,1,8,0:0:0:0:
256,192,89204,1,0,0:0:0:0:
256,192,89475,1,8,0:0:0:0:
256,192,89566,1,8,0:0:0:0:
256,192,89656,1,8,0:0:0:0:
256,192,89746,1,8,0:0:0:0:
256,192,89837,1,8,0:0:0:0:
256,192,89927,1,8,0:0:0:0:
256,192,90017,1,8,0:0:0:0:
256,192,90108,1,8,0:0:0:0:
256,192,90198,1,0,0:0:0:0:
256,192,90469,1,8,0:0:0:0:
256,192,90650,1,0,0:0:0:0:
256,192,90921,1,8,0:0:0:0:
256,192,91011,1,8,0:0:0:0:
256,192,91102,1,8,0:0:0:0:
256,192,91192,1,8,0:0:0:0:
256,192,91282,1,8,0:0:0:0:
256,192,91373,1,8,0:0:0:0:
256,192,91463,1,8,0:0:0:0:
256,192,91553,1,8,0:0:0:0:
256,192,91644,1,4,0:0:0:0:
256,192,92005,1,8,0:0:0:0:
256,192,92096,1,0,0:0:0:0:
256,192,92186,1,8,0:0:0:0:
256,192,92276,1,8,0:0:0:0:
256,192,92367,1,4,0:0:0:0:
256,192,92728,1,8,0:0:0:0:
256,192,92819,1,0,0:0:0:0:
256,192,92909,1,8,0:0:0:0:
256,192,92999,1,8,0:0:0:0:
256,192,93090,1,8,0:0:0:0:
256,192,93150,1,8,0:0:0:0:
256,192,93210,1,8,0:0:0:0:
256,192,93270,1,0,0:0:0:0:
256,192,93361,1,8,0:0:0:0:
256,192,93451,1,0,0:0:0:0:
256,192,93511,1,8,0:0:0:0:
256,192,93572,1,8,0:0:0:0:
256,192,93632,1,0,0:0:0:0:
256,192,93722,1,0,0:0:0:0:
256,192,93813,1,8,0:0:0:0:
256,192,93873,1,8,0:0:0:0:
256,192,93933,1,8,0:0:0:0:
256,192,93993,1,0,0:0:0:0:
256,192,94084,1,8,0:0:0:0:
256,192,94174,1,0,0:0:0:0:
256,192,94234,1,0,0:0:0:0:
256,192,94294,1,0,0:0:0:0:
256,192,94355,1,8,0:0:0:0:
256,192,94415,1,8,0:0:0:0:
256,192,94475,1,8,0:0:0:0:
256,192,94535,1,4,0:0:0:0:
256,192,94716,1,8,0:0:0:0:
256,192,94806,1,0,0:0:0:0:
256,192,94897,1,0,0:0:0:0:
256,192,94987,1,8,0:0:0:0:
256,192,95078,1,0,0:0:0:0:
256,192,95168,1,0,0:0:0:0:
256,192,95258,1,8,0:0:0:0:
256,192,95349,1,8,0:0:0:0:
256,192,95394,1,8,0:0:0:0:
256,192,95439,1,0,0:0:0:0:
256,192,95529,1,8,0:0:0:0:
256,192,95620,1,0,0:0:0:0:
256,192,95665,1,0,0:0:0:0:
256,192,95710,1,0,0:0:0:0:
256,192,95800,1,8,0:0:0:0:
256,192,95891,1,8,0:0:0:0:
256,192,95981,1,0,0:0:0:0:
256,192,96162,1,8,0:0:0:0:
256,192,96252,1,0,0:0:0:0:
256,192,96343,1,0,0:0:0:0:
256,192,96433,1,8,0:0:0:0:
256,192,96523,1,0,0:0:0:0:
256,192,96614,1,0,0:0:0:0:
256,192,96704,1,8,0:0:0:0:
256,192,96794,1,0,0:0:0:0:
256,192,96840,1,0,0:0:0:0:
256,192,96885,1,8,0:0:0:0:
256,192,96975,1,8,0:0:0:0:
256,192,97066,1,0,0:0:0:0:
256,192,97111,1,0,0:0:0:0:
256,192,97156,1,0,0:0:0:0:
256,192,97246,1,8,0:0:0:0:
256,192,97337,1,8,0:0:0:0:
256,192,97427,1,0,0:0:0:0:
256,192,97608,1,8,0:0:0:0:
256,192,97698,1,0,0:0:0:0:
256,192,97788,1,0,0:0:0:0:
256,192,97879,1,8,0:0:0:0:
256,192,97969,1,0,0:0:0:0:
256,192,98059,1,0,0:0:0:0:
256,192,98150,1,8,0:0:0:0:
256,192,98240,1,8,0:0:0:0:
256,192,98285,1,8,0:0:0:0:
256,192,98331,1,0,0:0:0:0:
256,192,98421,1,8,0:0:0:0:
256,192,98511,1,0,0:0:0:0:
256,192,98556,1,0,0:0:0:0:
256,192,98602,1,0,0:0:0:0:
256,192,98692,1,8,0:0:0:0:
256,192,98782,1,8,0:0:0:0:
256,192,98873,1,0,0:0:0:0:
256,192,99053,1,8,0:0:0:0:
256,192,99144,1,0,0:0:0:0:
256,192,99234,1,0,0:0:0:0:
256,192,99325,1,8,0:0:0:0:
256,192,99415,1,0,0:0:0:0:
256,192,99505,1,0,0:0:0:0:
256,192,99596,1,8,0:0:0:0:
256,192,99686,1,0,0:0:0:0:
256,192,99731,1,0,0:0:0:0:
256,192,99776,1,8,0:0:0:0:
256,192,99867,1,0,0:0:0:0:
256,192,99957,1,8,0:0:0:0:
256,192,100002,1,8,0:0:0:0:
256,192,100047,1,0,0:0:0:0:
256,192,100138,1,8,0:0:0:0:
256,192,100228,1,8,0:0:0:0:
256,192,100319,1,4,0:0:0:0:
256,192,100499,1,0,0:0:0:0:
256,192,100590,1,0,0:0:0:0:
256,192,100680,1,12,0:0:0:0:
256,192,100861,1,0,0:0:0:0:
256,192,100951,1,0,0:0:0:0:
256,192,101041,1,8,0:0:0:0:
256,192,101132,1,8,0:0:0:0:
256,192,101177,1,8,0:0:0:0:
256,192,101222,1,0,0:0:0:0:
256,192,101313,1,8,0:0:0:0:
256,192,101403,1,0,0:0:0:0:
256,192,101448,1,0,0:0:0:0:
256,192,101493,1,0,0:0:0:0:
256,192,101584,1,8,0:0:0:0:
256,192,101674,1,8,0:0:0:0:
256,192,101764,1,0,0:0:0:0:
256,192,101945,1,8,0:0:0:0:
256,192,102035,1,0,0:0:0:0:
256,192,102126,1,0,0:0:0:0:
256,192,102216,1,8,0:0:0:0:
256,192,102306,1,0,0:0:0:0:
256,192,102397,1,0,0:0:0:0:
256,192,102487,1,8,0:0:0:0:
256,192,102578,1,0,0:0:0:0:
256,192,102623,1,0,0:0:0:0:
256,192,102668,1,8,0:0:0:0:
256,192,102758,1,8,0:0:0:0:
256,192,102849,1,0,0:0:0:0:
256,192,103029,1,8,0:0:0:0:
256,192,103075,1,8,0:0:0:0:
256,192,103120,1,8,0:0:0:0:
256,192,103165,1,8,0:0:0:0:
256,192,103210,1,4,0:0:0:0:
256,192,103481,1,4,0:0:0:0:
256,192,103662,1,4,0:0:0:0:
256,192,103843,1,12,0:0:0:0:
256,192,103933,1,4,0:0:0:0:
256,192,104204,1,4,0:0:0:0:
256,192,104385,1,4,0:0:0:0:
256,192,104566,1,4,0:0:0:0:
256,192,104656,8,0,105921,0:0:0:0:
256,192,106102,5,12,0:0:0:0:
256,192,106282,1,8,0:0:0:0:
256,192,106373,1,0,0:0:0:0:
256,192,106463,1,0,0:0:0:0:
256,192,106553,1,8,0:0:0:0:
256,192,106644,1,0,0:0:0:0:
256,192,106734,1,0,0:0:0:0:
256,192,106825,1,8,0:0:0:0:
256,192,106915,1,8,0:0:0:0:
256,192,106960,1,8,0:0:0:0:
256,192,107005,1,0,0:0:0:0:
256,192,107096,1,8,0:0:0:0:
256,192,107186,1,0,0:0:0:0:
256,192,107231,1,0,0:0:0:0:
256,192,107276,1,0,0:0:0:0:
256,192,107367,1,8,0:0:0:0:
256,192,107457,1,8,0:0:0:0:
256,192,107547,1,0,0:0:0:0:
256,192,107638,1,0,0:0:0:0:
256,192,107728,1,8,0:0:0:0:
256,192,107819,1,0,0:0:0:0:
256,192,107909,1,8,0:0:0:0:
256,192,107999,1,8,0:0:0:0:
256,192,108090,1,0,0:0:0:0:
256,192,108180,1,8,0:0:0:0:
256,192,108270,1,8,0:0:0:0:
256,192,108361,1,0,0:0:0:0:
256,192,108406,1,0,0:0:0:0:
256,192,108451,1,0,0:0:0:0:
256,192,108541,1,8,0:0:0:0:
256,192,108632,1,0,0:0:0:0:
256,192,108722,1,0,0:0:0:0:
256,192,108813,1,8,0:0:0:0:
256,192,108903,1,8,0:0:0:0:
256,192,108993,1,4,0:0:0:0:
256,192,109174,1,8,0:0:0:0:
256,192,109264,1,0,0:0:0:0:
256,192,109355,1,0,0:0:0:0:
256,192,109445,1,8,0:0:0:0:
256,192,109535,1,0,0:0:0:0:
256,192,109626,1,0,0:0:0:0:
256,192,109716,1,8,0:0:0:0:
256,192,109806,1,8,0:0:0:0:
256,192,109852,1,8,0:0:0:0:
256,192,109897,1,0,0:0:0:0:
256,192,109987,1,8,0:0:0:0:
256,192,110078,1,0,0:0:0:0:
256,192,110123,1,0,0:0:0:0:
256,192,110168,1,0,0:0:0:0:
256,192,110258,1,8,0:0:0:0:
256,192,110349,1,0,0:0:0:0:
256,192,110394,1,0,0:0:0:0:
256,192,110439,1,8,0:0:0:0:
256,192,110529,1,0,0:0:0:0:
256,192,110710,1,8,0:0:0:0:
256,192,110891,1,0,0:0:0:0:
256,192,110981,1,8,0:0:0:0:
256,192,111162,1,0,0:0:0:0:
256,192,111343,1,0,0:0:0:0:
256,192,111885,1,4,0:0:0:0:
256,192,112066,1,0,0:0:0:0:
256,192,112156,1,12,0:0:0:0:
256,192,112337,1,8,0:0:0:0:
256,192,112427,1,0,0:0:0:0:
256,192,112517,1,0,0:0:0:0:
256,192,112608,1,12,0:0:0:0:
256,192,112788,1,8,0:0:0:0:
256,192,112879,1,4,0:0:0:0:
256,192,113059,1,0,0:0:0:0:
256,192,113150,1,8,0:0:0:0:
256,192,113240,1,8,0:0:0:0:
256,192,113331,1,4,0:0:0:0:
256,192,113511,1,0,0:0:0:0:
256,192,113602,1,12,0:0:0:0:
256,192,113782,1,8,0:0:0:0:
256,192,113873,1,0,0:0:0:0:
256,192,113963,1,0,0:0:0:0:
256,192,114053,1,12,0:0:0:0:
256,192,114234,1,8,0:0:0:0:
256,192,114325,1,4,0:0:0:0:
256,192,114505,1,0,0:0:0:0:
256,192,114596,1,8,0:0:0:0:
256,192,114686,1,8,0:0:0:0:
256,192,114776,1,4,0:0:0:0:
256,192,114957,1,8,0:0:0:0:
256,192,115047,1,0,0:0:0:0:
256,192,115138,1,8,0:0:0:0:
256,192,115228,1,0,0:0:0:0:
256,192,115319,1,8,0:0:0:0:
256,192,115409,1,0,0:0:0:0:
256,192,115499,1,8,0:0:0:0:
256,192,115590,1,0,0:0:0:0:
256,192,115680,1,8,0:0:0:0:
256,192,115770,1,0,0:0:0:0:
256,192,115861,1,8,0:0:0:0:
256,192,115921,1,8,0:0:0:0:
256,192,115981,1,8,0:0:0:0:
256,192,116041,1,0,0:0:0:0:
256,192,116087,1,0,0:0:0:0:
256,192,116132,1,0,0:0:0:0:
256,192,116177,1,0,0:0:0:0:
256,192,116222,1,8,0:0:0:0:
256,192,116584,1,8,0:0:0:0:
256,192,116764,1,0,0:0:0:0:
256,192,116945,1,8,0:0:0:0:
256,192,117035,1,8,0:0:0:0:
256,192,117126,1,8,0:0:0:0:
256,192,117216,1,8,0:0:0:0:
256,192,117306,1,8,0:0:0:0:
256,192,117367,1,8,0:0:0:0:
256,192,117427,1,8,0:0:0:0:
256,192,117487,1,8,0:0:0:0:
256,192,117547,1,8,0:0:0:0:
256,192,117608,1,8,0:0:0:0:
256,192,117668,1,4,0:0:0:0:
256,192,117849,1,8,0:0:0:0:
256,192,117909,1,0,0:0:0:0:
256,192,117969,1,0,0:0:0:0:
256,192,118029,1,8,0:0:0:0:
256,192,118120,1,0,0:0:0:0:
256,192,118210,1,8,0:0:0:0:
256,192,118300,1,8,0:0:0:0:
256,192,118391,1,8,0:0:0:0:
256,192,118436,1,8,0:0:0:0:
256,192,118481,1,8,0:0:0:0:
256,192,118572,1,8,0:0:0:0:
256,192,118662,1,8,0:0:0:0:
256,192,118752,1,0,0:0:0:0:
256,192,118797,1,0,0:0:0:0:
256,192,118933,1,0,0:0:0:0:
256,192,118978,1,0,0:0:0:0:
256,192,119114,1,0,0:0:0:0:
256,192,119204,1,0,0:0:0:0:
256,192,119294,1,8,0:0:0:0:
256,192,119355,1,0,0:0:0:0:
256,192,119415,1,0,0:0:0:0:
256,192,119475,1,8,0:0:0:0:
256,192,119566,1,0,0:0:0:0:
256,192,119656,1,8,0:0:0:0:
256,192,119746,1,8,0:0:0:0:
256,192,119837,1,8,0:0:0:0:
256,192,119882,1,8,0:0:0:0:
256,192,119927,1,8,0:0:0:0:
256,192,120017,1,0,0:0:0:0:
256,192,120108,1,8,0:0:0:0:
256,192,120198,1,8,0:0:0:0:
256,192,120258,1,8,0:0:0:0:
256,192,120319,1,8,0:0:0:0:
256,192,120379,1,0,0:0:0:0:
256,192,120559,1,4,0:0:0:0:
256,192,120740,1,8,0:0:0:0:
256,192,120800,1,0,0:0:0:0:
256,192,120861,1,0,0:0:0:0:
256,192,120921,1,8,0:0:0:0:
256,192,121011,1,0,0:0:0:0:
256,192,121102,1,8,0:0:0:0:
256,192,121192,1,8,0:0:0:0:
256,192,121282,1,8,0:0:0:0:
256,192,121328,1,8,0:0:0:0:
256,192,121373,1,8,0:0:0:0:
256,192,121463,1,8,0:0:0:0:
256,192,121553,1,8,0:0:0:0:
256,192,121644,1,0,0:0:0:0:
256,192,121689,1,0,0:0:0:0:
256,192,121825,1,0,0:0:0:0:
256,192,121870,1,0,0:0:0:0:
256,192,122005,1,0,0:0:0:0:
256,192,122186,1,0,0:0:0:0:
256,192,122276,1,8,0:0:0:0:
256,192,122367,1,8,0:0:0:0:
256,192,122457,1,0,0:0:0:0:
256,192,122547,1,8,0:0:0:0:
256,192,122638,1,0,0:0:0:0:
256,192,122728,1,8,0:0:0:0:
256,192,122909,1,0,0:0:0:0:
256,192,123451,1,4,0:0:0:0:
256,192,123632,1,8,0:0:0:0:
256,192,123692,1,0,0:0:0:0:
256,192,123752,1,0,0:0:0:0:
256,192,123813,1,8,0:0:0:0:
256,192,123903,1,0,0:0:0:0:
256,192,123993,1,8,0:0:0:0:
256,192,124084,1,8,0:0:0:0:
256,192,124174,1,8,0:0:0:0:
256,192,124219,1,8,0:0:0:0:
256,192,124264,1,8,0:0:0:0:
256,192,124355,1,8,0:0:0:0:
256,192,124445,1,8,0:0:0:0:
256,192,124535,1,0,0:0:0:0:
256,192,124716,1,8,0:0:0:0:
256,192,124897,1,4,0:0:0:0:
256,192,125078,1,8,0:0:0:0:
256,192,125138,1,0,0:0:0:0:
256,192,125198,1,0,0:0:0:0:
256,192,125258,1,8,0:0:0:0:
256,192,125349,1,0,0:0:0:0:
256,192,125439,1,8,0:0:0:0:
256,192,125529,1,8,0:0:0:0:
256,192,125620,1,8,0:0:0:0:
256,192,125665,1,8,0:0:0:0:
256,192,125710,1,8,0:0:0:0:
256,192,125800,1,0,0:0:0:0:
256,192,125891,1,0,0:0:0:0:
256,192,125981,1,8,0:0:0:0:
256,192,126102,1,8,0:0:0:0:
256,192,126222,1,8,0:0:0:0:
256,192,126343,1,4,0:0:0:0:
256,192,126523,1,8,0:0:0:0:
256,192,126584,1,0,0:0:0:0:
256,192,126644,1,0,0:0:0:0:
256,192,126704,1,8,0:0:0:0:
256,192,126794,1,0,0:0:0:0:
256,192,126885,1,8,0:0:0:0:
256,192,126945,1,0,0:0:0:0:
256,192,127005,1,0,0:0:0:0:
256,192,127066,1,8,0:0:0:0:
256,192,127156,1,8,0:0:0:0:
256,192,127246,1,0,0:0:0:0:
256,192,127337,1,0,0:0:0:0:
256,192,127427,1,0,0:0:0:0:
256,192,127517,1,0,0:0:0:0:
256,192,127608,1,0,0:0:0:0:
256,192,127698,1,0,0:0:0:0:
256,192,127788,1,0,0:0:0:0:
256,192,127879,1,8,0:0:0:0:
256,192,127969,1,8,0:0:0:0:
256,192,128059,1,0,0:0:0:0:
256,192,128150,1,0,0:0:0:0:
256,192,128240,1,8,0:0:0:0:
256,192,128331,1,0,0:0:0:0:
256,192,128421,1,8,0:0:0:0:
256,192,128511,1,8,0:0:0:0:
256,192,128602,1,0,0:0:0:0:
256,192,128692,1,0,0:0:0:0:
256,192,128782,1,8,0:0:0:0:
256,192,128873,1,0,0:0:0:0:
256,192,128963,1,8,0:0:0:0:
256,192,129053,1,8,0:0:0:0:
256,192,129114,1,8,0:0:0:0:
256,192,129174,1,8,0:0:0:0:
256,192,129234,1,4,0:0:0:0:
256,192,129505,1,0,0:0:0:0:
256,192,129596,1,8,0:0:0:0:
256,192,129776,1,0,0:0:0:0:
256,192,129957,1,8,0:0:0:0:
256,192,130047,1,0,0:0:0:0:
256,192,130228,1,8,0:0:0:0:
256,192,130319,1,0,0:0:0:0:
256,192,130499,1,8,0:0:0:0:
256,192,130680,1,0,0:0:0:0:
256,192,130951,1,0,0:0:0:0:
256,192,131041,1,8,0:0:0:0:
256,192,131222,1,0,0:0:0:0:
256,192,131403,1,8,0:0:0:0:
256,192,131493,1,0,0:0:0:0:
256,192,131674,1,8,0:0:0:0:
256,192,131764,1,0,0:0:0:0:
256,192,131945,1,8,0:0:0:0:
256,192,132035,1,8,0:0:0:0:
256,192,132126,1,0,0:0:0:0:
256,192,132216,1,8,0:0:0:0:
256,192,132306,1,8,0:0:0:0:
256,192,132397,1,0,0:0:0:0:
256,192,132487,1,8,0:0:0:0:
256,192,132578,1,8,0:0:0:0:
256,192,132668,1,0,0:0:0:0:
256,192,132758,1,0,0:0:0:0:
256,192,132849,1,8,0:0:0:0:
256,192,132939,1,0,0:0:0:0:
256,192,133029,1,0,0:0:0:0:
256,192,133120,1,8,0:0:0:0:
256,192,133210,1,0,0:0:0:0:
256,192,133300,1,0,0:0:0:0:
256,192,133391,1,8,0:0:0:0:
256,192,133481,1,8,0:0:0:0:
256,192,133572,1,0,0:0:0:0:
256,192,133662,1,8,0:0:0:0:
256,192,133843,1,0,0:0:0:0:
256,192,133933,1,8,0:0:0:0:
256,192,134023,1,8,0:0:0:0:
256,192,134114,1,0,0:0:0:0:
256,192,134294,1,8,0:0:0:0:
256,192,134385,1,0,0:0:0:0:
256,192,134566,1,0,0:0:0:0:
256,192,134611,1,0,0:0:0:0:
256,192,134656,1,8,0:0:0:0:
256,192,134746,1,8,0:0:0:0:
256,192,134837,1,8,0:0:0:0:
256,192,134927,1,8,0:0:0:0:
256,192,135017,1,0,0:0:0:0:
256,192,135108,1,0,0:0:0:0:
256,192,135198,1,8,0:0:0:0:
256,192,135288,1,0,0:0:0:0:
256,192,135379,1,0,0:0:0:0:
256,192,135469,1,0,0:0:0:0:
256,192,135559,1,8,0:0:0:0:
256,192,135620,1,8,0:0:0:0:
256,192,135680,1,8,0:0:0:0:
256,192,135740,1,0,0:0:0:0:
256,192,135831,1,0,0:0:0:0:
256,192,135921,1,8,0:0:0:0:
256,192,136011,1,0,0:0:0:0:
256,192,136102,1,0,0:0:0:0:
256,192,136192,1,0,0:0:0:0:
256,192,136282,1,8,0:0:0:0:
256,192,136343,1,8,0:0:0:0:
256,192,136403,1,8,0:0:0:0:
256,192,136463,1,0,0:0:0:0:
256,192,136553,1,0,0:0:0:0:
256,192,136644,1,8,0:0:0:0:
256,192,136734,1,0,0:0:0:0:
256,192,136825,1,0,0:0:0:0:
256,192,136915,1,0,0:0:0:0:
256,192,137005,1,8,0:0:0:0:
256,192,137066,1,8,0:0:0:0:
256,192,137126,1,8,0:0:0:0:
256,192,137186,1,0,0:0:0:0:
256,192,137276,1,8,0:0:0:0:
256,192,137337,1,8,0:0:0:0:
256,192,137397,1,8,0:0:0:0:
256,192,137457,1,0,0:0:0:0:
256,192,137547,1,8,0:0:0:0:
256,192,137608,1,8,0:0:0:0:
256,192,137668,1,8,0:0:0:0:
256,192,137728,1,0,0:0:0:0:
256,192,137819,1,0,0:0:0:0:
256,192,137909,1,8,0:0:0:0:
256,192,137969,1,8,0:0:0:0:
256,192,138029,1,8,0:0:0:0:
256,192,138090,1,0,0:0:0:0:
256,192,138180,1,0,0:0:0:0:
256,192,138270,1,8,0:0:0:0:
256,192,138331,1,0,0:0:0:0:
256,192,138391,1,0,0:0:0:0:
256,192,138451,1,8,0:0:0:0:
256,192,138541,1,0,0:0:0:0:
256,192,138632,1,8,0:0:0:0:
256,192,138692,1,8,0:0:0:0:
256,192,138752,1,8,0:0:0:0:
256,192,138813,1,0,0:0:0:0:
256,192,138903,1,0,0:0:0:0:
256,192,138993,1,8,0:0:0:0:
256,192,139053,1,0,0:0:0:0:
256,192,139114,1,0,0:0:0:0:
256,192,139174,1,8,0:0:0:0:
256,192,139264,1,8,0:0:0:0:
256,192,139355,1,0,0:0:0:0:
256,192,140439,1,12,0:0:0:0:
256,192,140800,1,0,0:0:0:0:
256,192,140891,1,0,0:0:0:0:
256,192,140981,1,8,0:0:0:0:
256,192,141026,1,8,0:0:0:0:
256,192,141072,1,8,0:0:0:0:
256,192,141162,1,0,0:0:0:0:
256,192,141252,1,8,0:0:0:0:
256,192,141297,1,8,0:0:0:0:
256,192,141343,1,8,0:0:0:0:
256,192,141433,1,0,0:0:0:0:
256,192,141523,1,8,0:0:0:0:
256,192,141569,1,8,0:0:0:0:
256,192,141614,1,8,0:0:0:0:
256,192,141704,1,0,0:0:0:0:
256,192,141794,1,8,0:0:0:0:
256,192,141840,1,8,0:0:0:0:
256,192,141885,1,8,0:0:0:0:
256,192,141975,1,0,0:0:0:0:
256,192,142066,1,8,0:0:0:0:
256,192,142111,1,8,0:0:0:0:
256,192,142156,1,8,0:0:0:0:
256,192,142246,1,0,0:0:0:0:
256,192,142382,1,0,0:0:0:0:
256,192,142517,1,0,0:0:0:0:
256,192,142563,1,0,0:0:0:0:
256,192,142608,1,8,0:0:0:0:
256,192,142698,1,0,0:0:0:0:
256,192,142788,1,8,0:0:0:0:
256,192,142834,1,8,0:0:0:0:
256,192,142879,1,8,0:0:0:0:
256,192,142969,1,0,0:0:0:0:
256,192,143059,1,8,0:0:0:0:
256,192,143105,1,8,0:0:0:0:
256,192,143150,1,8,0:0:0:0:
256,192,143240,1,0,0:0:0:0:
256,192,143331,1,8,0:0:0:0:
256,192,143692,1,0,0:0:0:0:
256,192,143782,1,0,0:0:0:0:
256,192,143873,1,8,0:0:0:0:
256,192,143918,1,8,0:0:0:0:
256,192,143963,1,0,0:0:0:0:
256,192,144053,1,0,0:0:0:0:
256,192,144144,1,8,0:0:0:0:
256,192,144189,1,8,0:0:0:0:
256,192,144234,1,0,0:0:0:0:
256,192,144325,1,0,0:0:0:0:
256,192,144415,1,8,0:0:0:0:
256,192,144460,1,8,0:0:0:0:
256,192,144505,1,0,0:0:0:0:
256,192,144596,1,0,0:0:0:0:
256,192,144686,1,8,0:0:0:0:
256,192,144731,1,8,0:0:0:0:
256,192,144776,1,0,0:0:0:0:
256,192,144867,1,0,0:0:0:0:
256,192,144957,1,8,0:0:0:0:
256,192,145002,1,8,0:0:0:0:
256,192,145047,1,0,0:0:0:0:
256,192,145138,1,0,0:0:0:0:
256,192,145273,1,0,0:0:0:0:
256,192,145409,1,8,0:0:0:0:
256,192,145454,1,8,0:0:0:0:
256,192,145499,1,0,0:0:0:0:
256,192,145635,1,0,0:0:0:0:
256,192,145770,1,8,0:0:0:0:
256,192,145816,1,0,0:0:0:0:
256,192,145861,1,0,0:0:0:0:
256,192,146041,1,0,0:0:0:0:
256,192,146132,1,8,0:0:0:0:
256,192,146313,1,0,0:0:0:0:
256,192,146403,1,8,0:0:0:0:
256,192,146493,1,8,0:0:0:0:
256,192,146584,1,4,0:0:0:0:
256,192,146764,1,8,0:0:0:0:
256,192,146809,1,8,0:0:0:0:
256,192,146855,1,8,0:0:0:0:
256,192,146945,1,0,0:0:0:0:
256,192,147035,1,8,0:0:0:0:
256,192,147081,1,8,0:0:0:0:
256,192,147126,1,8,0:0:0:0:
256,192,147216,1,0,0:0:0:0:
256,192,147306,1,8,0:0:0:0:
256,192,147352,1,8,0:0:0:0:
256,192,147397,1,8,0:0:0:0:
256,192,147487,1,0,0:0:0:0:
256,192,147578,1,8,0:0:0:0:
256,192,147623,1,8,0:0:0:0:
256,192,147668,1,8,0:0:0:0:
256,192,147758,1,0,0:0:0:0:
256,192,147849,1,8,0:0:0:0:
256,192,147894,1,8,0:0:0:0:
256,192,147939,1,8,0:0:0:0:
256,192,148029,1,0,0:0:0:0:
256,192,148165,1,0,0:0:0:0:
256,192,148300,1,0,0:0:0:0:
256,192,148346,1,0,0:0:0:0:
256,192,148391,1,8,0:0:0:0:
256,192,148481,1,0,0:0:0:0:
256,192,148572,1,8,0:0:0:0:
256,192,148617,1,8,0:0:0:0:
256,192,148662,1,8,0:0:0:0:
256,192,148752,1,0,0:0:0:0:
256,192,148843,1,8,0:0:0:0:
256,192,148888,1,8,0:0:0:0:
256,192,148933,1,8,0:0:0:0:
256,192,149023,1,0,0:0:0:0:
256,192,149114,1,8,0:0:0:0:
256,192,149294,1,8,0:0:0:0:
256,192,149385,1,8,0:0:0:0:
256,192,149475,1,0,0:0:0:0:
256,192,149566,1,0,0:0:0:0:
256,192,149656,1,8,0:0:0:0:
256,192,149701,1,8,0:0:0:0:
256,192,149746,1,0,0:0:0:0:
256,192,149837,1,0,0:0:0:0:
256,192,149927,1,8,0:0:0:0:
256,192,149972,1,8,0:0:0:0:
256,192,150017,1,0,0:0:0:0:
256,192,150108,1,0,0:0:0:0:
256,192,150198,1,8,0:0:0:0:
256,192,150288,1,0,0:0:0:0:
256,192,150379,1,8,0:0:0:0:
256,192,150424,1,8,0:0:0:0:
256,192,150469,1,0,0:0:0:0:
256,192,150559,1,0,0:0:0:0:
256,192,150650,1,8,0:0:0:0:
256,192,150695,1,8,0:0:0:0:
256,192,150740,1,0,0:0:0:0:
256,192,150831,1,0,0:0:0:0:
256,192,150921,1,8,0:0:0:0:
256,192,150966,1,0,0:0:0:0:
256,192,151011,1,0,0:0:0:0:
256,192,151102,1,8,0:0:0:0:
256,192,151147,1,8,0:0:0:0:
256,192,151192,1,0,0:0:0:0:
256,192,151282,1,8,0:0:0:0:
256,192,151328,1,0,0:0:0:0:
256,192,151373,1,0,0:0:0:0:
256,192,151463,1,8,0:0:0:0:
256,192,151508,1,8,0:0:0:0:
256,192,151553,1,0,0:0:0:0:
256,192,151599,1,0,0:0:0:0:
256,192,151644,1,0,0:0:0:0:
256,192,152367,1,12,0:0:0:0:
256,192,152638,1,0,0:0:0:0:
256,192,152909,1,0,0:0:0:0:
256,192,153180,1,0,0:0:0:0:
256,192,153451,1,0,0:0:0:0:
256,192,153813,1,0,0:0:0:0:
256,192,154084,1,0,0:0:0:0:
256,192,154355,1,0,0:0:0:0:
256,192,154626,1,0,0:0:0:0:
256,192,154897,1,0,0:0:0:0:
256,192,155078,1,8,0:0:0:0:
256,192,155258,1,0,0:0:0:0:
256,192,155529,1,0,0:0:0:0:
256,192,155800,1,0,0:0:0:0:
256,192,156072,1,0,0:0:0:0:
256,192,156343,1,0,0:0:0:0:
256,192,156704,1,0,0:0:0:0:
256,192,156975,1,0,0:0:0:0:
256,192,157246,1,0,0:0:0:0:
256,192,157517,1,0,0:0:0:0:
256,192,157788,1,0,0:0:0:0:
256,192,157969,1,8,0:0:0:0:
256,192,158150,1,0,0:0:0:0:
256,192,158421,1,0,0:0:0:0:
256,192,158692,1,0,0:0:0:0:
256,192,158963,1,0,0:0:0:0:
256,192,159234,1,0,0:0:0:0:
256,192,159596,1,0,0:0:0:0:
256,192,159867,1,0,0:0:0:0:
256,192,160138,1,0,0:0:0:0:
256,192,160409,1,0,0:0:0:0:
256,192,160680,1,0,0:0:0:0:
256,192,160861,1,8,0:0:0:0:
256,192,161041,1,0,0:0:0:0:
256,192,161313,1,0,0:0:0:0:
256,192,161584,1,0,0:0:0:0:
256,192,161855,1,0,0:0:0:0:
256,192,162126,1,0,0:0:0:0:
256,192,162487,1,0,0:0:0:0:
256,192,162758,1,0,0:0:0:0:
256,192,163029,1,0,0:0:0:0:
256,192,163300,1,0,0:0:0:0:
256,192,163481,1,8,0:0:0:0:
256,192,163572,1,0,0:0:0:0:
256,192,163662,1,0,0:0:0:0:
256,192,163752,1,8,0:0:0:0:
256,192,163843,1,8,0:0:0:0:
256,192,163933,1,4,0:0:0:0:
256,192,164204,1,0,0:0:0:0:
256,192,164475,1,8,0:0:0:0:
256,192,164746,1,0,0:0:0:0:
256,192,165017,1,8,0:0:0:0:
256,192,165379,1,0,0:0:0:0:
256,192,165740,1,8,0:0:0:0:
256,192,166102,1,8,0:0:0:0:
256,192,166282,1,8,0:0:0:0:
256,192,166373,1,0,0:0:0:0:
256,192,166553,1,0,0:0:0:0:
256,192,166644,1,8,0:0:0:0:
256,192,166734,1,8,0:0:0:0:
256,192,166825,1,8,0:0:0:0:
256,192,167096,1,8,0:0:0:0:
256,192,167367,1,8,0:0:0:0:
256,192,167638,1,0,0:0:0:0:
256,192,167909,1,8,0:0:0:0:
256,192,168270,1,0,0:0:0:0:
256,192,168632,1,8,0:0:0:0:
256,192,168903,1,0,0:0:0:0:
256,192,168993,1,8,0:0:0:0:
256,192,169084,1,8,0:0:0:0:
256,192,169174,1,0,0:0:0:0:
256,192,169355,1,8,0:0:0:0:
256,192,169445,1,0,0:0:0:0:
256,192,169535,1,8,0:0:0:0:
256,192,169626,1,8,0:0:0:0:
256,192,169716,1,0,0:0:0:0:
256,192,169987,1,0,0:0:0:0:
256,192,170258,1,8,0:0:0:0:
256,192,170529,1,0,0:0:0:0:
256,192,170800,1,8,0:0:0:0:
256,192,171162,1,0,0:0:0:0:
256,192,171523,1,8,0:0:0:0:
256,192,171885,1,8,0:0:0:0:
256,192,172066,1,0,0:0:0:0:
256,192,172156,1,8,0:0:0:0:
256,192,172337,1,8,0:0:0:0:
256,192,172427,1,0,0:0:0:0:
256,192,172517,1,8,0:0:0:0:
256,192,172608,1,0,0:0:0:0:
256,192,172879,1,0,0:0:0:0:
256,192,173150,1,8,0:0:0:0:
256,192,173421,1,8,0:0:0:0:
256,192,173692,1,8,0:0:0:0:
256,192,174053,1,0,0:0:0:0:
256,192,174144,1,0,0:0:0:0:
256,192,174234,1,8,0:0:0:0:
256,192,174294,1,8,0:0:0:0:
256,192,174355,1,8,0:0:0:0:
256,192,174415,1,0,0:0:0:0:
256,192,174596,1,8,0:0:0:0:
256,192,174686,1,8,0:0:0:0:
256,192,174776,1,0,0:0:0:0:
256,192,174867,1,0,0:0:0:0:
256,192,174957,1,0,0:0:0:0:
256,192,175017,1,0,0:0:0:0:
256,192,175078,1,0,0:0:0:0:
256,192,175138,1,8,0:0:0:0:
256,192,175499,1,12,0:0:0:0:
256,192,175770,1,12,0:0:0:0:
256,192,176041,1,4,0:0:0:0:
256,192,176313,1,12,0:0:0:0:
256,192,176584,1,4,0:0:0:0:
256,192,177939,1,4,0:0:0:0:
256,192,178391,1,12,0:0:0:0:
256,192,178662,1,12,0:0:0:0:
256,192,178933,1,12,0:0:0:0:
256,192,179204,1,4,0:0:0:0:
256,192,179475,1,12,0:0:0:0:
256,192,180559,1,12,0:0:0:0:
256,192,181282,1,12,0:0:0:0:
256,192,181553,1,12,0:0:0:0:
256,192,181825,1,4,0:0:0:0:
256,192,182096,1,12,0:0:0:0:
256,192,182367,1,4,0:0:0:0:
256,192,183722,1,4,0:0:0:0:
256,192,184174,1,4,0:0:0:0:
256,192,184445,1,4,0:0:0:0:
256,192,184716,1,12,0:0:0:0:
256,192,184987,1,12,0:0:0:0:
256,192,185258,1,12,0:0:0:0:
256,192,185439,1,8,0:0:0:0:
256,192,185499,1,8,0:0:0:0:
256,192,185559,1,8,0:0:0:0:
256,192,185620,1,0,0:0:0:0:
256,192,185981,1,8,0:0:0:0:
256,192,186072,1,0,0:0:0:0:
256,192,186162,1,0,0:0:0:0:
256,192,186252,1,8,0:0:0:0:
256,192,186343,1,0,0:0:0:0:
256,192,186403,1,0,0:0:0:0:
256,192,186463,1,0,0:0:0:0:
256,192,186523,1,0,0:0:0:0:
256,192,186704,1,0,0:0:0:0:
256,192,186885,1,8,0:0:0:0:
256,192,186975,1,8,0:0:0:0:
256,192,187066,1,0,0:0:0:0:
256,192,187156,1,8,0:0:0:0:
256,192,187246,1,8,0:0:0:0:
256,192,187337,1,0,0:0:0:0:
256,192,187427,1,8,0:0:0:0:
256,192,187517,1,8,0:0:0:0:
256,192,187608,1,0,0:0:0:0:
256,192,187698,1,0,0:0:0:0:
256,192,187788,1,8,0:0:0:0:
256,192,187879,1,0,0:0:0:0:
256,192,187969,1,0,0:0:0:0:
256,192,188059,1,0,0:0:0:0:
256,192,188150,1,8,0:0:0:0:
256,192,188240,1,8,0:0:0:0:
256,192,188331,1,8,0:0:0:0:
256,192,188391,1,8,0:0:0:0:
256,192,188451,1,8,0:0:0:0:
256,192,188511,1,8,0:0:0:0:
256,192,188692,1,8,0:0:0:0:
256,192,188873,1,8,0:0:0:0:
256,192,189053,1,8,0:0:0:0:
256,192,189234,1,8,0:0:0:0:
256,192,189415,1,8,0:0:0:0:
256,192,189505,1,0,0:0:0:0:
256,192,189596,1,8,0:0:0:0:
256,192,189686,1,8,0:0:0:0:
256,192,189776,1,8,0:0:0:0:
256,192,189867,1,8,0:0:0:0:
256,192,189957,1,0,0:0:0:0:
256,192,190047,1,8,0:0:0:0:
256,192,190138,1,8,0:0:0:0:
256,192,190228,1,0,0:0:0:0:
256,192,190319,1,8,0:0:0:0:
256,192,190409,1,8,0:0:0:0:
256,192,190499,1,0,0:0:0:0:
256,192,190590,1,0,0:0:0:0:
256,192,190680,1,8,0:0:0:0:
256,192,190770,1,0,0:0:0:0:
256,192,190861,1,0,0:0:0:0:
256,192,190951,1,0,0:0:0:0:
256,192,191041,1,8,0:0:0:0:
256,192,191132,1,8,0:0:0:0:
256,192,191222,1,8,0:0:0:0:
256,192,191282,1,8,0:0:0:0:
256,192,191343,1,8,0:0:0:0:
256,192,191403,1,8,0:0:0:0:
256,192,191584,1,8,0:0:0:0:
256,192,191764,1,8,0:0:0:0:
256,192,191945,1,8,0:0:0:0:
256,192,192035,1,0,0:0:0:0:
256,192,192126,1,8,0:0:0:0:
256,192,192216,1,8,0:0:0:0:
256,192,192276,1,8,0:0:0:0:
256,192,192337,1,8,0:0:0:0:
256,192,192397,1,8,0:0:0:0:
256,192,192487,1,8,0:0:0:0:
256,192,192578,1,8,0:0:0:0:
256,192,192638,1,8,0:0:0:0:
256,192,192698,1,8,0:0:0:0:
256,192,192758,1,8,0:0:0:0:
256,192,192849,1,0,0:0:0:0:
256,192,192939,1,8,0:0:0:0:
256,192,193029,1,8,0:0:0:0:
256,192,193120,1,0,0:0:0:0:
256,192,193210,1,8,0:0:0:0:
256,192,193300,1,8,0:0:0:0:
256,192,193391,1,0,0:0:0:0:
256,192,193481,1,0,0:0:0:0:
256,192,193572,1,8,0:0:0:0:
256,192,193662,1,0,0:0:0:0:
256,192,193752,1,0,0:0:0:0:
256,192,193843,1,0,0:0:0:0:
256,192,193933,1,8,0:0:0:0:
256,192,194023,1,8,0:0:0:0:
256,192,194114,1,8,0:0:0:0:
256,192,194174,1,8,0:0:0:0:
256,192,194234,1,8,0:0:0:0:
256,192,194294,1,8,0:0:0:0:
256,192,194475,1,8,0:0:0:0:
256,192,194656,1,8,0:0:0:0:
256,192,194837,1,8,0:0:0:0:
256,192,195017,1,8,0:0:0:0:
256,192,195198,1,8,0:0:0:0:
256,192,195288,1,0,0:0:0:0:
256,192,195379,1,8,0:0:0:0:
256,192,195469,1,8,0:0:0:0:
256,192,195559,1,8,0:0:0:0:
256,192,195650,1,8,0:0:0:0:
256,192,195740,1,4,0:0:0:0:
256,192,196011,1,4,0:0:0:0:
256,192,196282,1,4,0:0:0:0:
256,192,196553,1,4,0:0:0:0:
256,192,196825,1,8,0:0:0:0:
256,192,196915,1,8,0:0:0:0:
256,192,197005,1,0,0:0:0:0:
256,192,197066,1,0,0:0:0:0:
256,192,197126,1,0,0:0:0:0:
256,192,197186,1,8,0:0:0:0:
256,192,197246,1,8,0:0:0:0:
256,192,197306,1,8,0:0:0:0:
256,192,197367,1,0,0:0:0:0:
256,192,197457,1,0,0:0:0:0:
256,192,197547,1,8,0:0:0:0:
256,192,197608,1,8,0:0:0:0:
256,192,197668,1,8,0:0:0:0:
256,192,197728,1,0,0:0:0:0:
256,192,197788,1,0,0:0:0:0:
256,192,197849,1,0,0:0:0:0:
256,192,197909,1,8,0:0:0:0:
256,192,197999,1,8,0:0:0:0:
256,192,198090,1,0,0:0:0:0:
256,192,198150,1,0,0:0:0:0:
256,192,198210,1,0,0:0:0:0:
256,192,198270,1,8,0:0:0:0:
256,192,198331,1,8,0:0:0:0:
256,192,198391,1,8,0:0:0:0:
256,192,198451,1,0,0:0:0:0:
256,192,198541,1,0,0:0:0:0:
256,192,198632,8,0,199897,0:0:0:0:
256,192,200078,5,0,0:0:0:0:
256,192,201162,1,8,0:0:0:0:
256,192,201252,1,0,0:0:0:0:
256,192,201343,1,8,0:0:0:0:
256,192,201433,1,8,0:0:0:0:
256,192,201523,1,4,0:0:0:0:
256,192,201794,1,8,0:0:0:0:
256,192,202066,1,8,0:0:0:0:
256,192,202246,1,0,0:0:0:0:
256,192,202517,1,8,0:0:0:0:
256,192,202788,1,8,0:0:0:0:
256,192,202969,1,0,0:0:0:0:
256,192,203150,1,0,0:0:0:0:
256,192,203240,1,8,0:0:0:0:
256,192,203421,1,0,0:0:0:0:
256,192,203511,1,8,0:0:0:0:
256,192,203602,1,8,0:0:0:0:
256,192,203692,1,0,0:0:0:0:
256,192,203873,1,0,0:0:0:0:
256,192,203963,1,8,0:0:0:0:
256,192,204053,1,0,0:0:0:0:
256,192,204144,1,0,0:0:0:0:
256,192,204234,1,8,0:0:0:0:
256,192,204325,1,8,0:0:0:0:
256,192,204415,1,0,0:0:0:0:
256,192,204596,1,0,0:0:0:0:
256,192,204686,1,8,0:0:0:0:
256,192,204776,1,0,0:0:0:0:
256,192,204867,1,0,0:0:0:0:
256,192,204957,1,8,0:0:0:0:
256,192,205047,1,0,0:0:0:0:
256,192,205138,1,0,0:0:0:0:
256,192,205319,1,0,0:0:0:0:
256,192,205409,1,8,0:0:0:0:
256,192,205590,1,0,0:0:0:0:
256,192,205680,1,8,0:0:0:0:
256,192,205770,1,8,0:0:0:0:
256,192,205861,1,0,0:0:0:0:
256,192,205951,1,8,0:0:0:0:
256,192,206041,1,0,0:0:0:0:
256,192,206132,1,8,0:0:0:0:
256,192,206222,1,0,0:0:0:0:
256,192,206313,1,0,0:0:0:0:
256,192,206403,1,8,0:0:0:0:
256,192,206584,1,0,0:0:0:0:
256,192,206764,1,8,0:0:0:0:
256,192,206855,1,8,0:0:0:0:
256,192,206945,1,0,0:0:0:0:
256,192,207035,1,8,0:0:0:0:
256,192,207126,1,8,0:0:0:0:
256,192,207216,1,8,0:0:0:0:
256,192,207306,1,0,0:0:0:0:
256,192,207397,1,0,0:0:0:0:
256,192,207487,1,8,0:0:0:0:
256,192,207578,1,0,0:0:0:0:
256,192,207668,1,0,0:0:0:0:
256,192,207758,1,0,0:0:0:0:
256,192,207849,1,8,0:0:0:0:
256,192,207909,1,8,0:0:0:0:
256,192,207969,1,8,0:0:0:0:
256,192,208029,1,0,0:0:0:0:
256,192,208120,1,0,0:0:0:0:
256,192,208210,1,8,0:0:0:0:
256,192,208300,1,0,0:0:0:0:
256,192,208391,1,0,0:0:0:0:
256,192,208481,1,0,0:0:0:0:
256,192,208572,1,8,0:0:0:0:
256,192,208632,1,8,0:0:0:0:
256,192,208692,1,8,0:0:0:0:
256,192,208752,1,0,0:0:0:0:
256,192,208843,1,0,0:0:0:0:
256,192,208933,1,8,0:0:0:0:
256,192,209023,1,0,0:0:0:0:
256,192,209114,1,0,0:0:0:0:
256,192,209204,1,0,0:0:0:0:
256,192,209294,1,8,0:0:0:0:
256,192,209355,1,8,0:0:0:0:
256,192,209415,1,8,0:0:0:0:
256,192,209475,1,0,0:0:0:0:
256,192,209566,1,8,0:0:0:0:
256,192,209626,1,8,0:0:0:0:
256,192,209686,1,8,0:0:0:0:
256,192,209746,1,0,0:0:0:0:
256,192,209837,1,8,0:0:0:0:
256,192,209897,1,8,0:0:0:0:
256,192,209957,1,8,0:0:0:0:
256,192,210017,1,0,0:0:0:0:
256,192,210108,1,0,0:0:0:0:
256,192,210198,1,8,0:0:0:0:
256,192,210258,1,8,0:0:0:0:
256,192,210319,1,8,0:0:0:0:
256,192,210379,1,0,0:0:0:0:
256,192,210469,1,0,0:0:0:0:
256,192,210559,1,8,0:0:0:0:
256,192,210620,1,0,0:0:0:0:
256,192,210680,1,0,0:0:0:0:
256,192,210740,1,8,0:0:0:0:
256,192,210831,1,0,0:0:0:0:
256,192,210921,1,8,0:0:0:0:
256,192,210981,1,8,0:0:0:0:
256,192,211041,1,8,0:0:0:0:
256,192,211102,1,0,0:0:0:0:
256,192,211192,1,0,0:0:0:0:
256,192,211282,1,8,0:0:0:0:
256,192,211343,1,0,0:0:0:0:
256,192,211403,1,0,0:0:0:0:
256,192,211463,1,8,0:0:0:0:
256,192,211553,1,8,0:0:0:0:
256,192,211644,1,0,0:0:0:0:
256,192,212728,1,12,0:0:0:0:
256,192,213090,1,0,0:0:0:0:
256,192,213180,1,8,0:0:0:0:
256,192,213270,1,8,0:0:0:0:
256,192,213361,1,8,0:0:0:0:
256,192,213451,1,0,0:0:0:0:
256,192,213541,1,8,0:0:0:0:
256,192,213632,1,0,0:0:0:0:
256,192,213722,1,0,0:0:0:0:
256,192,213813,1,8,0:0:0:0:
256,192,213903,1,8,0:0:0:0:
256,192,213993,1,0,0:0:0:0:
256,192,214084,1,8,0:0:0:0:
256,192,214174,1,8,0:0:0:0:
256,192,214234,1,0,0:0:0:0:
256,192,214294,1,0,0:0:0:0:
256,192,214355,1,8,0:0:0:0:
256,192,214415,1,8,0:0:0:0:
256,192,214475,1,8,0:0:0:0:
256,192,214535,1,0,0:0:0:0:
256,192,214626,1,8,0:0:0:0:
256,192,214716,1,8,0:0:0:0:
256,192,214806,1,8,0:0:0:0:
256,192,214897,1,0,0:0:0:0:
256,192,214987,1,8,0:0:0:0:
256,192,215078,1,0,0:0:0:0:
256,192,215168,1,0,0:0:0:0:
256,192,215258,1,8,0:0:0:0:
256,192,215349,1,8,0:0:0:0:
256,192,215439,1,0,0:0:0:0:
256,192,215529,1,8,0:0:0:0:
256,192,215620,1,0,0:0:0:0:
256,192,215710,1,0,0:0:0:0:
256,192,215800,1,8,0:0:0:0:
256,192,215891,1,8,0:0:0:0:
256,192,215981,1,0,0:0:0:0:
256,192,216072,1,8,0:0:0:0:
256,192,216162,1,8,0:0:0:0:
256,192,216252,1,0,0:0:0:0:
256,192,216343,1,0,0:0:0:0:
256,192,216433,1,8,0:0:0:0:
256,192,216523,1,8,0:0:0:0:
256,192,216614,1,0,0:0:0:0:
256,192,216704,1,8,0:0:0:0:
256,192,216764,1,8,0:0:0:0:
256,192,216825,1,8,0:0:0:0:
256,192,216885,1,0,0:0:0:0:
256,192,216975,1,8,0:0:0:0:
256,192,217066,1,0,0:0:0:0:
256,192,217156,1,0,0:0:0:0:
256,192,217246,1,8,0:0:0:0:
256,192,217337,1,0,0:0:0:0:
256,192,217427,1,8,0:0:0:0:
256,192,217517,1,0,0:0:0:0:
256,192,217608,1,0,0:0:0:0:
256,192,217698,1,8,0:0:0:0:
256,192,217788,1,8,0:0:0:0:
256,192,217879,1,0,0:0:0:0:
256,192,217969,1,0,0:0:0:0:
256,192,218059,1,0,0:0:0:0:
256,192,218150,1,8,0:0:0:0:
256,192,218240,1,0,0:0:0:0:
256,192,218331,1,0,0:0:0:0:
256,192,218391,1,8,0:0:0:0:
256,192,218451,1,8,0:0:0:0:
256,192,218511,1,0,0:0:0:0:
256,192,218602,1,0,0:0:0:0:
256,192,218692,1,8,0:0:0:0:
256,192,218782,1,8,0:0:0:0:
256,192,218873,1,0,0:0:0:0:
256,192,219053,1,8,0:0:0:0:
256,192,219144,1,8,0:0:0:0:
256,192,219234,1,0,0:0:0:0:
256,192,219325,1,8,0:0:0:0:
256,192,219505,1,8,0:0:0:0:
256,192,219596,1,0,0:0:0:0:
256,192,219686,1,8,0:0:0:0:
256,192,219867,1,8,0:0:0:0:
256,192,219957,1,0,0:0:0:0:
256,192,220047,1,0,0:0:0:0:
256,192,220138,1,8,0:0:0:0:
256,192,220228,1,8,0:0:0:0:
256,192,220319,1,0,0:0:0:0:
256,192,220499,1,0,0:0:0:0:
256,192,220590,1,8,0:0:0:0:
256,192,220680,1,0,0:0:0:0:
256,192,220770,1,8,0:0:0:0:
256,192,220951,1,8,0:0:0:0:
256,192,221041,1,0,0:0:0:0:
256,192,221132,1,8,0:0:0:0:
256,192,221313,1,8,0:0:0:0:
256,192,221403,1,0,0:0:0:0:
256,192,221493,1,8,0:0:0:0:
256,192,221584,1,8,0:0:0:0:
256,192,221674,1,8,0:0:0:0:
256,192,221764,1,0,0:0:0:0:
256,192,221945,1,8,0:0:0:0:
256,192,222035,1,8,0:0:0:0:
256,192,222126,1,0,0:0:0:0:
256,192,222216,1,8,0:0:0:0:
256,192,222397,1,8,0:0:0:0:
256,192,222487,1,0,0:0:0:0:
256,192,222578,1,8,0:0:0:0:
256,192,222758,1,8,0:0:0:0:
256,192,222849,1,0,0:0:0:0:
256,192,222939,1,0,0:0:0:0:
256,192,223029,1,8,0:0:0:0:
256,192,223120,1,8,0:0:0:0:
256,192,223210,1,4,0:0:0:0:
256,192,223481,1,4,0:0:0:0:
256,192,223662,1,4,0:0:0:0:
256,192,223843,1,4,0:0:0:0:
256,192,224023,1,4,0:0:0:0:
256,192,224204,1,4,0:0:0:0:
256,192,224656,1,0,0:0:0:0:
256,192,224746,1,8,0:0:0:0:
256,192,224837,1,8,0:0:0:0:
256,192,224927,1,8,0:0:0:0:
256,192,225017,1,0,0:0:0:0:
256,192,225108,1,8,0:0:0:0:
256,192,225198,1,0,0:0:0:0:
256,192,225258,1,0,0:0:0:0:
256,192,225319,1,0,0:0:0:0:
256,192,225379,1,8,0:0:0:0:
256,192,225439,1,8,0:0:0:0:
256,192,225499,1,8,0:0:0:0:
256,192,225559,1,0,0:0:0:0:
256,192,225650,1,8,0:0:0:0:
256,192,225831,1,0,0:0:0:0:
256,192,225921,1,8,0:0:0:0:
256,192,226102,1,0,0:0:0:0:
256,192,226192,1,8,0:0:0:0:
256,192,226282,1,8,0:0:0:0:
256,192,226373,1,8,0:0:0:0:
256,192,226463,1,0,0:0:0:0:
256,192,226553,1,8,0:0:0:0:
256,192,226644,1,0,0:0:0:0:
256,192,226704,1,0,0:0:0:0:
256,192,226764,1,8,0:0:0:0:
256,192,226825,1,8,0:0:0:0:
256,192,226885,1,8,0:0:0:0:
256,192,226945,1,8,0:0:0:0:
256,192,227005,1,0,0:0:0:0:
256,192,227096,1,8,0:0:0:0:
256,192,227276,1,8,0:0:0:0:
256,192,227367,1,0,0:0:0:0:
256,192,227547,1,0,0:0:0:0:
256,192,227638,1,8,0:0:0:0:
256,192,227728,1,8,0:0:0:0:
256,192,227819,1,0,0:0:0:0:
256,192,227909,1,0,0:0:0:0:
256,192,227999,1,8,0:0:0:0:
256,192,228090,1,8,0:0:0:0:
256,192,228150,1,0,0:0:0:0:
256,192,228210,1,0,0:0:0:0:
256,192,228270,1,8,0:0:0:0:
256,192,228331,1,8,0:0:0:0:
256,192,228391,1,8,0:0:0:0:
256,192,228451,1,0,0:0:0:0:
256,192,228541,1,0,0:0:0:0:
256,192,228632,1,8,0:0:0:0:
256,192,228692,1,0,0:0:0:0:
256,192,228752,1,0,0:0:0:0:
256,192,228813,1,8,0:0:0:0:
256,192,228993,1,8,0:0:0:0:
256,192,229084,1,0,0:0:0:0:
256,192,229174,1,0,0:0:0:0:
256,192,229264,1,8,0:0:0:0:
256,192,229355,1,8,0:0:0:0:
256,192,229445,1,0,0:0:0:0:
256,192,229535,1,0,0:0:0:0:
256,192,229626,1,0,0:0:0:0:
256,192,229716,1,8,0:0:0:0:
256,192,229897,1,0,0:0:0:0:
256,192,229957,1,8,0:0:0:0:
256,192,230017,1,8,0:0:0:0:
256,192,230078,1,0,0:0:0:0:
256,192,230168,1,0,0:0:0:0:
256,192,230258,1,8,0:0:0:0:
256,192,230349,1,8,0:0:0:0:
256,192,230439,1,4,0:0:0:0:
256,192,230620,1,8,0:0:0:0:
256,192,230710,1,8,0:0:0:0:
256,192,230800,1,0,0:0:0:0:
256,192,230891,1,8,0:0:0:0:
256,192,231072,1,8,0:0:0:0:
256,192,231162,1,0,0:0:0:0:
256,192,231252,1,8,0:0:0:0:
256,192,231433,1,8,0:0:0:0:
256,192,231614,1,0,0:0:0:0:
256,192,231704,1,8,0:0:0:0:
256,192,231794,1,8,0:0:0:0:
256,192,231885,1,0,0:0:0:0:
256,192,232066,1,0,0:0:0:0:
256,192,232156,1,8,0:0:0:0:
256,192,232246,1,0,0:0:0:0:
256,192,232337,1,8,0:0:0:0:
256,192,232517,1,8,0:0:0:0:
256,192,232608,1,0,0:0:0:0:
256,192,232698,1,8,0:0:0:0:
256,192,232788,1,8,0:0:0:0:
256,192,232879,1,8,0:0:0:0:
256,192,233059,1,8,0:0:0:0:
256,192,233150,1,8,0:0:0:0:
256,192,233210,1,8,0:0:0:0:
256,192,233270,1,8,0:0:0:0:
256,192,233331,1,4,0:0:0:0:
256,192,233602,1,4,0:0:0:0:
256,192,233873,1,4,0:0:0:0:
256,192,234144,1,4,0:0:0:0:
256,192,234325,1,4,0:0:0:0:
256,192,234596,1,4,0:0:0:0:
256,192,234776,1,4,0:0:0:0:
256,192,235047,1,4,0:0:0:0:
256,192,235319,1,4,0:0:0:0:
256,192,235590,1,12,0:0:0:0:
256,192,236222,1,0,0:0:0:0:
256,192,236313,1,8,0:0:0:0:
256,192,236403,1,8,0:0:0:0:
256,192,236493,1,8,0:0:0:0:
256,192,236584,1,8,0:0:0:0:
256,192,236674,1,0,0:0:0:0:
256,192,236764,1,8,0:0:0:0:
256,192,236855,1,8,0:0:0:0:
256,192,236945,1,8,0:0:0:0:
256,192,237035,1,8,0:0:0:0:
256,192,237126,1,0,0:0:0:0:
256,192,237216,1,8,0:0:0:0:
256,192,237306,1,8,0:0:0:0:
256,192,237397,1,8,0:0:0:0:
256,192,237487,1,0,0:0:0:0:
256,192,237578,1,8,0:0:0:0:
256,192,237668,1,0,0:0:0:0:
256,192,237758,1,8,0:0:0:0:
256,192,237849,1,8,0:0:0:0:
256,192,237939,1,8,0:0:0:0:
256,192,238029,1,8,0:0:0:0:
256,192,238120,1,0,0:0:0:0:
256,192,238210,1,8,0:0:0:0:
256,192,238300,1,8,0:0:0:0:
256,192,238391,1,8,0:0:0:0:
256,192,238572,1,0,0:0:0:0:
256,192,238752,1,12,0:0:0:0:
256,192,239114,1,0,0:0:0:0:
256,192,239204,1,8,0:0:0:0:
256,192,239294,1,8,0:0:0:0:
256,192,239385,1,0,0:0:0:0:
256,192,239475,1,0,0:0:0:0:
256,192,239566,1,8,0:0:0:0:
256,192,239746,1,0,0:0:0:0:
256,192,239837,1,8,0:0:0:0:
256,192,239927,1,8,0:0:0:0:
256,192,240017,1,0,0:0:0:0:
256,192,240108,1,8,0:0:0:0:
256,192,240198,1,0,0:0:0:0:
256,192,240288,1,0,0:0:0:0:
256,192,240379,1,8,0:0:0:0:
256,192,240559,1,0,0:0:0:0:
256,192,240650,1,8,0:0:0:0:
256,192,240831,1,8,0:0:0:0:
256,192,240921,1,0,0:0:0:0:
256,192,241011,1,0,0:0:0:0:
256,192,241102,1,8,0:0:0:0:
256,192,241192,1,8,0:0:0:0:
256,192,241282,1,0,0:0:0:0:
256,192,241373,1,8,0:0:0:0:
256,192,241553,1,8,0:0:0:0:
256,192,241644,1,0,0:0:0:0:
256,192,241704,1,8,0:0:0:0:
256,192,241764,1,8,0:0:0:0:
256,192,241825,1,0,0:0:0:0:
256,192,241915,1,0,0:0:0:0:
256,192,242005,1,0,0:0:0:0:
256,192,242096,1,8,0:0:0:0:
256,192,242186,1,8,0:0:0:0:
256,192,242276,1,8,0:0:0:0:
256,192,242367,1,8,0:0:0:0:
256,192,242457,1,0,0:0:0:0:
256,192,242547,1,8,0:0:0:0:
256,192,242638,1,8,0:0:0:0:
256,192,242728,1,8,0:0:0:0:
256,192,242819,1,8,0:0:0:0:
256,192,242909,1,0,0:0:0:0:
256,192,242999,1,8,0:0:0:0:
256,192,243090,1,8,0:0:0:0:
256,192,243180,1,8,0:0:0:0:
256,192,243270,1,0,0:0:0:0:
256,192,243361,1,8,0:0:0:0:
256,192,243451,1,0,0:0:0:0:
256,192,243541,1,8,0:0:0:0:
256,192,243632,1,8,0:0:0:0:
256,192,243722,1,8,0:0:0:0:
256,192,243813,1,8,0:0:0:0:
256,192,243903,1,0,0:0:0:0:
256,192,243993,1,8,0:0:0:0:
256,192,244084,1,8,0:0:0:0:
256,192,244174,1,8,0:0:0:0:
256,192,244355,1,0,0:0:0:0:
256,192,244535,1,12,0:0:0:0:
256,192,244897,1,0,0:0:0:0:
256,192,245078,1,8,0:0:0:0:
256,192,245168,1,8,0:0:0:0:
256,192,245258,1,0,0:0:0:0:
256,192,245349,1,8,0:0:0:0:
256,192,245529,1,8,0:0:0:0:
256,192,245620,1,0,0:0:0:0:
256,192,245710,1,8,0:0:0:0:
256,192,245891,1,8,0:0:0:0:
256,192,245981,1,0,0:0:0:0:
256,192,246072,1,0,0:0:0:0:
256,192,246162,1,8,0:0:0:0:
256,192,246252,1,8,0:0:0:0:
256,192,246343,1,0,0:0:0:0:
256,192,246523,1,8,0:0:0:0:
256,192,246614,1,0,0:0:0:0:
256,192,246794,1,0,0:0:0:0:
256,192,246975,1,0,0:0:0:0:
256,192,247066,1,0,0:0:0:0:
256,192,247156,1,8,0:0:0:0:
256,192,247246,1,0,0:0:0:0:
256,192,247337,1,8,0:0:0:0:
256,192,247427,1,8,0:0:0:0:
256,192,247788,1,0,0:0:0:0:
256,192,247879,1,8,0:0:0:0:
256,192,247969,1,8,0:0:0:0:
256,192,248059,1,8,0:0:0:0:
256,192,248150,1,8,0:0:0:0:
256,192,248240,1,0,0:0:0:0:
256,192,248331,1,8,0:0:0:0:
256,192,248421,1,8,0:0:0:0:
256,192,248511,1,8,0:0:0:0:
256,192,248602,1,8,0:0:0:0:
256,192,248692,1,0,0:0:0:0:
256,192,248782,1,8,0:0:0:0:
256,192,248873,1,8,0:0:0:0:
256,192,248963,1,8,0:0:0:0:
256,192,249053,1,0,0:0:0:0:
256,192,249144,1,8,0:0:0:0:
256,192,249234,1,0,0:0:0:0:
256,192,249325,1,8,0:0:0:0:
256,192,249415,1,8,0:0:0:0:
256,192,249505,1,8,0:0:0:0:
256,192,249596,1,8,0:0:0:0:
256,192,249686,1,0,0:0:0:0:
256,192,249776,1,8,0:0:0:0:
256,192,249867,1,8,0:0:0:0:
256,192,249957,1,8,0:0:0:0:
256,192,250138,1,0,0:0:0:0:
256,192,250319,1,12,0:0:0:0:
256,192,250680,1,0,0:0:0:0:
256,192,250770,1,8,0:0:0:0:
256,192,250861,1,8,0:0:0:0:
256,192,250951,1,0,0:0:0:0:
256,192,251041,1,0,0:0:0:0:
256,192,251132,1,8,0:0:0:0:
256,192,251313,1,0,0:0:0:0:
256,192,251403,1,8,0:0:0:0:
256,192,251493,1,8,0:0:0:0:
256,192,251584,1,0,0:0:0:0:
256,192,251674,1,8,0:0:0:0:
256,192,251764,1,0,0:0:0:0:
256,192,251945,1,4,0:0:0:0:
256,192,252306,1,4,0:0:0:0:
256,192,252578,1,4,0:0:0:0:
256,192,252849,1,4,0:0:0:0:
256,192,253120,1,12,0:0:0:0:
256,192,253572,1,4,0:0:0:0:
256,192,253752,1,0,0:0:0:0:
256,192,253843,1,8,0:0:0:0:
256,192,253933,1,0,0:0:0:0:
256,192,254023,1,8,0:0:0:0:
256,192,254114,1,0,0:0:0:0:
256,192,254174,1,8,0:0:0:0:
256,192,254234,1,8,0:0:0:0:
256,192,254294,1,0,0:0:0:0:
256,192,254385,1,0,0:0:0:0:
256,192,254475,1,0,0:0:0:0:
256,192,254566,1,8,0:0:0:0:
256,192,254746,1,0,0:0:0:0:
256,192,254837,1,8,0:0:0:0:
256,192,254927,1,8,0:0:0:0:
256,192,255017,1,4,0:0:0:0:
256,192,255198,1,0,0:0:0:0:
256,192,255288,1,8,0:0:0:0:
256,192,255379,1,0,0:0:0:0:
256,192,255469,1,8,0:0:0:0:
256,192,255559,1,0,0:0:0:0:
256,192,255620,1,8,0:0:0:0:
256,192,255680,1,8,0:0:0:0:
256,192,255740,1,0,0:0:0:0:
256,192,255831,1,0,0:0:0:0:
256,192,255921,1,0,0:0:0:0:
256,192,256011,1,0,0:0:0:0:
256,192,256102,1,8,0:0:0:0:
256,192,256192,1,0,0:0:0:0:
256,192,256282,1,8,0:0:0:0:
256,192,256373,1,8,0:0:0:0:
256,192,256463,1,0,0:0:0:0:
256,192,256644,1,0,0:0:0:0:
256,192,256734,1,0,0:0:0:0:
256,192,256825,1,0,0:0:0:0:
256,192,256915,1,0,0:0:0:0:
256,192,257005,1,0,0:0:0:0:
256,192,257096,1,0,0:0:0:0:
256,192,257186,1,0,0:0:0:0:
256,192,257276,1,0,0:0:0:0:
256,192,257367,1,0,0:0:0:0:
256,192,257457,1,0,0:0:0:0:
256,192,257547,1,8,0:0:0:0:
256,192,257909,1,4,0:0:0:0:
256,192,258180,1,4,0:0:0:0:
256,192,258451,1,4,0:0:0:0:
256,192,258722,1,4,0:0:0:0:
256,192,259174,1,0,0:0:0:0:
256,192,259264,1,0,0:0:0:0:
256,192,259355,1,8,0:0:0:0:
256,192,260439,1,12,0:0:0:0:
256,192,260800,1,4,0:0:0:0:
256,192,260981,1,8,0:0:0:0:
256,192,261072,1,8,0:0:0:0:
256,192,261162,1,8,0:0:0:0:
256,192,261343,1,0,0:0:0:0:
256,192,261523,1,12,0:0:0:0:
256,192,261704,1,8,0:0:0:0:
256,192,261794,1,8,0:0:0:0:
256,192,261885,1,0,0:0:0:0:
256,192,262066,1,8,0:0:0:0:
256,192,262246,1,4,0:0:0:0:
256,192,262427,1,8,0:0:0:0:
256,192,262517,1,8,0:0:0:0:
256,192,262608,1,0,0:0:0:0:
256,192,262788,1,0,0:0:0:0:
256,192,262879,1,0,0:0:0:0:
256,192,262969,1,12,0:0:0:0:
256,192,263150,1,8,0:0:0:0:
256,192,263240,1,8,0:0:0:0:
256,192,263331,1,0,0:0:0:0:
256,192,263391,1,0,0:0:0:0:
256,192,263451,1,0,0:0:0:0:
256,192,263511,1,8,0:0:0:0:
256,192,263692,1,4,0:0:0:0:
256,192,263873,1,8,0:0:0:0:
256,192,263963,1,8,0:0:0:0:
256,192,264053,1,0,0:0:0:0:
256,192,264234,1,8,0:0:0:0:
256,192,264325,1,8,0:0:0:0:
256,192,264415,1,0,0:0:0:0:
256,192,264505,1,8,0:0:0:0:
256,192,264686,1,8,0:0:0:0:
256,192,264776,1,0,0:0:0:0:
256,192,264837,1,0,0:0:0:0:
256,192,264897,1,0,0:0:0:0:
256,192,264957,1,8,0:0:0:0:
256,192,265138,1,4,0:0:0:0:
256,192,265319,1,8,0:0:0:0:
256,192,265409,1,8,0:0:0:0:
256,192,265499,1,0,0:0:0:0:
256,192,265680,1,8,0:0:0:0:
256,192,265770,1,8,0:0:0:0:
256,192,265861,1,0,0:0:0:0:
256,192,265951,1,8,0:0:0:0:
256,192,266041,1,8,0:0:0:0:
256,192,266222,1,0,0:0:0:0:
256,192,266584,1,4,0:0:0:0:
256,192,266764,1,8,0:0:0:0:
256,192,266855,1,8,0:0:0:0:
256,192,266945,1,8,0:0:0:0:
256,192,267126,1,0,0:0:0:0:
256,192,267306,1,12,0:0:0:0:
256,192,267487,1,8,0:0:0:0:
256,192,267578,1,8,0:0:0:0:
256,192,267668,1,0,0:0:0:0:
256,192,267849,1,8,0:0:0:0:
256,192,268029,1,4,0:0:0:0:
256,192,268210,1,8,0:0:0:0:
256,192,268300,1,8,0:0:0:0:
256,192,268391,1,0,0:0:0:0:
256,192,268481,1,0,0:0:0:0:
256,192,268572,1,0,0:0:0:0:
256,192,268662,1,0,0:0:0:0:
256,192,268752,1,12,0:0:0:0:
256,192,268933,1,8,0:0:0:0:
256,192,269023,1,8,0:0:0:0:
256,192,269114,1,0,0:0:0:0:
256,192,269204,1,8,0:0:0:0:
256,192,269294,1,8,0:0:0:0:
256,192,269385,1,8,0:0:0:0:
256,192,269475,1,4,0:0:0:0:
256,192,269656,1,8,0:0:0:0:
256,192,269746,1,8,0:0:0:0:
256,192,269837,1,0,0:0:0:0:
256,192,270017,1,8,0:0:0:0:
256,192,270108,1,8,0:0:0:0:
256,192,270198,1,0,0:0:0:0:
256,192,270288,1,8,0:0:0:0:
256,192,270379,1,8,0:0:0:0:
256,192,270469,1,0,0:0:0:0:
256,192,270529,1,0,0:0:0:0:
256,192,270590,1,0,0:0:0:0:
256,192,270650,1,8,0:0:0:0:
256,192,270740,1,0,0:0:0:0:
256,192,270800,1,8,0:0:0:0:
256,192,270861,1,8,0:0:0:0:
256,192,270921,1,4,0:0:0:0:
256,192,271102,1,8,0:0:0:0:
256,192,271192,1,8,0:0:0:0:
256,192,271282,1,0,0:0:0:0:
256,192,271463,1,0,0:0:0:0:
256,192,271644,1,8,0:0:0:0:
256,192,271734,1,0,0:0:0:0:
256,192,271915,1,8,0:0:0:0:
256,192,272005,1,0,0:0:0:0:
256,192,272096,1,0,0:0:0:0:
256,192,272186,1,8,0:0:0:0:
256,192,272367,1,4,0:0:0:0:
256,192,272547,1,8,0:0:0:0:
256,192,272638,1,8,0:0:0:0:
256,192,272728,1,8,0:0:0:0:
256,192,272909,1,0,0:0:0:0:
256,192,273090,1,12,0:0:0:0:
256,192,273270,1,8,0:0:0:0:
256,192,273361,1,8,0:0:0:0:
256,192,273451,1,0,0:0:0:0:
256,192,273632,1,8,0:0:0:0:
256,192,273813,1,4,0:0:0:0:
256,192,273993,1,8,0:0:0:0:
256,192,274084,1,8,0:0:0:0:
256,192,274174,1,0,0:0:0:0:
256,192,274355,1,0,0:0:0:0:
256,192,274445,1,0,0:0:0:0:
256,192,274535,1,12,0:0:0:0:
256,192,274716,1,8,0:0:0:0:
256,192,274806,1,8,0:0:0:0:
256,192,274897,1,0,0:0:0:0:
256,192,274957,1,0,0:0:0:0:
256,192,275017,1,0,0:0:0:0:
256,192,275078,1,8,0:0:0:0:
256,192,275258,1,4,0:0:0:0:
256,192,275439,1,8,0:0:0:0:
256,192,275529,1,8,0:0:0:0:
256,192,275620,1,0,0:0:0:0:
256,192,275800,1,8,0:0:0:0:
256,192,275891,1,8,0:0:0:0:
256,192,275981,1,0,0:0:0:0:
256,192,276072,1,8,0:0:0:0:
256,192,276252,1,8,0:0:0:0:
256,192,276343,1,0,0:0:0:0:
256,192,276403,1,0,0:0:0:0:
256,192,276463,1,0,0:0:0:0:
256,192,276523,1,8,0:0:0:0:
256,192,276704,1,4,0:0:0:0:
256,192,276885,1,8,0:0:0:0:
256,192,276975,1,8,0:0:0:0:
256,192,277066,1,0,0:0:0:0:
256,192,277246,1,8,0:0:0:0:
256,192,277337,1,8,0:0:0:0:
256,192,277427,1,0,0:0:0:0:
256,192,277517,1,8,0:0:0:0:
256,192,277608,1,8,0:0:0:0:
256,192,277788,1,0,0:0:0:0:
256,192,278150,1,4,0:0:0:0:
256,192,278331,1,8,0:0:0:0:
256,192,278421,1,8,0:0:0:0:
256,192,278511,1,0,0:0:0:0:
256,192,278602,1,8,0:0:0:0:
256,192,278692,1,8,0:0:0:0:
256,192,278752,1,8,0:0:0:0:
256,192,278813,1,8,0:0:0:0:
256,192,278873,1,4,0:0:0:0:
256,192,279053,1,8,0:0:0:0:
256,192,279144,1,8,0:0:0:0:
256,192,279234,1,0,0:0:0:0:
256,192,279325,1,8,0:0:0:0:
256,192,279415,1,8,0:0:0:0:
256,192,279475,1,8,0:0:0:0:
256,192,279535,1,8,0:0:0:0:
256,192,279596,1,4,0:0:0:0:
256,192,279776,1,8,0:0:0:0:
256,192,279867,1,8,0:0:0:0:
256,192,279957,1,0,0:0:0:0:
256,192,280017,1,8,0:0:0:0:
256,192,280078,1,8,0:0:0:0:
256,192,280138,1,8,0:0:0:0:
256,192,280228,1,8,0:0:0:0:
256,192,280319,1,4,0:0:0:0:
256,192,280499,1,8,0:0:0:0:
256,192,280590,1,8,0:0:0:0:
256,192,280680,1,0,0:0:0:0:
256,192,280740,1,8,0:0:0:0:
256,192,280800,1,8,0:0:0:0:
256,192,280861,1,8,0:0:0:0:
256,192,280951,1,8,0:0:0:0:
256,192,281041,1,4,0:0:0:0:
256,192,281222,1,0,0:0:0:0:
256,192,281313,1,0,0:0:0:0:
256,192,281403,1,8,0:0:0:0:
256,192,281493,1,0,0:0:0:0:
256,192,281584,1,8,0:0:0:0:
256,192,281674,1,0,0:0:0:0:
256,192,281764,1,8,0:0:0:0:
256,192,281855,1,0,0:0:0:0:
256,192,281945,1,0,0:0:0:0:
256,192,282035,1,0,0:0:0:0:
256,192,282126,1,12,0:0:0:0:
256,192,282487,1,0,0:0:0:0:
256,192,282578,1,0,0:0:0:0:
256,192,282668,1,8,0:0:0:0:
256,192,282758,1,0,0:0:0:0:
256,192,282849,1,8,0:0:0:0:
256,192,282939,1,8,0:0:0:0:
256,192,283029,1,8,0:0:0:0:
256,192,283120,1,0,0:0:0:0:
256,192,283210,1,0,0:0:0:0:
256,192,283300,1,8,0:0:0:0:
256,192,283391,1,8,0:0:0:0:
256,192,283481,1,0,0:0:0:0:
256,192,283572,1,8,0:0:0:0:
256,192,283662,1,0,0:0:0:0:
256,192,283752,1,8,0:0:0:0:
256,192,283843,1,0,0:0:0:0:
256,192,283933,1,0,0:0:0:0:
256,192,284023,1,0,0:0:0:0:
256,192,284114,1,8,0:0:0:0:
256,192,284204,1,0,0:0:0:0:
256,192,284294,1,0,0:0:0:0:
256,192,284385,1,0,0:0:0:0:
256,192,284475,1,8,0:0:0:0:
256,192,284566,1,0,0:0:0:0:
256,192,284656,1,0,0:0:0:0:
256,192,284746,1,0,0:0:0:0:
256,192,284837,1,8,0:0:0:0:
256,192,284927,1,8,0:0:0:0:
256,192,285017,1,0,0:0:0:0:
256,192,285108,1,0,0:0:0:0:
256,192,285198,1,8,0:0:0:0:
256,192,285288,1,0,0:0:0:0:
256,192,285379,1,8,0:0:0:0:
256,192,285469,1,8,0:0:0:0:
256,192,285559,1,8,0:0:0:0:
256,192,285650,1,0,0:0:0:0:
256,192,285740,1,0,0:0:0:0:
256,192,285831,1,0,0:0:0:0:
256,192,285921,1,8,0:0:0:0:
256,192,286011,1,8,0:0:0:0:
256,192,286102,1,0,0:0:0:0:
256,192,286192,1,0,0:0:0:0:
256,192,286282,1,8,0:0:0:0:
256,192,286373,1,0,0:0:0:0:
256,192,286463,1,8,0:0:0:0:
256,192,286553,1,8,0:0:0:0:
256,192,286644,1,8,0:0:0:0:
256,192,286734,1,0,0:0:0:0:
256,192,286825,1,0,0:0:0:0:
256,192,286915,1,0,0:0:0:0:
256,192,287005,1,8,0:0:0:0:
256,192,287096,1,0,0:0:0:0:
256,192,287186,1,0,0:0:0:0:
256,192,287276,1,0,0:0:0:0:
256,192,287367,1,8,0:0:0:0:
256,192,287427,1,0,0:0:0:0:
256,192,287487,1,0,0:0:0:0:
256,192,287547,1,12,0:0:0:0:
256,192,287819,1,12,0:0:0:0:
256,192,288090,1,12,0:0:0:0:
256,192,288270,1,0,0:0:0:0:
256,192,288451,1,0,0:0:0:0:
256,192,288632,1,8,0:0:0:0:
256,192,288722,1,8,0:0:0:0:
256,192,288813,1,8,0:0:0:0:
256,192,288903,1,0,0:0:0:0:
256,192,288993,1,0,0:0:0:0:
256,192,289084,1,8,0:0:0:0:
256,192,289174,1,8,0:0:0:0:
256,192,289264,1,0,0:0:0:0:
256,192,289355,1,8,0:0:0:0:
256,192,289445,1,0,0:0:0:0:
256,192,289535,1,8,0:0:0:0:
256,192,289626,1,0,0:0:0:0:
256,192,289716,1,0,0:0:0:0:
256,192,289806,1,0,0:0:0:0:
256,192,289897,1,8,0:0:0:0:
256,192,289987,1,0,0:0:0:0:
256,192,290078,1,0,0:0:0:0:
256,192,290168,1,0,0:0:0:0:
256,192,290258,1,8,0:0:0:0:
256,192,290349,1,0,0:0:0:0:
256,192,290439,1,0,0:0:0:0:
256,192,290529,1,0,0:0:0:0:
256,192,290620,1,8,0:0:0:0:
256,192,290710,1,0,0:0:0:0:
256,192,290800,1,8,0:0:0:0:
256,192,290891,1,8,0:0:0:0:
256,192,290981,1,0,0:0:0:0:
256,192,291072,1,0,0:0:0:0:
256,192,291162,1,8,0:0:0:0:
256,192,291252,1,8,0:0:0:0:
256,192,291343,1,8,0:0:0:0:
256,192,291433,1,0,0:0:0:0:
256,192,291523,1,0,0:0:0:0:
256,192,291614,1,0,0:0:0:0:
256,192,291704,1,8,0:0:0:0:
256,192,291794,1,8,0:0:0:0:
256,192,291885,1,0,0:0:0:0:
256,192,291975,1,8,0:0:0:0:
256,192,292066,1,0,0:0:0:0:
256,192,292126,1,0,0:0:0:0:
256,192,292186,1,0,0:0:0:0:
256,192,292246,1,8,0:0:0:0:
256,192,292337,1,8,0:0:0:0:
256,192,292427,1,0,0:0:0:0:
256,192,292517,1,8,0:0:0:0:
256,192,292608,1,0,0:0:0:0:
256,192,292698,1,0,0:0:0:0:
256,192,292788,1,8,0:0:0:0:
256,192,292879,1,0,0:0:0:0:
256,192,292969,1,0,0:0:0:0:
256,192,293059,1,0,0:0:0:0:
256,192,293150,1,8,0:0:0:0:
256,192,293210,1,0,0:0:0:0:
256,192,293270,1,0,0:0:0:0:
256,192,293331,1,8,0:0:0:0:
256,192,293391,1,8,0:0:0:0:
256,192,293451,1,8,0:0:0:0:
256,192,293511,1,0,0:0:0:0:
256,192,293602,1,8,0:0:0:0:
256,192,293692,1,0,0:0:0:0:
256,192,293782,1,8,0:0:0:0:
256,192,293873,1,8,0:0:0:0:
256,192,294053,1,0,0:0:0:0:
256,192,294114,1,8,0:0:0:0:
256,192,294174,1,8,0:0:0:0:
256,192,294234,1,8,0:0:0:0:
256,192,294325,1,0,0:0:0:0:
256,192,294385,1,8,0:0:0:0:
256,192,294445,1,8,0:0:0:0:
256,192,294505,1,8,0:0:0:0:
256,192,294596,1,0,0:0:0:0:
256,192,294686,1,0,0:0:0:0:
256,192,294776,1,8,0:0:0:0:
256,192,294867,1,0,0:0:0:0:
256,192,294957,1,0,0:0:0:0:
256,192,295047,1,0,0:0:0:0:
256,192,295138,1,8,0:0:0:0:
256,192,295198,1,8,0:0:0:0:
256,192,295258,1,8,0:0:0:0:
256,192,295319,1,8,0:0:0:0:
256,192,295409,1,8,0:0:0:0:
256,192,295499,1,8,0:0:0:0:
256,192,295680,1,8,0:0:0:0:
256,192,295861,1,8,0:0:0:0:
256,192,296041,1,8,0:0:0:0:
256,192,296222,1,8,0:0:0:0:
256,192,296403,1,8,0:0:0:0:
256,192,296493,1,0,0:0:0:0:
256,192,296584,1,8,0:0:0:0:
256,192,296674,1,8,0:0:0:0:
256,192,296764,1,8,0:0:0:0:
256,192,296855,1,8,0:0:0:0:
256,192,296945,1,0,0:0:0:0:
256,192,297035,1,8,0:0:0:0:
256,192,297126,1,8,0:0:0:0:
256,192,297216,1,0,0:0:0:0:
256,192,297306,1,8,0:0:0:0:
256,192,297397,1,8,0:0:0:0:
256,192,297487,1,0,0:0:0:0:
256,192,297578,1,0,0:0:0:0:
256,192,297668,1,8,0:0:0:0:
256,192,297758,1,0,0:0:0:0:
256,192,297849,1,8,0:0:0:0:
256,192,297939,1,8,0:0:0:0:
256,192,298029,1,8,0:0:0:0:
256,192,298090,1,8,0:0:0:0:
256,192,298150,1,8,0:0:0:0:
256,192,298210,1,8,0:0:0:0:
256,192,298300,1,8,0:0:0:0:
256,192,298391,1,8,0:0:0:0:
256,192,298572,1,8,0:0:0:0:
256,192,298752,1,8,0:0:0:0:
256,192,298933,1,8,0:0:0:0:
256,192,299114,1,8,0:0:0:0:
256,192,299294,8,8,299656,0:0:0:0:
256,192,299837,5,0,0:0:0:0:
256,192,299927,1,8,0:0:0:0:
256,192,300017,1,8,0:0:0:0:
256,192,300108,1,0,0:0:0:0:
256,192,300198,1,8,0:0:0:0:
256,192,300288,1,8,0:0:0:0:
256,192,300379,1,0,0:0:0:0:
256,192,300469,1,0,0:0:0:0:
256,192,300559,1,8,0:0:0:0:
256,192,300650,1,0,0:0:0:0:
256,192,300740,1,0,0:0:0:0:
256,192,300831,1,0,0:0:0:0:
256,192,300921,1,8,0:0:0:0:
256,192,300981,1,8,0:0:0:0:
256,192,301041,1,8,0:0:0:0:
256,192,301102,1,8,0:0:0:0:
256,192,301192,1,8,0:0:0:0:
256,192,301282,1,8,0:0:0:0:
256,192,301463,1,8,0:0:0:0:
256,192,301644,1,8,0:0:0:0:
256,192,301825,1,8,0:0:0:0:
256,192,302005,1,8,0:0:0:0:
256,192,302186,1,8,0:0:0:0:
256,192,302276,1,0,0:0:0:0:
256,192,302367,1,8,0:0:0:0:
256,192,302457,1,8,0:0:0:0:
256,192,302547,1,8,0:0:0:0:
256,192,302638,1,8,0:0:0:0:
256,192,302728,1,4,0:0:0:0:
256,192,302999,1,12,0:0:0:0:
256,192,303270,1,4,0:0:0:0:
256,192,303541,1,4,0:0:0:0:
256,192,303813,1,12,0:0:0:0:
256,192,307066,1,0,0:0:0:0:
256,192,307156,1,0,0:0:0:0:
256,192,307246,1,8,0:0:0:0:
256,192,307337,1,0,0:0:0:0:
256,192,307427,1,0,0:0:0:0:
256,192,307517,1,0,0:0:0:0:
256,192,307608,1,8,0:0:0:0:
256,192,307698,1,0,0:0:0:0:
256,192,307788,1,0,0:0:0:0:
256,192,307849,1,0,0:0:0:0:
256,192,307909,1,0,0:0:0:0:
256,192,307969,1,8,0:0:0:0:
256,192,308059,1,0,0:0:0:0:
256,192,308150,1,0,0:0:0:0:
256,192,308210,1,0,0:0:0:0:
256,192,308270,1,0,0:0:0:0:
256,192,308331,1,8,0:0:0:0:
256,192,308421,1,0,0:0:0:0:
256,192,308511,1,8,0:0:0:0:
256,192,308572,1,8,0:0:0:0:
256,192,308632,1,8,0:0:0:0:
256,192,308692,1,0,0:0:0:0:
256,192,308752,1,0,0:0:0:0:
256,192,308813,1,0,0:0:0:0:
256,192,308873,1,8,0:0:0:0:
256,192,308933,1,0,0:0:0:0:
256,192,308993,1,0,0:0:0:0:
256,192,309053,1,8,0:0:0:0:
256,192,309114,1,8,0:0:0:0:
256,192,309174,1,8,0:0:0:0:
256,192,309234,1,0,0:0:0:0:
256,192,309596,1,12,0:0:0:0:
256,192,309957,1,0,0:0:0:0:
256,192,310047,1,0,0:0:0:0:
256,192,310138,1,8,0:0:0:0:
256,192,310183,1,8,0:0:0:0:
256,192,310228,1,8,0:0:0:0:
256,192,310319,1,0,0:0:0:0:
256,192,310409,1,8,0:0:0:0:
256,192,310454,1,8,0:0:0:0:
256,192,310499,1,8,0:0:0:0:
256,192,310590,1,0,0:0:0:0:
256,192,310680,1,8,0:0:0:0:
256,192,310725,1,8,0:0:0:0:
256,192,310770,1,8,0:0:0:0:
256,192,310861,1,0,0:0:0:0:
256,192,310951,1,8,0:0:0:0:
256,192,310996,1,8,0:0:0:0:
256,192,311041,1,8,0:0:0:0:
256,192,311132,1,0,0:0:0:0:
256,192,311222,1,8,0:0:0:0:
256,192,311267,1,8,0:0:0:0:
256,192,311313,1,8,0:0:0:0:
256,192,311403,1,0,0:0:0:0:
256,192,311538,1,0,0:0:0:0:
256,192,311674,1,0,0:0:0:0:
256,192,311719,1,0,0:0:0:0:
256,192,311764,1,8,0:0:0:0:
256,192,311855,1,0,0:0:0:0:
256,192,311945,1,8,0:0:0:0:
256,192,311990,1,8,0:0:0:0:
256,192,312035,1,8,0:0:0:0:
256,192,312126,1,0,0:0:0:0:
256,192,312216,1,8,0:0:0:0:
256,192,312261,1,8,0:0:0:0:
256,192,312306,1,8,0:0:0:0:
256,192,312397,1,0,0:0:0:0:
256,192,312487,1,8,0:0:0:0:
256,192,312849,1,0,0:0:0:0:
256,192,312939,1,0,0:0:0:0:
256,192,313029,1,8,0:0:0:0:
256,192,313075,1,8,0:0:0:0:
256,192,313120,1,0,0:0:0:0:
256,192,313210,1,0,0:0:0:0:
256,192,313300,1,8,0:0:0:0:
256,192,313346,1,8,0:0:0:0:
256,192,313391,1,0,0:0:0:0:
256,192,313481,1,0,0:0:0:0:
256,192,313572,1,8,0:0:0:0:
256,192,313617,1,8,0:0:0:0:
256,192,313662,1,0,0:0:0:0:
256,192,313752,1,0,0:0:0:0:
256,192,313843,1,8,0:0:0:0:
256,192,313888,1,8,0:0:0:0:
256,192,313933,1,0,0:0:0:0:
256,192,314023,1,0,0:0:0:0:
256,192,314114,1,8,0:0:0:0:
256,192,314159,1,8,0:0:0:0:
256,192,314204,1,0,0:0:0:0:
256,192,314294,1,0,0:0:0:0:
256,192,314430,1,0,0:0:0:0:
256,192,314566,1,8,0:0:0:0:
256,192,314611,1,8,0:0:0:0:
256,192,314656,1,0,0:0:0:0:
256,192,314791,1,0,0:0:0:0:
256,192,314927,1,8,0:0:0:0:
256,192,314972,1,0,0:0:0:0:
256,192,315017,1,0,0:0:0:0:
256,192,315198,1,0,0:0:0:0:
256,192,315288,1,8,0:0:0:0:
256,192,315469,1,0,0:0:0:0:
256,192,315559,1,8,0:0:0:0:
256,192,315650,1,8,0:0:0:0:
256,192,315740,1,4,0:0:0:0:
256,192,315921,1,8,0:0:0:0:
256,192,315966,1,8,0:0:0:0:
256,192,316011,1,8,0:0:0:0:
256,192,316102,1,0,0:0:0:0:
256,192,316192,1,8,0:0:0:0:
256,192,316237,1,8,0:0:0:0:
256,192,316282,1,8,0:0:0:0:
256,192,316373,1,0,0:0:0:0:
256,192,316463,1,8,0:0:0:0:
256,192,316508,1,8,0:0:0:0:
256,192,316553,1,8,0:0:0:0:
256,192,316644,1,0,0:0:0:0:
256,192,316734,1,8,0:0:0:0:
256,192,316779,1,8,0:0:0:0:
256,192,316825,1,8,0:0:0:0:
256,192,316915,1,0,0:0:0:0:
256,192,317005,1,8,0:0:0:0:
256,192,317050,1,8,0:0:0:0:
256,192,317096,1,8,0:0:0:0:
256,192,317186,1,0,0:0:0:0:
256,192,317322,1,0,0:0:0:0:
256,192,317457,1,0,0:0:0:0:
256,192,317502,1,0,0:0:0:0:
256,192,317547,1,8,0:0:0:0:
256,192,317638,1,0,0:0:0:0:
256,192,317728,1,8,0:0:0:0:
256,192,317773,1,8,0:0:0:0:
256,192,317819,1,8,0:0:0:0:
256,192,317909,1,0,0:0:0:0:
256,192,317999,1,8,0:0:0:0:
256,192,318044,1,8,0:0:0:0:
256,192,318090,1,8,0:0:0:0:
256,192,318180,1,0,0:0:0:0:
256,192,318270,1,8,0:0:0:0:
256,192,318451,1,8,0:0:0:0:
256,192,318541,1,8,0:0:0:0:
256,192,318632,1,0,0:0:0:0:
256,192,318722,1,0,0:0:0:0:
256,192,318813,1,8,0:0:0:0:
256,192,318858,1,8,0:0:0:0:
256,192,318903,1,0,0:0:0:0:
256,192,318993,1,0,0:0:0:0:
256,192,319084,1,8,0:0:0:0:
256,192,319129,1,8,0:0:0:0:
256,192,319174,1,0,0:0:0:0:
256,192,319264,1,0,0:0:0:0:
256,192,319355,1,8,0:0:0:0:
256,192,319445,1,0,0:0:0:0:
256,192,319535,1,8,0:0:0:0:
256,192,319581,1,8,0:0:0:0:
256,192,319626,1,0,0:0:0:0:
256,192,319716,1,0,0:0:0:0:
256,192,319806,1,8,0:0:0:0:
256,192,319852,1,8,0:0:0:0:
256,192,319897,1,0,0:0:0:0:
256,192,319987,1,0,0:0:0:0:
256,192,320078,1,8,0:0:0:0:
256,192,320123,1,0,0:0:0:0:
256,192,320168,1,0,0:0:0:0:
256,192,320258,1,8,0:0:0:0:
256,192,320303,1,8,0:0:0:0:
256,192,320349,1,0,0:0:0:0:
256,192,320439,1,8,0:0:0:0:
256,192,320484,1,0,0:0:0:0:
256,192,320529,1,0,0:0:0:0:
256,192,320620,1,8,0:0:0:0:
256,192,320665,1,8,0:0:0:0:
256,192,320710,1,0,0:0:0:0:
256,192,320755,1,0,0:0:0:0:
256,192,320800,1,0,0:0:0:0:
256,192,321523,1,12,0:0:0:0:
256,192,321794,1,0,0:0:0:0:
256,192,322066,1,0,0:0:0:0:
256,192,322337,1,0,0:0:0:0:
256,192,322608,1,0,0:0:0:0:
256,192,322969,1,0,0:0:0:0:
256,192,323240,1,0,0:0:0:0:
256,192,323511,1,0,0:0:0:0:
256,192,323782,1,0,0:0:0:0:
256,192,324053,1,0,0:0:0:0:
256,192,324234,1,8,0:0:0:0:
256,192,324415,1,0,0:0:0:0:
256,192,324686,1,0,0:0:0:0:
256,192,324957,1,0,0:0:0:0:
256,192,325228,1,0,0:0:0:0:
256,192,325499,1,0,0:0:0:0:
256,192,325861,1,0,0:0:0:0:
256,192,326132,1,0,0:0:0:0:
256,192,326403,1,0,0:0:0:0:
256,192,326674,1,0,0:0:0:0:
256,192,326945,1,0,0:0:0:0:
256,192,327126,1,8,0:0:0:0:
256,192,327306,1,0,0:0:0:0:
256,192,327578,1,0,0:0:0:0:
256,192,327849,1,0,0:0:0:0:
256,192,328120,1,0,0:0:0:0:
256,192,328391,1,0,0:0:0:0:
256,192,328752,1,0,0:0:0:0:
256,192,329023,1,0,0:0:0:0:
256,192,329294,1,0,0:0:0:0:
256,192,329566,1,0,0:0:0:0:
256,192,329837,1,0,0:0:0:0:
256,192,330017,1,8,0:0:0:0:
256,192,330198,1,0,0:0:0:0:
256,192,330469,1,0,0:0:0:0:
256,192,330740,1,0,0:0:0:0:
256,192,331011,1,0,0:0:0:0:
256,192,331282,1,0,0:0:0:0:
256,192,331644,1,0,0:0:0:0:
256,192,331915,1,0,0:0:0:0:
256,192,332186,1,0,0:0:0:0:
256,192,332457,1,0,0:0:0:0:
256,192,332728,1,0,0:0:0:0:
256,192,332909,1,8,0:0:0:0:
