osu file format v14

[General]
AudioFilename: audio.mp3
AudioLeadIn: 0
PreviewTime: 127595
Countdown: 0
SampleSet: Normal
StackLeniency: 0.7
Mode: 3
LetterboxInBreaks: 0
SpecialStyle: 0
WidescreenStoryboard: 1

[Editor]
Bookmarks: 6795,32395,64395,89995,102795,125195,128395,152395
DistanceSpacing: 0.8
BeatDivisor: 8
GridSize: 8
TimelineZoom: 2

[Metadata]
Title:Alone intelligence
TitleUnicode:Alone intelligence
Artist:Camellia
ArtistUnicode:かめりあ
Creator:guden
Version:mint's Insane
Source:osu!
Tags:-mint- qqqant itzuaka cametek kamelcamellia かめるかめりあ heart of android featured artist fa comiket c95 ctcd-018 electronic instrumental comic market hardcore techno melodic dubstep bass dance music
BeatmapID:2639588
BeatmapSetID:1235533

[Difficulty]
HPDrainRate:8
CircleSize:4
OverallDifficulty:7.3
ApproachRate:5
SliderMultiplier:1.4
SliderTickRate:1

[Events]
//Background and Video events
0,0,"79638998_p0.jpg",0,0
//Break Periods
//Storyboard Layer 0 (Background)
//Storyboard Layer 1 (Fail)
//Storyboard Layer 2 (Pass)
//Storyboard Layer 3 (Foreground)
//Storyboard Layer 4 (Overlay)
//Storyboard Sound Samples
Sample,166677,0,"tom03.wav",30
Sample,181577,0,"tom01.wav",30

[TimingPoints]
1977,400,4,1,1,30,1,0
6377,-100,4,1,1,20,0,0
32377,-100,4,1,1,25,0,0
61177,-100,4,1,1,30,0,0
102777,-100,4,2,1,30,0,1
115577,-100,4,2,1,30,0,0
115977,-100,4,2,1,30,0,1
127577,-100,4,1,1,30,0,0
131577,-100,4,2,1,30,0,0
135577,-100,4,1,1,30,0,0
138092,-100,4,2,1,30,0,0
140377,-100,4,1,1,30,0,0
144377,-100,4,2,1,30,0,0
147777,-100,4,2,1,10,0,0
148377,-100,4,2,1,15,0,0
149177,-100,4,2,1,20,0,0
150777,-100,4,2,1,25,0,0
153977,-100,4,1,1,30,0,0
167177,-100,4,2,1,30,0,0
188752,-100,4,2,1,20,0,0
196399,410.958904109589,4,1,1,20,1,0
196399,-97.0873786407767,4,1,1,20,0,0
197220,422.535211267606,4,1,1,20,1,0
197220,-94.3396226415094,4,1,1,20,0,0
198065,431.654676258993,4,1,1,20,1,0
198065,-92.5925925925926,4,1,1,20,0,0
198928,444.444444444444,4,1,1,20,1,0
198928,-90.0900900900901,4,1,1,20,0,0
199816,454.545454545455,4,1,1,20,1,0
199816,-87.719298245614,4,1,1,20,0,0
200270,461.538461538462,4,1,1,20,1,0
200270,-86.9565217391304,4,1,1,20,0,0
200731,472.44094488189,4,1,1,20,1,0
200731,-84.7457627118644,4,1,1,20,0,0
200967,487.80487804878,4,1,1,20,1,0
200967,-81.9672131147541,4,1,1,20,0,0
201210,521.739130434783,4,1,1,20,1,0
201210,-76.9230769230769,4,1,1,20,0,0
201470,545.454545454546,4,1,1,20,1,0
201470,-73.5294117647059,4,1,1,20,0,0
201742,600,4,1,1,20,1,0
201742,-66.6666666666667,4,1,1,20,0,0
202042,645.161290322581,4,1,1,20,1,0
202042,-62.111801242236,4,1,1,20,0,0
202364,666.666666666667,4,1,1,20,1,0
202364,-59.8802395209581,4,1,1,20,0,0

[HitObjects]
448,192,6377,5,0,0:0:0:0:
64,192,6677,1,0,0:0:0:0:
192,192,6777,1,0,0:0:0:40:bel.wav
64,192,7977,1,0,0:0:0:0:
192,192,8310,1,0,0:0:0:0:
320,192,8377,1,0,0:0:0:0:
192,192,9577,1,0,0:0:0:0:
64,192,9910,1,0,0:0:0:0:
320,192,9977,1,0,0:0:0:0:
64,192,10177,1,0,0:0:0:0:
448,192,10377,1,0,0:0:0:0:
320,192,10577,1,0,0:0:0:0:
448,192,11377,1,0,0:0:0:0:
320,192,11443,1,0,0:0:0:0:
192,192,11510,1,0,0:0:0:0:
64,192,11577,1,0,0:0:0:0:
448,192,12777,1,0,0:0:0:0:
64,192,13077,1,0,0:0:0:0:
192,192,13177,1,0,0:0:0:0:
64,192,14377,1,0,0:0:0:0:
192,192,14710,1,0,0:0:0:0:
320,192,14777,1,0,0:0:0:0:
192,192,15977,1,0,0:0:0:0:
448,192,16277,1,0,0:0:0:0:
320,192,16377,1,0,0:0:0:0:
448,192,17977,1,0,0:0:0:0:
192,192,18077,1,0,0:0:0:0:
64,192,18777,1,0,0:0:0:0:
448,192,18852,1,0,0:0:0:0:
320,192,19277,1,0,0:0:0:0:
64,192,19427,1,0,0:0:0:0:
192,192,19577,1,0,0:0:0:0:
320,192,19610,1,0,0:0:0:0:
64,192,20777,1,0,0:0:0:0:
192,192,21110,1,0,0:0:0:0:
320,192,21177,1,0,0:0:0:0:
192,192,22377,1,0,0:0:0:0:
64,192,22777,1,0,0:0:0:0:
448,192,22977,1,0,0:0:0:0:
192,192,23177,1,0,0:0:0:0:
448,192,23577,1,0,0:0:0:0:
320,192,23777,1,0,0:0:0:0:
192,192,23977,1,0,0:0:0:0:
64,192,24377,1,0,0:0:0:0:
192,192,24577,1,0,0:0:0:0:
320,192,24777,1,0,0:0:0:0:
64,192,24977,1,0,0:0:0:0:
448,192,25177,1,0,0:0:0:0:
192,192,25977,1,0,0:0:0:0:
64,192,26177,1,0,0:0:0:0:
448,192,26377,1,0,0:0:0:0:
192,192,26577,1,0,0:0:0:0:
320,192,26777,1,0,0:0:0:0:
192,192,26977,1,0,0:0:0:0:
320,192,27177,1,0,0:0:0:0:
192,192,27377,1,0,0:0:0:0:
320,192,27577,1,0,0:0:0:0:
192,192,27777,1,0,0:0:0:0:
320,192,27977,1,0,0:0:0:0:
192,192,28177,1,0,0:0:0:0:
448,192,28377,1,0,0:0:0:0:
192,192,28577,1,0,0:0:0:0:
320,192,28777,1,0,0:0:0:0:
192,192,28977,1,0,0:0:0:0:
64,192,29177,1,0,0:0:0:0:
320,192,29377,1,0,0:0:0:0:
192,192,29577,1,0,0:0:0:0:
64,192,29777,1,0,0:0:0:0:
448,192,29977,1,0,0:0:0:0:
64,192,30177,1,0,0:0:0:0:
448,192,30377,1,0,0:0:0:0:
64,192,30577,1,0,0:0:0:0:
320,192,30777,1,0,0:0:0:0:
64,192,30977,1,0,0:0:0:0:
192,192,31077,1,0,0:0:0:0:
320,192,31177,1,0,0:0:0:0:
192,192,31377,1,0,0:0:0:0:
320,192,31527,1,0,0:0:0:0:
64,192,31577,128,0,32377:0:0:0:0:
192,192,31777,1,0,0:0:0:0:
448,192,32027,128,0,32227:0:0:0:0:
320,192,32377,1,0,0:0:0:40:bel.wav
192,192,32477,128,0,32677:0:0:0:0:
448,192,32777,1,0,0:0:0:0:
64,192,32977,1,0,0:0:0:0:
192,192,33127,1,0,0:0:0:0:
448,192,33177,1,0,0:0:0:0:
320,192,33377,1,0,0:0:0:0:
64,192,33627,128,0,33827:0:0:0:0:
192,192,33977,1,0,0:0:0:0:
320,192,34027,128,0,34227:0:0:0:0:
448,192,34377,1,0,0:0:0:0:
192,192,34577,1,0,0:0:0:0:
320,192,34727,1,0,0:0:0:0:
64,192,34777,1,0,0:0:0:0:
192,192,34977,1,0,0:0:0:0:
448,192,35177,1,0,0:0:0:0:
192,192,35277,128,0,35477:0:0:0:0:
64,192,35577,1,0,0:0:0:0:
320,192,35677,128,0,35877:0:0:0:0:
448,192,35977,1,0,0:0:0:0:
64,192,36177,1,0,0:0:0:0:
192,192,36327,1,0,0:0:0:0:
448,192,36377,1,0,0:0:0:0:
64,192,36577,1,0,0:0:0:0:
320,192,36777,1,0,0:0:0:0:
192,192,37177,1,0,0:0:0:0:
448,192,37377,1,0,0:0:0:0:
448,192,37577,1,0,0:0:0:0:
192,192,37777,1,0,0:0:0:0:
320,192,37927,1,0,0:0:0:0:
64,192,37977,1,0,0:0:0:0:
448,192,38177,1,0,0:0:0:0:
192,192,38377,1,0,0:0:0:0:
448,192,38477,128,0,38677:0:0:0:0:
320,192,38777,1,0,0:0:0:0:
192,192,38877,128,0,39077:0:0:0:0:
448,192,39177,1,0,0:0:0:0:
64,192,39377,1,0,0:0:0:0:
192,192,39527,1,0,0:0:0:0:
448,192,39577,1,0,0:0:0:0:
320,192,39777,1,0,0:0:0:0:
64,192,40027,128,0,40227:0:0:0:0:
192,192,40377,1,0,0:0:0:0:
320,192,40427,128,0,40627:0:0:0:0:
64,192,40777,1,0,0:0:0:0:
448,192,40977,1,0,0:0:0:0:
320,192,41127,1,0,0:0:0:0:
64,192,41177,1,0,0:0:0:0:
192,192,41377,1,0,0:0:0:0:
448,192,41577,1,0,0:0:0:0:
192,192,41677,128,0,41877:0:0:0:0:
320,192,41977,128,0,42177:0:0:0:0:
64,192,42377,1,0,0:0:0:0:
320,192,42577,1,0,0:0:0:0:
192,192,42727,1,0,0:0:0:0:
448,192,42777,1,0,0:0:0:0:
64,192,42977,1,0,0:0:0:0:
320,192,43177,1,0,0:0:0:0:
192,192,43577,1,0,0:0:0:0:
448,192,43627,128,0,43827:0:0:0:0:
64,192,43777,1,0,0:0:0:0:
64,192,43977,1,0,0:0:0:0:
448,192,44177,1,0,0:0:0:0:
320,192,44327,1,0,0:0:0:0:
64,192,44377,1,0,0:0:0:0:
192,192,44427,128,0,44627:0:0:0:0:
192,192,44777,1,0,0:0:0:0:
320,192,44877,1,0,0:0:0:0:
64,192,45027,1,0,0:0:0:0:
320,192,45177,1,0,0:0:0:0:
192,192,45277,128,0,45477:0:0:0:0:
448,192,45577,1,0,0:0:0:0:
64,192,45777,1,0,0:0:0:0:
192,192,45927,1,0,0:0:0:0:
448,192,45977,1,0,0:0:0:0:
320,192,46177,1,0,0:0:0:0:
64,192,46427,128,0,46627:0:0:0:0:
192,192,46777,1,0,0:0:0:0:
320,192,46827,128,0,47027:0:0:0:0:
448,192,47177,1,0,0:0:0:0:
192,192,47377,1,0,0:0:0:0:
320,192,47527,1,0,0:0:0:0:
64,192,47577,1,0,0:0:0:0:
192,192,47777,1,0,0:0:0:0:
448,192,47977,1,0,0:0:0:0:
192,192,48077,128,0,48277:0:0:0:0:
64,192,48377,1,0,0:0:0:0:
320,192,48443,128,0,48643:0:0:0:0:
64,192,48777,1,0,0:0:0:0:
320,192,48977,1,0,0:0:0:0:
192,192,49127,1,0,0:0:0:0:
448,192,49177,1,0,0:0:0:0:
64,192,49227,128,0,49427:0:0:0:0:
320,192,49377,1,0,0:0:0:0:
448,192,49577,1,0,0:0:0:0:
192,192,49977,1,0,0:0:0:0:
448,192,50077,128,0,50277:0:0:0:0:
192,192,50377,1,0,0:0:0:0:
448,192,50577,1,0,0:0:0:0:
320,192,50727,1,0,0:0:0:0:
64,192,50777,1,0,0:0:0:0:
192,192,50877,128,0,51077:0:0:0:0:
448,192,50977,1,0,0:0:0:0:
320,192,51177,1,0,0:0:0:0:
448,192,51577,1,0,0:0:0:0:
64,192,51727,128,0,51927:0:0:0:0:
192,192,52327,1,0,0:0:0:0:
448,192,52377,1,0,0:0:0:0:
64,192,53177,1,0,0:0:0:0:
192,192,53227,1,0,0:0:0:0:
448,192,53577,1,0,0:0:0:0:
320,192,53927,1,0,0:0:0:0:
64,192,53977,128,0,54777:0:0:0:0:
192,192,54377,128,0,54777:0:0:0:0:
448,192,54777,1,0,0:0:0:0:
320,192,54827,128,0,55027:0:0:0:0:
192,192,55527,1,0,0:0:0:0:
448,192,55577,128,0,55777:0:0:0:0:
192,192,56377,1,0,0:0:0:0:
320,192,56427,1,0,0:0:0:0:
64,192,56577,1,0,0:0:0:0:
64,192,56777,1,0,0:0:0:0:
320,192,57127,1,0,0:0:0:0:
64,192,57177,128,0,57977:0:0:0:0:
192,192,57577,128,0,57977:0:0:0:0:
320,192,57977,1,0,0:0:0:0:
64,192,58077,128,0,58277:0:0:0:0:
192,192,58727,1,0,0:0:0:0:
448,192,58777,128,0,58977:0:0:0:0:
64,192,59577,1,0,0:0:0:0:
192,192,59627,1,0,0:0:0:0:
320,192,60327,1,0,0:0:0:0:
64,192,60377,1,0,0:0:0:0:
448,192,61177,128,0,61977:0:0:0:0:
320,192,61977,1,0,0:0:0:0:
192,192,62043,1,0,0:0:0:0:
64,192,62110,1,0,0:0:0:0:
448,192,62177,1,0,0:0:0:0:
192,192,62243,1,0,0:0:0:0:
320,192,62310,1,0,0:0:0:0:
64,192,62377,128,0,62777:0:0:0:0:
448,192,62577,128,0,62977:0:0:0:0:
192,192,62777,128,0,63577:0:0:0:0:
64,192,62977,128,0,63377:0:0:0:0:
320,192,63177,128,0,63577:0:0:0:0:
448,192,63377,128,0,63577:0:0:0:0:
64,192,63577,128,0,63977:0:0:0:0:
448,192,63977,128,0,64377:0:0:0:0:
64,192,64377,128,2,64977:0:0:0:0:
192,192,64377,128,4,65177:0:0:0:0:
320,192,64377,128,0,64977:0:0:0:0:
448,192,64977,128,0,65177:0:0:0:0:
64,192,65177,1,8,0:0:0:0:
320,192,65177,1,0,0:0:0:0:
192,192,65377,1,0,0:0:0:30:tom04.wav
320,192,65477,1,0,0:0:0:0:
448,192,65577,1,0,0:0:0:0:
192,192,65677,128,0,65777:0:0:0:0:
64,192,65777,128,4,66577:0:0:0:0:
320,192,65777,128,2,66777:0:0:0:0:
448,192,65777,128,0,66577:0:0:0:0:
192,192,66577,128,0,66777:0:0:0:0:
64,192,66777,1,8,0:0:0:0:
448,192,66777,1,0,0:0:0:0:
192,192,66977,128,0,67077:0:0:0:0:
320,192,67077,128,0,67227:0:0:0:0:
64,192,67277,128,0,67377:0:0:0:0:
192,192,67377,128,4,67977:0:0:0:0:
320,192,67377,128,2,68377:0:0:0:0:
448,192,67377,128,0,67977:0:0:0:0:
64,192,67977,128,0,68377:0:0:0:0:
192,192,68377,1,8,0:0:0:0:
448,192,68377,1,0,0:0:0:0:
64,192,68577,128,0,68677:0:0:0:0:
320,192,68677,128,0,68777:0:0:0:0:
192,192,68877,128,0,69077:0:0:0:30:tom03.wav
448,192,69077,1,0,0:0:0:0:
64,192,69177,1,2,0:0:0:0:
192,192,69177,1,0,0:0:0:0:
320,192,69277,128,0,69477:0:0:0:30:tom02.wav
64,192,69477,1,0,0:0:0:30:tom01.wav
320,192,69577,1,2,0:0:0:0:
448,192,69577,1,0,0:0:0:0:
192,192,69677,128,0,69877:0:0:0:30:tom02.wav
448,192,69877,1,0,0:0:0:30:tom01.wav
64,192,69977,1,8,0:0:0:0:
320,192,69977,1,0,0:0:0:0:
192,192,70177,1,0,0:0:0:30:tom03.wav
64,192,70243,1,0,0:0:0:0:
448,192,70310,1,0,0:0:0:0:
320,192,70377,1,0,0:0:0:30:tom02.wav
192,192,70510,1,0,0:0:0:30:tom03.wav
448,192,70643,1,0,0:0:0:30:tom04.wav
64,192,70777,128,4,71127:0:0:0:0:
192,192,70777,128,2,71127:0:0:0:0:
320,192,70777,128,0,71377:0:0:0:0:
192,192,71277,128,0,71577:0:0:0:0:
448,192,71377,128,0,71577:0:0:0:0:
64,192,71577,1,8,0:0:0:0:
320,192,71577,1,0,0:0:0:0:
320,192,71777,1,0,0:0:0:30:tom02.wav
192,192,71877,1,0,0:0:0:0:
448,192,71977,1,0,0:0:0:30:tom03.wav
64,192,72077,128,0,72177:0:0:0:30:tom03.wav
192,192,72177,128,4,72977:0:0:0:0:
320,192,72177,128,2,73177:0:0:0:0:
448,192,72177,128,0,72977:0:0:0:0:
64,192,72977,128,0,73177:0:0:0:0:
192,192,73177,1,8,0:0:0:0:
448,192,73177,1,0,0:0:0:0:
320,192,73277,1,0,0:0:0:30:tom02.wav
192,192,73377,1,0,0:0:0:0:
448,192,73477,128,0,73627:0:0:0:0:
192,192,73677,128,0,73777:0:0:0:0:
64,192,73777,128,4,73977:0:0:0:0:
320,192,73777,128,2,74777:0:0:0:0:
448,192,73777,128,0,74377:0:0:0:0:
64,192,74177,1,2,0:0:0:0:
192,192,74177,1,0,0:0:0:0:
64,192,74377,1,2,0:0:0:0:
192,192,74377,128,0,74777:0:0:0:0:
64,192,74777,1,8,0:0:0:0:
448,192,74777,1,0,0:0:0:0:
320,192,74910,1,0,0:0:0:0:
192,192,75043,1,0,0:0:0:0:
64,192,75177,1,0,0:0:0:0:
320,192,75310,1,0,0:0:0:0:
192,192,75443,1,0,0:0:0:0:
64,192,75577,128,2,75777:0:0:0:0:
320,192,75577,128,0,75977:0:0:0:0:
448,192,75577,128,0,76177:0:0:0:0:
64,192,75977,1,2,0:0:0:0:
192,192,75977,128,0,76377:0:0:0:0:
320,192,76177,128,0,76377:0:0:0:30:tom01.wav
64,192,76377,128,8,76577:0:0:0:0:
448,192,76377,128,0,76777:0:0:0:30:tom01.wav
320,192,76577,1,0,0:0:0:30:tom02.wav
192,192,76677,1,0,0:0:0:30:tom02.wav
320,192,76777,128,0,77077:0:0:0:0:
64,192,76877,1,0,0:0:0:30:tom03.wav
448,192,77077,1,0,0:0:0:30:tom04.wav
64,192,77177,128,4,77777:0:0:0:0:
192,192,77177,128,2,77977:0:0:0:0:
320,192,77177,128,0,77777:0:0:0:0:
448,192,77777,128,0,77977:0:0:0:0:
64,192,77977,1,8,0:0:0:0:
320,192,77977,1,0,0:0:0:0:
192,192,78077,1,0,0:0:0:0:
320,192,78177,1,0,0:0:0:0:
448,192,78277,1,0,0:0:0:0:
64,192,78377,1,0,0:0:0:0:
192,192,78477,1,0,0:0:0:30:tom03.wav
64,192,78577,128,4,79377:0:0:0:0:
320,192,78577,128,2,79577:0:0:0:0:
448,192,78577,128,0,79377:0:0:0:0:
192,192,79377,128,0,79577:0:0:0:0:
64,192,79577,1,8,0:0:0:0:
448,192,79577,1,0,0:0:0:0:
320,192,79677,1,0,0:0:0:30:tom02.wav
192,192,79777,1,0,0:0:0:30:tom03.wav
448,192,79877,1,0,0:0:0:30:tom04.wav
64,192,79977,128,0,80177:0:0:0:0:
192,192,80177,128,4,80777:0:0:0:0:
320,192,80177,128,2,81177:0:0:0:0:
448,192,80177,128,0,80777:0:0:0:0:
64,192,80777,128,0,81177:0:0:0:0:
192,192,81177,128,8,81577:0:0:0:0:
448,192,81177,128,0,81977:0:0:0:0:
320,192,81577,128,0,81977:0:0:0:0:
64,192,81977,128,4,82377:0:0:0:0:
192,192,81977,128,2,82577:0:0:0:0:
320,192,82377,1,2,0:0:0:0:
448,192,82377,1,0,0:0:0:0:
64,192,82577,128,0,83177:0:0:0:0:
192,192,82777,1,8,0:0:0:0:
448,192,82777,1,0,0:0:0:0:
448,192,83177,128,0,83577:0:0:0:0:
64,192,83577,128,4,83977:0:0:0:0:
192,192,83577,128,2,85977:0:0:0:0:
320,192,83577,128,0,84377:0:0:0:0:
64,192,84377,1,8,0:0:0:0:
448,192,84377,1,0,0:0:0:0:
320,192,84977,128,2,85977:0:0:0:0:
448,192,84977,1,0,0:0:0:0:
64,192,85977,128,8,86377:0:0:0:0:
448,192,85977,1,0,0:0:0:0:
320,192,86377,128,0,86777:0:0:0:0:
64,192,86577,1,2,0:0:0:0:
192,192,86577,1,0,0:0:0:0:
448,192,86777,128,0,89177:0:0:0:0:
64,192,86977,1,2,0:0:0:0:
192,192,86977,1,0,0:0:0:0:
64,192,87177,1,2,0:0:0:0:
192,192,87177,1,0,0:0:0:0:
64,192,87577,1,8,0:0:0:0:
320,192,87577,1,0,0:0:0:0:
64,192,88377,1,2,0:0:0:0:
192,192,88377,1,0,0:0:0:0:
64,192,88777,1,2,0:0:0:0:
192,192,88777,1,0,0:0:0:0:
64,192,89177,128,8,89977:0:0:0:0:
320,192,89177,1,0,0:0:0:0:
320,192,89977,1,12,0:0:0:0:
448,192,89977,1,2,0:0:0:0:
192,192,90077,1,2,0:0:0:0:
320,192,90177,1,10,0:0:0:0:
448,192,90277,1,10,0:0:0:0:
64,192,90377,1,2,0:0:0:0:
192,192,90377,1,0,0:0:0:0:
320,192,90477,1,2,0:0:0:0:
192,192,90577,1,10,0:0:0:0:
64,192,90677,1,2,0:0:0:0:
320,192,90777,1,8,0:0:0:0:
448,192,90777,1,2,0:0:0:0:
192,192,90877,1,10,0:0:0:0:
320,192,90977,1,2,0:0:0:0:
64,192,91077,1,10,0:0:0:0:
320,192,91177,1,2,0:0:0:0:
448,192,91177,1,8,0:0:0:0:
192,192,91277,1,2,0:0:0:0:
64,192,91377,1,10,0:0:0:0:
448,192,91477,1,10,0:0:0:0:
64,192,91577,1,2,0:0:0:0:
192,192,91577,1,8,0:0:0:0:
320,192,91677,1,2,0:0:0:0:
192,192,91777,1,10,0:0:0:0:
64,192,91877,1,10,0:0:0:0:
320,192,91977,1,2,0:0:0:0:
448,192,91977,1,0,0:0:0:0:
192,192,92077,1,2,0:0:0:0:
320,192,92177,1,10,0:0:0:0:
448,192,92277,1,2,0:0:0:0:
64,192,92377,1,2,0:0:0:0:
192,192,92377,1,8,0:0:0:0:
320,192,92477,1,10,0:0:0:0:
192,192,92577,1,2,0:0:0:0:
64,192,92677,1,10,0:0:0:0:
448,192,92777,128,2,92977:0:0:0:0:
320,192,92977,128,0,93177:0:0:0:0:
64,192,93177,1,12,0:0:0:0:
192,192,93177,1,2,0:0:0:0:
448,192,93277,1,2,0:0:0:0:
64,192,93377,1,10,0:0:0:0:
192,192,93477,1,10,0:0:0:0:
320,192,93577,1,2,0:0:0:0:
448,192,93577,1,0,0:0:0:0:
64,192,93677,1,2,0:0:0:0:
448,192,93777,1,10,0:0:0:0:
320,192,93877,1,2,0:0:0:0:
64,192,93977,1,2,0:0:0:0:
192,192,93977,1,8,0:0:0:0:
448,192,94077,1,10,0:0:0:0:
64,192,94177,1,2,0:0:0:0:
320,192,94277,1,10,0:0:0:0:
64,192,94377,1,2,0:0:0:0:
192,192,94377,1,8,0:0:0:0:
448,192,94477,1,2,0:0:0:0:
320,192,94577,1,10,0:0:0:0:
192,192,94677,1,10,0:0:0:0:
448,192,94777,1,2,0:0:0:0:
320,192,94827,1,2,0:0:0:0:
64,192,94877,1,2,0:0:0:0:
192,192,94927,1,2,0:0:0:0:
448,192,94977,1,2,0:0:0:0:
320,192,95027,1,2,0:0:0:0:
64,192,95077,1,2,0:0:0:0:
192,192,95127,1,2,0:0:0:0:
320,192,95177,128,2,95377:0:0:0:0:
448,192,95177,1,0,0:0:0:0:
64,192,95377,128,0,95577:0:0:0:0:
192,192,95577,128,2,95777:0:0:0:0:
320,192,95577,1,0,0:0:0:0:
64,192,95777,128,0,95977:0:0:0:0:
320,192,95977,1,2,0:0:0:0:
448,192,95977,128,0,96377:0:0:0:0:
64,192,96377,1,4,0:0:0:0:
192,192,96377,1,2,0:0:0:0:
320,192,96477,1,2,0:0:0:0:
192,192,96577,1,2,0:0:0:0:
448,192,96577,1,0,0:0:0:0:
320,192,96677,1,2,0:0:0:0:
64,192,96777,1,2,0:0:0:0:
192,192,96777,1,0,0:0:0:0:
320,192,96877,1,2,0:0:0:0:
192,192,96977,1,2,0:0:0:0:
448,192,96977,1,0,0:0:0:0:
320,192,97077,1,2,0:0:0:0:
64,192,97177,1,2,0:0:0:0:
192,192,97177,1,0,0:0:0:0:
320,192,97277,1,2,0:0:0:0:
192,192,97377,1,2,0:0:0:0:
448,192,97377,1,0,0:0:0:0:
64,192,97477,1,2,0:0:0:0:
320,192,97577,1,2,0:0:0:0:
448,192,97577,1,0,0:0:0:0:
192,192,97677,1,2,0:0:0:0:
64,192,97777,1,2,0:0:0:0:
448,192,97777,1,0,0:0:0:0:
320,192,97877,1,2,0:0:0:0:
64,192,97977,1,2,0:0:0:0:
192,192,97977,1,0,0:0:0:0:
448,192,98077,1,2,0:0:0:0:
64,192,98177,1,2,0:0:0:0:
320,192,98177,1,0,0:0:0:0:
448,192,98277,1,2,0:0:0:0:
64,192,98377,1,2,0:0:0:0:
192,192,98377,1,0,0:0:0:0:
448,192,98477,1,2,0:0:0:0:
64,192,98577,1,2,0:0:0:0:
320,192,98577,1,0,0:0:0:0:
448,192,98677,1,2,0:0:0:0:
64,192,98777,1,2,0:0:0:0:
192,192,98777,1,0,0:0:0:0:
448,192,98877,1,2,0:0:0:0:
64,192,98977,1,2,0:0:0:0:
320,192,98977,1,0,0:0:0:0:
448,192,99077,1,2,0:0:0:0:
64,192,99177,1,2,0:0:0:0:
192,192,99177,1,0,0:0:0:0:
448,192,99577,1,2,0:0:0:0:
320,192,99627,1,2,0:0:0:0:
64,192,99677,1,2,0:0:0:0:
192,192,99727,1,2,0:0:0:0:
448,192,99777,1,2,0:0:0:0:
320,192,99827,1,2,0:0:0:0:
64,192,99877,1,2,0:0:0:0:
192,192,99927,1,2,0:0:0:0:
320,192,99977,1,2,0:0:0:0:
448,192,100027,1,2,0:0:0:0:
192,192,100077,1,2,0:0:0:0:
64,192,100127,1,2,0:0:0:0:
320,192,100177,1,2,0:0:0:0:
448,192,100227,1,2,0:0:0:0:
192,192,100277,1,2,0:0:0:0:
64,192,100327,1,2,0:0:0:0:
448,192,100377,1,2,0:0:0:0:
320,192,100427,1,2,0:0:0:0:
192,192,100477,1,2,0:0:0:0:
64,192,100527,1,2,0:0:0:0:
448,192,100577,1,2,0:0:0:0:
320,192,100627,1,2,0:0:0:0:
192,192,100677,1,2,0:0:0:0:
64,192,100727,1,2,0:0:0:0:
320,192,100777,1,2,0:0:0:0:
448,192,100827,1,2,0:0:0:0:
64,192,100877,1,2,0:0:0:0:
192,192,100927,1,2,0:0:0:0:
320,192,100977,1,2,0:0:0:0:
448,192,101027,1,2,0:0:0:0:
64,192,101077,1,2,0:0:0:0:
192,192,101127,1,2,0:0:0:0:
320,192,101177,1,0,0:0:0:0:
448,192,101243,1,0,0:0:0:0:
192,192,101310,1,0,0:0:0:0:
64,192,101377,1,0,0:0:0:0:
448,192,101443,1,0,0:0:0:0:
320,192,101510,1,0,0:0:0:0:
192,192,101577,1,0,0:0:0:0:
64,192,101643,1,0,0:0:0:0:
448,192,101710,1,0,0:0:0:0:
320,192,101777,1,0,0:0:0:0:
64,192,101843,1,0,0:0:0:0:
192,192,101910,1,0,0:0:0:0:
448,192,101977,128,0,102377:0:0:0:0:
64,192,102377,128,0,102777:0:0:0:0:
320,192,102377,1,0,0:0:0:0:
192,192,102777,1,2,0:0:0:0:
320,192,102777,128,4,103377:0:0:0:0:
448,192,102777,1,0,0:0:0:0:
64,192,102977,128,0,103177:0:0:0:0:
192,192,103177,1,8,0:0:0:0:
448,192,103177,1,0,0:0:0:0:
192,192,103377,128,0,103577:0:0:0:0:
64,192,103477,1,0,0:0:0:0:
320,192,103577,1,2,0:0:0:0:
448,192,103577,128,0,103777:0:0:0:0:
192,192,103677,128,0,103877:0:0:0:0:
64,192,103777,128,0,103977:0:0:0:0:
320,192,103877,128,0,104077:0:0:0:0:
192,192,103977,128,8,104177:0:0:0:0:
448,192,103977,1,0,0:0:0:0:
64,192,104077,128,0,104177:0:0:0:0:
320,192,104177,128,0,104977:0:0:0:0:
448,192,104243,128,0,104577:0:0:0:0:
64,192,104377,1,2,0:0:0:0:
192,192,104377,1,0,0:0:0:0:
64,192,104577,128,0,104777:0:0:0:0:
192,192,104777,1,8,0:0:0:0:
448,192,104777,1,0,0:0:0:0:
64,192,104977,128,0,105177:0:0:0:0:
192,192,105077,1,0,0:0:0:0:
320,192,105177,1,2,0:0:0:0:
448,192,105177,128,0,105377:0:0:0:0:
64,192,105277,128,0,105477:0:0:0:0:
320,192,105377,128,0,105577:0:0:0:0:
192,192,105477,128,0,105677:0:0:0:0:
64,192,105577,1,8,0:0:0:0:
448,192,105577,128,0,105777:0:0:0:0:
320,192,105677,128,0,105777:0:0:0:0:
64,192,105777,128,0,106377:0:0:0:0:
192,192,105843,128,0,106177:0:0:0:0:
320,192,105977,1,2,0:0:0:0:
448,192,105977,1,0,0:0:0:0:
320,192,106177,128,0,106377:0:0:0:0:
192,192,106377,1,8,0:0:0:0:
448,192,106377,128,0,106777:0:0:0:0:
192,192,106577,128,0,106677:0:0:0:0:
320,192,106677,1,0,0:0:0:0:
64,192,106777,1,2,0:0:0:0:
192,192,106777,128,0,106977:0:0:0:0:
320,192,106977,1,0,0:0:0:0:
64,192,107077,128,0,107277:0:0:0:0:
192,192,107177,1,8,0:0:0:0:
448,192,107177,1,0,0:0:0:0:
320,192,107277,1,0,0:0:0:0:
192,192,107377,128,0,107577:0:0:0:0:
320,192,107577,128,2,107777:0:0:0:0:
448,192,107577,1,0,0:0:0:0:
64,192,107777,1,0,0:0:0:0:
192,192,107843,1,0,0:0:0:0:
320,192,107910,1,0,0:0:0:0:
64,192,107977,1,8,0:0:0:0:
448,192,107977,128,0,108177:0:0:0:0:
192,192,108177,1,0,0:0:0:0:
320,192,108277,1,0,0:0:0:0:
64,192,108377,128,2,108777:0:0:0:0:
192,192,108377,1,0,0:0:0:0:
448,192,108577,1,0,0:0:0:0:
320,192,108677,1,0,0:0:0:0:
192,192,108777,1,8,0:0:0:0:
448,192,108777,128,0,109177:0:0:0:0:
64,192,108977,1,0,0:0:0:0:
320,192,109077,1,0,0:0:0:0:
64,192,109177,1,4,0:0:0:0:
192,192,109177,128,2,109777:0:0:0:0:
448,192,109377,128,0,109577:0:0:0:0:
64,192,109577,1,8,0:0:0:0:
320,192,109577,1,0,0:0:0:0:
320,192,109777,128,0,109977:0:0:0:0:
448,192,109877,1,0,0:0:0:0:
64,192,109977,128,2,110177:0:0:0:0:
192,192,109977,1,0,0:0:0:0:
320,192,110077,128,0,110277:0:0:0:0:
448,192,110177,128,0,110377:0:0:0:0:
192,192,110277,128,0,110477:0:0:0:0:
64,192,110377,1,8,0:0:0:0:
320,192,110377,128,0,110577:0:0:0:0:
448,192,110477,128,0,110577:0:0:0:0:
192,192,110577,128,0,111377:0:0:0:0:
64,192,110643,128,0,110977:0:0:0:0:
320,192,110777,1,2,0:0:0:0:
448,192,110777,1,0,0:0:0:0:
448,192,110977,128,0,111177:0:0:0:0:
64,192,111177,1,8,0:0:0:0:
320,192,111177,1,0,0:0:0:0:
448,192,111377,128,0,111577:0:0:0:0:
320,192,111477,1,0,0:0:0:0:
64,192,111577,128,2,111777:0:0:0:0:
192,192,111577,1,0,0:0:0:0:
448,192,111677,128,0,111877:0:0:0:0:
192,192,111777,128,0,111977:0:0:0:0:
320,192,111877,128,0,112077:0:0:0:0:
64,192,111977,128,8,112177:0:0:0:0:
448,192,111977,1,0,0:0:0:0:
192,192,112077,128,0,112177:0:0:0:0:
448,192,112177,128,0,112777:0:0:0:0:
320,192,112243,128,0,112577:0:0:0:0:
64,192,112377,1,2,0:0:0:0:
192,192,112377,1,0,0:0:0:0:
192,192,112577,128,0,112777:0:0:0:0:
64,192,112777,128,8,113177:0:0:0:0:
320,192,112777,1,0,0:0:0:0:
320,192,112977,128,0,113077:0:0:0:0:
192,192,113077,1,0,0:0:0:0:
320,192,113177,128,2,113377:0:0:0:0:
448,192,113177,1,0,0:0:0:0:
64,192,113377,1,0,0:0:0:0:
192,192,113477,128,0,113677:0:0:0:0:
64,192,113577,1,8,0:0:0:0:
320,192,113577,1,0,0:0:0:0:
448,192,113677,1,0,0:0:0:0:
320,192,113777,128,0,113977:0:0:0:0:
64,192,113977,1,2,0:0:0:0:
192,192,113977,128,0,114377:0:0:0:0:
448,192,114177,128,0,114377:0:0:0:0:
64,192,114377,128,8,114777:0:0:0:0:
320,192,114377,1,0,0:0:0:0:
448,192,114577,1,0,0:0:0:0:
192,192,114677,1,0,0:0:0:0:
320,192,114777,128,2,115177:0:0:0:0:
448,192,114777,1,0,0:0:0:0:
64,192,114977,1,0,0:0:0:0:
192,192,115077,1,0,0:0:0:0:
64,192,115177,1,8,0:0:0:0:
448,192,115177,128,0,115577:0:0:0:0:
192,192,115377,1,0,0:0:0:0:
320,192,115477,1,0,0:0:0:0:
64,192,115577,1,2,0:0:0:0:
192,192,115577,128,0,116177:0:0:0:0:
64,192,115977,1,8,0:0:0:0:
320,192,115977,1,4,0:0:0:0:
448,192,115977,1,0,0:0:0:0:
320,192,116177,128,0,116377:0:0:0:0:
448,192,116277,1,0,0:0:0:0:
64,192,116377,128,2,116577:0:0:0:0:
192,192,116377,1,0,0:0:0:0:
320,192,116477,128,0,116677:0:0:0:0:
448,192,116577,128,0,116777:0:0:0:0:
192,192,116677,128,0,116877:0:0:0:0:
64,192,116777,1,8,0:0:0:0:
320,192,116777,128,0,116977:0:0:0:0:
448,192,116877,128,0,116977:0:0:0:0:
192,192,116977,128,0,117777:0:0:0:0:
64,192,117043,128,0,117377:0:0:0:0:
320,192,117177,1,2,0:0:0:0:
448,192,117177,1,0,0:0:0:0:
448,192,117377,128,0,117577:0:0:0:0:
64,192,117577,1,8,0:0:0:0:
320,192,117577,1,0,0:0:0:0:
448,192,117777,128,0,117977:0:0:0:0:
320,192,117877,1,0,0:0:0:0:
64,192,117977,128,2,118177:0:0:0:0:
192,192,117977,1,0,0:0:0:0:
448,192,118077,128,0,118277:0:0:0:0:
192,192,118177,128,0,118377:0:0:0:0:
320,192,118277,128,0,118477:0:0:0:0:
64,192,118377,128,8,118577:0:0:0:0:
448,192,118377,1,0,0:0:0:0:
192,192,118477,128,0,118577:0:0:0:0:
448,192,118577,128,0,119177:0:0:0:0:
320,192,118643,128,0,118977:0:0:0:0:
64,192,118777,1,2,0:0:0:0:
192,192,118777,1,0,0:0:0:0:
192,192,118977,128,0,119177:0:0:0:0:
64,192,119177,1,8,0:0:0:0:
320,192,119177,128,0,119577:0:0:0:0:
192,192,119377,1,0,0:0:0:0:
448,192,119477,1,0,0:0:0:0:
64,192,119577,1,2,0:0:0:0:
192,192,119577,128,0,119977:0:0:0:0:
320,192,119777,1,0,0:0:0:0:
448,192,119877,1,0,0:0:0:0:
64,192,119977,1,8,0:0:0:0:
320,192,119977,128,0,120377:0:0:0:0:
448,192,120177,128,0,120377:0:0:0:0:
64,192,120377,1,2,0:0:0:0:
192,192,120377,128,0,120977:0:0:0:0:
320,192,120577,128,0,120777:0:0:0:0:
64,192,120777,1,8,0:0:0:0:
448,192,120777,1,0,0:0:0:0:
448,192,120977,1,0,0:0:0:30:tom01.wav
64,192,121077,1,0,0:0:0:30:tom01.wav
320,192,121177,1,2,0:0:0:0:
448,192,121177,1,0,0:0:0:30:tom01.wav
192,192,121277,1,0,0:0:0:0:
320,192,121377,1,0,0:0:0:30:tom02.wav
64,192,121477,1,0,0:0:0:30:tom02.wav
192,192,121577,1,8,0:0:0:0:
448,192,121577,1,0,0:0:0:30:tom02.wav
64,192,121677,1,0,0:0:0:30:tom03.wav
320,192,121777,1,0,0:0:0:30:tom04.wav
192,192,121877,1,0,0:0:0:0:
64,192,121977,1,2,0:0:0:0:
320,192,121977,1,4,0:0:0:0:
448,192,121977,1,0,0:0:0:0:
64,192,122177,1,2,0:0:0:0:
192,192,122177,1,0,0:0:0:0:
320,192,122277,1,2,0:0:0:0:
448,192,122277,1,0,0:0:0:0:
192,192,122377,1,0,0:0:0:0:
320,192,122477,1,2,0:0:0:0:
448,192,122477,1,0,0:0:0:0:
64,192,122577,1,2,0:0:0:0:
192,192,122577,1,0,0:0:0:0:
448,192,122677,1,0,0:0:0:0:
64,192,122777,1,2,0:0:0:0:
192,192,122777,1,0,0:0:0:0:
320,192,122877,1,2,0:0:0:0:
64,192,122977,1,0,0:0:0:0:
448,192,122977,1,0,0:0:0:0:
192,192,123077,1,2,0:0:0:0:
320,192,123177,1,2,0:0:0:0:
448,192,123177,1,0,0:0:0:0:
64,192,123377,1,2,0:0:0:0:
192,192,123427,1,2,0:0:0:0:
320,192,123477,1,2,0:0:0:0:
448,192,123527,1,2,0:0:0:0:
64,192,123577,1,2,0:0:0:0:
192,192,123577,1,0,0:0:0:0:
320,192,123777,1,2,0:0:0:0:
448,192,123777,1,0,0:0:0:0:
64,192,123877,1,2,0:0:0:0:
192,192,123877,1,0,0:0:0:0:
320,192,123977,1,0,0:0:0:0:
64,192,124077,1,2,0:0:0:0:
192,192,124077,1,0,0:0:0:0:
320,192,124177,1,2,0:0:0:0:
448,192,124177,1,0,0:0:0:0:
64,192,124277,1,0,0:0:0:0:
320,192,124377,1,2,0:0:0:0:
448,192,124377,1,0,0:0:0:0:
192,192,124477,1,2,0:0:0:0:
64,192,124577,1,0,0:0:0:0:
448,192,124577,1,0,0:0:0:0:
320,192,124677,1,2,0:0:0:0:
64,192,124777,1,2,0:0:0:0:
192,192,124777,1,0,0:0:0:0:
448,192,124977,128,2,125177:0:0:0:0:
64,192,125177,1,6,0:0:0:0:
192,192,125227,1,2,0:0:0:0:
320,192,125277,1,2,0:0:0:0:
448,192,125327,1,2,0:0:0:0:
64,192,125377,1,2,0:0:0:0:
192,192,125427,1,2,0:0:0:0:
320,192,125477,1,2,0:0:0:0:
448,192,125527,1,2,0:0:0:0:
192,192,125577,1,2,0:0:0:0:
64,192,125627,1,2,0:0:0:0:
448,192,125677,1,2,0:0:0:0:
320,192,125727,1,2,0:0:0:0:
192,192,125777,1,2,0:0:0:0:
64,192,125827,1,2,0:0:0:0:
448,192,125877,1,2,0:0:0:0:
320,192,125927,1,2,0:0:0:0:
64,192,125977,1,2,0:0:0:0:
192,192,126027,1,2,0:0:0:0:
448,192,126077,1,2,0:0:0:0:
320,192,126127,1,2,0:0:0:0:
64,192,126177,1,2,0:0:0:0:
192,192,126227,1,2,0:0:0:0:
448,192,126277,1,2,0:0:0:0:
320,192,126327,1,2,0:0:0:0:
192,192,126377,1,2,0:0:0:0:
64,192,126427,1,2,0:0:0:0:
320,192,126477,1,2,0:0:0:0:
448,192,126527,1,2,0:0:0:0:
192,192,126577,1,2,0:0:0:0:
64,192,126627,1,2,0:0:0:0:
320,192,126677,1,2,0:0:0:0:
448,192,126727,1,2,0:0:0:0:
192,192,126777,128,2,126877:0:0:0:0:
320,192,126877,1,0,0:0:0:0:
192,192,126977,128,2,127077:0:0:0:0:
448,192,127077,1,0,0:0:0:0:
192,192,127177,128,2,127277:0:0:0:0:
320,192,127277,128,2,127377:0:0:0:0:
64,192,127377,1,0,0:0:0:0:
320,192,127477,128,2,127577:0:0:0:0:
192,192,127577,1,8,0:0:0:0:
448,192,127577,1,0,0:0:0:0:
320,192,127777,1,2,0:0:0:0:
192,192,127827,1,2,0:0:0:0:
64,192,127877,1,8,0:0:0:0:
448,192,127877,1,0,0:0:0:0:
320,192,128077,1,2,0:0:0:0:
192,192,128127,1,2,0:0:0:0:
64,192,128177,1,8,0:0:0:0:
448,192,128177,1,0,0:0:0:0:
320,192,128277,1,2,0:0:0:0:
64,192,128377,1,4,0:0:0:0:
192,192,128377,1,2,0:0:0:0:
448,192,128477,128,0,128677:0:0:0:0:
192,192,128577,1,0,0:0:0:0:
320,192,128677,1,0,0:0:0:0:
64,192,128777,1,2,0:0:0:0:
192,192,128777,128,0,128977:0:0:0:0:
448,192,128877,1,0,0:0:0:0:
64,192,128977,128,0,129177:0:0:0:0:
320,192,129077,1,0,0:0:0:0:
192,192,129177,1,8,0:0:0:0:
448,192,129177,1,0,0:0:0:0:
64,192,129310,1,0,0:0:0:30:tom01.wav
320,192,129377,1,0,0:0:0:0:
192,192,129443,128,0,129577:0:0:0:30:tom02.wav
448,192,129577,128,0,129777:0:0:0:30:tom03.wav
64,192,129777,1,4,0:0:0:0:
192,192,129777,128,2,129977:0:0:0:0:
320,192,129877,1,0,0:0:0:0:
64,192,129977,1,0,0:0:0:0:
448,192,130077,128,0,130277:0:0:0:0:
192,192,130177,1,0,0:0:0:0:
320,192,130277,1,0,0:0:0:0:
64,192,130377,128,0,130577:0:0:0:0:
448,192,130477,1,0,0:0:0:0:
192,192,130577,128,0,130777:0:0:0:0:
64,192,130777,1,8,0:0:0:0:
448,192,130777,1,0,0:0:0:0:
320,192,130877,1,0,0:0:0:0:
192,192,130977,1,0,0:0:0:0:
448,192,131102,1,0,0:0:0:0:
64,192,131177,1,0,0:0:0:0:
320,192,131277,1,0,0:0:0:0:
192,192,131377,128,0,131477:0:0:0:0:
64,192,131477,1,0,0:0:0:0:
320,192,131577,1,4,0:0:0:0:
448,192,131577,1,2,0:0:0:0:
192,192,131677,128,0,131877:0:0:0:0:
320,192,131777,1,0,0:0:0:0:
64,192,131877,1,0,0:0:0:0:
192,192,131977,1,8,0:0:0:0:
448,192,131977,128,0,132177:0:0:0:0:
64,192,132077,1,0,0:0:0:0:
320,192,132177,128,0,132377:0:0:0:0:
448,192,132277,1,0,0:0:0:0:
64,192,132377,1,2,0:0:0:0:
192,192,132377,1,0,0:0:0:0:
448,192,132477,128,0,132677:0:0:0:0:
192,192,132577,1,0,0:0:0:0:
320,192,132677,1,0,0:0:0:0:
64,192,132777,128,8,132977:0:0:0:0:
448,192,132777,1,0,0:0:0:0:
192,192,132877,1,0,0:0:0:0:
320,192,132977,128,0,133177:0:0:0:0:
448,192,133077,1,0,0:0:0:0:
64,192,133177,1,2,0:0:0:0:
192,192,133177,1,0,0:0:0:0:
320,192,133277,128,0,133477:0:0:0:0:
192,192,133377,1,0,0:0:0:0:
448,192,133477,1,0,0:0:0:0:
64,192,133577,128,8,133777:0:0:0:0:
320,192,133577,1,0,0:0:0:0:
448,192,133677,1,0,0:0:0:0:
192,192,133777,128,0,133977:0:0:0:0:
64,192,133877,1,0,0:0:0:0:
320,192,133977,128,4,134177:0:0:0:0:
448,192,133977,1,2,0:0:0:0:
64,192,134177,1,0,0:0:0:0:
320,192,134277,1,4,0:0:0:0:
448,192,134277,128,2,134477:0:0:0:0:
64,192,134477,1,0,0:0:0:0:
320,192,134577,128,4,134777:0:0:0:0:
448,192,134577,1,2,0:0:0:0:
64,192,134777,1,4,0:0:0:0:
192,192,134777,1,2,0:0:0:0:
448,192,134877,128,0,135077:0:0:0:0:
192,192,134977,1,0,0:0:0:0:
320,192,135077,1,0,0:0:0:0:
192,192,135177,128,0,135377:0:0:0:0:
64,192,135377,128,0,135577:0:0:0:0:
192,192,135577,1,8,0:0:0:0:
448,192,135577,1,0,0:0:0:0:
64,192,135677,1,0,0:0:0:0:
320,192,135777,128,0,135877:0:0:0:0:
192,192,135877,1,0,0:0:0:0:
320,192,135977,1,0,0:0:0:0:
448,192,136077,1,0,0:0:0:0:
64,192,136177,1,4,0:0:0:0:
192,192,136177,128,2,136377:0:0:0:0:
320,192,136277,1,0,0:0:0:0:
64,192,136377,1,0,0:0:0:0:
448,192,136477,128,0,136677:0:0:0:0:
192,192,136577,1,0,0:0:0:0:
320,192,136677,1,0,0:0:0:0:
64,192,136777,128,0,136977:0:0:0:0:
448,192,136877,1,0,0:0:0:0:
192,192,136977,128,0,137177:0:0:0:0:
320,192,137077,1,0,0:0:0:0:
64,192,137177,1,8,0:0:0:0:
448,192,137177,1,0,0:0:0:0:
192,192,137277,1,0,0:0:0:0:
320,192,137377,128,0,137477:0:0:0:0:
64,192,137477,128,0,137677:0:0:0:0:
448,192,137677,1,0,0:0:0:0:
192,192,137777,128,0,137977:0:0:0:0:
320,192,137977,1,4,0:0:0:0:
448,192,137977,1,2,0:0:0:0:
64,192,138077,128,0,138277:0:0:0:0:
320,192,138177,1,0,0:0:0:0:
192,192,138277,1,0,0:0:0:0:
64,192,138377,1,8,0:0:0:0:
448,192,138377,128,0,138577:0:0:0:0:
192,192,138477,1,0,0:0:0:0:
320,192,138577,128,0,138777:0:0:0:0:
448,192,138677,1,0,0:0:0:0:
64,192,138777,1,2,0:0:0:0:
192,192,138777,1,0,0:0:0:0:
448,192,138877,128,0,139077:0:0:0:0:
192,192,138977,1,0,0:0:0:0:
320,192,139077,1,0,0:0:0:0:
64,192,139177,128,8,139377:0:0:0:0:
448,192,139177,1,0,0:0:0:0:
320,192,139277,1,0,0:0:0:0:
192,192,139377,128,0,139577:0:0:0:0:
64,192,139477,1,0,0:0:0:0:
320,192,139577,1,2,0:0:0:0:
448,192,139577,1,0,0:0:0:0:
192,192,139677,128,0,139877:0:0:0:0:
320,192,139777,1,0,0:0:0:0:
64,192,139877,1,0,0:0:0:0:
192,192,139977,1,2,0:0:0:0:
448,192,139977,128,0,140277:0:0:0:0:
64,192,140177,1,0,0:0:0:0:
192,192,140277,1,0,0:0:0:0:
320,192,140377,1,2,0:0:0:0:
448,192,140377,1,0,0:0:0:0:
64,192,140510,1,2,0:0:0:0:
192,192,140510,1,0,0:0:0:0:
64,192,140643,1,2,0:0:0:0:
192,192,140643,1,0,0:0:0:0:
320,192,140777,1,8,0:0:0:0:
448,192,140777,1,2,0:0:0:0:
64,192,140977,128,0,141177:0:0:0:0:
192,192,141177,1,0,0:0:0:30:tom01.wav
320,192,141243,1,0,0:0:0:30:tom01.wav
64,192,141310,1,0,0:0:0:30:tom02.wav
192,192,141377,1,0,0:0:0:30:tom02.wav
448,192,141443,1,0,0:0:0:30:tom03.wav
320,192,141510,1,0,0:0:0:30:tom03.wav
64,192,141577,1,6,0:0:0:0:
192,192,141577,1,0,0:0:0:30:tom04.wav
448,192,141677,128,0,141877:0:0:0:0:
192,192,141777,1,0,0:0:0:0:
320,192,141877,1,0,0:0:0:0:
64,192,141977,1,8,0:0:0:0:
448,192,141977,1,0,0:0:0:0:
320,192,142077,128,0,142177:0:0:0:0:
192,192,142177,128,0,142277:0:0:0:0:
64,192,142277,128,0,142477:0:0:0:30:tom03.wav
448,192,142477,128,0,142577:0:0:0:0:
64,192,142577,1,4,0:0:0:0:
192,192,142577,128,2,142777:0:0:0:0:
320,192,142677,1,0,0:0:0:0:
64,192,142777,1,0,0:0:0:0:
448,192,142877,128,0,143077:0:0:0:0:
192,192,142977,1,0,0:0:0:0:
320,192,143077,1,0,0:0:0:0:
64,192,143177,128,0,143377:0:0:0:0:
448,192,143277,1,0,0:0:0:0:
192,192,143377,1,0,0:0:0:0:
64,192,143577,1,8,0:0:0:0:
320,192,143577,128,0,143777:0:0:0:0:
192,192,143777,128,0,143977:0:0:0:0:
448,192,143977,1,0,0:0:0:0:
320,192,144043,1,0,0:0:0:0:
192,192,144110,1,0,0:0:0:0:
448,192,144177,1,0,0:0:0:0:
64,192,144243,1,0,0:0:0:0:
192,192,144310,1,0,0:0:0:0:
320,192,144377,1,4,0:0:0:0:
448,192,144377,1,2,0:0:0:0:
64,192,144477,128,0,144677:0:0:0:0:
320,192,144577,1,0,0:0:0:0:
192,192,144677,1,0,0:0:0:0:
64,192,144777,1,8,0:0:0:0:
448,192,144777,128,0,144977:0:0:0:0:
192,192,144877,1,0,0:0:0:0:
320,192,144977,128,0,145177:0:0:0:0:
448,192,145077,1,0,0:0:0:0:
64,192,145177,1,2,0:0:0:0:
192,192,145177,1,0,0:0:0:0:
448,192,145277,128,0,145477:0:0:0:0:
64,192,145377,1,0,0:0:0:0:
320,192,145477,1,0,0:0:0:0:
192,192,145577,128,8,145777:0:0:0:0:
448,192,145577,1,0,0:0:0:0:
64,192,145677,1,0,0:0:0:0:
448,192,145777,128,0,145977:0:0:0:0:
320,192,145877,1,0,0:0:0:0:
64,192,145977,1,2,0:0:0:0:
192,192,145977,1,0,0:0:0:0:
448,192,146077,128,0,146277:0:0:0:0:
192,192,146177,1,0,0:0:0:0:
320,192,146277,1,0,0:0:0:0:
64,192,146377,128,8,146577:0:0:0:0:
448,192,146377,1,0,0:0:0:0:
320,192,146477,1,0,0:0:0:0:
192,192,146577,1,2,0:0:0:0:
448,192,146677,1,2,0:0:0:0:
320,192,146727,1,2,0:0:0:0:
64,192,146777,1,2,0:0:0:0:
192,192,146777,1,0,0:0:0:0:
448,192,146843,1,0,0:0:0:0:
320,192,146910,1,0,0:0:0:0:
192,192,146977,1,0,0:0:0:0:
64,192,147043,1,0,0:0:0:0:
320,192,147110,1,0,0:0:0:0:
448,192,147177,1,0,0:0:0:0:
64,192,147243,1,0,0:0:0:0:
192,192,147310,1,0,0:0:0:0:
448,192,147377,1,0,0:0:0:0:
320,192,147443,1,0,0:0:0:0:
192,192,147510,1,0,0:0:0:0:
64,192,147577,1,2,0:0:0:0:
448,192,147577,1,4,0:0:0:0:
320,192,147677,1,0,0:0:0:0:
192,192,147777,1,2,0:0:0:0:
448,192,147877,1,2,0:0:0:0:
192,192,147977,1,2,0:0:0:0:
320,192,148077,1,2,0:0:0:0:
64,192,148177,1,2,0:0:0:0:
192,192,148277,1,2,0:0:0:0:
448,192,148377,1,2,0:0:0:0:
64,192,148477,1,2,0:0:0:0:
320,192,148577,1,2,0:0:0:0:
192,192,148677,1,2,0:0:0:0:
320,192,148777,1,2,0:0:0:0:
448,192,148877,1,2,0:0:0:0:
64,192,148977,1,2,0:0:0:0:
192,192,149077,1,2,0:0:0:0:
320,192,149177,1,2,0:0:0:0:
64,192,149277,1,2,0:0:0:0:
448,192,149377,1,2,0:0:0:0:
192,192,149477,1,2,0:0:0:0:
448,192,149577,1,2,0:0:0:0:
320,192,149677,1,2,0:0:0:0:
64,192,149777,1,2,0:0:0:0:
448,192,149877,1,2,0:0:0:0:
192,192,149977,1,2,0:0:0:0:
320,192,150077,1,2,0:0:0:0:
64,192,150177,1,2,0:0:0:0:
448,192,150277,1,2,0:0:0:0:
64,192,150377,1,2,0:0:0:0:
320,192,150477,1,2,0:0:0:0:
192,192,150577,1,2,0:0:0:0:
448,192,150677,1,2,0:0:0:0:
64,192,150777,1,2,0:0:0:0:
192,192,150843,1,2,0:0:0:0:
320,192,150910,1,2,0:0:0:0:
448,192,150977,1,2,0:0:0:0:
64,192,151043,1,2,0:0:0:0:
192,192,151110,1,2,0:0:0:0:
448,192,151177,1,2,0:0:0:0:
320,192,151243,1,2,0:0:0:0:
192,192,151310,1,2,0:0:0:0:
64,192,151377,1,2,0:0:0:0:
448,192,151443,1,2,0:0:0:0:
320,192,151510,1,2,0:0:0:0:
64,192,151577,1,2,0:0:0:0:
192,192,151643,1,2,0:0:0:0:
320,192,151710,1,2,0:0:0:0:
448,192,151777,1,2,0:0:0:0:
64,192,151843,1,2,0:0:0:0:
192,192,151910,1,2,0:0:0:0:
448,192,151977,1,2,0:0:0:0:
320,192,152043,1,2,0:0:0:0:
192,192,152110,1,2,0:0:0:0:
64,192,152177,1,2,0:0:0:0:
448,192,152243,1,2,0:0:0:0:
320,192,152310,1,2,0:0:0:0:
64,192,152377,128,2,153177:0:0:0:0:
192,192,152377,1,0,0:0:0:0:
320,192,152677,1,0,0:0:0:0:
448,192,152777,128,0,153077:0:0:0:0:
192,192,153077,1,0,0:0:0:0:
320,192,153177,1,0,0:0:0:0:
448,192,153227,1,0,0:0:0:0:
64,192,153477,1,0,0:0:0:0:
448,192,153527,1,0,0:0:0:0:
192,192,153577,1,0,0:0:0:30:tom01.wav
320,192,153643,1,0,0:0:0:30:tom01.wav
64,192,153710,1,0,0:0:0:30:tom01.wav
192,192,153777,1,0,0:0:0:30:tom03.wav
448,192,153843,1,0,0:0:0:30:tom03.wav
320,192,153910,1,0,0:0:0:30:tom03.wav
64,192,153977,128,4,154077:0:0:0:0:
192,192,153977,1,2,0:0:0:0:
64,192,154177,128,0,154377:0:0:0:0:
320,192,154377,1,2,0:0:0:0:
448,192,154377,1,0,0:0:0:0:
64,192,154777,1,2,0:0:0:0:
192,192,154777,128,0,154877:0:0:0:0:
320,192,154877,128,0,154977:0:0:0:0:
64,192,154977,128,0,155077:0:0:0:0:
192,192,155077,128,0,155177:0:0:0:0:
320,192,155177,1,2,0:0:0:0:
448,192,155177,1,0,0:0:0:0:
192,192,155277,1,0,0:0:0:0:
320,192,155377,1,0,0:0:0:0:
448,192,155477,128,0,155577:0:0:0:0:
64,192,155577,1,2,0:0:0:0:
192,192,155577,1,0,0:0:0:0:
320,192,155677,128,0,155877:0:0:0:0:
64,192,155777,1,0,0:0:0:0:
320,192,155977,128,2,156077:0:0:0:0:
448,192,155977,1,0,0:0:0:0:
192,192,156177,1,0,0:0:0:0:
448,192,156277,128,0,156677:0:0:0:0:
64,192,156377,1,2,0:0:0:0:
192,192,156377,1,0,0:0:0:0:
320,192,156477,1,0,0:0:0:0:
64,192,156577,1,0,0:0:0:0:
192,192,156677,1,0,0:0:0:0:
320,192,156777,128,2,156877:0:0:0:0:
448,192,156777,1,0,0:0:0:0:
64,192,156877,128,0,156977:0:0:0:0:
448,192,156977,128,0,157077:0:0:0:0:
320,192,157077,128,0,157177:0:0:0:0:
64,192,157177,1,2,0:0:0:0:
192,192,157177,128,0,157277:0:0:0:0:
192,192,157377,128,0,157577:0:0:0:0:
320,192,157577,1,2,0:0:0:0:
448,192,157577,128,0,157877:0:0:0:0:
64,192,157877,128,0,157977:0:0:0:0:
320,192,157977,1,2,0:0:0:0:
448,192,157977,1,0,0:0:0:0:
192,192,158077,128,0,158177:0:0:0:0:
320,192,158177,1,0,0:0:0:0:
448,192,158277,1,0,0:0:0:0:
64,192,158377,1,2,0:0:0:0:
192,192,158377,1,0,0:0:0:0:
320,192,158477,1,0,0:0:0:0:
192,192,158577,1,0,0:0:0:0:
64,192,158677,1,0,0:0:0:0:
320,192,158777,1,2,0:0:0:0:
448,192,158777,1,0,0:0:0:0:
192,192,158877,1,0,0:0:0:0:
448,192,158977,128,0,159077:0:0:0:0:
64,192,159177,128,2,159377:0:0:0:0:
192,192,159177,128,0,159577:0:0:0:0:
448,192,159377,1,0,0:0:0:0:
320,192,159577,128,2,159977:0:0:0:0:
448,192,159577,128,0,159777:0:0:0:0:
64,192,159777,1,0,0:0:0:0:
64,192,159977,128,2,160377:0:0:0:0:
192,192,159977,128,0,160177:0:0:0:0:
448,192,160077,1,0,0:0:0:0:
320,192,160177,1,0,0:0:0:0:
192,192,160277,1,0,0:0:0:0:
320,192,160377,1,4,0:0:0:0:
448,192,160377,128,2,160477:0:0:0:0:
448,192,160577,128,0,160777:0:0:0:0:
64,192,160777,128,2,161177:0:0:0:0:
192,192,160777,1,0,0:0:0:0:
320,192,161177,1,2,0:0:0:0:
448,192,161177,1,0,0:0:0:0:
192,192,161377,128,0,161477:0:0:0:0:
320,192,161477,1,0,0:0:0:0:
64,192,161577,1,2,0:0:0:0:
192,192,161577,1,0,0:0:0:0:
448,192,161677,1,0,0:0:0:0:
64,192,161777,128,0,161977:0:0:0:0:
320,192,161977,1,2,0:0:0:0:
448,192,161977,1,0,0:0:0:0:
320,192,162177,1,0,0:0:0:0:
64,192,162377,1,2,0:0:0:0:
192,192,162377,1,0,0:0:0:0:
448,192,162477,1,0,0:0:0:0:
320,192,162577,1,0,0:0:0:0:
64,192,162627,1,0,0:0:0:0:
192,192,162677,128,0,162777:0:0:0:0:
320,192,162777,1,2,0:0:0:0:
448,192,162777,1,0,0:0:0:0:
64,192,162877,1,0,0:0:0:0:
448,192,162977,1,0,0:0:0:0:
320,192,163077,1,0,0:0:0:0:
64,192,163177,1,2,0:0:0:0:
192,192,163177,128,0,163277:0:0:0:0:
448,192,163277,128,0,163377:0:0:0:0:
64,192,163377,128,0,163477:0:0:0:0:
192,192,163477,128,0,163577:0:0:0:0:
320,192,163577,128,2,163677:0:0:0:0:
448,192,163577,1,0,0:0:0:0:
64,192,163677,1,0,0:0:0:0:
64,192,163977,1,2,0:0:0:0:
192,192,163977,1,0,0:0:0:0:
320,192,164077,1,0,0:0:0:0:
448,192,164177,1,0,0:0:0:0:
192,192,164277,1,0,0:0:0:0:
320,192,164377,1,2,0:0:0:0:
448,192,164377,1,0,0:0:0:0:
64,192,164477,1,0,0:0:0:0:
192,192,164577,128,0,164777:0:0:0:0:
64,192,164677,1,0,0:0:0:0:
320,192,164777,128,2,164877:0:0:0:0:
448,192,164777,1,0,0:0:0:0:
320,192,164977,128,0,165177:0:0:0:0:
64,192,165177,1,2,0:0:0:0:
192,192,165177,1,0,0:0:0:0:
192,192,165777,1,0,0:0:0:30:tom01.wav
320,192,165843,1,0,0:0:0:30:tom01.wav
64,192,165910,1,0,0:0:0:30:tom01.wav
192,192,165977,1,8,0:0:0:0:
448,192,165977,1,0,0:0:0:30:tom01.wav
320,192,166077,1,0,0:0:0:30:tom03.wav
192,192,166177,1,2,0:0:0:0:
64,192,166277,1,8,0:0:0:0:
320,192,166277,1,0,0:0:0:30:tom02.wav
448,192,166377,1,0,0:0:0:0:
192,192,166477,1,2,0:0:0:0:
64,192,166577,1,8,0:0:0:0:
320,192,166577,1,0,0:0:0:30:tom03.wav
448,192,166677,1,8,0:0:0:0:
64,192,166777,128,0,166877:0:0:0:0:
64,192,166977,128,0,167177:0:0:0:0:
192,192,167177,1,8,0:0:0:0:
448,192,167177,1,4,0:0:0:40:normal-hitfinish.wav
64,192,167577,1,2,0:0:0:0:
192,192,167577,128,0,167677:0:0:0:0:
320,192,167677,128,0,167777:0:0:0:0:
192,192,167777,128,0,167877:0:0:0:0:
448,192,167877,128,0,167977:0:0:0:0:
64,192,167977,1,8,0:0:0:0:
320,192,167977,1,0,0:0:0:0:
192,192,168077,1,0,0:0:0:0:
320,192,168177,1,0,0:0:0:0:
448,192,168277,128,0,168377:0:0:0:0:
64,192,168377,1,2,0:0:0:0:
192,192,168377,1,0,0:0:0:0:
320,192,168477,128,0,168677:0:0:0:0:
64,192,168577,1,0,0:0:0:0:
192,192,168777,1,8,0:0:0:0:
448,192,168777,1,0,0:0:0:0:
320,192,168977,1,0,0:0:0:0:
448,192,169077,128,0,169477:0:0:0:0:
64,192,169177,1,2,0:0:0:0:
192,192,169177,1,0,0:0:0:0:
320,192,169277,1,0,0:0:0:0:
192,192,169377,1,0,0:0:0:0:
320,192,169477,1,0,0:0:0:0:
64,192,169577,1,8,0:0:0:0:
448,192,169577,128,0,169677:0:0:0:0:
192,192,169677,128,0,169777:0:0:0:0:
320,192,169777,128,0,169877:0:0:0:0:
448,192,169877,128,0,169977:0:0:0:0:
64,192,169977,1,2,0:0:0:0:
192,192,169977,128,0,170277:0:0:0:0:
448,192,170177,1,0,0:0:0:0:
64,192,170277,1,0,0:0:0:0:
192,192,170377,1,8,0:0:0:0:
448,192,170377,128,0,170677:0:0:0:0:
64,192,170677,128,0,170777:0:0:0:0:
320,192,170777,1,2,0:0:0:0:
448,192,170777,1,0,0:0:0:0:
192,192,170877,128,0,170977:0:0:0:0:
320,192,170977,1,0,0:0:0:0:
64,192,171077,1,0,0:0:0:0:
192,192,171177,1,8,0:0:0:0:
448,192,171177,1,0,0:0:0:0:
64,192,171277,1,0,0:0:0:0:
320,192,171377,1,0,0:0:0:0:
448,192,171477,1,0,0:0:0:0:
64,192,171577,1,2,0:0:0:0:
192,192,171577,1,0,0:0:0:0:
320,192,171677,1,0,0:0:0:0:
192,192,171777,1,0,0:0:0:0:
448,192,171877,1,0,0:0:0:0:
64,192,171977,1,8,0:0:0:0:
320,192,171977,128,0,172277:0:0:0:0:
192,192,172177,1,0,0:0:0:0:
448,192,172277,1,0,0:0:0:0:
64,192,172377,1,2,0:0:0:0:
192,192,172377,128,0,172677:0:0:0:0:
448,192,172477,1,0,0:0:0:0:
64,192,172577,1,0,0:0:0:0:
320,192,172677,1,0,0:0:0:0:
192,192,172777,1,8,0:0:0:0:
448,192,172777,128,0,173077:0:0:0:0:
64,192,172877,1,0,0:0:0:0:
320,192,172977,1,0,0:0:0:0:
192,192,173077,1,0,0:0:0:0:
320,192,173177,128,2,173277:0:0:0:0:
448,192,173177,1,4,0:0:0:40:normal-hitfinish.wav
320,192,173377,128,0,173577:0:0:0:0:
64,192,173577,1,8,0:0:0:0:
448,192,173577,1,0,0:0:0:0:
192,192,173677,128,0,173777:0:0:0:0:
320,192,173877,128,0,174077:0:0:0:0:
64,192,173977,1,2,0:0:0:0:
192,192,173977,1,0,0:0:0:0:
448,192,174077,128,0,174177:0:0:0:0:
192,192,174177,128,0,174277:0:0:0:0:
320,192,174277,128,0,174377:0:0:0:0:
64,192,174377,1,8,0:0:0:0:
448,192,174377,1,0,0:0:0:0:
192,192,174477,128,0,174577:0:0:0:0:
320,192,174577,1,0,0:0:0:0:
64,192,174677,1,0,0:0:0:0:
320,192,174777,1,2,0:0:0:0:
448,192,174777,1,0,0:0:0:0:
192,192,174877,1,0,0:0:0:0:
448,192,174977,128,0,175177:0:0:0:0:
64,192,175177,128,8,175577:0:0:0:0:
320,192,175177,1,0,0:0:0:0:
192,192,175377,128,0,175577:0:0:0:0:
320,192,175577,1,2,0:0:0:0:
448,192,175577,128,0,175777:0:0:0:0:
192,192,175777,128,0,175977:0:0:0:0:
448,192,175877,1,0,0:0:0:0:
64,192,175977,128,8,176377:0:0:0:0:
320,192,175977,128,0,176177:0:0:0:0:
192,192,176177,128,0,176377:0:0:0:0:
320,192,176377,128,2,176477:0:0:0:0:
448,192,176377,1,0,0:0:0:0:
320,192,176577,128,0,176777:0:0:0:0:
64,192,176777,128,8,177077:0:0:0:0:
448,192,176777,1,0,0:0:0:0:
192,192,177077,128,0,177177:0:0:0:0:
320,192,177177,128,2,177577:0:0:0:0:
448,192,177177,1,0,0:0:0:0:
192,192,177277,1,0,0:0:0:0:
64,192,177577,1,8,0:0:0:0:
448,192,177577,1,0,0:0:0:0:
320,192,177777,1,0,0:0:0:0:
64,192,177977,1,2,0:0:0:0:
192,192,177977,1,0,0:0:0:0:
320,192,178077,1,0,0:0:0:0:
64,192,178277,1,0,0:0:0:0:
192,192,178377,1,8,0:0:0:0:
448,192,178377,1,0,0:0:0:0:
320,192,178577,128,0,178777:0:0:0:0:
64,192,178777,128,2,179177:0:0:0:0:
192,192,178777,1,0,0:0:0:0:
320,192,178977,128,0,179177:0:0:0:0:
192,192,179177,128,8,179377:0:0:0:0:
448,192,179177,128,0,179577:0:0:0:0:
64,192,179577,128,2,179677:0:0:0:0:
192,192,179577,1,4,0:0:0:40:normal-hitfinish.wav
64,192,179777,128,0,179977:0:0:0:0:
192,192,179977,1,8,0:0:0:0:
448,192,179977,1,0,0:0:0:0:
320,192,180177,1,0,0:0:0:0:
192,192,180277,128,0,180477:0:0:0:0:
320,192,180377,1,2,0:0:0:0:
448,192,180377,1,0,0:0:0:0:
64,192,180477,128,0,180577:0:0:0:0:
448,192,180577,128,0,180677:0:0:0:0:
192,192,180677,128,0,180777:0:0:0:0:
64,192,180777,1,8,0:0:0:0:
320,192,180777,1,0,0:0:0:0:
448,192,180877,1,0,0:0:0:0:
192,192,180977,1,0,0:0:0:0:
320,192,181077,128,0,181177:0:0:0:0:
64,192,181177,1,2,0:0:0:0:
192,192,181177,1,0,0:0:0:0:
448,192,181277,1,0,0:0:0:0:
320,192,181377,1,0,0:0:0:0:
64,192,181477,1,0,0:0:0:0:
448,192,181527,1,0,0:0:0:0:
192,192,181577,1,8,0:0:0:0:
320,192,181643,1,0,0:0:0:30:tom01.wav
64,192,181710,1,0,0:0:0:30:tom01.wav
192,192,181777,1,0,0:0:0:30:tom03.wav
448,192,181843,1,0,0:0:0:30:tom03.wav
320,192,181910,1,0,0:0:0:30:tom03.wav
64,192,181977,1,2,0:0:0:0:
192,192,181977,1,0,0:0:0:0:
448,192,182110,1,0,0:0:0:30:tom01.wav
320,192,182243,1,0,0:0:0:30:tom02.wav
192,192,182377,1,0,0:0:0:30:tom03.wav
64,192,182510,1,0,0:0:0:30:tom03.wav
320,192,182643,1,0,0:0:0:30:tom04.wav
64,192,182777,1,2,0:0:0:0:
192,192,182777,1,4,0:0:0:0:
448,192,182777,1,0,0:0:0:30:tom04.wav
320,192,183910,1,0,0:0:0:0:
448,192,183977,128,0,184177:0:0:0:0:
192,192,184243,1,0,0:0:0:0:
448,192,184310,1,0,0:0:0:0:
320,192,184377,128,0,184577:0:0:0:0:
64,192,184643,1,0,0:0:0:0:
320,192,184710,1,0,0:0:0:0:
192,192,184777,128,0,184977:0:0:0:0:
448,192,185043,1,0,0:0:0:0:
192,192,185110,1,0,0:0:0:0:
64,192,185177,128,0,185377:0:0:0:0:
320,192,185443,1,0,0:0:0:0:
64,192,185510,1,0,0:0:0:0:
448,192,185577,128,0,185777:0:0:0:0:
192,192,185977,1,0,0:0:0:0:
64,192,186177,1,0,0:0:0:0:
320,192,186377,1,0,0:0:0:0:
448,192,186577,1,0,0:0:0:0:
192,192,186777,1,0,0:0:0:0:
64,192,186910,1,0,0:0:0:0:
320,192,187043,1,0,0:0:0:0:
448,192,187177,1,0,0:0:0:0:
192,192,187310,1,0,0:0:0:0:
64,192,187443,1,0,0:0:0:0:
320,192,187577,1,0,0:0:0:0:
448,192,187677,1,0,0:0:0:0:
192,192,187777,1,0,0:0:0:0:
64,192,187843,1,0,0:0:0:0:
320,192,187910,1,0,0:0:0:0:
448,192,187977,1,0,0:0:0:0:
192,192,188027,1,0,0:0:0:0:
64,192,188077,1,0,0:0:0:0:
320,192,188127,1,0,0:0:0:0:
448,192,188177,1,0,0:0:0:0:
192,192,188227,1,0,0:0:0:0:
64,192,188277,1,0,0:0:0:0:
320,192,188327,1,0,0:0:0:0:
448,192,188377,1,0,0:0:0:0:
192,192,188752,1,0,0:0:0:0:
320,192,188827,128,0,189027:0:0:0:0:
64,192,189177,1,0,0:0:0:40:bel.wav
448,192,189177,1,0,0:0:0:0:
192,192,189277,128,0,189477:0:0:0:0:
320,192,189377,1,0,0:0:0:0:
64,192,189577,1,0,0:0:0:0:
192,192,189777,1,0,0:0:0:0:
64,192,189977,1,0,0:0:0:0:
192,192,190177,1,0,0:0:0:0:
64,192,190377,128,0,190577:0:0:0:0:
192,192,190577,1,0,0:0:0:0:
448,192,190777,1,0,0:0:0:0:
320,192,190827,128,0,191027:0:0:0:0:
64,192,190977,1,0,0:0:0:0:
448,192,191177,1,0,0:0:0:0:
64,192,191377,1,0,0:0:0:0:
448,192,191577,1,0,0:0:0:0:
64,192,191777,1,0,0:0:0:0:
448,192,191977,1,0,0:0:0:0:
192,192,192077,128,0,192277:0:0:0:0:
64,192,192177,1,0,0:0:0:0:
448,192,192377,1,0,0:0:0:0:
320,192,192477,128,0,192677:0:0:0:0:
192,192,192577,1,0,0:0:0:0:
448,192,192777,1,0,0:0:0:0:
192,192,192977,1,0,0:0:0:0:
448,192,193177,1,0,0:0:0:0:
192,192,193377,1,0,0:0:0:0:
448,192,193577,1,0,0:0:0:0:
192,192,193777,1,0,0:0:0:0:
320,192,193977,1,0,0:0:0:0:
64,192,194177,1,0,0:0:0:0:
320,192,194377,1,0,0:0:0:0:
64,192,194577,1,0,0:0:0:0:
320,192,194777,1,0,0:0:0:0:
64,192,194977,1,0,0:0:0:0:
320,192,195177,1,0,0:0:0:0:
448,192,195277,128,0,195477:0:0:0:0:
320,192,195577,1,0,0:0:0:0:
192,192,195677,128,0,195877:0:0:0:0:
64,192,195777,1,0,0:0:0:0:
448,192,195977,1,0,0:0:0:0:
320,192,196177,1,0,0:0:0:0:
448,192,196399,1,0,0:0:0:0:
320,192,196604,1,0,0:0:0:0:
448,192,196809,1,0,0:0:0:0:
64,192,196861,128,0,197066:0:0:0:0:
320,192,197015,1,0,0:0:0:0:
448,192,197220,1,0,0:0:0:0:
320,192,197272,128,0,197484:0:0:0:0:
64,192,197431,1,0,0:0:0:0:
448,192,197642,1,0,0:0:0:0:
64,192,197853,1,0,0:0:0:0:
448,192,198065,1,0,0:0:0:0:
64,192,198280,1,0,0:0:0:0:
448,192,198496,1,0,0:0:0:0:
192,192,198604,128,0,198820:0:0:0:0:
64,192,198712,1,0,0:0:0:0:
448,192,198928,1,0,0:0:0:0:
192,192,199150,1,0,0:0:0:0:
320,192,199205,128,0,199428:0:0:0:0:
448,192,199372,1,0,0:0:0:0:
192,192,199594,1,0,0:0:0:0:
448,192,199816,1,0,0:0:0:0:
192,192,200043,1,0,0:0:0:0:
448,192,200270,1,0,0:0:0:0:
192,192,200500,1,0,0:0:0:0:
320,192,200731,1,0,0:0:0:0:
192,192,200967,1,0,0:0:0:0:
320,192,201210,1,0,0:0:0:0:
192,192,201470,1,0,0:0:0:0:
320,192,201742,1,0,0:0:0:0:
192,192,202042,1,0,0:0:0:0:
320,192,202364,1,0,0:0:0:0:
192,192,202697,1,0,0:0:0:0:
