osu file format v14

[General]
AudioFilename: audio.mp3
AudioLeadIn: 0
PreviewTime: 124378
Countdown: 0
SampleSet: Soft
StackLeniency: 0.3
Mode: 0
LetterboxInBreaks: 0
WidescreenStoryboard: 0

[Editor]
Bookmarks: 8378,9378,23578,24378,24578,24778,24978,25178,25578,26778,27978,30778,31578,31978,32378,36378,37978,38378,41178,42778,43578,51578,52378,53178,53978,54778,56378,57978,58778,59578,61178,63578,64378,65778,66778,66978,67078,67378,68378,68778,69178,69978,70378,70778,72178,73778,74178,74378,74778,75578,75978,76178,76778,77178,77978,78578,79578,80178,81178,83578,84978,85978,87578,88378,89178,91578,92778,93178,94778,95578,96378,97578,99178,100378,101178,101978,102778,103578,104178,105178,105778,121978,125178,128378
DistanceSpacing: 6
BeatDivisor: 16
GridSize: 8
TimelineZoom: 6.679996

[Metadata]
Title:Alone intelligence
TitleUnicode:Alone intelligence
Artist:Camellia
ArtistUnicode:Camellia
Creator:Meow01
Version:seizure
Source:
Tags:
BeatmapID:3709880
BeatmapSetID:1808825

[Difficulty]
HPDrainRate:2.5
CircleSize:4.4
OverallDifficulty:8.1
ApproachRate:9.4
SliderMultiplier:3
SliderTickRate:1

[Events]
//Background and Video events
0,0,"1086211.jpg",0,0
//Break Periods
//Storyboard Layer 0 (Background)
//Storyboard Layer 1 (Fail)
//Storyboard Layer 2 (Pass)
//Storyboard Layer 3 (Foreground)
//Storyboard Layer 4 (Overlay)
//Storyboard Sound Samples

[TimingPoints]
6378,400,4,2,0,100,1,0
6378,-250,4,2,0,10,0,0
9978,-333.333333333333,4,2,0,5,0,0
11378,-250,4,2,0,10,0,0
14278,-250,4,2,0,5,0,0
14378,-250,4,2,0,10,0,0
15878,-250,4,2,0,5,0,0
15978,-250,4,2,0,10,0,0
16378,-500,4,2,0,5,0,0
19311,-250,4,2,0,10,0,0
31578,-250,4,2,0,10,0,0
32378,-200,4,2,0,20,0,0
32978,-125,4,2,0,20,0,0
33578,-500,4,2,0,20,0,0
33978,-125,4,2,0,20,0,0
35178,-500,4,2,0,20,0,0
35578,-125,4,2,0,20,0,0
38378,-500,4,2,0,20,0,0
38778,-125,4,2,0,20,0,0
39578,-333.333333333333,4,2,0,20,0,0
39778,-125,4,2,0,20,0,0
39978,-500,4,2,0,20,0,0
40378,-125,4,2,0,20,0,0
41578,-500,4,2,0,20,0,0
41978,-125,4,2,0,20,0,0
43578,-500,4,2,0,20,0,0
44378,-1000,4,2,0,20,0,0
44778,-125,4,2,0,20,0,0
45178,-200,4,2,0,20,0,0
45778,-125,4,2,0,20,0,0
46378,-500,4,2,0,20,0,0
47178,-125,4,2,0,20,0,0
47978,-500,4,2,0,20,0,0
48378,-125,4,2,0,20,0,0
49178,-142.857142857143,4,2,0,20,0,0
49978,-166.666666666667,4,2,0,20,0,0
50778,-200,4,2,0,20,0,0
51578,-250,4,2,0,20,0,0
57978,-250,4,2,0,10,0,0
59578,-500,4,2,0,5,0,0
63578,-66.6666666666667,4,2,0,40,0,0
64378,-100,4,2,0,40,0,0
64978,-250,4,2,0,60,0,0
65178,-66.6666666666667,4,2,0,60,0,0
65778,-100,4,2,0,60,0,0
66778,-66.6666666666667,4,2,0,60,0,0
67378,-100,4,2,0,60,0,0
68378,-66.6666666666667,4,2,0,60,0,0
68678,-133.333333333333,4,2,0,60,0,0
68878,-66.6666666666667,4,2,0,60,0,0
70378,-500,4,2,0,60,0,0
70778,-100,4,2,0,60,0,0
71578,-62.5,4,2,0,60,0,0
72178,-100,4,2,0,60,0,0
73178,-58.8235294117647,4,2,0,60,0,0
73778,-133.333333333333,4,2,0,60,0,0
74178,-100,4,2,0,60,0,0
74778,-90.9090909090909,4,2,0,60,0,0
74911,-90.9090909090909,4,2,0,50,0,0
75044,-90.9090909090909,4,2,0,40,0,0
75178,-90.9090909090909,4,2,0,30,0,0
75311,-90.9090909090909,4,2,0,20,0,0
75444,-90.9090909090909,4,2,0,10,0,0
75578,-100,4,2,0,60,0,0
76378,-90.9090909090909,4,2,0,60,0,0
77178,-250,4,2,0,60,0,0
77978,-66.6666666666667,4,2,0,60,0,0
78578,-133.333333333333,4,2,0,60,0,0
79378,-500,4,2,0,60,0,0
79578,-58.8235294117647,4,2,0,60,0,0
79978,-100,4,2,0,60,0,0
80178,-100,4,2,0,60,0,0
80778,-74.6268656716418,4,2,0,60,0,0
81178,-66.6666666666667,4,2,0,60,0,0
81578,-66.6666666666667,4,2,0,60,0,0
81978,-100,4,2,0,60,0,0
82778,-66.6666666666667,4,2,0,60,0,0
83178,-133.333333333333,4,2,0,60,0,0
83578,-100,4,2,0,60,0,0
84278,-500,4,2,0,60,0,0
84978,-200,4,2,0,60,0,0
85978,-166.666666666667,4,2,0,60,0,0
86778,-125,4,2,0,60,0,0
89178,-500,4,2,0,60,0,0
89978,-125,4,2,0,60,0,0
92778,-66.6666666666667,4,2,0,60,0,0
93078,-250,4,2,0,60,0,0
93178,-125,4,2,0,60,0,0
94778,-66.6666666666667,4,2,0,60,0,0
95178,-40,4,2,0,60,0,0
95378,-100,4,2,0,60,0,0
95478,-66.6666666666667,4,2,0,60,0,0
95978,-66.6666666666667,4,2,0,60,0,0
96378,-125,4,2,0,60,0,0
99178,-500,4,2,0,10,0,0
99578,-100,4,2,0,60,0,0
99978,-83.3333333333333,4,2,0,60,0,0
100378,-71.4285714285714,4,2,0,60,0,0
100778,-62.5,4,2,0,60,0,0
100878,-125,4,2,0,60,0,0
100978,-250,4,2,0,60,0,0
101078,-500,4,2,0,60,0,0
101178,-50,4,2,0,60,0,0
101578,-40,4,2,0,60,0,0
101978,-200,4,2,0,60,0,0
102778,-55.5555555555556,4,2,0,60,0,0
104178,-100,4,2,0,60,0,0
104378,-66.6666666666667,4,2,0,60,0,0
105953,-66.6666666666667,4,2,0,5,0,0
105978,-66.6666666666667,4,2,0,60,0,0
106778,-133.333333333333,4,2,0,60,0,0
107778,-250,4,2,0,60,0,0
107978,-125,4,2,0,60,0,0
108378,-76.9230769230769,4,2,0,60,0,0
108778,-55.5555555555556,4,2,0,60,0,0
110578,-100,4,2,0,60,0,0
110778,-55.5555555555556,4,2,0,60,0,0
111478,-250,4,2,0,60,0,0
111578,-55.5555555555556,4,2,0,60,0,0
112178,-100,4,2,0,60,0,0
112578,-55.5555555555556,4,2,0,60,0,0
112778,-100,4,2,0,60,0,0
112978,-55.5555555555556,4,2,0,60,0,0
113178,-125,4,2,0,60,0,0
113978,-66.6666666666667,4,2,0,60,0,0
114778,-125,4,2,0,60,0,0
115578,-66.6666666666667,4,2,0,60,0,0
115878,-181.818181818181,4,2,0,60,0,0
117178,-100,4,2,0,60,0,0
117378,-181.818181818181,4,2,0,60,0,0
118578,-100,4,2,0,60,0,0
124978,-1000,4,2,0,60,0,0
125178,-133.333333333333,4,2,0,60,0,0
128778,-100,4,2,0,60,0,0
134578,-50,4,2,0,60,0,0
134678,-100,4,2,0,60,0,0
136178,-133.333333333333,4,2,0,60,0,0
139178,-100,4,2,0,60,0,0
139278,-133.333333333333,4,2,0,60,0,0
141878,-50,4,2,0,60,0,0
141928,-133.333333333333,4,2,0,60,0,0
141978,-66.6666666666667,4,2,0,60,0,0
142028,-133.333333333333,4,2,0,60,0,0
143778,-666.666666666658,4,2,0,60,0,0
143878,-133.333333333333,4,2,0,5,0,0
143978,-133.333333333333,4,2,0,60,0,0
146978,-50,4,2,0,60,0,0
147078,-133.333333333333,4,2,0,60,0,0
152378,-285.714285714284,4,2,0,60,0,0
152778,-133.333333333333,4,2,0,60,0,0
153978,-74.074074074074,4,2,0,60,0,0
154178,-181.818181818181,4,2,0,60,0,0
154378,-66.6666666666667,4,2,0,60,0,0
154711,-181.818181818181,4,2,0,60,0,0
157178,-66.6666666666667,4,2,0,60,0,0
157578,-100,4,2,0,60,0,0
159178,-46.2962962962963,4,2,0,60,0,0
159578,-66.6666666666667,4,2,0,60,0,0
159878,-100,4,2,0,60,0,0
160378,-58.8235294117647,4,2,0,60,0,0
160511,-178.571428571429,4,2,0,60,0,0
160711,-58.8235294117647,4,2,0,60,0,0
161578,-58.8235294117647,4,2,0,60,0,0
163178,-100,4,2,0,60,0,0
163578,-66.6666666666667,4,2,0,60,0,0
163778,-100,4,2,0,60,0,0
166578,-66.6666666666667,4,2,0,60,0,0
166844,-55.5555555555556,4,2,0,60,0,0
167111,-66.6666666666667,4,2,0,60,0,0
168778,-50,4,2,0,60,0,0
168828,-40,4,2,0,60,0,0
168978,-50,4,2,0,60,0,0
169111,-66.6666666666667,4,2,0,60,0,0
170878,-66.6666666666667,4,2,0,60,0,0
172778,-50,4,2,0,60,0,0
173078,-66.6666666666667,4,2,0,60,0,0
176778,-45.4545454545455,4,2,0,60,0,0
177178,-66.6666666666667,4,2,0,60,0,0
180378,-133.333333333333,4,2,0,60,0,0
195578,406.779661016949,4,2,0,100,1,0
196391,413.793103448276,4,2,0,100,1,0
197218,421.052631578947,4,2,0,100,1,0
198060,433.212996389892,4,2,0,100,1,0
198926,444.444444444444,4,2,0,100,1,0
199814,452.830188679245,4,2,0,100,1,0
200266,461.538461538462,4,2,0,100,1,0
200727,470.588235294118,4,2,0,100,1,0
200962,489.795918367347,4,2,0,100,1,0
201206,521.739130434783,4,2,0,100,1,0
201466,545.454545454546,4,2,0,100,1,0
201738,600,4,2,0,100,1,0
202038,648.648648648649,4,2,0,100,1,0
202362,666.666666666667,4,2,0,100,1,0

[Colours]
Combo1 : 6,255,255
Combo2 : 255,255,255
Combo3 : 53,154,255

[HitObjects]
108,0,6378,6,0,P|55:19|59:59,1,105
71,68,6778,2,8,B|150:116|103:202|103:202|48:302|151:326|159:241|121:235,1,330,10|8,0:0|0:0,0:0:0:0:
184,179,7978,6,0,P|151:231|160:271,1,105
169,276,8378,2,0,B|280:376|413:307|413:307|432:343|486:352,1,330
486,352,9578,6,0,P|447:296|443:263,1,90
440,260,9978,2,0,B|451:348|451:348|385:275|336:247|336:247|303:265|286:265,1,292.499991073609,2|0,0:0|0:0,0:0:0:0:
273,270,11378,5,2,0:0:0:0:
262,276,11478,2,0,P|250:285|243:295,4,15,2|0|0|0|0,0:0|0:0|0:0|0:0|0:0,0:0:0:0:
376,357,12778,5,0,0:0:0:0:
372,364,13178,2,0,B|391:335|341:297|284:344|316:434|402:447|480:360|369:253|459:206,1,330,2|0,0:0|0:0,0:0:0:0:
480,192,14378,5,0,0:0:0:0:
473,185,14778,2,0,B|383:169|346:81|346:81|359:174|275:233,1,345,2|0,0:0|0:0,0:0:0:0:
267,236,15978,2,0,P|226:248|252:214,1,105
258,204,16378,6,0,B|300:206|323:175|323:175|285:323,1,225,2|0,0:0|0:0,0:0:0:0:
281,343,17978,6,0,P|312:321|369:319,1,97.5
480,248,18778,2,0,L|423:264,1,60
320,192,19311,6,0,P|294:184|260:182,1,40
280,250,19578,2,0,B|312:165|417:136|451:166|451:166|424:168|396:186|388:216,1,300
406,298,20778,6,0,P|444:326|479:304,1,90
458,238,21178,2,0,B|425:244|425:244|380:377|380:377|383:234|383:234|352:215,1,345,2|0,0:0|0:0,0:0:0:0:
290,258,22378,6,0,L|186:222,1,90
192,136,22778,5,0,0:0:0:0:
113,157,22978,1,0,0:0:0:0:
25,181,23178,1,0,0:0:0:0:
160,24,23378,1,0,0:0:0:0:
192,96,23578,5,0,0:0:0:0:
128,128,23778,1,0,0:0:0:0:
152,192,23978,1,0,0:0:0:0:
184,120,24178,1,0,0:0:0:0:
118,93,24378,5,0,0:0:0:0:
72,208,24578,1,0,0:0:0:0:
176,248,24778,1,0,0:0:0:0:
136,384,24978,1,0,0:0:0:0:
32,352,25178,1,0,0:0:0:0:
504,107,25978,5,0,0:0:0:0:
409,135,26178,1,0,0:0:0:0:
316,159,26378,1,0,0:0:0:0:
243,97,26578,1,0,0:0:0:0:
344,12,26778,5,0,0:0:0:0:
316,159,26978,1,0,0:0:0:0:
200,240,27178,5,0,0:0:0:0:
228,93,27378,1,0,0:0:0:0:
408,200,27578,5,0,0:0:0:0:
380,347,27778,1,0,0:0:0:0:
316,159,27978,5,0,0:0:0:0:
344,12,28178,1,0,0:0:0:0:
345,171,28378,6,0,L|337:238,1,60
241,338,28778,2,0,L|228:280,1,60
208,192,29178,5,0,0:0:0:0:
244,338,29378,1,0,0:0:0:0:
341,313,29578,1,0,0:0:0:0:
216,208,29778,1,0,0:0:0:0:
304,384,29978,5,0,0:0:0:0:
360,296,30178,1,0,0:0:0:0:
240,304,30378,5,0,0:0:0:0:
400,384,30578,1,0,0:0:0:0:
381,234,30778,5,0,0:0:0:0:
272,384,30978,1,0,0:0:0:0:
280,272,31178,5,0,0:0:0:0:
384,352,31378,1,0,0:0:0:0:
288,184,31578,6,0,L|260:196,1,30
193,228,31778,1,0,0:0:0:0:
46,138,31978,6,0,B|52:126|49:103|49:103|56:131|83:157,1,90
97,172,32378,6,0,B|133:214|138:261|138:261|110:307|110:307|119:256|79:207,1,262.5
30,156,33178,1,0,0:0:0:0:
30,156,33578,6,0,P|57:142|77:139,1,45
144,104,33978,5,0,0:0:0:0:
217,214,34178,1,0,0:0:0:0:
98,274,34378,1,0,0:0:0:0:
172,384,34578,1,0,0:0:0:0:
302,269,34778,5,0,0:0:0:0:
302,269,35178,2,0,P|276:281|254:287,1,45
182,324,35578,5,0,0:0:0:0:
256,344,35778,1,0,0:0:0:0:
327,361,35978,5,0,0:0:0:0:
416,234,36178,1,0,0:0:0:0:
288,192,36378,5,0,0:0:0:0:
457,226,36578,1,0,0:0:0:0:
272,159,36778,5,0,0:0:0:0:
485,205,36978,1,0,0:0:0:0:
263,130,37178,5,0,0:0:0:0:
446,273,37378,1,0,0:0:0:0:
319,76,37578,1,0,0:0:0:0:
381,329,37778,1,0,0:0:0:0:
392,32,37978,6,0,P|403:67|389:73,2,60
117,42,38378,5,0,0:0:0:0:
112,48,38478,2,0,P|102:62|104:79,1,30
261,271,38778,6,0,P|233:219|239:96,1,180
271,40,39178,5,0,0:0:0:0:
329,0,39378,1,0,0:0:0:0:
360,232,39578,2,0,L|370:281,1,44.999998626709
456,144,39978,6,0,L|474:141,2,15
336,80,40378,6,0,B|297:85|276:125|276:125|244:83|178:86,1,180
128,152,40778,1,0,0:0:0:0:
272,32,40978,1,0,0:0:0:0:
184,0,41178,2,0,P|196:37|210:136,1,120
256,224,41478,5,0,0:0:0:0:
256,224,41578,2,0,L|269:177,1,45
444,180,41978,5,8,0:0:0:0:
510,193,42178,1,0,0:0:0:0:
391,97,42378,5,0,0:0:0:0:
327,134,42578,1,0,0:0:0:0:
262,170,42778,2,0,P|215:140|138:147,1,120
66,173,43178,5,0,0:0:0:0:
0,210,43378,1,0,0:0:0:0:
32,72,43578,6,0,P|60:78|75:84,1,45
97,101,43978,1,0,0:0:0:0:
192,48,44378,6,0,P|192:29|201:16,1,30
213,4,44911,1,0,0:0:0:0:
252,64,45044,1,0,0:0:0:0:
220,129,45178,6,0,P|197:157|185:204,1,75
344,288,45578,2,0,P|339:251|315:209,1,75
255,180,45978,5,0,0:0:0:0:
255,180,46378,2,0,P|236:200|208:207,1,52.5
161,179,46778,6,0,P|128:179|105:186,1,52.5
89,201,47178,1,0,0:0:0:0:
139,253,47378,1,0,0:0:0:0:
150,327,47578,1,0,0:0:0:0:
150,327,47978,6,0,P|174:321|197:323,1,45
285,377,48378,5,0,0:0:0:0:
249,262,48578,1,0,0:0:0:0:
146,198,48778,6,0,B|83:188|83:188|46:207|46:207|124:216,1,180
249,262,49178,2,0,P|293:257|372:266,1,104.999996795654
274,84,49478,1,0,0:0:0:0:
196,120,49578,2,0,P|162:106|91:106,1,104.999996795654
244,360,49978,5,0,0:0:0:0:
350,273,50178,1,0,0:0:0:0:
296,136,50378,2,0,P|295:102|297:46,1,89.9999972534181
478,160,50778,5,0,0:0:0:0:
475,182,50878,1,0,0:0:0:0:
470,201,50978,2,0,L|468:251,1,37.5
417,286,51178,2,0,P|434:313|451:363,1,75
343,132,51578,5,0,0:0:0:0:
385,15,51778,1,0,0:0:0:0:
281,62,51978,6,0,P|251:65|221:70,1,60
39,108,52378,5,0,0:0:0:0:
112,112,52578,1,0,0:0:0:0:
264,216,52778,1,0,0:0:0:0:
192,208,52978,1,0,0:0:0:0:
64,315,53178,6,0,L|72:340,4,15
184,224,53578,5,0,0:0:0:0:
184,312,53778,1,0,0:0:0:0:
267,368,53978,2,0,P|299:339|352:338,1,90
421,366,54378,5,0,0:0:0:0:
411,383,54578,1,0,0:0:0:0:
341,344,54778,5,0,0:0:0:0:
352,264,54978,1,0,0:0:0:0:
426,229,55178,1,0,0:0:0:0:
320,384,55378,5,0,0:0:0:0:
248,328,55578,1,0,0:0:0:0:
216,240,55778,1,0,0:0:0:0:
352,168,55978,5,0,0:0:0:0:
294,225,56178,1,0,0:0:0:0:
261,146,56378,6,0,L|268:130,4,15
479,164,56778,5,0,0:0:0:0:
400,240,56978,1,0,0:0:0:0:
296,120,57178,1,0,0:0:0:0:
408,32,57378,1,0,0:0:0:0:
318,46,57578,5,0,0:0:0:0:
450,222,57778,1,0,0:0:0:0:
472,20,57978,5,0,0:0:0:0:
487,28,58178,1,0,0:0:0:0:
496,41,58378,1,0,0:0:0:0:
304,128,58578,5,0,0:0:0:0:
289,136,58778,1,0,0:0:0:0:
280,149,58978,1,0,0:0:0:0:
424,365,59178,5,0,0:0:0:0:
415,295,59378,1,0,0:0:0:0:
406,223,59578,1,0,0:0:0:0:
233,37,59778,5,0,0:0:0:0:
328,56,59978,1,0,0:0:0:0:
424,72,60178,1,0,0:0:0:0:
512,219,60378,5,0,0:0:0:0:
336,176,60578,1,0,0:0:0:0:
384,352,60778,1,0,0:0:0:0:
416,256,60978,5,0,0:0:0:0:
256,192,61178,12,0,63478,0:0:0:0:
391,37,63578,6,0,B|364:50|364:50|352:83,7,56.2500021457673
450,157,63978,2,0,B|452:127|452:127|429:100,6,56.2500021457673
250,169,64378,6,0,B|220:162|220:162|122:280|122:280|89:272|89:272|238:94,1,450
317,128,65078,1,0,0:0:0:0:
328,112,65178,6,0,P|330:57|292:9,1,112.500004291535
232,304,65378,5,0,0:0:0:0:
306,352,65478,2,0,L|442:336,1,112.500004291535
499,320,65678,6,0,P|504:331|497:325,2,28.1250010728836
437,265,65778,2,0,B|355:227|394:46|491:78|491:78|445:116|450:157|450:157|314:154|236:43,1,600
180,17,66678,1,0,0:0:0:0:
164,19,66778,6,0,P|120:53|108:107,1,112.500004291535
180,156,66978,1,0,0:0:0:0:
198,170,67078,6,0,B|221:188|221:188|219:216,2,56.2500021457673
58,194,67278,5,0,0:0:0:0:
52,213,67378,2,0,B|43:248|13:273|13:273|250:158,1,300
318,124,67878,1,0,0:0:0:0:
304,136,67978,2,0,B|259:224|333:270|333:270|304:224|323:188,1,225
230,290,68378,6,0,P|255:338|312:361,1,112.500004291535
386,370,68578,1,0,0:0:0:0:
500,234,68678,2,0,L|445:246,1,56.2500021457673
321,120,68878,2,0,B|374:86|374:86|438:112,2,112.500004291535
424,349,69178,5,0,0:0:0:0:
436,329,69244,5,0,0:0:0:0:
448,323,69311,5,0,0:0:0:0:
460,323,69378,6,0,P|479:327|504:361,2,56.2500021457673
232,160,69578,5,0,0:0:0:0:
225,182,69644,5,0,0:0:0:0:
214,196,69711,5,0,0:0:0:0:
195,206,69778,6,0,L|131:221,2,56.2500021457673
212,384,69978,5,0,0:0:0:0:
227,368,70078,5,0,0:0:0:0:
240,350,70178,5,0,0:0:0:0:
275,292,70278,5,0,0:0:0:0:
279,225,70378,6,0,L|276:210,1,10
219,118,70511,6,0,L|221:127,1,10
166,211,70644,6,0,L|163:201,1,10
103,146,70778,6,0,B|95:118|52:96|52:96|165:117|165:117|174:123|174:123|225:133|225:133|234:141|234:141|407:165|407:165|352:169|324:211,1,525
319,219,71578,6,0,P|302:275|323:330,1,120,0|0,3:0|3:0,3:0:0:0:
403,163,71778,5,0,0:0:0:0:
423,170,71878,2,0,P|480:159|513:107,1,120
248,37,72078,5,0,0:0:0:0:
233,58,72178,2,0,B|86:213|-52:33|188:-22|331:204|331:204|263:167|180:195|178:242,1,675
173,252,73178,6,0,P|196:312|241:356,1,127.50000243187
264,373,73378,1,0,0:0:0:0:
275,358,73478,6,0,P|375:290|482:348,1,255.000004863739
512,224,73778,2,0,P|431:218|378:155,1,168.750006437302
456,72,74178,6,0,B|477:119|477:119|464:139,1,75
377,154,74378,2,0,B|338:157|338:157|271:126|271:126|257:83,1,150
256,0,74778,5,2,0:0:0:0:
186,29,74911,1,2,0:0:0:0:
184,108,75044,1,2,0:0:0:0:
142,17,75178,5,2,0:0:0:0:
104,78,75311,1,2,0:0:0:0:
63,135,75444,1,2,0:0:0:0:
139,154,75578,2,0,B|174:152|244:174|234:254|234:254|264:230|296:243,1,225
455,184,75978,2,0,B|382:164,1,75
311,128,76178,6,0,L|325:123,5,15
418,78,76378,5,0,0:0:0:0:
344,117,76478,1,0,0:0:0:0:
322,200,76578,1,0,0:0:0:0:
346,284,76678,1,0,0:0:0:0:
400,322,76778,1,0,0:0:0:0:
450,325,76878,1,0,0:0:0:0:
479,309,76978,1,0,0:0:0:0:
485,295,77078,1,0,0:0:0:0:
432,247,77178,6,0,B|315:245|374:344|255:360,1,210
233,357,77978,5,8,0:0:0:0:
175,324,78078,1,8,0:0:0:0:
154,251,78178,1,8,0:0:0:0:
193,184,78278,2,8,P|246:225|271:268,1,112.500004291535
343,384,78478,6,0,P|328:367|320:324,1,56.2500021457673
359,269,78578,2,0,B|417:148|340:14|198:-9|198:-9|240:31|244:72|211:119,1,506.250019311906
237,136,79578,5,0,0:0:0:0:
246,160,79678,1,0,0:0:0:0:
244,191,79778,1,0,0:0:0:0:
199,244,79878,1,0,0:0:0:0:
124,247,79978,2,0,P|110:230|108:203,2,37.5
110,130,80178,6,0,B|130:81|226:92|230:130|232:191|232:191|232:290|232:290|275:308|278:355,1,375
199,360,80778,6,0,B|150:342|150:342|140:236|140:236|65:196|65:196|29:124,1,301.499985738373
359,144,81178,2,0,B|333:195|333:195|258:235|258:235|248:341|248:341|199:359,1,301.499985738373
198,359,81578,6,0,B|171:322|172:262|194:166|194:166|220:256|223:318|196:360,1,393.750015020371,0|0,3:0|3:0,3:0:0:0:
198,356,81978,6,0,B|159:331|159:331|132:185|132:185|103:171,1,225
0,173,82377,6,0,B|43:182|43:182|166:98|166:98|196:107,1,225
216,117,82778,1,0,0:0:0:0:
258,141,82878,1,0,0:0:0:0:
277,212,82978,1,0,0:0:0:0:
234,271,83078,1,0,0:0:0:0:
279,332,83178,1,0,0:0:0:0:
343,287,83278,1,0,0:0:0:0:
294,334,83378,1,0,0:0:0:0:
230,294,83478,1,0,0:0:0:0:
156,316,83578,6,0,P|122:326|81:319,2,75
264,216,83878,1,0,0:0:0:0:
286,197,83978,6,0,P|320:187|360:193,2,75
131,176,84278,1,0,0:0:0:0:
129,142,84378,2,0,L|135:128,1,15
164,62,84578,5,0,0:0:0:0:
197,338,84778,5,0,3:0:0:0:
216,332,84878,1,0,3:0:0:0:
234,318,84978,2,0,B|285:288|316:190|283:138|180:134|155:199|180:250,1,300,0|0,3:0|3:0,3:0:0:0:
342,355,85978,6,0,B|382:349|406:381|406:381|407:363|433:331|459:339,1,134.999995880127
405,267,86378,2,0,L|390:283,2,22.4999993133545
484,183,86578,5,0,0:0:0:0:
461,182,86978,2,0,P|492:182|515:205,1,60
407,382,87178,2,0,P|398:293|362:211,1,180
277,176,87578,5,0,0:0:0:0:
289,241,87678,1,0,0:0:0:0:
259,310,87778,1,0,0:0:0:0:
202,350,87878,1,0,0:0:0:0:
147,358,87978,5,0,0:0:0:0:
103,350,88078,1,0,0:0:0:0:
78,331,88178,1,0,0:0:0:0:
65,312,88278,1,0,0:0:0:0:
63,283,88378,5,0,0:0:0:0:
90,218,88478,1,0,0:0:0:0:
162,187,88578,1,0,0:0:0:0:
217,133,88678,1,0,0:0:0:0:
237,58,88778,5,0,0:0:0:0:
187,0,88878,1,0,0:0:0:0:
111,16,88978,1,0,0:0:0:0:
93,89,89078,1,0,0:0:0:0:
152,135,89178,6,0,P|201:156|241:189,1,105
258,215,89978,5,0,0:0:0:0:
277,257,90078,1,0,0:0:0:0:
346,290,90178,1,0,0:0:0:0:
407,256,90278,1,0,0:0:0:0:
468,294,90378,5,0,0:0:0:0:
442,369,90478,1,0,0:0:0:0:
387,304,90578,2,0,P|356:296|328:294,1,60
269,324,90778,5,0,0:0:0:0:
216,364,90878,1,0,0:0:0:0:
149,347,90978,1,0,0:0:0:0:
117,275,91078,1,0,0:0:0:0:
156,220,91178,5,0,0:0:0:0:
228,189,91278,1,0,0:0:0:0:
224,121,91378,2,0,P|200:113|164:110,1,60
86,160,91578,5,0,0:0:0:0:
96,217,91678,1,0,0:0:0:0:
141,255,91778,1,0,0:0:0:0:
200,253,91878,1,0,0:0:0:0:
273,215,91978,5,0,0:0:0:0:
316,139,92078,1,0,0:0:0:0:
411,101,92178,2,0,L|400:165,1,60
366,326,92378,5,0,0:0:0:0:
349,245,92478,1,0,0:0:0:0:
426,238,92578,2,0,L|490:227,1,60
512,276,92778,6,0,P|472:238|418:226,1,112.500004291535
338,384,92978,6,0,P|378:345|432:333,1,112.500004291535
504,365,93178,5,0,0:0:0:0:
476,291,93278,1,0,0:0:0:0:
415,255,93378,1,0,0:0:0:0:
343,266,93478,5,0,0:0:0:0:
288,198,93578,1,0,3:0:0:0:
208,181,93678,1,0,3:0:0:0:
145,237,93778,6,0,P|120:254|93:267,1,60,0|0,3:0|3:0,3:0:0:0:
352,109,93978,5,0,3:0:0:0:
377,187,94078,1,0,3:0:0:0:
452,224,94178,2,0,P|472:231|508:256,1,60,0|0,3:0|3:0,3:0:0:0:
253,5,94378,5,0,3:0:0:0:
221,84,94478,1,0,3:0:0:0:
153,131,94578,2,0,P|132:138|96:163,1,60,0|0,3:0|3:0,3:0:0:0:
344,32,94778,6,0,P|363:16|407:11,1,56.2500021457673
419,111,94878,6,0,P|444:109|483:130,1,56.2500021457673
436,219,94978,6,0,P|457:231|477:271,1,56.2500021457673
387,316,95078,6,0,P|397:338|390:382,1,56.2500021457673
271,233,95178,6,0,B|299:209|455:205|359:350|465:363|494:350,1,281.25
510,342,95378,1,0,0:0:0:0:
464,224,95478,1,0,0:0:0:0:
376,272,95578,2,0,B|339:244|184:240|279:384|146:406|73:377,1,337.500012874604
48,130,95978,6,0,B|97:151|97:151|0:332|0:332|68:373,1,337.500012874604
95,377,96378,5,0,0:0:0:0:
116,368,96478,1,0,0:0:0:0:
132,352,96578,1,0,0:0:0:0:
142,333,96678,1,0,0:0:0:0:
121,253,96778,5,0,0:0:0:0:
110,257,96878,1,0,0:0:0:0:
100,264,96978,1,0,0:0:0:0:
92,273,97078,1,0,0:0:0:0:
146,319,97178,5,0,0:0:0:0:
212,294,97278,1,0,0:0:0:0:
278,267,97378,1,0,0:0:0:0:
344,241,97478,1,0,0:0:0:0:
284,213,97578,5,0,0:0:0:0:
274,234,97678,1,0,0:0:0:0:
274,257,97778,1,0,0:0:0:0:
286,278,97878,1,0,0:0:0:0:
315,355,97978,5,0,0:0:0:0:
374,315,98078,1,0,0:0:0:0:
396,246,98178,1,0,0:0:0:0:
366,176,98278,1,0,0:0:0:0:
314,232,98378,5,0,0:0:0:0:
358,227,98478,1,0,0:0:0:0:
403,209,98578,1,0,0:0:0:0:
432,170,98678,1,0,0:0:0:0:
437,121,98778,5,0,0:0:0:0:
348,119,98878,1,0,0:0:0:0:
285,178,98978,1,0,0:0:0:0:
278,264,99078,1,0,0:0:0:0:
326,344,99178,6,0,P|339:361|350:385,1,45
473,300,99578,6,0,P|471:278|454:255,1,37.5
480,297,99678,2,0,P|475:276|454:256,1,37.5
487,293,99778,2,0,P|479:273|454:257,1,37.5
492,287,99878,2,0,P|480:269|453:258,1,37.5
509,274,99978,6,0,P|492:260|464:260,1,44.999998626709
512,258,100078,2,0,P|492:252|465:261,1,44.999998626709
509,241,100178,2,0,P|487:243|465:259,1,44.999998626709
501,227,100278,2,0,P|482:235|467:259,1,44.999998626709
471,204,100378,6,0,P|462:224|468:261,1,52.4999983978272
436,213,100478,2,0,P|442:234|471:259,1,52.4999983978272
415,242,100578,2,0,P|434:256|472:256,1,52.4999983978272
418,278,100678,2,0,P|442:276|470:252,1,52.4999983978272
395,291,100778,2,0,B|397:319|397:319|425:343,1,60
381,303,100878,2,0,L|390:337,1,30
368,317,100978,2,0,L|373:338,1,15
359,333,101078,2,0,L|362:345,1,7.5
354,351,101178,6,0,P|355:369|362:352,14,37.5
224,296,101578,6,0,P|217:285|212:305,14,46.875
73,341,101978,6,0,P|53:369|91:350,1,112.5
33,246,102378,2,0,P|13:218|51:237,1,112.5
134,273,102778,6,0,B|182:241|242:263|242:263|275:228|275:228|338:255|402:213,1,269.999991760254
504,248,103078,1,0,0:0:0:0:
490,383,103178,6,0,P|427:359|392:303,1,134.999995880127
490,123,103378,2,0,P|518:184|503:248,1,134.999995880127
392,200,103578,5,0,0:0:0:0:
319,182,103678,1,0,0:0:0:0:
290,250,103778,1,0,0:0:0:0:
266,320,103878,1,0,0:0:0:0:
200,300,103978,1,0,0:0:0:0:
133,285,104078,1,0,0:0:0:0:
55,269,104178,6,0,P|14:283|2:337,1,75
80,344,104378,2,0,P|133:282|235:181,1,225.000008583069
362,115,104678,1,0,0:0:0:0:
337,192,104778,2,0,P|272:202|221:168,1,112.500004291535
408,16,104978,6,0,P|425:57|476:121,1,112.500004291535
488,132,105178,5,0,0:0:0:0:
471,204,105278,1,0,0:0:0:0:
415,253,105378,1,0,0:0:0:0:
345,277,105478,1,0,0:0:0:0:
387,368,105578,1,0,0:0:0:0:
385,340,105678,1,0,0:0:0:0:
407,259,105778,6,0,B|454:113,1,112.500004291535
136,296,105978,2,0,P|207:372|297:319,1,225.000008583069
104,192,106278,5,0,0:0:0:0:
40,99,106378,2,0,P|141:72|192:163,1,225.000008583069
84,204,106678,5,0,0:0:0:0:
9,296,106778,2,0,B|15:361,1,56.2500021457673
193,164,106978,5,0,0:0:0:0:
268,256,107078,2,0,B|262:321,1,56.2500021457673
154,33,107278,5,0,0:0:0:0:
79,125,107378,2,0,B|85:190,1,56.2500021457673
83,190,107578,6,0,L|29:174,1,56.2500021457673
160,120,107778,5,0,0:0:0:0:
181,122,107844,5,0,0:0:0:0:
201,131,107911,5,0,0:0:0:0:
222,146,107978,6,0,B|245:179|265:180|265:180|230:202|227:237,1,120
56,384,108278,5,0,0:0:0:0:
0,302,108378,2,0,B|19:277|57:260|57:260|118:273|171:322,1,194.999991073609
241,384,108678,5,0,0:0:0:0:
336,345,108778,2,0,B|400:297|400:297|358:81,1,269.999991760254
232,0,109078,1,0,0:0:0:0:
104,43,109178,2,0,P|131:163|255:151,1,269.999991760254
350,60,109478,5,0,0:0:0:0:
435,256,109578,2,0,P|461:193|476:127,1,134.999995880127
222,8,109778,2,0,P|253:65|268:134,1,134.999995880127
188,369,109978,5,0,0:0:0:0:
118,309,110078,1,0,0:0:0:0:
95,221,110178,1,0,0:0:0:0:
130,134,110278,5,0,0:0:0:0:
46,167,110378,1,0,0:0:0:0:
8,257,110478,1,0,0:0:0:0:
50,347,110578,6,0,P|87:336|113:307,1,75,0|0,0:3|0:3,0:3:0:0:
221,362,110778,2,0,P|247:300|166:98,1,269.999991760254
103,43,111078,5,0,0:0:0:0:
356,130,111178,2,0,P|331:68|275:32,1,134.999995880127,0|0,3:0|3:0,3:0:0:0:
0,264,111378,2,0,P|52:198|105:169,1,134.999995880127,0|0,3:0|3:0,3:0:0:0:
255,151,111578,5,0,0:0:0:0:
334,191,111678,1,0,0:0:0:0:
384,272,111778,1,0,0:0:0:0:
346,351,111878,1,0,0:0:0:0:
256,327,111978,1,0,0:0:0:0:
231,248,112078,1,0,0:0:0:0:
264,171,112178,2,0,P|275:128|279:97,1,75
78,0,112378,2,0,P|85:37|125:158,1,150
217,260,112678,5,0,0:0:0:0:
153,357,112778,2,0,L|3:385,1,150
288,384,113044,1,0,3:0:0:0:
276,377,113111,1,0,3:0:0:0:
277,351,113178,6,0,P|304:300|313:235,1,120,0|0,3:0|3:0,3:0:0:0:
130,141,113478,5,0,0:0:0:0:
64,179,113578,2,0,P|48:204|49:234,1,60
117,287,113778,6,0,P|132:261|131:231,1,60
13,76,113978,2,0,B|-15:85|-47:79|-47:79|10:96|74:143|87:205,1,225.000008583069
117,287,114278,5,0,0:0:0:0:
41,384,114378,2,0,P|97:227|155:149,1,225.000008583069
381,225,114778,5,0,0:0:0:0:
446,197,114878,1,0,0:0:0:0:
489,148,114978,1,0,0:0:0:0:
487,73,115078,5,0,0:0:0:0:
409,100,115178,1,0,0:0:0:0:
377,175,115278,1,0,0:0:0:0:
372,264,115378,1,0,0:0:0:0:
421,330,115478,1,0,0:0:0:0:
492,356,115578,6,0,B|492:248|422:173|341:158|341:158|374:214|337:270,1,337.500012874604
315,287,115978,5,0,0:0:0:0:
297,300,116078,1,0,0:0:0:0:
229,320,116178,1,0,0:0:0:0:
167,268,116278,1,0,0:0:0:0:
174,192,116378,5,0,0:0:0:0:
242,110,116478,1,0,0:0:0:0:
161,84,116578,1,0,0:0:0:0:
81,146,116678,1,0,0:0:0:0:
84,245,116778,1,0,0:0:0:0:
168,178,116878,1,0,0:0:0:0:
148,76,116978,6,0,P|130:86|117:101,1,41.2500012588501
193,169,117178,2,0,P|251:143|349:134,1,150
447,177,117478,5,0,0:0:0:0:
383,219,117578,2,0,P|370:228|355:255,1,41.2500012588501
477,88,117778,2,0,P|474:72|459:45,1,41.2500012588501
64,11,117978,5,0,0:0:0:0:
149,38,118078,1,0,0:0:0:0:
192,120,118178,1,0,0:0:0:0:
152,211,118278,5,0,0:0:0:0:
80,155,118378,1,0,0:0:0:0:
120,80,118478,1,0,0:0:0:0:
208,32,118578,6,0,P|248:21|287:25,1,75
327,155,118778,2,0,P|269:196|277:269,1,150
409,384,119078,5,0,0:0:0:0:
464,336,119178,2,0,L|482:180,1,150
343,30,119478,5,0,0:0:0:0:
272,40,119578,2,0,B|223:48|204:91|204:91|174:63|137:68,1,150
17,236,119878,5,0,0:0:0:0:
77,285,119978,2,0,L|130:129,1,150
298,328,120278,1,0,0:0:0:0:
264,264,120378,2,0,P|265:190|315:136,1,150
428,95,120678,5,0,0:0:0:0:
392,192,120778,2,0,P|390:229|399:265,1,75
488,384,120978,5,0,0:0:0:0:
512,240,121078,1,0,0:0:0:0:
460,307,121178,5,0,0:0:0:0:
449,328,121278,1,0,0:0:0:0:
432,342,121378,1,0,0:0:0:0:
364,362,121478,1,0,0:0:0:0:
294,340,121578,1,0,0:0:0:0:
241,294,121678,1,0,0:0:0:0:
204,294,121778,1,0,0:0:0:0:
179,310,121878,1,0,0:0:0:0:
148,242,121978,6,0,P|158:231|205:226,1,60
104,339,122178,6,0,P|86:362|39:367,2,75
250,177,122478,1,0,0:0:0:0:
294,256,122578,2,0,P|289:294|290:331,1,75
57,185,122778,1,0,0:0:0:0:
101,99,122878,2,0,P|98:77|97:18,1,75
250,177,123078,1,0,0:0:0:0:
206,263,123178,2,0,P|206:289|217:347,1,75
373,148,123378,6,0,P|370:131|351:101,1,37.5
384,112,123478,2,0,P|393:94|412:75,1,37.5
383,91,123578,2,0,P|384:58|377:24,1,50
193,20,123778,5,0,0:0:0:0:
237,86,123878,2,0,P|236:120|233:171,1,75
470,356,124078,5,0,0:0:0:0:
426,289,124178,2,0,P|426:251|427:214,1,75
305,287,124378,5,0,0:0:0:0:
223,303,124478,1,0,0:0:0:0:
143,278,124578,1,0,0:0:0:0:
81,219,124678,1,0,0:0:0:0:
62,131,124778,2,0,P|69:95|88:63,1,75
231,201,124978,2,0,L|227:212,1,10
120,224,125178,5,0,0:0:0:0:
124,213,125244,5,0,0:0:0:0:
129,203,125311,5,0,0:0:0:0:
134,193,125378,5,0,0:0:0:0:
140,184,125444,5,0,0:0:0:0:
147,175,125511,5,0,0:0:0:0:
155,164,125578,5,0,0:0:0:0:
174,132,125644,5,0,0:0:0:0:
174,95,125711,5,0,0:0:0:0:
154,64,125778,5,0,0:0:0:0:
120,42,125844,5,0,0:0:0:0:
73,47,125911,5,0,0:0:0:0:
81,80,125978,1,0,0:0:0:0:
102,97,126044,1,0,0:0:0:0:
144,111,126111,1,0,0:0:0:0:
189,111,126178,1,0,0:0:0:0:
231,96,126244,1,0,0:0:0:0:
267,69,126311,1,0,0:0:0:0:
297,39,126378,1,0,0:0:0:0:
337,12,126444,1,0,0:0:0:0:
385,9,126511,1,0,0:0:0:0:
428,30,126578,1,0,0:0:0:0:
456,69,126644,1,0,0:0:0:0:
460,117,126711,1,0,0:0:0:0:
447,186,126778,6,0,L|452:223,2,28.1250010728836
350,36,126978,2,0,L|344:-1,2,28.1250010728836
262,185,127178,2,0,L|236:196,2,28.1250010728836
345,125,127378,5,0,0:0:0:0:
264,76,127478,1,0,0:0:0:0:
175,61,127578,2,0,L|101:69,1,56.2500021457673
357,138,127778,5,0,0:0:0:0:
448,195,127878,2,0,L|522:203,1,56.2500021457673
370,151,128078,5,0,0:0:0:0:
402,272,128178,2,0,L|448:329,1,56.2500021457673
352,341,128378,5,0,0:0:0:0:
288,385,128478,1,0,0:0:0:0:
211,388,128578,1,0,0:0:0:0:
144,348,128678,1,0,0:0:0:0:
84,291,128778,6,0,P|46:262|21:250,1,75
40,98,128978,2,0,P|36:135|49:169,1,75
78,196,129178,6,0,L|149:169,1,50
208,56,129311,1,0,0:0:0:0:
232,248,129444,1,0,0:0:0:0:
312,104,129577,2,0,L|296:5,1,100
375,28,129778,5,0,0:0:0:0:
452,86,129878,1,0,0:0:0:0:
488,172,129978,1,0,0:0:0:0:
421,185,130078,1,0,0:0:0:0:
384,119,130178,1,0,0:0:0:0:
402,48,130278,1,0,0:0:0:0:
474,25,130378,2,0,P|491:29|502:44,2,37.5000014305115
365,138,130578,6,0,B|338:152|338:152|295:134,1,75
41,114,130778,5,0,0:0:0:0:
111,140,130878,1,0,0:0:0:0:
177,103,130978,1,0,0:0:0:0:
112,60,131044,2,0,L|80:69,2,25
149,253,131178,5,0,0:0:0:0:
180,255,131278,1,0,0:0:0:0:
192,239,131378,2,0,P|206:217|167:193,1,75
50,261,131578,5,0,0:0:0:0:
102,280,131678,1,0,0:0:0:0:
146,315,131778,1,0,0:0:0:0:
176,363,131878,1,0,0:0:0:0:
238,318,131978,1,0,0:0:0:0:
298,284,132078,1,0,0:0:0:0:
367,272,132178,1,0,0:0:0:0:
439,305,132278,1,0,0:0:0:0:
473,373,132378,5,0,0:0:0:0:
451,365,132478,1,0,0:0:0:0:
376,352,132578,1,0,0:0:0:0:
352,280,132678,1,0,0:0:0:0:
400,224,132778,5,0,0:0:0:0:
392,148,132878,1,0,0:0:0:0:
332,39,132978,1,0,0:0:0:0:
273,84,133078,1,0,0:0:0:0:
256,160,133178,1,0,0:0:0:0:
191,225,133278,1,0,0:0:0:0:
180,92,133378,1,0,0:0:0:0:
124,44,133478,1,0,0:0:0:0:
77,182,133578,5,0,0:0:0:0:
8,241,133678,1,0,0:0:0:0:
36,87,133778,1,0,0:0:0:0:
14,72,133878,1,0,0:0:0:0:
209,142,133978,6,0,P|230:159|234:186,2,50
33,33,134278,2,0,P|7:44|2:76,2,50
192,48,134578,6,0,B|189:24|164:7|164:7|146:28|130:36,2,75
41,249,134778,5,0,0:0:0:0:
98,262,134878,1,0,0:0:0:0:
23,263,134978,5,0,0:0:0:0:
111,285,135078,1,0,0:0:0:0:
58,335,135178,2,0,B|28:355|28:369|28:369|44:361|59:336,1,75
175,237,135378,2,0,B|188:223|188:209|188:209|174:221|174:235,1,50
111,285,135578,5,0,0:0:0:0:
165,348,135678,1,0,0:0:0:0:
199,333,135778,1,0,0:0:0:0:
269,362,135878,1,0,0:0:0:0:
332,293,135978,1,0,0:0:0:0:
327,310,136078,1,0,0:0:0:0:
381,370,136178,6,0,P|396:355|404:340,1,28.1250010728836
477,346,136278,2,0,P|477:325|472:309,1,28.1250010728836
288,219,136378,6,0,P|277:237|273:253,1,28.1250010728836
201,267,136478,2,0,P|206:287|215:301,1,28.1250010728836
343,298,136578,5,0,0:0:0:0:
359,278,136678,1,0,0:0:0:0:
363,258,136778,1,0,0:0:0:0:
355,233,136878,1,0,0:0:0:0:
311,186,136978,1,0,0:0:0:0:
303,114,137078,1,0,0:0:0:0:
359,58,137178,2,0,B|375:50|375:50|395:58,2,28.1250010728836
199,150,137378,5,0,0:0:0:0:
136,104,137478,2,0,P|104:96|79:104,1,56.2500021457673
59,292,137678,5,0,3:0:0:0:
114,246,137778,2,0,P|124:222|122:181,1,56.2500021457673,0|0,3:0|3:0,3:0:0:0:
28,38,137978,5,0,0:0:0:0:
2,121,138078,1,0,0:0:0:0:
61,182,138178,1,0,0:0:0:0:
77,206,138278,1,0,0:0:0:0:
11,270,138378,2,0,P|7:282|15:302,2,28.1250010728836
146,145,138578,2,0,P|145:117|129:94,1,56.2500021457673
194,20,138778,1,0,0:0:0:0:
207,40,138878,5,0,0:0:0:0:
270,93,138978,1,0,0:0:0:0:
347,32,139078,1,0,0:0:0:0:
442,9,139178,2,0,P|482:17|482:29,2,42.8571428571429
407,162,139378,2,0,P|396:135|396:103,1,56.2500021457673
476,148,139578,1,0,0:0:0:0:
489,166,139678,5,0,0:0:0:0:
506,257,139778,1,0,0:0:0:0:
430,319,139878,1,0,0:0:0:0:
344,263,139978,2,0,B|332:235|280:227|280:227|256:251|205:238,1,140.625005364418
186,233,140378,5,0,0:0:0:0:
0,352,140511,1,0,0:0:0:0:
48,200,140644,1,0,0:0:0:0:
161,228,140778,6,0,P|171:187|156:148,1,84.3750032186509
138,128,140978,2,0,P|129:116|117:108,2,28.1250010728836
234,317,141178,5,0,0:0:0:0:
243,300,141244,1,0,0:0:0:0:
264,288,141311,1,0,0:0:0:0:
284,272,141377,1,0,0:0:0:0:
284,240,141444,1,0,0:0:0:0:
272,212,141511,1,0,0:0:0:0:
257,189,141578,6,0,P|253:175|256:161,1,28.1250010728836
168,147,141678,2,0,P|175:135|187:127,1,28.1250010728836
168,51,141778,2,0,P|181:47|195:50,1,28.1250010728836
297,24,141878,6,0,P|281:32|264:103,1,75
260,98,141978,2,0,P|266:126|305:144,1,56.2500021457673
303,149,142078,2,0,L|333:161,1,28.1250010728836
350,166,142178,1,0,0:0:0:0:
424,111,142278,6,0,B|412:55|412:55|374:95,1,112.500004291535
372,181,142578,5,0,0:0:0:0:
445,202,142678,1,0,0:0:0:0:
401,264,142778,5,0,0:0:0:0:
476,272,142878,1,0,0:0:0:0:
440,336,142978,5,0,0:0:0:0:
328,384,143078,1,0,0:0:0:0:
345,308,143178,5,0,0:0:0:0:
376,356,143278,1,0,0:0:0:0:
288,344,143378,2,0,L|208:324,1,56.2500021457673
160,352,143578,2,0,L|80:332,1,56.2500021457673
28,354,143778,6,0,L|27:341,1,11.2499996566773
126,122,143978,5,0,0:0:0:0:
127,131,144044,5,0,0:0:0:0:
124,138,144111,5,0,0:0:0:0:
115,140,144177,5,0,0:0:0:0:
104,135,144244,5,0,0:0:0:0:
103,122,144311,5,0,0:0:0:0:
194,90,144378,5,0,0:0:0:0:
196,176,144478,1,0,0:0:0:0:
133,248,144578,1,0,0:0:0:0:
46,232,144678,1,0,0:0:0:0:
103,170,144778,5,0,0:0:0:0:
184,181,144878,1,0,0:0:0:0:
244,238,144978,1,0,0:0:0:0:
243,314,145078,1,0,0:0:0:0:
233,336,145178,5,0,0:0:0:0:
269,243,145278,1,0,3:0:0:0:
338,182,145378,1,0,3:0:0:0:
432,186,145478,1,0,3:0:0:0:
500,254,145578,2,0,P|508:288|491:306,1,56.2500021457673,0|0,3:0|3:0,3:0:0:0:
318,106,145778,2,0,P|296:75|286:37,1,56.2500021457673
187,64,145978,5,0,0:0:0:0:
221,157,146078,1,0,0:0:0:0:
181,259,146178,1,0,0:0:0:0:
90,237,146278,1,0,0:0:0:0:
36,160,146378,6,0,P|26:140|21:104,1,56.2500021457673
205,137,146578,6,0,P|218:145|226:154,1,18.7500007152558
239,166,146644,6,0,P|245:174|248:183,1,18.7500007152558,0|0,3:0|3:0,3:0:0:0:
251,206,146711,6,0,P|251:214|247:224,1,18.7500007152558,0|0,3:3|3:3,3:3:0:0:
236,246,146778,6,0,P|225:265|199:298,1,56.2500021457673,0|0,3:0|3:0,3:0:0:0:
59,175,146978,6,0,P|48:152|44:127,4,50
240,155,147178,5,0,0:0:0:0:
262,164,147244,1,0,0:0:0:0:
271,186,147311,1,0,0:0:0:0:
297,184,147377,1,0,0:0:0:0:
310,210,147444,1,0,0:0:0:0:
335,215,147511,1,0,0:0:0:0:
357,230,147578,6,0,P|382:246|406:270,3,56.2500021457673
505,314,147978,2,0,P|511:338|511:377,3,56.2500021457673,0|0|0|0,3:0|3:0|3:0|3:0,3:0:0:0:
224,96,148378,2,0,P|215:119|212:158,3,56.2500021457673,0|0|0|0,3:0|3:0|3:0|3:0,3:0:0:0:
280,288,148778,2,0,P|271:311|268:350,3,56.2500021457673,0|0|0|0,3:0|3:0|3:0|3:0,3:0:0:0:
456,128,149178,2,0,P|459:111|466:73,3,56.2500021457673
160,32,149578,5,0,0:0:0:0:
183,112,149678,1,0,0:0:0:0:
161,189,149778,1,0,0:0:0:0:
113,216,149878,1,0,0:0:0:0:
61,206,149978,1,0,0:0:0:0:
39,170,150078,1,0,0:0:0:0:
41,126,150178,1,0,0:0:0:0:
84,58,150278,5,0,0:0:0:0:
161,43,150378,1,0,0:0:0:0:
228,80,150478,1,0,0:0:0:0:
270,143,150578,1,0,0:0:0:0:
328,197,150678,1,0,0:0:0:0:
412,199,150778,5,0,0:0:0:0:
446,181,150844,5,0,0:0:0:0:
467,150,150911,5,0,0:0:0:0:
469,112,150977,5,0,0:0:0:0:
451,78,151044,5,0,0:0:0:0:
419,64,151111,5,0,0:0:0:0:
389,67,151178,5,0,3:0:0:0:
354,86,151244,5,0,3:0:0:0:
336,117,151311,5,0,3:0:0:0:
326,152,151377,5,0,3:0:0:0:
332,189,151444,5,0,3:0:0:0:
350,222,151511,5,0,3:0:0:0:
379,246,151578,5,0,0:0:0:0:
401,288,151644,5,0,0:0:0:0:
395,336,151711,5,0,0:0:0:0:
364,371,151777,5,0,0:0:0:0:
318,384,151844,5,0,0:0:0:0:
273,368,151911,5,0,0:0:0:0:
243,328,151978,5,0,0:0:0:0:
221,284,152044,5,0,0:0:0:0:
188,248,152111,5,0,0:0:0:0:
146,223,152177,5,0,0:0:0:0:
99,212,152244,5,0,0:0:0:0:
51,213,152311,5,0,0:0:0:0:
13,233,152378,6,0,P|5:242|-1:264,1,26.2499991989136
133,362,152578,2,0,P|137:373|152:390,1,26.2499991989136
157,211,152778,2,0,B|155:132|110:174|104:50,1,168.750006437302
241,94,153178,6,0,P|281:131|336:131,1,112.500004291535
432,48,153478,1,0,0:0:0:0:
339,108,153578,5,0,0:0:0:0:
337,132,153644,5,0,0:0:0:0:
350,159,153711,5,0,0:0:0:0:
376,177,153778,5,0,0:0:0:0:
394,201,153844,5,0,0:0:0:0:
402,241,153911,5,0,0:0:0:0:
381,313,153978,2,0,B|376:343|397:395|397:395|404:354|436:330,1,135.000000514984
504,240,154178,6,0,P|510:213|501:188,1,55.0000016784668
263,354,154378,2,0,P|254:377|279:384,1,56.2500021457673
341,194,154778,5,0,0:0:0:0:
334,175,154844,1,0,0:0:0:0:
305,162,154911,1,0,0:0:0:0:
308,124,154977,1,0,0:0:0:0:
267,114,155044,1,0,0:0:0:0:
258,70,155111,1,0,0:0:0:0:
197,32,155178,2,0,L|165:-9,1,41.2500012588501
416,45,155378,5,0,0:0:0:0:
452,205,155478,2,0,L|469:284,1,41.2500012588501
284,196,155678,2,0,P|244:185|203:188,1,82.5000025177003
88,160,155978,2,0,P|96:184|90:201,1,41.2500012588501
159,77,156178,2,0,P|150:107|157:127,1,41.2500012588501
62,41,156378,2,0,P|55:22|106:7,1,82.5000025177003
295,154,156678,1,0,0:0:0:0:
314,160,156778,5,0,0:0:0:0:
387,154,156878,1,0,0:0:0:0:
445,98,156978,1,0,0:0:0:0:
434,33,157078,1,0,0:0:0:0:
494,6,157178,6,0,B|484:39|448:43|448:43|446:98|446:98|397:129|397:129|421:180|421:180|365:201|363:262,1,337.500012874604
450,254,157578,6,0,P|440:261|457:263,6,37.5
217,355,157978,6,0,P|219:329|235:291,1,37.5
207,298,158078,2,0,P|174:203|157:119,1,150
277,206,158378,5,0,0:0:0:0:
355,158,158478,1,0,0:0:0:0:
367,64,158578,1,0,0:0:0:0:
304,9,158678,1,0,0:0:0:0:
197,0,158778,6,0,P|160:0|125:13,1,75
332,171,158978,2,0,P|348:188|371:202,2,37.5
492,164,159178,6,0,B|504:100|402:23|322:32|322:32|377:48|405:84,1,324.000007910156
424,178,159478,5,0,0:0:0:0:
410,251,159578,2,0,B|376:279|360:334|360:334|351:254|428:152|492:164,1,337.500012874604
455,248,159978,5,0,0:0:0:0:
425,245,160044,1,0,0:0:0:0:
395,252,160111,1,0,0:0:0:0:
372,256,160177,1,0,0:0:0:0:
351,235,160244,1,0,0:0:0:0:
324,222,160311,1,0,0:0:0:0:
274,166,160378,6,0,B|230:110|102:66|31:101|31:101|127:107|151:145,1,382.500007295609
272,276,160778,5,0,0:0:0:0:
258,285,160844,1,0,0:0:0:0:
246,298,160911,1,0,0:0:0:0:
238,313,160977,1,0,0:0:0:0:
234,330,161044,1,0,0:0:0:0:
235,346,161111,1,0,0:0:0:0:
240,368,161178,6,0,B|284:384|284:384|364:336|364:336|392:344,1,170.000003242493
272,300,161378,2,0,L|208:280,1,42.5000008106232
160,304,161444,6,0,L|64:270,1,85.0000016212464
49,188,161578,2,0,L|175:231,1,127.50000243187
122,371,161778,6,0,L|1:329,1,127.50000243187
362,28,161978,6,0,B|342:12|330:-12|330:-12|329:33|294:52,1,127.50000243187
139,107,162178,2,0,B|187:115|219:75|219:75|243:131|311:139,1,170.000003242493
460,162,162378,6,0,P|478:150|440:128,1,85.0000016212464
381,187,162511,5,0,0:0:0:0:
363,214,162578,1,0,0:0:0:0:
358,248,162644,1,0,0:0:0:0:
379,317,162711,1,0,0:0:0:0:
457,309,162778,6,0,P|482:297|506:339,1,85.0000016212464
343,345,162911,5,0,0:0:0:0:
306,364,162978,2,0,L|113:325,1,170.000003242493
0,188,163178,5,0,0:0:0:0:
72,124,163278,1,0,0:0:0:0:
152,180,163378,1,0,0:0:0:0:
240,252,163478,1,0,0:0:0:0:
328,186,163578,6,0,B|355:160|403:144|403:144|446:182|457:206|457:206|473:202|528:207,1,225.000008583069
96,24,163978,2,0,P|64:26|35:31,1,37.5
91,106,164078,6,8,P|76:118|64:132,1,37.5
128,188,164178,5,0,0:0:0:0:
216,232,164278,1,0,0:0:0:0:
280,151,164378,2,0,P|288:129|272:106,1,50
368,182,164511,2,0,P|405:248|419:321,1,150
264,343,164778,6,0,P|295:322|332:320,1,75
481,109,164978,2,0,P|460:140|458:177,1,75
512,325,165178,5,0,0:0:0:0:
421,298,165278,1,0,0:0:0:0:
361,232,165378,1,0,0:0:0:0:
343,147,165478,1,0,0:0:0:0:
373,60,165578,1,0,0:0:0:0:
449,0,165678,1,0,0:0:0:0:
450,94,165778,5,0,0:0:0:0:
440,109,165844,5,0,0:0:0:0:
432,129,165911,5,0,0:0:0:0:
429,149,165978,6,0,P|432:186|449:219,1,75
456,76,166178,1,0,0:0:0:0:
353,140,166278,6,0,P|329:168|318:204,1,75,0|0,3:0|3:0,3:0:0:0:
461,52,166478,1,0,0:0:0:0:
320,24,166578,6,0,P|282:27|249:44,1,75,0|0,3:0|3:0,3:0:0:0:
192,176,166711,2,0,P|156:164|127:141,1,75.000002861023,0|0,3:0|3:0,3:0:0:0:
12,11,166844,6,0,B|25:35|25:35|29:57|42:67|42:67|55:91|55:91|63:94|63:94|57:95|57:95|53:124|41:139|41:139|41:155|24:191|24:191|19:194|19:194|24:197|24:197|35:214|38:235|38:235|48:251|50:271|50:271|65:288|66:314|66:314|72:332,1,359.999989013672
142,342,167178,6,0,B|195:321|195:321|85:279|85:279|69:330,1,225.000008583069
70,326,167578,6,0,P|60:288|48:259,1,56.2500021457673
85,285,167678,2,0,P|105:247|138:228,1,56.2500021457673
115,253,167778,2,0,P|132:229|152:188,1,56.2500021457673
160,243,167878,2,0,P|194:222|217:202,1,56.2500021457673
204,231,167978,5,0,0:0:0:0:
278,243,168078,1,0,0:0:0:0:
341,285,168178,1,0,0:0:0:0:
350,354,168278,2,0,P|308:317|307:263,1,112.500004291535
385,151,168478,6,0,P|321:292|222:330,1,225.000008583069
32,264,168778,2,0,B|46:221|46:221|85:229|120:189|120:189|174:209,1,187.5
247,218,168978,5,0,0:0:0:0:
37,35,169178,2,0,P|134:42|224:168,1,225.000008583069
247,218,169478,1,0,0:0:0:0:
336,272,169578,1,0,0:0:0:0:
384,168,169678,1,0,0:0:0:0:
496,168,169778,1,0,0:0:0:0:
512,288,169878,1,0,0:0:0:0:
433,384,169978,6,0,B|356:316|428:224|506:212|506:212|458:185|439:122,1,337.500012874604
285,266,170378,5,0,0:0:0:0:
268,279,170444,5,0,0:0:0:0:
254,296,170511,5,0,0:0:0:0:
245,317,170577,5,0,0:0:0:0:
241,338,170644,5,0,0:0:0:0:
222,353,170711,5,0,0:0:0:0:
150,356,170778,2,0,P|135:325|120:308,1,56.2500021457673
100,289,170878,6,0,B|117:225|117:225|61:77,1,225.000008583069
178,10,171178,2,0,L|157:62,2,56.2500021457673
352,46,171378,6,0,P|375:32|403:30,1,56.2500021457673
427,34,171478,2,0,P|454:40|474:58,1,56.2500021457673
512,113,171578,5,0,0:0:0:0:
497,196,171678,1,0,0:0:0:0:
391,177,171778,1,0,0:0:0:0:
418,267,171878,1,0,0:0:0:0:
498,299,171978,5,2,0:0:0:0:
472,368,172078,1,0,0:0:0:0:
388,354,172178,1,0,0:0:0:0:
302,340,172278,1,0,0:0:0:0:
253,255,172378,5,0,0:0:0:0:
346,240,172478,1,0,0:0:0:0:
400,316,172578,1,0,0:0:0:0:
331,384,172678,1,0,0:0:0:0:
232,384,172778,6,0,B|445:190|211:-26|225:316|416:280,1,450
512,147,173178,6,0,P|459:163|403:164,1,112.500004291535
167,5,173378,6,0,P|193:53|232:94,1,112.500004291535
384,51,173578,2,0,B|385:-7|385:-7|346:37,2,112.500004291535
239,190,173878,1,0,0:0:0:0:
276,261,173978,2,0,B|289:281|289:281|252:345|252:345|267:372,2,112.500004291535
144,30,174278,5,0,0:0:0:0:
48,144,174378,2,0,L|66:273,1,112.500004291535
269,69,174578,6,0,P|232:35|168:23,1,112.500004291535
441,224,174778,5,0,0:0:0:0:
352,288,174878,1,0,0:0:0:0:
424,360,174978,2,0,L|439:248,1,112.500004291535
224,48,175178,6,0,L|239:159,1,112.500004291535
448,344,175378,2,0,L|463:232,1,112.500004291535
394,148,175578,6,0,B|375:165|361:195|361:195|342:194|342:194|330:217|330:217|306:215|287:239|287:239|293:254|291:276|291:276|291:287|291:287|296:287|296:287|294:293|294:293|291:323|291:323|299:325|299:325|293:322|293:322|253:333|225:365,1,337.500012874604
16,304,175978,2,0,P|78:302|126:285,1,112.500004291535
329,0,176178,2,0,P|331:66|307:135,1,112.500004291535
226,361,176378,2,0,B|244:314|216:248|216:248|252:191|252:191|197:127|228:48,1,337.500012874604
380,147,176778,6,0,B|361:126|361:126|247:186|247:186|252:191,1,165.000005035401
100,93,176978,2,0,B|119:114|119:114|233:54|233:54|227:48,1,165.000005035401
170,7,177178,5,0,0:0:0:0:
152,0,177244,5,0,0:0:0:0:
134,4,177310,5,0,0:0:0:0:
118,15,177377,5,0,0:0:0:0:
108,30,177443,5,0,0:0:0:0:
103,48,177510,5,0,0:0:0:0:
85,72,177578,5,0,0:0:0:0:
55,84,177644,5,0,0:0:0:0:
26,68,177711,5,0,0:0:0:0:
62,14,177778,5,0,0:0:0:0:
139,28,177844,5,0,0:0:0:0:
191,83,177911,5,0,0:0:0:0:
201,157,177978,2,0,P|192:207|159:174,2,112.500004291535
280,264,178278,5,0,0:0:0:0:
354,319,178378,2,0,B|369:327|392:360|392:360|383:325|391:304,1,112.500004291535
271,250,178578,6,0,B|222:273|222:273|219:279|219:279|166:303,1,112.500004291535
487,326,178778,2,0,B|502:234|502:234|395:154,1,225.000008583069
216,209,179078,5,0,0:0:0:0:
151,251,179178,2,0,B|94:209|94:209|140:21|140:21|211:4,1,337.500012874604
233,0,179578,6,0,B|271:132|271:132|225:220|225:220|265:312,1,337.500012874604
425,365,179978,6,0,L|374:246,1,112.500004291535
195,9,180178,2,0,L|231:127,1,112.500004291535
139,136,180378,6,0,P|113:127|89:141,1,56.2500021457673
74,164,180578,6,0,L|82:194,1,28.1250010728836
60,187,180678,6,0,L|73:221,1,28.1250010728836
31,269,180778,1,0,0:0:0:0:
19,288,180878,1,0,0:0:0:0:
59,354,180978,1,0,0:0:0:0:
75,332,181078,1,0,0:0:0:0:
146,274,181178,1,0,0:0:0:0:
211,351,181278,1,0,0:0:0:0:
304,332,181378,6,0,P|323:304|344:282,1,56.2500021457673
392,247,181578,5,0,0:0:0:0:
410,210,181644,1,0,0:0:0:0:
398,171,181711,1,0,0:0:0:0:
431,135,181777,1,0,0:0:0:0:
405,99,181844,1,0,0:0:0:0:
421,73,181911,1,0,0:0:0:0:
432,37,181978,2,0,P|434:18|434:-1,1,37.5000014305115
316,90,182111,5,0,0:0:0:0:
498,64,182244,5,0,0:0:0:0:
386,1,182378,5,0,0:0:0:0:
406,163,182511,5,0,0:0:0:0:
483,81,182644,5,0,0:0:0:0:
301,101,182777,5,0,0:0:0:0:
