osu file format v14

[General]
AudioFilename: audio.mp3
AudioLeadIn: 0
PreviewTime: 102060
Countdown: 0
SampleSet: Normal
StackLeniency: 0.7
Mode: 1
LetterboxInBreaks: 0
WidescreenStoryboard: 0

[Editor]
Bookmarks: 154094
DistanceSpacing: 0.8
BeatDivisor: 16
GridSize: 16
TimelineZoom: 1.800001

[Metadata]
Title:Alone intelligence
TitleUnicode:Alone intelligence
Artist:Camellia
ArtistUnicode:かめりあ
Creator:MTDex
Version:Found You
Source:
Tags:heart of android tag co-op co op
BeatmapID:1897839
BeatmapSetID:909468

[Difficulty]
HPDrainRate:5.4
CircleSize:5
OverallDifficulty:5.4
ApproachRate:5
SliderMultiplier:1.4
SliderTickRate:1

[Events]
//Background and Video events
0,0,"BG.jpg",0,0
//Break Periods
//Storyboard Layer 0 (Background)
//Storyboard Layer 1 (Fail)
//Storyboard Layer 2 (Pass)
//Storyboard Layer 3 (Foreground)
//Storyboard Sound Samples

[TimingPoints]
5294,400,4,1,0,100,1,0
5294,-111.111111111111,4,1,0,100,0,0
27694,-107.52688172043,4,1,0,100,0,0
29294,-105.263157894737,4,1,0,100,0,0
30894,-102.040816326531,4,1,0,100,0,0
32494,-100,4,1,0,100,0,0
51694,-105.263157894737,4,1,0,100,0,0
54894,-111.111111111111,4,1,0,100,0,0
58094,-117.647058823529,4,1,0,100,0,0
61294,-80,4,1,0,100,0,0
62894,-76.9230769230769,4,1,0,100,0,0
63694,-74.0740740740741,4,1,0,100,0,0
80294,-71.4285714285714,4,1,0,100,0,0
82094,-68.9655172413793,4,1,0,100,0,0
83694,-66.6666666666667,4,1,0,100,0,0
85094,-64.5161290322581,4,1,0,100,0,0
86694,-62.5,4,1,0,100,0,0
88494,-60.6060606060606,4,1,0,100,0,0
90094,-86.9565217391304,4,1,0,100,0,0
96494,-83.3333333333333,4,1,0,100,0,0
99694,-80,4,1,0,100,0,0
102894,-86.9565217391304,4,1,0,100,0,1
122294,-83.3333333333333,4,1,0,100,0,1
122894,-80,4,1,0,100,0,1
123894,-76.9230769230769,4,1,0,100,0,1
124494,-74.0740740740741,4,1,0,100,0,1
125294,-71.4285714285714,4,1,0,100,0,1
126894,-71.4285714285714,4,1,0,100,0,0
128494,-86.9565217391304,4,1,0,100,0,1
147694,-86.9565217391304,4,1,0,100,0,0
147894,-83.3333333333333,4,1,0,100,0,0
148694,-80,4,1,0,100,0,0
149494,-76.9230769230769,4,1,0,100,0,0
150094,-74.0740740740741,4,1,0,100,0,0
150894,-71.4285714285714,4,1,0,100,0,0
153594,-100,4,1,0,100,0,0
184494,-66.6666666666667,4,1,0,100,0,0
186094,-50,4,1,0,100,0,0
187694,-36.3636363636364,4,1,0,100,0,0
189294,-111.111111111111,4,1,0,100,0,0

[HitObjects]
256,192,6494,5,2,0:0:0:0:
256,192,6827,5,0,0:0:0:0:
256,192,6893,1,0,0:0:0:0:
256,192,6960,1,0,0:0:0:0:
256,192,8094,1,2,0:0:0:0:
256,192,8427,5,0,0:0:0:0:
256,192,8493,1,0,0:0:0:0:
256,192,8560,1,0,0:0:0:0:
256,192,9694,1,0,0:0:0:0:
256,192,10027,5,0,0:0:0:0:
256,192,10093,1,0,0:0:0:0:
256,192,10160,1,0,0:0:0:0:
256,192,12894,1,2,0:0:0:0:
256,192,13227,5,0,0:0:0:0:
256,192,13294,1,0,0:0:0:0:
256,192,13360,1,0,0:0:0:0:
256,192,14494,1,2,0:0:0:0:
256,192,14828,5,0,0:0:0:0:
256,192,14894,1,0,0:0:0:0:
256,192,14961,1,0,0:0:0:0:
256,192,16094,1,0,0:0:0:0:
256,192,16411,5,0,0:0:0:0:
256,192,16477,1,0,0:0:0:0:
256,192,16544,1,0,0:0:0:0:
256,192,18094,1,0,0:0:0:0:
256,192,18894,5,2,0:0:0:0:
256,192,19394,1,2,0:0:0:0:
256,192,19544,1,0,0:0:0:0:
256,192,19694,1,0,0:0:0:0:
256,192,20894,5,2,0:0:0:0:
256,192,21194,1,0,0:0:0:0:
256,192,21260,1,0,0:0:0:0:
256,192,21327,1,0,0:0:0:0:
256,192,22494,5,0,0:0:0:0:
256,192,22894,1,2,0:0:0:0:
256,192,23094,1,0,0:0:0:0:
256,192,23294,1,0,0:0:0:0:
256,192,23694,5,2,0:0:0:0:
256,192,23894,1,0,0:0:0:0:
256,192,24094,1,0,0:0:0:0:
256,192,24494,5,2,0:0:0:0:
256,192,24694,1,0,0:0:0:0:
256,192,24894,1,0,0:0:0:0:
256,192,25094,1,0,0:0:0:0:
256,192,25294,1,2,0:0:0:0:
256,192,26094,1,0,0:0:0:0:
256,192,26294,1,0,0:0:0:0:
256,192,26494,1,0,0:0:0:0:
256,192,26694,1,2,0:0:0:0:
256,192,26894,1,0,0:0:0:0:
256,192,27094,1,0,0:0:0:0:
256,192,27294,1,2,0:0:0:0:
256,192,27494,1,0,0:0:0:0:
256,192,27694,5,2,0:0:0:0:
256,192,27894,1,0,0:0:0:0:
256,192,28094,1,2,0:0:0:0:
256,192,28294,1,0,0:0:0:0:
256,192,28494,1,2,0:0:0:0:
256,192,28694,1,0,0:0:0:0:
256,192,28894,1,0,0:0:0:0:
256,192,29094,1,2,0:0:0:0:
256,192,29294,5,0,0:0:0:0:
256,192,29494,1,0,0:0:0:0:
256,192,29694,1,0,0:0:0:0:
256,192,29894,1,2,0:0:0:0:
256,192,30094,1,0,0:0:0:0:
256,192,30294,1,0,0:0:0:0:
256,192,30494,1,2,0:0:0:0:
256,192,30694,1,0,0:0:0:0:
256,192,30894,5,2,0:0:0:0:
256,192,31094,1,0,0:0:0:0:
256,192,31294,1,2,0:0:0:0:
256,192,31494,1,0,0:0:0:0:
256,192,31694,1,2,0:0:0:0:
256,192,32494,1,0,0:0:0:0:
256,192,33244,1,2,0:0:0:0:
256,192,33294,1,2,0:0:0:0:
256,192,34094,5,0,0:0:0:0:
256,192,34494,1,0,0:0:0:0:
256,192,34844,1,2,0:0:0:0:
256,192,34894,1,2,0:0:0:0:
256,192,35694,5,0,0:0:0:0:
256,192,36444,1,2,0:0:0:0:
256,192,36494,1,2,0:0:0:0:
256,192,37494,5,0,0:0:0:0:
256,192,37694,1,0,0:0:0:0:
256,192,38044,1,2,0:0:0:0:
256,192,38094,1,2,0:0:0:0:
256,192,38894,5,0,0:0:0:0:
256,192,39644,1,2,0:0:0:0:
256,192,39694,1,2,0:0:0:0:
256,192,40494,5,0,0:0:0:0:
256,192,40894,1,0,0:0:0:0:
256,192,41244,1,2,0:0:0:0:
256,192,41294,1,2,0:0:0:0:
256,192,42094,5,0,0:0:0:0:
256,192,42844,1,2,0:0:0:0:
256,192,42894,1,2,0:0:0:0:
256,192,43894,5,0,0:0:0:0:
256,192,44094,1,0,0:0:0:0:
256,192,44444,1,2,0:0:0:0:
256,192,44494,1,2,0:0:0:0:
256,192,44994,5,2,0:0:0:0:
256,192,45144,1,0,0:0:0:0:
256,192,45294,1,0,0:0:0:0:
256,192,46044,1,2,0:0:0:0:
256,192,46094,1,2,0:0:0:0:
256,192,46894,5,0,0:0:0:0:
256,192,47294,1,0,0:0:0:0:
256,192,47644,1,2,0:0:0:0:
256,192,47694,1,2,0:0:0:0:
256,192,48494,5,2,0:0:0:0:
256,192,48694,1,0,0:0:0:0:
256,192,48894,1,0,0:0:0:0:
256,192,49294,5,2,0:0:0:0:
256,192,49494,1,0,0:0:0:0:
256,192,49694,1,0,0:0:0:0:
256,192,50094,5,2,0:0:0:0:
256,192,50294,1,0,0:0:0:0:
256,192,50494,1,0,0:0:0:0:
256,192,50694,1,2,0:0:0:0:
256,192,50894,1,2,0:0:0:0:
256,192,50994,1,2,0:0:0:0:
256,192,51094,1,0,0:0:0:0:
256,192,51694,5,0,0:0:0:0:
256,192,52494,1,2,0:0:0:0:
256,192,53294,1,2,0:0:0:0:
256,192,53344,1,2,0:0:0:0:
256,192,53694,1,0,0:0:0:0:
256,192,54094,1,2,0:0:0:0:
256,192,54894,5,0,0:0:0:0:
256,192,55694,1,2,0:0:0:0:
256,192,56694,1,0,0:0:0:0:
256,192,56894,1,0,0:0:0:0:
256,192,57294,1,2,0:0:0:0:
256,192,58094,5,0,0:0:0:0:
256,192,58894,1,2,0:0:0:0:
256,192,59694,1,2,0:0:0:0:
256,192,59744,1,2,0:0:0:0:
256,192,60094,1,0,0:0:0:0:
256,192,60494,1,2,0:0:0:0:
256,192,61294,12,0,63494,0:0:0:0:
256,192,63694,6,0,L|400:192,1,131.25
256,192,64094,2,0,L|400:192,1,131.25
256,192,64494,5,4,0:0:0:0:
256,192,65294,1,0,0:0:0:0:
256,192,65594,1,0,0:0:0:0:
256,192,65694,1,2,0:0:0:0:
256,192,65794,1,2,0:0:0:0:
256,192,65894,1,0,0:0:0:0:
256,192,66894,5,2,0:0:0:0:
256,192,67094,1,0,0:0:0:0:
256,192,67194,1,2,0:0:0:0:
256,192,67394,1,0,0:0:0:0:
256,192,67494,1,0,0:0:0:0:
256,192,68494,5,2,0:0:0:0:
256,192,68694,1,0,0:0:0:0:
256,192,68744,1,0,0:0:0:0:
256,192,68794,1,2,0:0:0:0:
256,192,68994,1,0,0:0:0:0:
256,192,69094,1,2,0:0:0:0:
256,192,69194,1,2,0:0:0:0:
256,192,69294,1,0,0:0:0:0:
256,192,69494,1,2,0:0:0:0:
256,192,69594,1,2,0:0:0:0:
256,192,69694,1,0,0:0:0:0:
256,192,69894,1,2,0:0:0:0:
256,192,69994,1,2,0:0:0:0:
256,192,70094,5,0,0:0:0:0:
256,192,70160,1,0,0:0:0:0:
256,192,70227,1,2,0:0:0:0:
256,192,70294,1,2,0:0:0:0:
256,192,70360,1,0,0:0:0:0:
256,192,70427,1,0,0:0:0:0:
256,192,70494,1,2,0:0:0:0:
256,192,70627,1,0,0:0:0:0:
256,192,70760,1,0,0:0:0:0:
256,192,70894,1,4,0:0:0:0:
256,192,71694,5,2,0:0:0:0:
256,192,71894,1,0,0:0:0:0:
256,192,71994,1,2,0:0:0:0:
256,192,72094,1,2,0:0:0:0:
256,192,72194,1,0,0:0:0:0:
256,192,72294,1,0,0:0:0:0:
256,192,73294,1,0,0:0:0:0:
256,192,73394,5,0,0:0:0:0:
256,192,73444,1,0,0:0:0:0:
256,192,73494,1,2,0:0:0:0:
256,192,73594,1,2,0:0:0:0:
256,192,73694,1,0,0:0:0:0:
256,192,73894,1,4,0:0:0:0:
256,192,74294,1,0,0:0:0:0:
256,192,74494,1,0,0:0:0:0:
256,192,74894,5,2,0:0:0:0:
256,192,75027,1,2,0:0:0:0:
256,192,75160,1,2,0:0:0:0:
256,192,75294,1,0,0:0:0:0:
256,192,75427,1,0,0:0:0:0:
256,192,75560,1,0,0:0:0:0:
256,192,75694,1,4,0:0:0:0:
256,192,76094,5,0,0:0:0:0:
256,192,76294,1,0,0:0:0:0:
256,192,76344,1,0,0:0:0:0:
256,192,76394,1,0,0:0:0:0:
256,192,76444,1,0,0:0:0:0:
256,192,76494,1,2,0:0:0:0:
256,192,76594,5,2,0:0:0:0:
256,192,76694,1,0,0:0:0:0:
256,192,76794,1,0,0:0:0:0:
256,192,76894,1,2,0:0:0:0:
256,192,76994,1,2,0:0:0:0:
256,192,77094,1,2,0:0:0:0:
256,192,77194,1,0,0:0:0:0:
256,192,77294,1,0,0:0:0:0:
256,192,78094,5,2,0:0:0:0:
256,192,78294,1,0,0:0:0:0:
256,192,78394,1,2,0:0:0:0:
256,192,78494,1,2,0:0:0:0:
256,192,78594,1,0,0:0:0:0:
256,192,78694,1,0,0:0:0:0:
256,192,79694,5,2,0:0:0:0:
256,192,79794,1,2,0:0:0:0:
256,192,79894,1,0,0:0:0:0:
256,192,79994,1,0,0:0:0:0:
256,192,80094,1,2,0:0:0:0:
256,192,80294,1,4,0:0:0:0:
256,192,81294,1,2,0:0:0:0:
256,192,82094,5,0,0:0:0:0:
256,192,82494,1,0,0:0:0:0:
256,192,82894,1,2,0:0:0:0:
256,192,83694,1,0,0:0:0:0:
256,192,84494,1,2,0:0:0:0:
256,192,85094,5,0,0:0:0:0:
256,192,86094,1,2,0:0:0:0:
256,192,86694,1,0,0:0:0:0:
256,192,87094,1,0,0:0:0:0:
256,192,87294,1,0,0:0:0:0:
256,192,87694,1,2,0:0:0:0:
256,192,88494,5,0,0:0:0:0:
256,192,88894,1,0,0:0:0:0:
256,192,89294,1,2,0:0:0:0:
256,192,90094,1,0,0:0:0:0:
256,192,90194,1,0,0:0:0:0:
256,192,90294,1,2,0:0:0:0:
256,192,90394,1,2,0:0:0:0:
256,192,90494,1,0,0:0:0:0:
256,192,90594,1,0,0:0:0:0:
256,192,90694,1,2,0:0:0:0:
256,192,90794,1,2,0:0:0:0:
256,192,90894,1,0,0:0:0:0:
256,192,90994,1,0,0:0:0:0:
256,192,91094,1,2,0:0:0:0:
256,192,91194,1,2,0:0:0:0:
256,192,91294,5,0,0:0:0:0:
256,192,91344,1,0,0:0:0:0:
256,192,91394,1,0,0:0:0:0:
256,192,91494,1,2,0:0:0:0:
256,192,91594,1,2,0:0:0:0:
256,192,91694,1,0,0:0:0:0:
256,192,91794,1,0,0:0:0:0:
256,192,91894,1,2,0:0:0:0:
256,192,91994,1,2,0:0:0:0:
256,192,92094,1,0,0:0:0:0:
256,192,92194,1,0,0:0:0:0:
256,192,92294,1,2,0:0:0:0:
256,192,92394,1,2,0:0:0:0:
256,192,92494,1,0,0:0:0:0:
256,192,92594,1,0,0:0:0:0:
256,192,92694,1,2,0:0:0:0:
256,192,92794,1,2,0:0:0:0:
256,192,92894,5,2,0:0:0:0:
256,192,92944,1,2,0:0:0:0:
256,192,92994,1,2,0:0:0:0:
256,192,93094,1,0,0:0:0:0:
256,192,93144,1,0,0:0:0:0:
256,192,93194,1,0,0:0:0:0:
256,192,93294,1,0,0:0:0:0:
256,192,93394,1,0,0:0:0:0:
256,192,93494,1,2,0:0:0:0:
256,192,93594,1,2,0:0:0:0:
256,192,93694,1,0,0:0:0:0:
256,192,93794,1,0,0:0:0:0:
256,192,93894,1,2,0:0:0:0:
256,192,93994,1,2,0:0:0:0:
256,192,94094,1,0,0:0:0:0:
256,192,94194,1,0,0:0:0:0:
256,192,94294,1,2,0:0:0:0:
256,192,94394,1,2,0:0:0:0:
256,192,94494,5,0,0:0:0:0:
256,192,94544,1,0,0:0:0:0:
256,192,94594,1,0,0:0:0:0:
256,192,94694,1,2,0:0:0:0:
256,192,94794,1,2,0:0:0:0:
256,192,94894,1,0,0:0:0:0:
256,192,94960,1,0,0:0:0:0:
256,192,95027,1,0,0:0:0:0:
256,192,95094,1,0,0:0:0:0:
256,192,95160,1,0,0:0:0:0:
256,192,95227,1,0,0:0:0:0:
256,192,95294,1,2,0:0:0:0:
256,192,95494,1,2,0:0:0:0:
256,192,95544,1,2,0:0:0:0:
256,192,95594,1,2,0:0:0:0:
256,192,95694,1,0,0:0:0:0:
256,192,95894,1,0,0:0:0:0:
256,192,96094,1,6,0:0:0:0:
256,192,96494,5,0,0:0:0:0:
256,192,96594,1,0,0:0:0:0:
256,192,96694,1,2,0:0:0:0:
256,192,96794,1,2,0:0:0:0:
256,192,96894,1,0,0:0:0:0:
256,192,96994,1,0,0:0:0:0:
256,192,97094,1,2,0:0:0:0:
256,192,97194,1,2,0:0:0:0:
256,192,97294,1,0,0:0:0:0:
256,192,97394,1,0,0:0:0:0:
256,192,97494,1,2,0:0:0:0:
256,192,97594,1,2,0:0:0:0:
256,192,97694,1,0,0:0:0:0:
256,192,97744,1,0,0:0:0:0:
256,192,97794,1,0,0:0:0:0:
256,192,97894,5,2,0:0:0:0:
256,192,97994,1,2,0:0:0:0:
256,192,98094,1,0,0:0:0:0:
256,192,98194,1,0,0:0:0:0:
256,192,98294,1,2,0:0:0:0:
256,192,98394,1,2,0:0:0:0:
256,192,98494,1,0,0:0:0:0:
256,192,98594,1,0,0:0:0:0:
256,192,98694,1,2,0:0:0:0:
256,192,98794,1,2,0:0:0:0:
256,192,98894,1,0,0:0:0:0:
256,192,98994,1,0,0:0:0:0:
256,192,99094,1,2,0:0:0:0:
256,192,99194,1,2,0:0:0:0:
256,192,99294,1,0,0:0:0:0:
256,192,99694,5,0,0:0:0:0:
256,192,99794,1,0,0:0:0:0:
256,192,99894,1,2,0:0:0:0:
256,192,99994,1,2,0:0:0:0:
256,192,100094,1,0,0:0:0:0:
256,192,100194,1,0,0:0:0:0:
256,192,100294,1,2,0:0:0:0:
256,192,100394,1,2,0:0:0:0:
256,192,100494,1,0,0:0:0:0:
256,192,100544,1,0,0:0:0:0:
256,192,100594,1,0,0:0:0:0:
256,192,100694,1,2,0:0:0:0:
256,192,100794,1,2,0:0:0:0:
256,192,100894,1,0,0:0:0:0:
256,192,100994,1,0,0:0:0:0:
256,192,101094,1,2,0:0:0:0:
256,192,101194,1,2,0:0:0:0:
256,192,101294,5,2,0:0:0:0:
256,192,101344,1,2,0:0:0:0:
256,192,101394,1,2,0:0:0:0:
256,192,101494,1,0,0:0:0:0:
256,192,101544,1,0,0:0:0:0:
256,192,101594,1,0,0:0:0:0:
256,192,101694,1,0,0:0:0:0:
256,192,101794,1,0,0:0:0:0:
256,192,101894,1,2,0:0:0:0:
256,192,101994,1,2,0:0:0:0:
256,192,102094,1,0,0:0:0:0:
256,192,102494,1,2,0:0:0:0:
256,192,102894,5,4,0:0:0:0:
256,192,103094,1,0,0:0:0:0:
256,192,103294,1,2,0:0:0:0:
256,192,103494,1,2,0:0:0:0:
256,192,103594,1,2,0:0:0:0:
256,192,103694,1,2,0:0:0:0:
256,192,103794,1,0,0:0:0:0:
256,192,103894,1,0,0:0:0:0:
256,192,103994,1,2,0:0:0:0:
256,192,104094,1,2,0:0:0:0:
256,192,104194,1,0,0:0:0:0:
256,192,104294,1,0,0:0:0:0:
256,192,104494,5,0,0:0:0:0:
256,192,104694,1,0,0:0:0:0:
256,192,104894,1,2,0:0:0:0:
256,192,105094,1,0,0:0:0:0:
256,192,105194,1,0,0:0:0:0:
256,192,105244,1,0,0:0:0:0:
256,192,105294,1,2,0:0:0:0:
256,192,105394,1,2,0:0:0:0:
256,192,105494,1,0,0:0:0:0:
256,192,105594,1,0,0:0:0:0:
256,192,105694,1,2,0:0:0:0:
256,192,105794,1,2,0:0:0:0:
256,192,105894,1,0,0:0:0:0:
256,192,106094,5,0,0:0:0:0:
256,192,106294,1,0,0:0:0:0:
256,192,106394,1,0,0:0:0:0:
256,192,106494,1,2,0:0:0:0:
256,192,106694,1,2,0:0:0:0:
256,192,106794,1,2,0:0:0:0:
256,192,106844,1,2,0:0:0:0:
256,192,106894,1,0,0:0:0:0:
256,192,107094,1,2,0:0:0:0:
256,192,107194,1,0,0:0:0:0:
256,192,107394,1,0,0:0:0:0:
256,192,107494,1,2,0:0:0:0:
256,192,107694,1,0,0:0:0:0:
256,192,107894,1,2,0:0:0:0:
256,192,107960,1,2,0:0:0:0:
256,192,108027,1,2,0:0:0:0:
256,192,108094,1,0,0:0:0:0:
256,192,108494,1,0,0:0:0:0:
256,192,108894,1,2,0:0:0:0:
256,192,109294,5,0,0:0:0:0:
256,192,109494,1,0,0:0:0:0:
256,192,109694,1,2,0:0:0:0:
256,192,109894,1,0,0:0:0:0:
256,192,109994,1,0,0:0:0:0:
256,192,110094,1,2,0:0:0:0:
256,192,110194,1,2,0:0:0:0:
256,192,110294,1,2,0:0:0:0:
256,192,110394,1,0,0:0:0:0:
256,192,110494,1,0,0:0:0:0:
256,192,110594,1,2,0:0:0:0:
256,192,110694,1,2,0:0:0:0:
256,192,110894,5,0,0:0:0:0:
256,192,111094,1,0,0:0:0:0:
256,192,111294,1,2,0:0:0:0:
256,192,111494,1,0,0:0:0:0:
256,192,111594,1,0,0:0:0:0:
256,192,111644,1,0,0:0:0:0:
256,192,111694,1,2,0:0:0:0:
256,192,111794,1,2,0:0:0:0:
256,192,111894,1,0,0:0:0:0:
256,192,111994,1,0,0:0:0:0:
256,192,112094,1,2,0:0:0:0:
256,192,112194,1,2,0:0:0:0:
256,192,112294,1,0,0:0:0:0:
256,192,112494,5,0,0:0:0:0:
256,192,112694,1,0,0:0:0:0:
256,192,112894,1,2,0:0:0:0:
256,192,113094,1,2,0:0:0:0:
256,192,113194,1,2,0:0:0:0:
256,192,113244,1,2,0:0:0:0:
256,192,113294,1,0,0:0:0:0:
256,192,113494,1,2,0:0:0:0:
256,192,113594,1,0,0:0:0:0:
256,192,113794,1,0,0:0:0:0:
256,192,113894,1,2,0:0:0:0:
256,192,114094,5,0,0:0:0:0:
256,192,114294,1,0,0:0:0:0:
256,192,114360,1,0,0:0:0:0:
256,192,114427,1,0,0:0:0:0:
256,192,114494,1,2,0:0:0:0:
256,192,114694,1,2,0:0:0:0:
256,192,114760,1,2,0:0:0:0:
256,192,114827,1,2,0:0:0:0:
256,192,114894,1,0,0:0:0:0:
256,192,115094,1,0,0:0:0:0:
256,192,115160,1,0,0:0:0:0:
256,192,115227,1,0,0:0:0:0:
256,192,115294,1,2,0:0:0:0:
256,192,115494,1,2,0:0:0:0:
256,192,115560,1,2,0:0:0:0:
256,192,115627,1,2,0:0:0:0:
256,192,115694,1,0,0:0:0:0:
256,192,116094,5,2,0:0:0:0:
256,192,116294,1,2,0:0:0:0:
256,192,116394,1,2,0:0:0:0:
256,192,116494,1,0,0:0:0:0:
256,192,116594,1,0,0:0:0:0:
256,192,116694,1,0,0:0:0:0:
256,192,116794,1,2,0:0:0:0:
256,192,116894,1,2,0:0:0:0:
256,192,116994,1,0,0:0:0:0:
256,192,117094,1,0,0:0:0:0:
256,192,117294,5,0,0:0:0:0:
256,192,117494,1,0,0:0:0:0:
256,192,117694,1,2,0:0:0:0:
256,192,117894,1,0,0:0:0:0:
256,192,117994,1,0,0:0:0:0:
256,192,118044,1,0,0:0:0:0:
256,192,118094,1,2,0:0:0:0:
256,192,118194,5,2,0:0:0:0:
256,192,118294,1,0,0:0:0:0:
256,192,118394,1,0,0:0:0:0:
256,192,118494,1,2,0:0:0:0:
256,192,118594,1,2,0:0:0:0:
256,192,118694,1,2,0:0:0:0:
256,192,118894,1,0,0:0:0:0:
256,192,119094,1,0,0:0:0:0:
256,192,119294,1,2,0:0:0:0:
256,192,119494,5,2,0:0:0:0:
256,192,119560,1,2,0:0:0:0:
256,192,119627,1,2,0:0:0:0:
256,192,119694,1,0,0:0:0:0:
256,192,119894,1,0,0:0:0:0:
256,192,119960,1,0,0:0:0:0:
256,192,120027,1,0,0:0:0:0:
256,192,120094,1,2,0:0:0:0:
256,192,120294,1,2,0:0:0:0:
256,192,120360,1,2,0:0:0:0:
256,192,120427,1,2,0:0:0:0:
256,192,120494,1,0,0:0:0:0:
256,192,120694,1,0,0:0:0:0:
256,192,120894,1,2,0:0:0:0:
256,192,121094,5,2,0:0:0:0:
256,192,121144,1,2,0:0:0:0:
256,192,121194,1,2,0:0:0:0:
256,192,121244,1,2,0:0:0:0:
256,192,121294,1,0,0:0:0:0:
256,192,121494,5,0,0:0:0:0:
256,192,121594,1,0,0:0:0:0:
256,192,121694,1,2,0:0:0:0:
256,192,121794,1,2,0:0:0:0:
256,192,121894,1,0,0:0:0:0:
256,192,121994,1,0,0:0:0:0:
256,192,122094,1,0,0:0:0:0:
256,192,122294,1,0,0:0:0:0:
256,192,122394,1,0,0:0:0:0:
256,192,122594,1,0,0:0:0:0:
256,192,122694,1,0,0:0:0:0:
256,192,122894,1,0,0:0:0:0:
256,192,122994,1,0,0:0:0:0:
256,192,123094,1,0,0:0:0:0:
256,192,123194,1,0,0:0:0:0:
256,192,123294,1,0,0:0:0:0:
256,192,123494,5,0,0:0:0:0:
256,192,123544,1,0,0:0:0:0:
256,192,123594,1,0,0:0:0:0:
256,192,123644,1,0,0:0:0:0:
256,192,123694,1,0,0:0:0:0:
256,192,123894,1,0,0:0:0:0:
256,192,123994,1,0,0:0:0:0:
256,192,124194,1,0,0:0:0:0:
256,192,124294,1,0,0:0:0:0:
256,192,124494,1,0,0:0:0:0:
256,192,124594,1,0,0:0:0:0:
256,192,124694,1,0,0:0:0:0:
256,192,124794,1,0,0:0:0:0:
256,192,124894,1,0,0:0:0:0:
256,192,125094,1,0,0:0:0:0:
256,192,125294,1,0,0:0:0:0:
256,192,125394,1,0,0:0:0:0:
256,192,125494,1,0,0:0:0:0:
256,192,125594,1,0,0:0:0:0:
256,192,125694,5,0,0:0:0:0:
256,192,125744,1,0,0:0:0:0:
256,192,125794,1,0,0:0:0:0:
256,192,125894,1,0,0:0:0:0:
256,192,125994,1,0,0:0:0:0:
256,192,126094,1,0,0:0:0:0:
256,192,126194,1,0,0:0:0:0:
256,192,126294,1,0,0:0:0:0:
256,192,126394,1,0,0:0:0:0:
256,192,126494,5,0,0:0:0:0:
256,192,126544,1,0,0:0:0:0:
256,192,126594,1,0,0:0:0:0:
256,192,126694,1,0,0:0:0:0:
256,192,126794,1,0,0:0:0:0:
256,192,126894,1,0,0:0:0:0:
256,192,127094,1,0,0:0:0:0:
256,192,127294,1,0,0:0:0:0:
256,192,127394,1,0,0:0:0:0:
256,192,127494,1,0,0:0:0:0:
256,192,127594,1,0,0:0:0:0:
256,192,127694,1,0,0:0:0:0:
256,192,127894,5,0,0:0:0:0:
256,192,127944,1,0,0:0:0:0:
256,192,127994,1,0,0:0:0:0:
256,192,128194,1,0,0:0:0:0:
256,192,128244,1,0,0:0:0:0:
256,192,128294,1,0,0:0:0:0:
256,192,128494,1,0,0:0:0:0:
256,192,128594,1,0,0:0:0:0:
256,192,128694,1,0,0:0:0:0:
256,192,128794,1,0,0:0:0:0:
256,192,128894,1,2,0:0:0:0:
256,192,128994,1,2,0:0:0:0:
256,192,129094,1,0,0:0:0:0:
256,192,129294,1,0,0:0:0:0:
256,192,129427,5,0,0:0:0:0:
256,192,129494,1,0,0:0:0:0:
256,192,129560,1,2,0:0:0:0:
256,192,129694,1,0,0:0:0:0:
256,192,129894,1,4,0:0:0:0:
256,192,130094,1,0,0:0:0:0:
256,192,130194,1,0,0:0:0:0:
256,192,130294,1,2,0:0:0:0:
256,192,130394,1,2,0:0:0:0:
256,192,130494,1,0,0:0:0:0:
256,192,130594,1,0,0:0:0:0:
256,192,130694,1,2,0:0:0:0:
256,192,130894,1,2,0:0:0:0:
256,192,130994,1,2,0:0:0:0:
256,192,131094,5,0,0:0:0:0:
256,192,131144,1,0,0:0:0:0:
256,192,131194,1,2,0:0:0:0:
256,192,131394,1,0,0:0:0:0:
256,192,131494,1,2,0:0:0:0:
256,192,131694,1,4,0:0:0:0:
256,192,131894,1,2,0:0:0:0:
256,192,131994,1,2,0:0:0:0:
256,192,132094,1,0,0:0:0:0:
256,192,132294,1,2,0:0:0:0:
256,192,132394,1,2,0:0:0:0:
256,192,132494,1,0,0:0:0:0:
256,192,132594,1,0,0:0:0:0:
256,192,132694,1,2,0:0:0:0:
256,192,132794,1,2,0:0:0:0:
256,192,132894,1,0,0:0:0:0:
256,192,133094,5,2,0:0:0:0:
256,192,133194,1,2,0:0:0:0:
256,192,133294,1,0,0:0:0:0:
256,192,133494,1,0,0:0:0:0:
256,192,133694,1,2,0:0:0:0:
256,192,133794,1,2,0:0:0:0:
256,192,133894,1,0,0:0:0:0:
256,192,133994,1,0,0:0:0:0:
256,192,134094,1,2,0:0:0:0:
256,192,134294,1,0,0:0:0:0:
256,192,134344,1,0,0:0:0:0:
256,192,134394,1,2,0:0:0:0:
256,192,134594,5,0,0:0:0:0:
256,192,134644,1,0,0:0:0:0:
256,192,134694,1,2,0:0:0:0:
256,192,134894,1,0,0:0:0:0:
256,192,134994,1,0,0:0:0:0:
256,192,135094,1,0,0:0:0:0:
256,192,135194,1,0,0:0:0:0:
256,192,135294,1,2,0:0:0:0:
256,192,135394,1,2,0:0:0:0:
256,192,135494,1,0,0:0:0:0:
256,192,135694,1,0,0:0:0:0:
256,192,135894,1,2,0:0:0:0:
256,192,135994,1,0,0:0:0:0:
256,192,136094,1,0,0:0:0:0:
256,192,136194,1,2,0:0:0:0:
256,192,136294,1,2,0:0:0:0:
256,192,136494,5,0,0:0:0:0:
256,192,136594,1,2,0:0:0:0:
256,192,136694,1,2,0:0:0:0:
256,192,136794,1,0,0:0:0:0:
256,192,136894,1,0,0:0:0:0:
256,192,136994,1,2,0:0:0:0:
256,192,137094,1,2,0:0:0:0:
256,192,137294,1,0,0:0:0:0:
256,192,137394,1,0,0:0:0:0:
256,192,137494,5,2,0:0:0:0:
256,192,137544,1,2,0:0:0:0:
256,192,137594,1,0,0:0:0:0:
256,192,137794,1,0,0:0:0:0:
256,192,137894,1,2,0:0:0:0:
256,192,138094,1,0,0:0:0:0:
256,192,138194,1,0,0:0:0:0:
256,192,138294,1,2,0:0:0:0:
256,192,138394,1,2,0:0:0:0:
256,192,138494,1,0,0:0:0:0:
256,192,138694,1,2,0:0:0:0:
256,192,138794,1,2,0:0:0:0:
256,192,138894,1,0,0:0:0:0:
256,192,138994,1,0,0:0:0:0:
256,192,139094,1,2,0:0:0:0:
256,192,139194,1,2,0:0:0:0:
256,192,139294,1,0,0:0:0:0:
256,192,139494,5,2,0:0:0:0:
256,192,139694,1,0,0:0:0:0:
256,192,139794,1,0,0:0:0:0:
256,192,139894,1,2,0:0:0:0:
256,192,139994,1,2,0:0:0:0:
256,192,140094,1,0,0:0:0:0:
256,192,140294,1,2,0:0:0:0:
256,192,140494,1,0,0:0:0:0:
256,192,140627,1,0,0:0:0:0:
256,192,140760,1,0,0:0:0:0:
256,192,140894,1,2,0:0:0:0:
256,192,141294,1,0,0:0:0:0:
256,192,141360,1,0,0:0:0:0:
256,192,141427,1,0,0:0:0:0:
256,192,141494,1,0,0:0:0:0:
256,192,141560,1,0,0:0:0:0:
256,192,141627,1,0,0:0:0:0:
256,192,141694,1,2,0:0:0:0:
256,192,141794,5,2,0:0:0:0:
256,192,141894,1,2,0:0:0:0:
256,192,141994,1,2,0:0:0:0:
256,192,142094,1,0,0:0:0:0:
256,192,142194,1,0,0:0:0:0:
256,192,142294,1,0,0:0:0:0:
256,192,142394,1,2,0:0:0:0:
256,192,142594,1,2,0:0:0:0:
256,192,142694,1,0,0:0:0:0:
256,192,142794,1,0,0:0:0:0:
256,192,142894,1,0,0:0:0:0:
256,192,142994,1,2,0:0:0:0:
256,192,143094,1,2,0:0:0:0:
256,192,143194,1,2,0:0:0:0:
256,192,143294,1,0,0:0:0:0:
256,192,143494,5,2,0:0:0:0:
256,192,143560,1,2,0:0:0:0:
256,192,143627,1,2,0:0:0:0:
256,192,143694,1,0,0:0:0:0:
256,192,143894,1,2,0:0:0:0:
256,192,144094,1,0,0:0:0:0:
256,192,144494,1,0,0:0:0:0:
256,192,144594,1,0,0:0:0:0:
256,192,144694,1,2,0:0:0:0:
256,192,144794,1,2,0:0:0:0:
256,192,144894,1,0,0:0:0:0:
256,192,144994,1,0,0:0:0:0:
256,192,145094,1,2,0:0:0:0:
256,192,145294,5,0,0:0:0:0:
256,192,145394,1,0,0:0:0:0:
256,192,145494,1,2,0:0:0:0:
256,192,145594,1,2,0:0:0:0:
256,192,145694,1,0,0:0:0:0:
256,192,145894,1,0,0:0:0:0:
256,192,145994,1,0,0:0:0:0:
256,192,146094,1,2,0:0:0:0:
256,192,146194,1,2,0:0:0:0:
256,192,146294,1,2,0:0:0:0:
256,192,146494,1,0,0:0:0:0:
256,192,146694,1,2,0:0:0:0:
256,192,146794,5,0,0:0:0:0:
256,192,146844,1,0,0:0:0:0:
256,192,146894,1,0,0:0:0:0:
256,192,147194,1,0,0:0:0:0:
256,192,147494,1,2,0:0:0:0:
256,192,147694,1,0,0:0:0:0:
256,192,147894,1,0,0:0:0:0:
256,192,147994,1,0,0:0:0:0:
256,192,148194,1,0,0:0:0:0:
256,192,148294,1,0,0:0:0:0:
256,192,148394,1,0,0:0:0:0:
256,192,148494,1,0,0:0:0:0:
256,192,148694,1,0,0:0:0:0:
256,192,148794,1,0,0:0:0:0:
256,192,148994,1,0,0:0:0:0:
256,192,149094,1,0,0:0:0:0:
256,192,149194,1,0,0:0:0:0:
256,192,149294,1,0,0:0:0:0:
256,192,149494,5,0,0:0:0:0:
256,192,149594,1,0,0:0:0:0:
256,192,149794,1,0,0:0:0:0:
256,192,149894,1,0,0:0:0:0:
256,192,150094,1,0,0:0:0:0:
256,192,150194,1,0,0:0:0:0:
256,192,150294,1,0,0:0:0:0:
256,192,150394,1,0,0:0:0:0:
256,192,150494,1,0,0:0:0:0:
256,192,150694,1,0,0:0:0:0:
256,192,150894,1,0,0:0:0:0:
256,192,150994,1,0,0:0:0:0:
256,192,151094,1,0,0:0:0:0:
256,192,151194,1,0,0:0:0:0:
256,192,151294,1,0,0:0:0:0:
256,192,151394,1,0,0:0:0:0:
256,192,151494,1,0,0:0:0:0:
256,192,151594,1,0,0:0:0:0:
256,192,151694,5,0,0:0:0:0:
256,192,151760,1,0,0:0:0:0:
256,192,151827,1,0,0:0:0:0:
256,192,151894,1,0,0:0:0:0:
256,192,151960,1,0,0:0:0:0:
256,192,152027,1,0,0:0:0:0:
256,192,152094,1,0,0:0:0:0:
256,192,152160,1,0,0:0:0:0:
256,192,152227,1,0,0:0:0:0:
256,192,152294,1,0,0:0:0:0:
256,192,152360,1,0,0:0:0:0:
256,192,152427,1,0,0:0:0:0:
256,192,152494,1,0,0:0:0:0:
256,192,153244,5,2,0:0:0:0:
256,192,153594,5,0,0:0:0:0:
256,192,153644,1,0,0:0:0:0:
256,192,153694,1,2,0:0:0:0:
256,192,153760,1,2,0:0:0:0:
256,192,153827,1,0,0:0:0:0:
256,192,153894,1,0,0:0:0:0:
256,192,153960,1,0,0:0:0:0:
256,192,154027,1,0,0:0:0:0:
256,192,154094,1,0,0:0:0:0:
256,192,154294,1,0,0:0:0:0:
256,192,154494,1,2,0:0:0:0:
256,192,154594,1,0,0:0:0:0:
256,192,154894,1,0,0:0:0:0:
256,192,154944,1,0,0:0:0:0:
256,192,154994,1,0,0:0:0:0:
256,192,155044,1,0,0:0:0:0:
256,192,155094,1,2,0:0:0:0:
256,192,155194,5,2,0:0:0:0:
256,192,155294,1,0,0:0:0:0:
256,192,155494,1,0,0:0:0:0:
256,192,155594,1,2,0:0:0:0:
256,192,155794,1,0,0:0:0:0:
256,192,156094,1,0,0:0:0:0:
256,192,156294,1,2,0:0:0:0:
256,192,156394,1,0,0:0:0:0:
256,192,156494,1,0,0:0:0:0:
256,192,156594,1,2,0:0:0:0:
256,192,156794,1,2,0:0:0:0:
256,192,156894,1,0,0:0:0:0:
256,192,157094,5,0,0:0:0:0:
256,192,157194,1,0,0:0:0:0:
256,192,157294,1,2,0:0:0:0:
256,192,157494,1,2,0:0:0:0:
256,192,157560,1,2,0:0:0:0:
256,192,157627,1,2,0:0:0:0:
256,192,157694,1,0,0:0:0:0:
256,192,157994,1,2,0:0:0:0:
256,192,158094,1,0,0:0:0:0:
256,192,158294,1,2,0:0:0:0:
256,192,158394,1,2,0:0:0:0:
256,192,158494,1,0,0:0:0:0:
256,192,158594,1,0,0:0:0:0:
256,192,158794,1,0,0:0:0:0:
256,192,158894,1,2,0:0:0:0:
256,192,158994,1,2,0:0:0:0:
256,192,159094,1,0,0:0:0:0:
256,192,159294,5,0,0:0:0:0:
256,192,159360,1,0,0:0:0:0:
256,192,159427,1,0,0:0:0:0:
256,192,159494,1,0,0:0:0:0:
256,192,159560,1,0,0:0:0:0:
256,192,159627,1,0,0:0:0:0:
256,192,159694,1,2,0:0:0:0:
256,192,159760,1,2,0:0:0:0:
256,192,159827,1,2,0:0:0:0:
256,192,159894,1,2,0:0:0:0:
256,192,159960,1,2,0:0:0:0:
256,192,160027,1,2,0:0:0:0:
256,192,160094,1,0,0:0:0:0:
256,192,160494,1,4,0:0:0:0:
256,192,160694,1,0,0:0:0:0:
256,192,160794,1,0,0:0:0:0:
256,192,160894,1,0,0:0:0:0:
256,192,161294,5,0,0:0:0:0:
256,192,161494,1,2,0:0:0:0:
256,192,161594,1,2,0:0:0:0:
256,192,161694,1,0,0:0:0:0:
256,192,161794,1,0,0:0:0:0:
256,192,161894,1,2,0:0:0:0:
256,192,161944,1,2,0:0:0:0:
256,192,161994,1,2,0:0:0:0:
256,192,162044,1,2,0:0:0:0:
256,192,162094,1,0,0:0:0:0:
256,192,162194,1,0,0:0:0:0:
256,192,162294,1,2,0:0:0:0:
256,192,162494,1,0,0:0:0:0:
256,192,162694,1,0,0:0:0:0:
256,192,162760,1,0,0:0:0:0:
256,192,162827,1,0,0:0:0:0:
256,192,162894,1,2,0:0:0:0:
256,192,162994,5,2,0:0:0:0:
256,192,163094,1,0,0:0:0:0:
256,192,163194,1,0,0:0:0:0:
256,192,163294,1,2,0:0:0:0:
256,192,163394,1,2,0:0:0:0:
256,192,163494,1,0,0:0:0:0:
256,192,163694,1,0,0:0:0:0:
256,192,163794,1,0,0:0:0:0:
256,192,163894,1,2,0:0:0:0:
256,192,164094,1,0,0:0:0:0:
256,192,164294,1,2,0:0:0:0:
256,192,164394,1,2,0:0:0:0:
256,192,164494,1,0,0:0:0:0:
256,192,164694,1,2,0:0:0:0:
256,192,164894,1,0,0:0:0:0:
256,192,165294,1,4,0:0:0:0:
256,192,165894,5,2,0:0:0:0:
256,192,165960,1,2,0:0:0:0:
256,192,166027,1,2,0:0:0:0:
256,192,166094,1,0,0:0:0:0:
256,192,166294,1,2,0:0:0:0:
256,192,166394,1,0,0:0:0:0:
256,192,166594,1,0,0:0:0:0:
256,192,166694,1,0,0:0:0:0:
256,192,166794,1,0,0:0:0:0:
256,192,166894,1,0,0:0:0:0:
256,192,166960,1,0,0:0:0:0:
256,192,167027,1,0,0:0:0:0:
256,192,167094,1,0,0:0:0:0:
256,192,167160,1,0,0:0:0:0:
256,192,167227,1,0,0:0:0:0:
256,192,167294,1,0,0:0:0:0:
256,192,167694,1,0,0:0:0:0:
256,192,167744,1,0,0:0:0:0:
256,192,167794,1,0,0:0:0:0:
256,192,167844,1,0,0:0:0:0:
256,192,167894,1,2,0:0:0:0:
256,192,167994,5,2,0:0:0:0:
256,192,168094,1,0,0:0:0:0:
256,192,168294,1,0,0:0:0:0:
256,192,168394,1,2,0:0:0:0:
256,192,168594,1,0,0:0:0:0:
256,192,168894,1,0,0:0:0:0:
256,192,169094,1,2,0:0:0:0:
256,192,169194,1,2,0:0:0:0:
256,192,169294,1,0,0:0:0:0:
256,192,169394,1,0,0:0:0:0:
256,192,169594,1,2,0:0:0:0:
256,192,169694,1,0,0:0:0:0:
256,192,169894,5,0,0:0:0:0:
256,192,169994,1,0,0:0:0:0:
256,192,170094,1,2,0:0:0:0:
256,192,170294,1,2,0:0:0:0:
256,192,170360,1,2,0:0:0:0:
256,192,170427,1,2,0:0:0:0:
256,192,170494,1,0,0:0:0:0:
256,192,170794,1,2,0:0:0:0:
256,192,170894,1,0,0:0:0:0:
256,192,171094,1,2,0:0:0:0:
256,192,171194,1,2,0:0:0:0:
256,192,171294,1,0,0:0:0:0:
256,192,171394,1,0,0:0:0:0:
256,192,171594,1,2,0:0:0:0:
256,192,171694,1,0,0:0:0:0:
256,192,171794,1,0,0:0:0:0:
256,192,171894,1,2,0:0:0:0:
256,192,172094,5,0,0:0:0:0:
256,192,172160,1,0,0:0:0:0:
256,192,172227,1,0,0:0:0:0:
256,192,172294,1,0,0:0:0:0:
256,192,172360,1,0,0:0:0:0:
256,192,172427,1,0,0:0:0:0:
256,192,172494,1,2,0:0:0:0:
256,192,172560,1,2,0:0:0:0:
256,192,172627,1,2,0:0:0:0:
256,192,172694,1,2,0:0:0:0:
256,192,172760,1,2,0:0:0:0:
256,192,172827,1,2,0:0:0:0:
256,192,172894,1,0,0:0:0:0:
256,192,173294,1,0,0:0:0:0:
256,192,173494,1,0,0:0:0:0:
256,192,173694,1,2,0:0:0:0:
256,192,173794,1,0,0:0:0:0:
256,192,173994,1,0,0:0:0:0:
256,192,174044,1,0,0:0:0:0:
256,192,174094,1,2,0:0:0:0:
256,192,174194,5,2,0:0:0:0:
256,192,174294,1,2,0:0:0:0:
256,192,174394,1,0,0:0:0:0:
256,192,174494,1,0,0:0:0:0:
256,192,174594,1,2,0:0:0:0:
256,192,174794,1,2,0:0:0:0:
256,192,174894,1,0,0:0:0:0:
256,192,175094,1,0,0:0:0:0:
256,192,175294,1,2,0:0:0:0:
256,192,175494,1,0,0:0:0:0:
256,192,175694,1,0,0:0:0:0:
256,192,175760,1,0,0:0:0:0:
256,192,175827,1,0,0:0:0:0:
256,192,175894,1,0,0:0:0:0:
256,192,175960,1,0,0:0:0:0:
256,192,176027,1,0,0:0:0:0:
256,192,176094,1,2,0:0:0:0:
256,192,176160,1,2,0:0:0:0:
256,192,176227,1,2,0:0:0:0:
256,192,176294,1,2,0:0:0:0:
256,192,176360,1,2,0:0:0:0:
256,192,176427,1,2,0:0:0:0:
256,192,176494,1,0,0:0:0:0:
256,192,176694,1,0,0:0:0:0:
256,192,176894,1,2,0:0:0:0:
256,192,177194,1,2,0:0:0:0:
256,192,177294,5,2,0:0:0:0:
256,192,177360,1,2,0:0:0:0:
256,192,177427,1,0,0:0:0:0:
256,192,177494,1,0,0:0:0:0:
256,192,177560,1,2,0:0:0:0:
256,192,177627,1,2,0:0:0:0:
256,192,177694,1,0,0:0:0:0:
256,192,177794,1,0,0:0:0:0:
256,192,177894,1,2,0:0:0:0:
256,192,177994,1,2,0:0:0:0:
256,192,178094,1,0,0:0:0:0:
256,192,178194,1,0,0:0:0:0:
256,192,178394,1,2,0:0:0:0:
256,192,178494,1,0,0:0:0:0:
256,192,178694,1,2,0:0:0:0:
256,192,178894,1,4,0:0:0:0:
256,192,179294,5,2,0:0:0:0:
256,192,179360,1,2,0:0:0:0:
256,192,179427,1,2,0:0:0:0:
256,192,179494,1,2,0:0:0:0:
256,192,179560,1,2,0:0:0:0:
256,192,179627,1,2,0:0:0:0:
256,192,179694,1,0,0:0:0:0:
256,192,179894,1,0,0:0:0:0:
256,192,180094,1,2,0:0:0:0:
256,192,180194,1,0,0:0:0:0:
256,192,180394,1,0,0:0:0:0:
256,192,180494,1,2,0:0:0:0:
256,192,180594,1,2,0:0:0:0:
256,192,180694,1,0,0:0:0:0:
256,192,180794,1,0,0:0:0:0:
256,192,180894,1,2,0:0:0:0:
256,192,180994,1,2,0:0:0:0:
256,192,181094,1,0,0:0:0:0:
256,192,181294,1,0,0:0:0:0:
256,192,181494,1,2,0:0:0:0:
256,192,181594,5,0,0:0:0:0:
256,192,181644,1,0,0:0:0:0:
256,192,181694,1,2,0:0:0:0:
256,192,181760,1,2,0:0:0:0:
256,192,181827,1,0,0:0:0:0:
256,192,181894,1,0,0:0:0:0:
256,192,181960,1,0,0:0:0:0:
256,192,182027,1,0,0:0:0:0:
256,192,182094,1,2,0:0:0:0:
256,192,182227,1,2,0:0:0:0:
256,192,182360,1,2,0:0:0:0:
256,192,182494,1,0,0:0:0:0:
256,192,182894,1,4,0:0:0:0:
256,192,184494,12,0,188494,0:0:0:0:
273,192,189294,5,4,0:0:0:0:
256,192,190544,5,2,0:0:0:0:
256,192,190944,1,0,0:0:0:0:
256,192,192169,5,2,0:0:0:0:
256,192,192560,1,0,0:0:0:0:
256,192,195427,5,2,0:0:0:0:
256,192,195794,1,0,0:0:0:0:
256,192,196994,5,2,0:0:0:0:
256,192,197394,5,0,0:0:0:0:
256,192,198727,5,2,0:0:0:0:
256,192,199294,5,0,0:0:0:0:
256,192,200894,12,2,203694,0:0:0:0:
