osu file format v14

[General]
AudioFilename: audio.mp3
AudioLeadIn: 0
PreviewTime: 290069
Countdown: 0
SampleSet: Normal
StackLeniency: 0.7
Mode: 3
LetterboxInBreaks: 0
SpecialStyle: 0
WidescreenStoryboard: 0

[Editor]
DistanceSpacing: 0.8
BeatDivisor: 8
GridSize: 32
TimelineZoom: 2.800001

[Metadata]
Title:Algorithm (Hitech Psy Self-remix)
TitleUnicode:Algorithm (Hitech Psy Self-remix)
Artist:Camellia
ArtistUnicode:かめりあ
Creator:OscarRickyH02
Version:Paradox
Source:
Tags:Exit Tunes Guest Tracks Summary & VIPs CTCD-0015 Paradox kradness かめるかめりあ cametek kamelcamellia M3-39
BeatmapID:1293172
BeatmapSetID:612842

[Difficulty]
HPDrainRate:9
CircleSize:4
OverallDifficulty:7.3
ApproachRate:5
SliderMultiplier:1.4
SliderTickRate:1

[Events]
//Background and Video events
0,0,"NewBG.jpg",0,0
//Break Periods
//Storyboard Layer 0 (Background)
//Storyboard Layer 1 (Fail)
//Storyboard Layer 2 (Pass)
//Storyboard Layer 3 (Foreground)
//Storyboard Sound Samples

[TimingPoints]
1116,408.163265306122,4,1,1,40,1,0
51728,-12.5,4,1,1,40,0,0
51753,-1000,4,1,1,40,0,0
52391,-250,4,1,1,40,0,0
52442,-142.857142857143,4,1,1,40,0,0
52493,-111.111111111111,4,1,1,40,0,0
52544,-100,4,1,1,40,0,0
53360,-52.6315789473684,4,1,1,40,0,0
53462,-142.857142857143,4,1,1,40,0,0
53769,-200,4,1,1,40,0,0
53871,-66.6666666666667,4,1,1,40,0,0
53973,-100,4,1,1,40,0,0
56013,-52.6315789473684,4,1,1,40,0,0
56064,-142.857142857143,4,1,1,40,0,0
56218,-100,4,1,1,40,0,0
56320,-52.6315789473684,4,1,1,40,0,0
56371,-142.857142857143,4,1,1,40,0,0
56524,-100,4,1,1,40,0,0
56626,-80,4,1,1,40,0,0
56728,-133.333333333333,4,1,1,40,0,0
56830,-100,4,1,1,40,0,0
57238,-52.6315789473684,4,1,1,40,0,0
57289,-142.857142857143,4,1,1,40,0,0
57442,-100,4,1,1,40,0,0
57544,-52.6315789473684,4,1,1,40,0,0
57595,-142.857142857143,4,1,1,40,0,0
57748,-200,4,1,1,40,0,0
57799,-66.6666666666667,4,1,1,40,0,0
57850,-100,4,1,1,40,0,0
59075,-50,4,1,1,40,0,0
59177,-200,4,1,1,40,0,0
59381,-100,4,1,1,40,0,0
59483,-50,4,1,1,40,0,0
59585,-200,4,1,1,40,0,0
59789,-100,4,1,1,40,0,0
59891,-52.6315789473684,4,1,1,40,0,0
59993,-142.857142857143,4,1,1,40,0,0
60299,-200,4,1,1,40,0,0
60401,-66.6666666666667,4,1,1,40,0,0
60503,-100,4,1,1,40,0,0
62544,-52.6315789473684,4,1,1,40,0,0
62595,-142.857142857143,4,1,1,40,0,0
62748,-100,4,1,1,40,0,0
62850,-52.6315789473684,4,1,1,40,0,0
62901,-142.857142857143,4,1,1,40,0,0
63054,-100,4,1,1,40,0,0
63156,-80,4,1,1,40,0,0
63258,-133.333333333333,4,1,1,40,0,0
63360,-100,4,1,1,40,0,0
63769,-52.6315789473684,4,1,1,40,0,0
63820,-142.857142857143,4,1,1,40,0,0
63973,-100,4,1,1,40,0,0
64075,-52.6315789473684,4,1,1,40,0,0
64126,-142.857142857143,4,1,1,40,0,0
64279,-200,4,1,1,40,0,0
64330,-66.6666666666667,4,1,1,40,0,0
64381,-100,4,1,1,40,0,0
66830,-111.111111111111,4,1,1,40,0,0
67238,-125,4,1,1,40,0,0
67646,-142.857142857143,4,1,1,40,0,0
68054,-166.666666666667,4,1,1,40,0,0
68462,-200,4,1,1,40,0,0
71422,-166.666666666667,4,1,1,15,0,0
71524,-142.857142857143,4,1,1,15,0,0
71626,-125,4,1,1,15,0,0
71728,-111.111111111111,4,1,1,15,0,0
71830,-100,4,1,1,15,0,0
72544,-71.4285714285714,4,1,1,40,0,0
72646,-166.666666666667,4,1,1,40,0,0
72748,-62.5,4,1,1,40,0,0
72850,-250.000000000001,4,1,1,40,0,0
72952,-100,4,1,1,40,0,0
78667,-66.6666666666667,4,1,1,40,0,0
78679,-200,4,1,1,40,0,0
78692,-66.6666666666667,4,1,1,40,0,0
78705,-200,4,1,1,40,0,0
78718,-66.6666666666667,4,1,1,40,0,0
78730,-200,4,1,1,40,0,0
78743,-66.6666666666667,4,1,1,40,0,0
78756,-200,4,1,1,40,0,0
78769,-66.6666666666667,4,1,1,40,0,0
78781,-200,4,1,1,40,0,0
78794,-66.6666666666667,4,1,1,40,0,0
78807,-200,4,1,1,40,0,0
78820,-66.6666666666667,4,1,1,40,0,0
78832,-200,4,1,1,40,0,0
78845,-66.6666666666667,4,1,1,40,0,0
78858,-200,4,1,1,40,0,0
78871,-66.6666666666667,4,1,1,40,0,0
78896,-200,4,1,1,40,0,0
78922,-66.6666666666667,4,1,1,40,0,0
78947,-200,4,1,1,40,0,0
78973,-66.6666666666667,4,1,1,40,0,0
78998,-200,4,1,1,40,0,0
79024,-66.6666666666667,4,1,1,40,0,0
79049,-200,4,1,1,40,0,0
79075,-66.6666666666667,4,1,1,40,0,0
79126,-200,4,1,1,40,0,0
79177,-41.6666666666667,4,1,1,40,0,0
79279,-222.222222222222,4,1,1,40,0,0
79381,-666.666666666667,4,1,1,40,0,0
79483,-100,4,1,1,40,0,0
85605,-52.6315789473684,4,1,1,40,0,0
85656,-142.857142857143,4,1,1,40,0,0
85962,-52.6315789473684,4,1,1,40,0,0
86013,-100,4,1,1,40,0,0
90503,-83.3333333333333,4,1,1,40,0,0
90554,-125,4,1,1,40,0,0
90605,-76.9230769230769,4,1,1,40,0,0
90656,-142.857142857143,4,1,1,40,0,0
90707,-71.4285714285714,4,1,1,40,0,0
90758,-166.666666666667,4,1,1,40,0,0
90809,-66.6666666666667,4,1,1,40,0,0
90860,-200,4,1,1,40,0,0
90911.92,-90.90909,4,1,1,40,0,0
90962.945,-111.111115,4,1,1,40,0,0
91013.96,-87.71929,4,1,1,40,0,0
91064.984,-116.27908,4,1,1,40,0,0
91116,-84.74575,4,1,1,40,0,0
91167.02,-121.95125,4,1,1,40,0,0
91218.04,-81.96719,4,1,1,40,0,0
91269.06,-128.20517,4,1,1,40,0,0
91320.08,-79.36506,4,1,1,40,0,0
91371.1,-135.1352,4,1,1,40,0,0
91422.12,-76.92305,4,1,1,40,0,0
91473.14,-142.85722,4,1,1,40,0,0
91524.16,-74.62684,4,1,1,40,0,0
91575.18,-151.51527,4,1,1,40,0,0
91626.195,-72.46374,4,1,1,40,0,0
91677.22,-161.29048,4,1,1,40,0,0
91728.234,-70.4225,4,1,1,40,0,0
91779.26,-172.41399,4,1,1,40,0,0
91830.27,-68.49312,4,1,1,40,0,0
91881.3,-185.18544,4,1,1,40,0,0
91932,-100,4,1,1,40,0,0
92544,-57.1428571428571,4,1,1,40,0,0
92595,-133.333333333333,4,1,1,40,0,0
92748,-100,4,1,1,40,0,0
94177,-50,4,1,1,40,0,0
94228,-149.253731343284,4,1,1,40,0,0
94381,-50,4,1,1,40,0,0
94432,-149.253731343284,4,1,1,40,0,0
94585,-100,4,1,1,40,0,0
95809,-57.1428571428571,4,1,1,40,0,0
95860,-133.333333333333,4,1,1,40,0,0
96013,-57.1428571428571,4,1,1,40,0,0
96064,-133.333333333333,4,1,1,40,0,0
96218,-100,4,1,1,40,0,0
98769,-52.6315789473684,4,1,1,40,0,0
98820,-142.857142857143,4,1,1,40,0,0
98973,-100,4,1,1,40,0,0
99075,-52.6315789473684,4,1,1,40,0,0
99126,-142.857142857143,4,1,1,40,0,0
99279,-100,4,1,1,40,0,0
105605,-40,4,1,1,40,0,0
105707,-400,4,1,1,40,0,0
105911,-100,4,1,1,40,0,0
107238,-50,4,1,1,40,0,0
107289,-149.253731343284,4,1,1,40,0,0
107442,-50,4,1,1,40,0,0
107493,-149.253731343284,4,1,1,40,0,0
107646,-100,4,1,1,40,0,0
108667,-66.6666666666667,4,1,1,40,0,0
108692,-200,4,1,1,40,0,0
108718,-66.6666666666667,4,1,1,40,0,0
108743,-200,4,1,1,40,0,0
108769,-66.6666666666667,4,1,1,40,0,0
108794,-200,4,1,1,40,0,0
108820,-66.6666666666667,4,1,1,40,0,0
108845,-200,4,1,1,40,0,0
108871,-45.4545454545455,4,1,1,40,0,0
108922,-166.666666666667,4,1,1,40,0,0
109075,-66.6666666666667,4,1,1,40,0,0
109177,-200,4,1,1,40,0,0
109279,-100,4,1,1,40,0,0
111830,-52.6315789473684,4,1,1,40,0,0
111881,-142.857142857143,4,1,1,40,0,0
112034,-100,4,1,1,40,0,0
112136,-66.6666666666667,4,1,1,40,0,0
112238,-133.333333333333,4,1,1,40,0,0
112442,-100,4,1,1,40,0,0
112544,-52.6315789473684,4,1,1,40,0,0
112595,-142.857142857143,4,1,1,40,0,0
112748,-100,4,1,1,40,0,0
112850,-80,4,1,1,40,0,0
112901,-133.333333333333,4,1,1,40,0,0
112952,-66.6666666666667,4,1,1,40,0,0
113054,-133.333333333333,4,1,1,40,0,0
113258,-100,4,1,1,40,0,0
113769,-66.6666666666667,4,1,1,40,0,0
113871,-133.333333333333,4,1,1,40,0,0
114075,-100,4,1,1,40,0,0
114177,-52.6315789473684,4,1,1,40,0,0
114228,-142.857142857143,4,1,1,40,0,0
114381,-100,4,1,1,40,0,0
114585,-80,4,1,1,40,0,0
114636,-133.333333333333,4,1,1,40,0,0
114687,-52.6315789473684,4,1,1,40,0,0
114738,-142.857142857143,4,1,1,40,0,0
114891,-80,4,1,1,40,0,0
114942,-133.333333333333,4,1,1,40,0,0
114993,-52.6315789473684,4,1,1,40,0,0
115044,-142.857142857143,4,1,1,40,0,0
115197,-52.6315789473684,4,1,1,40,0,0
115248,-142.857142857143,4,1,1,40,0,0
115401,-100,4,1,1,40,0,0
117034,-80,4,1,1,40,0,0
117136,-133.333333333333,4,1,1,40,0,0
117238,-100,4,1,1,40,0,0
117340,-80,4,1,1,40,0,0
117442,-133.333333333333,4,1,1,40,0,0
117544,-100,4,1,1,40,0,0
117646,-80,4,1,1,40,0,0
117748,-133.333333333333,4,1,1,40,0,0
117850,-100,4,1,1,40,0,0
117952,-80,4,1,1,40,0,0
118054,-133.333333333333,4,1,1,40,0,0
118156,-100,4,1,1,40,0,0
118258,-133.333333333333,4,1,1,40,0,0
118309,-80,4,1,1,40,0,0
118360,-133.333333333333,4,1,1,40,0,0
118411,-80,4,1,1,40,0,0
118462,-133.333333333333,4,1,1,40,0,0
118513,-80,4,1,1,40,0,0
118564,-133.333333333333,4,1,1,40,0,0
118615,-80,4,1,1,40,0,0
118667,-100,4,1,1,40,0,0
142952,-76.9230769230769,4,1,1,40,0,0
143003,-111.111111111111,4,1,1,40,0,0
143156,-76.9230769230769,4,1,1,40,0,0
143207,-111.111111111111,4,1,1,40,0,0
143360,-62.5,4,1,1,40,0,0
143411,-125,4,1,1,40,0,0
143564,-100,4,1,1,40,0,0
143769,-62.5,4,1,1,40,0,0
143820,-125,4,1,1,40,0,0
143973,-100,4,1,1,40,0,0
144177,-66.6666666666667,4,1,1,40,0,0
144228,-200,4,1,1,40,0,0
144279,-100,4,1,1,40,0,0
150911,-66.6666666666667,4,1,1,40,0,0
150937,-200,4,1,1,40,0,0
150962,-66.6666666666667,4,1,1,40,0,0
150988,-200,4,1,1,40,0,0
151013,-66.6666666666667,4,1,1,40,0,0
151064,-200,4,1,1,40,0,0
151115,-66.6666666666667,4,1,1,40,0,0
151166,-200,4,1,1,40,0,0
151217,-66.6666666666667,4,1,1,40,0,0
151268,-200,4,1,1,40,0,0
151319,-66.6666666666667,4,1,1,40,0,0
151370,-200,4,1,1,40,0,0
151422,-66.6666666666667,4,1,1,40,0,0
151473,-200,4,1,1,40,0,0
151524,-66.6666666666667,4,1,1,40,0,0
151575,-200,4,1,1,40,0,0
151626,-66.6666666666667,4,1,1,40,0,0
151677,-200,4,1,1,40,0,0
151728,-66.6666666666667,4,1,1,40,0,0
151779,-200,4,1,1,40,0,0
151830,-66.6666666666667,4,1,1,40,0,0
151881,-200,4,1,1,40,0,0
151932,-66.6666666666667,4,1,1,40,0,0
151983,-200,4,1,1,40,0,0
152034,-66.6666666666667,4,1,1,40,0,0
152085,-200,4,1,1,40,0,0
152136,-66.6666666666667,4,1,1,40,0,0
152187,-200,4,1,1,40,0,0
152238,-66.6666666666667,4,1,1,40,0,0
152289,-200,4,1,1,40,0,0
152340,-66.6666666666667,4,1,1,40,0,0
152391,-200,4,1,1,40,0,0
152442,-66.6666666666667,4,1,1,40,0,0
152493,-200,4,1,1,40,0,0
152544,-66.6666666666667,4,1,1,40,0,0
152595,-200,4,1,1,40,0,0
152646,-66.6666666666667,4,1,1,40,0,0
152697,-200,4,1,1,40,0,0
152748,-66.6666666666667,4,1,1,40,0,0
152799,-200,4,1,1,40,0,0
152850,-66.6666666666667,4,1,1,40,0,0
152900,-200,4,1,1,40,0,0
152951,-66.6666666666667,4,1,1,40,0,0
153003,-200,4,1,1,40,0,0
153054,-66.6666666666667,4,1,1,40,0,0
153105,-200,4,1,1,40,0,0
153156,-66.6666666666667,4,1,1,40,0,0
153207,-200,4,1,1,40,0,0
153258,-66.6666666666667,4,1,1,40,0,0
153309,-200,4,1,1,40,0,0
153360,-66.6666666666667,4,1,1,40,0,0
153411,-200,4,1,1,40,0,0
153462,-66.6666666666667,4,1,1,40,0,0
153513,-200,4,1,1,40,0,0
153564,-66.6666666666667,4,1,1,40,0,0
153615,-200,4,1,1,40,0,0
153666,-66.6666666666667,4,1,1,40,0,0
153717,-200,4,1,1,40,0,0
153769,-66.6666666666667,4,1,1,40,0,0
153820,-200,4,1,1,40,0,0
153871,-66.6666666666667,4,1,1,40,0,0
153922,-200,4,1,1,40,0,0
153973,-66.6666666666667,4,1,1,40,0,0
154024,-200,4,1,1,40,0,0
154075,-66.6666666666667,4,1,1,40,0,0
154126,-200,4,1,1,40,0,0
154177,-66.6666666666667,4,1,1,40,0,0
154228,-200,4,1,1,40,0,0
154279,-66.6666666666667,4,1,1,40,0,0
154330,-200,4,1,1,40,0,0
154381,-66.6666666666667,4,1,1,40,0,0
154432,-200,4,1,1,40,0,0
154483,-66.6666666666667,4,1,1,40,0,0
154534,-200,4,1,1,40,0,0
154585,-66.6666666666667,4,1,1,40,0,0
154611,-200,4,1,1,40,0,0
154636,-66.6666666666667,4,1,1,40,0,0
154662,-200,4,1,1,40,0,0
154687,-66.6666666666667,4,1,1,40,0,0
154713,-200,4,1,1,40,0,0
154738,-66.6666666666667,4,1,1,40,0,0
154764,-200,4,1,1,40,0,0
154789,-66.6666666666667,4,1,1,40,0,0
154815,-200,4,1,1,40,0,0
154840,-66.6666666666667,4,1,1,40,0,0
154866,-200,4,1,1,40,0,0
154891,-66.6666666666667,4,1,1,40,0,0
154917,-200,4,1,1,40,0,0
154942,-66.6666666666667,4,1,1,40,0,0
154968,-200,4,1,1,40,0,0
154993,-66.6666666666667,4,1,1,40,0,0
155019,-200,4,1,1,40,0,0
155044,-66.6666666666667,4,1,1,40,0,0
155070,-200,4,1,1,40,0,0
155095,-66.6666666666667,4,1,1,40,0,0
155121,-200,4,1,1,40,0,0
155146,-66.6666666666667,4,1,1,40,0,0
155172,-200,4,1,1,40,0,0
155197,-66.6666666666667,4,1,1,40,0,0
155223,-200,4,1,1,40,0,0
155248,-66.6666666666667,4,1,1,40,0,0
155274,-200,4,1,1,40,0,0
155299,-66.6666666666667,4,1,1,40,0,0
155325,-200,4,1,1,40,0,0
155350,-66.6666666666667,4,1,1,40,0,0
155376,-200,4,1,1,40,0,0
155401,-66.6666666666667,4,1,1,40,0,0
155427,-200,4,1,1,40,0,0
155452,-66.6666666666667,4,1,1,40,0,0
155478,-200,4,1,1,40,0,0
155503,-66.6666666666667,4,1,1,40,0,0
155529,-200,4,1,1,40,0,0
155554,-66.6666666666667,4,1,1,40,0,0
155580,-200,4,1,1,40,0,0
155605,-66.6666666666667,4,1,1,40,0,0
155631,-200,4,1,1,40,0,0
155656,-66.6666666666667,4,1,1,40,0,0
155682,-200,4,1,1,40,0,0
155707,-66.6666666666667,4,1,1,40,0,0
155733,-200,4,1,1,40,0,0
155758,-66.6666666666667,4,1,1,40,0,0
155784,-200,4,1,1,40,0,0
155809,-66.6666666666667,4,1,1,40,0,0
155835,-200,4,1,1,40,0,0
155860,-66.6666666666667,4,1,1,40,0,0
155886,-200,4,1,1,40,0,0
155911,-66.6666666666667,4,1,1,40,0,0
155937,-200,4,1,1,40,0,0
155962,-66.6666666666667,4,1,1,40,0,0
155988,-200,4,1,1,40,0,0
156013,-66.6666666666667,4,1,1,40,0,0
156039,-200,4,1,1,40,0,0
156064,-66.6666666666667,4,1,1,40,0,0
156090,-200,4,1,1,40,0,0
156115,-66.6666666666667,4,1,1,40,0,0
156141,-200,4,1,1,40,0,0
156167,-66.6666666666667,4,1,1,40,0,0
156192,-200,4,1,1,40,0,0
156218,-100,4,1,1,40,0,0
157850,-100,4,1,1,40,0,1
169279,-80,4,1,1,40,0,0
169381,-133.333333333333,4,1,1,40,0,0
169483,-83.3333333333333,4,1,1,40,0,0
169585,-111.111111111111,4,1,1,40,0,0
169789,-80,4,1,1,40,0,0
169891,-133.333333333333,4,1,1,40,0,0
169993,-80,4,1,1,40,0,0
170044,-133.333333333333,4,1,1,40,0,0
170095,-83.3333333333333,4,1,1,40,0,0
170197,-111.111111111111,4,1,1,40,0,0
170401,-83.3333333333333,4,1,1,40,0,0
170503,-111.111111111111,4,1,1,40,0,0
170707,-80,4,1,1,40,0,0
170809,-133.333333333333,4,1,1,40,0,0
170911,-100,4,1,1,40,0,1
177442,-80,4,1,1,40,0,0
177493,-133.333333333333,4,1,1,40,0,0
177544,-80,4,1,1,40,0,0
177595,-133.333333333333,4,1,1,40,0,0
177646,-80,4,1,1,40,0,0
177697,-133.333333333333,4,1,1,40,0,0
177748,-80,4,1,1,40,0,0
177799,-133.333333333333,4,1,1,40,0,0
177850,-80,4,1,1,40,0,0
177901,-133.333333333333,4,1,1,40,0,0
177952,-80,4,1,1,40,0,0
178003,-133.333333333333,4,1,1,40,0,0
178054,-80,4,1,1,40,0,0
178105,-133.333333333333,4,1,1,40,0,0
178156,-80,4,1,1,40,0,0
178207,-133.333333333333,4,1,1,40,0,0
178258,-33.3333333333333,4,1,1,40,0,0
178360,-166.666666666667,4,1,1,40,0,0
178871,-100,4,1,1,40,0,0
178973,-80,4,1,1,40,0,0
179024,-133.333333333333,4,1,1,40,0,0
179075,-80,4,1,1,40,0,0
179126,-133.333333333333,4,1,1,40,0,0
179177,-80,4,1,1,40,0,0
179228,-133.333333333333,4,1,1,40,0,0
179279,-80,4,1,1,40,0,0
179330,-133.333333333333,4,1,1,40,0,0
179381,-80,4,1,1,40,0,0
179432,-133.333333333333,4,1,1,40,0,0
179483,-80,4,1,1,40,0,0
179534,-133.333333333333,4,1,1,40,0,0
179585,-80,4,1,1,40,0,0
179636,-133.333333333333,4,1,1,40,0,0
179687,-80,4,1,1,40,0,0
179738,-133.333333333333,4,1,1,40,0,0
179789,-80,4,1,1,40,0,0
179840,-133.333333333333,4,1,1,40,0,0
179891,-66.6666666666667,4,1,1,40,0,0
179993,-200,4,1,1,40,0,0
180095,-66.6666666666667,4,1,1,40,0,0
180197,-200,4,1,1,40,0,0
180401,-66.6666666666667,4,1,1,40,0,0
180605,-133.333333333333,4,1,1,40,0,0
180809,-100,4,1,1,40,0,0
180911,-80,4,1,1,40,0,0
181013,-133.333333333333,4,1,1,40,0,0
181115,-80,4,1,1,40,0,0
181218,-133.333333333333,4,1,1,40,0,0
181320,-66.6666666666667,4,1,1,40,0,0
181422,-133.333333333333,4,1,1,40,0,0
181626,-100,4,1,1,40,0,0
181728,-80,4,1,1,40,0,0
181830,-133.333333333333,4,1,1,40,0,0
181932,-80,4,1,1,40,0,0
182034,-133.333333333333,4,1,1,40,0,0
182136,-80,4,1,1,40,0,0
182238,-133.333333333333,4,1,1,40,0,0
182340,-100,4,1,1,40,0,0
194993,-80,4,1,1,40,0,0
195095,-133.333333333333,4,1,1,40,0,0
195197,-80,4,1,1,40,0,0
195299,-133.333333333333,4,1,1,40,0,0
195401,-100,4,1,1,40,0,0
195605,-80,4,1,1,40,0,0
195707,-133.333333333333,4,1,1,40,0,0
195809,-100,4,1,1,40,0,0
196013,-80,4,1,1,40,0,0
196115,-133.333333333333,4,1,1,40,0,0
196218,-100,4,1,1,40,0,0
196422,-80,4,1,1,40,0,0
196524,-133.333333333333,4,1,1,40,0,0
196626,-80,4,1,1,40,0,0
196651,-133.333333333333,4,1,1,40,0,0
196677,-80,4,1,1,40,0,0
196702,-133.333333333333,4,1,1,40,0,0
196728,-80,4,1,1,40,0,0
196779,-133.333333333333,4,1,1,40,0,0
196830,-80,4,1,1,40,0,0
196881,-133.333333333333,4,1,1,40,0,0
196932,-80,4,1,1,40,0,0
196983,-133.333333333333,4,1,1,40,0,0
197034,-100,4,1,1,40,0,0
208258,-62.5,4,1,1,40,0,0
208309,-125,4,1,1,40,0,0
208462,-62.5,4,1,1,40,0,0
208513,-125,4,1,1,40,0,0
208667,-62.5,4,1,1,40,0,0
208718,-125,4,1,1,40,0,0
208871,-100,4,1,1,40,0,0
209075,-62.5,4,1,1,40,0,0
209126,-125,4,1,1,40,0,0
209279,-100,4,1,1,40,0,0
209483,-66.6666666666667,4,1,1,40,0,0
209534,-200,4,1,1,40,0,0
209585,-66.6666666666667,4,1,1,40,0,0
209636,-200,4,1,1,40,0,0
209687,-66.6666666666667,4,1,1,40,0,0
209738,-200,4,1,1,40,0,0
209789,-66.6666666666667,4,1,1,40,0,0
209840,-200,4,1,1,40,0,0
209891,-66.6666666666667,4,1,1,40,0,0
209917,-200,4,1,1,40,0,0
209942,-66.6666666666667,4,1,1,40,0,0
209968,-200,4,1,1,40,0,0
209993,-66.6666666666667,4,1,1,40,0,0
210019,-200,4,1,1,40,0,0
210044,-66.6666666666667,4,1,1,40,0,0
210070,-200,4,1,1,40,0,0
210095,-100,4,1,1,40,0,0
210299,-100,4,1,1,20,0,0
220707,-100,4,1,1,25,0,0
221524,-100,4,1,1,30,0,0
221932,-100,4,1,1,35,0,0
222340,-100,4,1,1,40,0,0
237034,-100,4,1,1,20,0,0
238054,-100,4,1,1,30,0,0
238258,-100,4,1,1,40,0,0
239483,-52.6315789473684,4,1,1,40,0,0
239585,-142.857142857143,4,1,1,40,0,0
239891,-200,4,1,1,40,0,0
239993,-66.6666666666667,4,1,1,40,0,0
240095,-100,4,1,1,40,0,0
242136,-52.6315789473684,4,1,1,40,0,0
242187,-142.857142857143,4,1,1,40,0,0
242340,-100,4,1,1,40,0,0
242442,-52.6315789473684,4,1,1,40,0,0
242493,-142.857142857143,4,1,1,40,0,0
242646,-100,4,1,1,40,0,0
242748,-80,4,1,1,40,0,0
242850,-133.333333333333,4,1,1,40,0,0
242952,-100,4,1,1,40,0,0
243360,-52.6315789473684,4,1,1,40,0,0
243411,-142.857142857143,4,1,1,40,0,0
243564,-100,4,1,1,40,0,0
243667,-52.6315789473684,4,1,1,40,0,0
243718,-142.857142857143,4,1,1,40,0,0
243871,-200,4,1,1,40,0,0
243922,-66.6666666666667,4,1,1,40,0,0
243973,-100,4,1,1,40,0,0
245197,-50,4,1,1,40,0,0
245299,-200,4,1,1,40,0,0
245503,-100,4,1,1,40,0,0
245605,-50,4,1,1,40,0,0
245707,-200,4,1,1,40,0,0
245911,-100,4,1,1,40,0,0
246013,-52.6315789473684,4,1,1,40,0,0
246115,-142.857142857143,4,1,1,40,0,0
246422,-200,4,1,1,40,0,0
246524,-66.6666666666667,4,1,1,40,0,0
246626,-100,4,1,1,40,0,0
248667,-52.6315789473684,4,1,1,40,0,0
248718,-142.857142857143,4,1,1,40,0,0
248871,-100,4,1,1,40,0,0
248973,-52.6315789473684,4,1,1,40,0,0
249024,-142.857142857143,4,1,1,40,0,0
249177,-100,4,1,1,40,0,0
249279,-80,4,1,1,40,0,0
249381,-133.333333333333,4,1,1,40,0,0
249483,-100,4,1,1,40,0,0
249891,-52.6315789473684,4,1,1,40,0,0
249942,-142.857142857143,4,1,1,40,0,0
250095,-100,4,1,1,40,0,0
250197,-52.6315789473684,4,1,1,40,0,0
250248,-142.857142857143,4,1,1,40,0,0
250401,-200,4,1,1,40,0,0
250452,-66.6666666666667,4,1,1,40,0,0
250503,-100,4,1,1,40,0,0
251728,-66.6666666666667,4,1,1,40,0,0
251830,-133.333333333333,4,1,1,40,0,0
252034,-80,4,1,1,40,0,0
252085,-133.333333333333,4,1,1,40,0,0
252136,-80,4,1,1,40,0,0
252238,-133.333333333333,4,1,1,40,0,0
252340,-80,4,1,1,40,0,0
252442,-133.333333333333,4,1,1,40,0,0
252544,-100,4,1,1,40,0,0
277850,-66.6666666666667,4,1,1,40,0,0
277863,-200,4,1,1,40,0,0
277876,-66.6666666666667,4,1,1,40,0,0
277888,-200,4,1,1,40,0,0
277901,-66.6666666666667,4,1,1,40,0,0
277914,-200,4,1,1,40,0,0
277927,-66.6666666666667,4,1,1,40,0,0
277939,-200,4,1,1,40,0,0
277952,-66.6666666666667,4,1,1,40,0,0
277965,-200,4,1,1,40,0,0
277978,-66.6666666666667,4,1,1,40,0,0
277990,-200,4,1,1,40,0,0
278003,-66.6666666666667,4,1,1,40,0,0
278016,-200,4,1,1,40,0,0
278029,-66.6666666666667,4,1,1,40,0,0
278041,-200,4,1,1,40,0,0
278054,-66.6666666666667,4,1,1,40,0,0
278080,-200,4,1,1,40,0,0
278105,-66.6666666666667,4,1,1,40,0,0
278131,-200,4,1,1,40,0,0
278156,-66.6666666666667,4,1,1,40,0,0
278182,-200,4,1,1,40,0,0
278207,-66.6666666666667,4,1,1,40,0,0
278233,-200,4,1,1,40,0,0
278258,-66.6666666666667,4,1,1,40,0,0
278309,-200,4,1,1,40,0,0
278360,-55.5555555555556,4,1,1,40,0,0
278461,-111.111111111111,4,1,1,40,0,0
278563,-333.333333333333,4,1,1,40,0,0
278667,-35.0877192982456,4,1,1,40,0,1
278692,-105.263157894737,4,1,1,40,0,1
278718,-95.2380952380952,4,1,1,40,0,1
278743,-285.714285714286,4,1,1,40,0,1
278769,-95.2380952380952,4,1,1,40,0,1
278794,-285.714285714286,4,1,1,40,0,1
278820,-95.2380952380952,4,1,1,40,0,1
278845,-285.714285714286,4,1,1,40,0,1
278871,-100,4,1,1,40,0,1
278973,-35.0877192982456,4,1,1,40,0,1
278998,-105.263157894737,4,1,1,40,0,1
279024,-95.2380952380952,4,1,1,40,0,1
279049,-285.714285714286,4,1,1,40,0,1
279075,-95.2380952380952,4,1,1,40,0,1
279100,-285.714285714286,4,1,1,40,0,1
279126,-95.2380952380952,4,1,1,40,0,1
279151,-285.714285714286,4,1,1,40,0,1
279177,-100,4,1,1,40,0,1
279279,-35.0877192982456,4,1,1,40,0,1
279304,-105.263157894737,4,1,1,40,0,1
279330,-95.2380952380952,4,1,1,40,0,1
279355,-285.714285714286,4,1,1,40,0,1
279381,-95.2380952380952,4,1,1,40,0,1
279406,-285.714285714286,4,1,1,40,0,1
279432,-95.2380952380952,4,1,1,40,0,1
279457,-285.714285714286,4,1,1,40,0,1
279483,-100,4,1,1,40,0,1
279585,-35.0877192982456,4,1,1,40,0,1
279610,-105.263157894737,4,1,1,40,0,1
279636,-95.2380952380952,4,1,1,40,0,1
279661,-285.714285714286,4,1,1,40,0,1
279687,-95.2380952380952,4,1,1,40,0,1
279712,-285.714285714286,4,1,1,40,0,1
279738,-95.2380952380952,4,1,1,40,0,1
279763,-285.714285714286,4,1,1,40,0,1
279789,-100,4,1,1,40,0,1
279891,-44.4444444444445,4,1,1,40,0,1
279917,-133.333333333333,4,1,1,40,0,1
279968,-200,4,1,1,40,0,1
279993,-100,4,1,1,40,0,1
280095,-44.4444444444445,4,1,1,40,0,1
280121,-133.333333333333,4,1,1,40,0,1
280172,-400,4,1,1,40,0,1
280197,-100,4,1,1,40,0,1
280299,-35.0877192982456,4,1,1,40,0,1
280325,-105.263157894737,4,1,1,40,0,1
280350,-95.2380952380952,4,1,1,40,0,1
280376,-285.714285714286,4,1,1,40,0,1
280401,-95.2380952380952,4,1,1,40,0,1
280427,-285.714285714286,4,1,1,40,0,1
280452,-95.2380952380952,4,1,1,40,0,1
280478,-285.714285714286,4,1,1,40,0,1
280503,-100,4,1,1,40,0,1
280605,-35.0877192982456,4,1,1,40,0,1
280631,-105.263157894737,4,1,1,40,0,1
280656,-95.2380952380952,4,1,1,40,0,1
280682,-285.714285714286,4,1,1,40,0,1
280707,-95.2380952380952,4,1,1,40,0,1
280733,-285.714285714286,4,1,1,40,0,1
280758,-95.2380952380952,4,1,1,40,0,1
280784,-285.714285714286,4,1,1,40,0,1
280809,-100,4,1,1,40,0,1
280911,-35.0877192982456,4,1,1,40,0,1
280937,-105.263157894737,4,1,1,40,0,1
280962,-95.2380952380952,4,1,1,40,0,1
280988,-285.714285714286,4,1,1,40,0,1
281013,-95.2380952380952,4,1,1,40,0,1
281039,-285.714285714286,4,1,1,40,0,1
281064,-95.2380952380952,4,1,1,40,0,1
281090,-285.714285714286,4,1,1,40,0,1
281115,-100,4,1,1,40,0,1
281218,-35.0877192982456,4,1,1,40,0,1
281243,-105.263157894737,4,1,1,40,0,1
281269,-95.2380952380952,4,1,1,40,0,1
281294,-285.714285714286,4,1,1,40,0,1
281320,-95.2380952380952,4,1,1,40,0,1
281345,-285.714285714286,4,1,1,40,0,1
281371,-95.2380952380952,4,1,1,40,0,1
281396,-285.714285714286,4,1,1,40,0,1
281422,-100,4,1,1,40,0,1
281524,-66.6666666666667,4,1,1,40,0,1
281575,-200,4,1,1,40,0,1
281626,-66.6666666666667,4,1,1,40,0,1
281677,-200,4,1,1,40,0,1
281728,-66.6666666666667,4,1,1,40,0,1
281779,-200,4,1,1,40,0,1
281830,-66.6666666666667,4,1,1,40,0,1
281881,-200,4,1,1,40,0,1
281932,-35.0877192982456,4,1,1,40,0,1
281957,-105.263157894737,4,1,1,40,0,1
281983,-95.2380952380952,4,1,1,40,0,1
282008,-285.714285714286,4,1,1,40,0,1
282034,-95.2380952380952,4,1,1,40,0,1
282059,-285.714285714286,4,1,1,40,0,1
282085,-95.2380952380952,4,1,1,40,0,1
282110,-285.714285714286,4,1,1,40,0,1
282136,-100,4,1,1,40,0,1
282238,-35.0877192982456,4,1,1,40,0,1
282263,-105.263157894737,4,1,1,40,0,1
282289,-95.2380952380952,4,1,1,40,0,1
282314,-285.714285714286,4,1,1,40,0,1
282340,-95.2380952380952,4,1,1,40,0,1
282365,-285.714285714286,4,1,1,40,0,1
282391,-95.2380952380952,4,1,1,40,0,1
282417,-285.714285714286,4,1,1,40,0,1
282442,-100,4,1,1,40,0,1
282544,-35.0877192982456,4,1,1,40,0,1
282570,-105.263157894737,4,1,1,40,0,1
282595,-95.2380952380952,4,1,1,40,0,1
282621,-285.714285714286,4,1,1,40,0,1
282646,-95.2380952380952,4,1,1,40,0,1
282672,-285.714285714286,4,1,1,40,0,1
282697,-95.2380952380952,4,1,1,40,0,1
282723,-285.714285714286,4,1,1,40,0,1
282748,-100,4,1,1,40,0,1
282850,-35.0877192982456,4,1,1,40,0,1
282876,-105.263157894737,4,1,1,40,0,1
282901,-95.2380952380952,4,1,1,40,0,1
282927,-285.714285714286,4,1,1,40,0,1
282952,-95.2380952380952,4,1,1,40,0,1
282978,-285.714285714286,4,1,1,40,0,1
283003,-95.2380952380952,4,1,1,40,0,1
283029,-285.714285714286,4,1,1,40,0,1
283054,-100,4,1,1,40,0,1
283156,-44.4444444444445,4,1,1,40,0,1
283182,-133.333333333333,4,1,1,40,0,1
283233,-400,4,1,1,40,0,1
283258,-100,4,1,1,40,0,1
283360,-44.4444444444445,4,1,1,40,0,1
283386,-133.333333333333,4,1,1,40,0,1
283437,-400,4,1,1,40,0,1
283462,-100,4,1,1,40,0,1
283564,-35.0877192982456,4,1,1,40,0,1
283590,-105.263157894737,4,1,1,40,0,1
283615,-95.2380952380952,4,1,1,40,0,1
283641,-285.714285714286,4,1,1,40,0,1
283667,-95.2380952380952,4,1,1,40,0,1
283692,-285.714285714286,4,1,1,40,0,1
283718,-95.2380952380952,4,1,1,40,0,1
283743,-285.714285714286,4,1,1,40,0,1
283769,-100,4,1,1,40,0,1
283871,-35.0877192982456,4,1,1,40,0,1
283896,-105.263157894737,4,1,1,40,0,1
283922,-95.2380952380952,4,1,1,40,0,1
283947,-285.714285714286,4,1,1,40,0,1
283973,-95.2380952380952,4,1,1,40,0,1
283998,-285.714285714286,4,1,1,40,0,1
284024,-95.2380952380952,4,1,1,40,0,1
284049,-285.714285714286,4,1,1,40,0,1
284075,-100,4,1,1,40,0,1
284177,-35.0877192982456,4,1,1,40,0,1
284202,-105.263157894737,4,1,1,40,0,1
284228,-95.2380952380952,4,1,1,40,0,1
284253,-285.714285714286,4,1,1,40,0,1
284279,-95.2380952380952,4,1,1,40,0,1
284304,-285.714285714286,4,1,1,40,0,1
284330,-95.2380952380952,4,1,1,40,0,1
284355,-285.714285714286,4,1,1,40,0,1
284381,-100,4,1,1,40,0,1
284483,-35.0877192982456,4,1,1,40,0,1
284508,-105.263157894737,4,1,1,40,0,1
284534,-95.2380952380952,4,1,1,40,0,1
284559,-285.714285714286,4,1,1,40,0,1
284585,-95.2380952380952,4,1,1,40,0,1
284610,-285.714285714286,4,1,1,40,0,1
284636,-95.2380952380952,4,1,1,40,0,1
284661,-285.714285714286,4,1,1,40,0,1
284687,-100,4,1,1,40,0,1
284789,-66.6666666666667,4,1,1,40,0,1
284840,-200,4,1,1,40,0,1
284891,-100,4,1,1,40,0,1
284993,-66.6666666666667,4,1,1,40,0,1
285044,-200,4,1,1,40,0,1
285146,-66.6666666666667,4,1,1,40,0,1
285197,-100,4,1,1,40,0,1
290095,-100,4,1,1,40,0,0
291728,-150.00000015,4,1,1,40,0,0
292034,-50,4,1,1,40,0,0
292136,-100,4,1,1,40,0,1
303156,-80,4,1,1,40,0,0
303258,-133.333333333333,4,1,1,40,0,0
303360,-83.3333333333333,4,1,1,40,0,0
303462,-111.111111111111,4,1,1,40,0,0
303667,-80,4,1,1,40,0,0
303769,-133.333333333333,4,1,1,40,0,0
303871,-79.9999999999999,4,1,1,40,0,0
303922,-133.333333333333,4,1,1,40,0,0
303973,-83.3333333333333,4,1,1,40,0,0
304075,-111.111111111111,4,1,1,40,0,0
304279,-83.3333333333333,4,1,1,40,0,0
304381,-111.111111111111,4,1,1,40,0,0
304585,-79.9999999999999,4,1,1,40,0,0
304687,-133.333333333333,4,1,1,40,0,0
304789,-100,4,1,1,40,0,1
311320,-80,4,1,1,40,0,0
311371,-133.333333333333,4,1,1,40,0,0
311422,-80,4,1,1,40,0,0
311473,-133.333333333333,4,1,1,40,0,0
311524,-80,4,1,1,40,0,0
311575,-133.333333333333,4,1,1,40,0,0
311626,-80,4,1,1,40,0,0
311677,-133.333333333333,4,1,1,40,0,0
311728,-80,4,1,1,40,0,0
311779,-133.333333333333,4,1,1,40,0,0
311830,-80,4,1,1,40,0,0
311881,-133.333333333333,4,1,1,40,0,0
311932,-80,4,1,1,40,0,0
311983,-133.333333333333,4,1,1,40,0,0
312034,-80,4,1,1,40,0,0
312085,-133.333333333333,4,1,1,40,0,0
312136,-33.3333333333333,4,1,1,40,0,0
312238,-166.666666666667,4,1,1,40,0,0
312748,-100,4,1,1,40,0,0
312850,-80,4,1,1,40,0,0
312901,-133.333333333333,4,1,1,40,0,0
312952,-80,4,1,1,40,0,0
313003,-133.333333333333,4,1,1,40,0,0
313054,-80,4,1,1,40,0,0
313105,-133.333333333333,4,1,1,40,0,0
313156,-80,4,1,1,40,0,0
313207,-133.333333333333,4,1,1,40,0,0
313258,-80,4,1,1,40,0,0
313309,-133.333333333333,4,1,1,40,0,0
313360,-80,4,1,1,40,0,0
313411,-133.333333333333,4,1,1,40,0,0
313462,-80,4,1,1,40,0,0
313513,-133.333333333333,4,1,1,40,0,0
313564,-80,4,1,1,40,0,0
313611,-133.333333333333,4,1,1,40,0,0
313667,-80,4,1,1,40,0,0
313718,-133.333333333333,4,1,1,40,0,0
313769,-66.6666666666667,4,1,1,40,0,0
313871,-200,4,1,1,40,0,0
313973,-66.6666666666667,4,1,1,40,0,0
314075,-200,4,1,1,40,0,0
314279,-66.6666666666667,4,1,1,40,0,0
314483,-133.333333333333,4,1,1,40,0,0
314712,-100,4,1,1,40,0,0
314789,-80,4,1,1,40,0,0
314891,-133.333333333333,4,1,1,40,0,0
314993,-80,4,1,1,40,0,0
315095,-133.333333333333,4,1,1,40,0,0
315197,-66.6666666666667,4,1,1,40,0,0
315299,-133.333333333333,4,1,1,40,0,0
315503,-100,4,1,1,40,0,0
315605,-80,4,1,1,40,0,0
315707,-133.333333333333,4,1,1,40,0,0
315809,-80,4,1,1,40,0,0
315911,-133.333333333333,4,1,1,40,0,0
316013,-80,4,1,1,40,0,0
316115,-133.333333333333,4,1,1,40,0,0
316218,-100,4,1,1,40,0,0
317850,-100,4,1,1,40,0,1
329279,-79.9999999999999,4,1,1,40,0,0
329381,-133.333333333333,4,1,1,40,0,0
329483,-83.3333333333333,4,1,1,40,0,0
329585,-111.111111111111,4,1,1,40,0,0
329789,-79.9999999999999,4,1,1,40,0,0
329891,-133.333333333333,4,1,1,40,0,0
329993,-80,4,1,1,40,0,0
330044,-133.333333333333,4,1,1,40,0,0
330095,-83.3333333333333,4,1,1,40,0,0
330197,-111.111111111111,4,1,1,40,0,0
330401,-83.3333333333333,4,1,1,40,0,0
330503,-111.111111111111,4,1,1,40,0,0
330707,-79.9999999999999,4,1,1,40,0,0
330733,-133.333333333333,4,1,1,40,0,0
330758,-79.9999999999999,4,1,1,40,0,0
330784,-133.333333333333,4,1,1,40,0,0
330809,-79.9999999999999,4,1,1,40,0,0
330835,-133.333333333333,4,1,1,40,0,0
330860,-79.9999999999999,4,1,1,40,0,0
330886,-133.333333333333,4,1,1,40,0,0
330911,-100,4,1,1,40,0,1
337442,-100,4,1,1,40,0,0
343973,-80,4,1,1,40,0,0
344024,-133.333333333333,4,1,1,40,0,0
344075,-80,4,1,1,40,0,0
344126,-133.333333333333,4,1,1,40,0,0
344177,-80,4,1,1,40,0,0
344228,-133.333333333333,4,1,1,40,0,0
344279,-80,4,1,1,40,0,0
344330,-133.333333333333,4,1,1,40,0,0
344381,-80,4,1,1,40,0,0
344432,-133.333333333333,4,1,1,40,0,0
344483,-80,4,1,1,40,0,0
344534,-133.333333333333,4,1,1,40,0,0
344585,-80,4,1,1,40,0,0
344636,-133.333333333333,4,1,1,40,0,0
344687,-80,4,1,1,40,0,0
344738,-133.333333333333,4,1,1,40,0,0
344789,-80,4,1,1,40,0,0
344840,-133.333333333333,4,1,1,40,0,0
344891,-80,4,1,1,40,0,0
344942,-133.333333333333,4,1,1,40,0,0
344993,-80,4,1,1,40,0,0
345044,-133.333333333333,4,1,1,40,0,0
345095,-80,4,1,1,40,0,0
345146,-133.333333333333,4,1,1,40,0,0
345197,-100,4,1,1,40,0,0
345605,-80,4,1,1,40,0,0
345656,-133.333333333333,4,1,1,40,0,0
345707,-80,4,1,1,40,0,0
345758,-133.333333333333,4,1,1,40,0,0
345809,-80,4,1,1,40,0,0
345860,-133.333333333333,4,1,1,40,0,0
345911,-80,4,1,1,40,0,0
345962,-133.333333333333,4,1,1,40,0,0
346013,-80,4,1,1,40,0,0
346064,-133.333333333333,4,1,1,40,0,0
346115,-80,4,1,1,40,0,0
346167,-133.333333333333,4,1,1,40,0,0
346218,-80,4,1,1,40,0,0
346269,-133.333333333333,4,1,1,40,0,0
346320,-80,4,1,1,40,0,0
346371,-133.333333333333,4,1,1,40,0,0
346422,-80,4,1,1,40,0,0
346473,-133.333333333333,4,1,1,40,0,0
346524,-80,4,1,1,40,0,0
346575,-133.333333333333,4,1,1,40,0,0
346626,-80,4,1,1,40,0,0
346677,-133.333333333333,4,1,1,40,0,0
346728,-80,4,1,1,40,0,0
346779,-133.333333333333,4,1,1,40,0,0
346830,-66.6666666666667,4,1,1,40,0,0
346881,-200,4,1,1,40,0,0
346932,-66.6666666666667,4,1,1,40,0,0
346983,-200,4,1,1,40,0,0
347034,-66.6666666666667,4,1,1,40,0,0
347085,-200,4,1,1,40,0,0
347136,-66.6666666666667,4,1,1,40,0,0
347187,-200,4,1,1,40,0,0
347238,-80,4,1,1,40,0,0
347289,-133.333333333333,4,1,1,40,0,0
347340,-80,4,1,1,40,0,0
347391,-133.333333333333,4,1,1,40,0,0
347442,-80,4,1,1,40,0,0
347493,-133.333333333333,4,1,1,40,0,0
347544,-80,4,1,1,40,0,0
347595,-133.333333333333,4,1,1,40,0,0
347646,-80,4,1,1,40,0,0
347697,-133.333333333333,4,1,1,40,0,0
347748,-80,4,1,1,40,0,0
347799,-133.333333333333,4,1,1,40,0,0
347850,-80,4,1,1,40,0,0
347901,-133.333333333333,4,1,1,40,0,0
347952,-80,4,1,1,40,0,0
348003,-133.333333333333,4,1,1,40,0,0
348054,-80,4,1,1,40,0,0
348105,-133.333333333333,4,1,1,40,0,0
348156,-80,4,1,1,40,0,0
348207,-133.333333333333,4,1,1,40,0,0
348258,-80,4,1,1,40,0,0
348309,-133.333333333333,4,1,1,40,0,0
348360,-80,4,1,1,40,0,0
348411,-133.333333333333,4,1,1,40,0,0
348462,-66.6666666666667,4,1,1,40,0,0
348530,-200,4,1,1,40,0,0
348598,-100,4,1,1,40,0,0
348667,-66.6666666666667,4,1,1,40,0,0
348735,-200,4,1,1,40,0,0
348803,-100,4,1,1,40,0,0
348871,-80,4,1,1,40,0,0
348922,-133.333333333333,4,1,1,40,0,0
348973,-80,4,1,1,40,0,0
349024,-133.333333333333,4,1,1,40,0,0
349075,-80,4,1,1,40,0,0
349126,-133.333333333333,4,1,1,40,0,0
349177,-80,4,1,1,40,0,0
349228,-133.333333333333,4,1,1,40,0,0
349279,-80,4,1,1,40,0,0
349330,-133.333333333333,4,1,1,40,0,0
349381,-80,4,1,1,40,0,0
349432,-133.333333333333,4,1,1,40,0,0
349483,-80,4,1,1,40,0,0
349534,-133.333333333333,4,1,1,40,0,0
349585,-80,4,1,1,40,0,0
349636,-133.333333333333,4,1,1,40,0,0
349687,-57.1428571428571,4,1,1,40,0,0
349891,-200,4,1,1,40,0,0
349993,-166.666666666667,4,1,1,40,0,0
350095,-142.857142857143,4,1,1,40,0,0
350197,-125,4,1,1,40,0,0
350299,-111.111111111111,4,1,1,40,0,0
350401,-100,4,1,1,40,0,0
353769,-80,4,1,1,40,0,0
353820,-133.333333333333,4,1,1,40,0,0
353871,-80,4,1,1,40,0,0
353922,-133.333333333333,4,1,1,40,0,0
353973,-80,4,1,1,40,0,0
354024,-133.333333333333,4,1,1,40,0,0
354075,-80,4,1,1,40,0,0
354126,-133.333333333333,4,1,1,40,0,0
354177,-80,4,1,1,40,0,0
354228,-133.333333333333,4,1,1,40,0,0
354279,-80,4,1,1,40,0,0
354330,-133.333333333333,4,1,1,40,0,0
354381,-80,4,1,1,40,0,0
354432,-133.333333333333,4,1,1,40,0,0
354483,-80,4,1,1,40,0,0
354534,-133.333333333333,4,1,1,40,0,0
354585,-80,4,1,1,40,0,0
354636,-133.333333333333,4,1,1,40,0,0
354687,-80,4,1,1,40,0,0
354738,-133.333333333333,4,1,1,40,0,0
354789,-80,4,1,1,40,0,0
354840,-133.333333333333,4,1,1,40,0,0
354891,-80,4,1,1,40,0,0
354942,-133.333333333333,4,1,1,40,0,0
354993,-79.9999999999999,4,1,1,40,0,0
355019,-133.333333333333,4,1,1,40,0,0
355044,-79.9999999999999,4,1,1,40,0,0
355070,-133.333333333333,4,1,1,40,0,0
355095,-79.9999999999999,4,1,1,40,0,0
355121,-133.333333333333,4,1,1,40,0,0
355146,-79.9999999999999,4,1,1,40,0,0
355172,-133.333333333333,4,1,1,40,0,0
355197,-79.9999999999999,4,1,1,40,0,0
355223,-133.333333333333,4,1,1,40,0,0
355248,-79.9999999999999,4,1,1,40,0,0
355274,-133.333333333333,4,1,1,40,0,0
355299,-79.9999999999999,4,1,1,40,0,0
355325,-133.333333333333,4,1,1,40,0,0
355350,-79.9999999999999,4,1,1,40,0,0
355376,-133.333333333333,4,1,1,40,0,0
355401,-100,4,1,1,40,0,0
357034,-66.6666666666667,4,1,1,40,0,0
357059,-200,4,1,1,40,0,0
357085,-66.6666666666667,4,1,1,40,0,0
357110,-200,4,1,1,40,0,0
357136,-66.6666666666667,4,1,1,40,0,0
357161,-200,4,1,1,40,0,0
357187,-66.6666666666667,4,1,1,40,0,0
357212,-200,4,1,1,40,0,0
357238,-66.6666666666667,4,1,1,40,0,0
357289,-200,4,1,1,40,0,0
357340,-66.6666666666667,4,1,1,40,0,0
357391,-200,4,1,1,40,0,0
357442,-100,4,1,1,40,0,0
358667,-50,4,1,1,40,0,0
358718,-149.253731343284,4,1,1,40,0,0
358871,-50,4,1,1,40,0,0
358922,-149.253731343284,4,1,1,40,0,0
359075,-100,4,1,1,40,0,0
360299,-52.6315789473684,4,1,1,40,0,0
360350,-142.857142857143,4,1,1,40,0,0
360503,-52.6315789473684,4,1,1,40,0,0
360554,-142.857142857143,4,1,1,40,0,0
360707,-100,4,1,1,40,0,0
361932,-66.6666666666667,4,1,1,40,0,0
361983,-80,4,1,1,40,0,0
362034,-133.333333333333,4,1,1,40,0,0
362085,-200,4,1,1,40,0,0
362136,-100,4,1,1,40,0,0
362238,-66.6666666666667,4,1,1,40,0,0
362289,-76.9230769230769,4,1,1,40,0,0
362340,-90.9090909090909,4,1,1,40,0,0
362391,-111.111111111111,4,1,1,40,0,0
362442,-142.857142857143,4,1,1,40,0,0
362493,-200,4,1,1,40,0,0
362544,-80,4,1,1,40,0,0
362646,-133.333333333333,4,1,1,40,0,0
362748,-100,4,1,1,40,0,0
362850,-66.6666666666667,4,1,1,40,0,0
362952,-133.333333333333,4,1,1,40,0,0
363156,-66.6666666666667,4,1,1,40,0,0
363182,-200,4,1,1,40,0,0
363207,-66.6666666666667,4,1,1,40,0,0
363233,-200,4,1,1,40,0,0
363258,-66.6666666666667,4,1,1,40,0,0
363309,-200,4,1,1,40,0,0
363360,-66.6666666666667,4,1,1,40,0,0
363386,-200,4,1,1,40,0,0
363411,-66.6666666666667,4,1,1,40,0,0
363437,-200,4,1,1,40,0,0
363462,-66.6666666666667,4,1,1,40,0,0
363488,-200,4,1,1,40,0,0
363513,-66.6666666666667,4,1,1,40,0,0
363539,-200,4,1,1,40,0,0
363564,-100,4,1,1,40,0,0
364993,-66.6666666666667,4,1,1,40,0,0
365044,-76.9230769230769,4,1,1,40,0,0
365095,-90.9090909090909,4,1,1,40,0,0
365146,-111.111111111111,4,1,1,40,0,0
365197,-142.857142857143,4,1,1,40,0,0
365248,-200,4,1,1,40,0,0
365299,-100,4,1,1,40,0,0
368462,-80,4,1,1,40,0,0
368564,-133.333333333333,4,1,1,40,0,0
368667,-80,4,1,1,40,0,0
368718,-133.333333333333,4,1,1,40,0,0
368769,-80,4,1,1,40,0,0
368871,-133.333333333333,4,1,1,40,0,0
368973,-80,4,1,1,40,0,0
369024,-133.333333333333,4,1,1,40,0,0
369075,-80,4,1,1,40,0,0
369177,-133.333333333333,4,1,1,40,0,0
369279,-80,4,1,1,40,0,0
369330,-133.333333333333,4,1,1,40,0,0
369381,-80,4,1,1,40,0,0
369432,-133.333333333333,4,1,1,40,0,0
369483,-80,4,1,1,40,0,0
369534,-133.333333333333,4,1,1,40,0,0
369585,-80,4,1,1,40,0,0
369636,-133.333333333333,4,1,1,40,0,0
369687,-80,4,1,1,40,0,0
369738,-133.333333333333,4,1,1,40,0,0
369789,-80,4,1,1,40,0,0
369840,-133.333333333333,4,1,1,40,0,0
369891,-80,4,1,1,40,0,0
369942,-133.333333333333,4,1,1,40,0,0
369993,-80,4,1,1,40,0,0
370044,-133.333333333333,4,1,1,40,0,0
370095,-58.8235294117647,4,1,1,40,0,0
370121,-333.333333333333,4,1,1,40,0,0
370146,-58.8235294117647,4,1,1,40,0,0
370172,-333.333333333333,4,1,1,40,0,0
370197,-58.8235294117647,4,1,1,40,0,0
370223,-333.333333333333,4,1,1,40,0,0
370248,-58.8235294117647,4,1,1,40,0,0
370274,-333.333333333333,4,1,1,40,0,0
370299,-58.8235294117647,4,1,1,40,0,0
370325,-333.333333333333,4,1,1,40,0,0
370350,-58.8235294117647,4,1,1,40,0,0
370376,-333.333333333333,4,1,1,40,0,0
370401,-100,4,1,1,40,0,0
371728,-50,4,1,1,40,0,0
371779,-149.253731343284,4,1,1,40,0,0
371932,-50,4,1,1,40,0,0
371983,-149.253731343284,4,1,1,40,0,0
372136,-100,4,1,1,40,0,0
373564,-79.9999999999999,4,1,1,40,0,0
373615,-133.333333333333,4,1,1,40,0,0
373667,-100,4,1,1,40,0,0
373769,-80,4,1,1,40,0,0
373820,-133.333333333333,4,1,1,40,0,0
373871,-100,4,1,1,40,0,0
373973,-80,4,1,1,40,0,0
374024,-133.333333333333,4,1,1,40,0,0
374075,-100,4,1,1,40,0,0
374177,-80,4,1,1,40,0,0
374279,-133.333333333333,4,1,1,40,0,0
374381,-100,4,1,1,40,0,0
374483,-80,4,1,1,40,0,0
374585,-133.333333333333,4,1,1,40,0,0
374687,-100,4,1,1,40,0,0
374789,-80,4,1,1,40,0,0
374840,-133.333333333333,4,1,1,40,0,0
374891,-100,4,1,1,40,0,0
374993,-50,4,1,1,40,0,0
375095,-149.99925000375,4,1,1,40,0,0
375401,-66.6666666666667,4,1,1,40,0,0
375452,-200,4,1,1,40,0,0
375503,-66.6666666666667,4,1,1,40,0,0
375605,-200,4,1,1,40,0,0
375707,-66.6666666666667,4,1,1,40,0,0
375758,-200,4,1,1,40,0,0
375809,-66.6666666666667,4,1,1,40,0,0
375911,-200,4,1,1,40,0,0
376013,-66.6666666666667,4,1,1,40,0,0
376064,-200,4,1,1,40,0,0
376115,-66.6666666666667,4,1,1,40,0,0
376167,-200,4,1,1,40,0,0
376218,-66.6666666666667,4,1,1,40,0,0
376269,-200,4,1,1,40,0,0
376320,-66.6666666666667,4,1,1,40,0,0
376422,-133.333333333333,4,1,1,40,0,0
376626,-66.6666666666667,4,1,1,40,0,0
376677,-200,4,1,1,40,0,0
376728,-100,4,1,1,40,0,0
377034,-66.6666666666667,4,1,1,40,0,0
377085,-200,4,1,1,40,0,0
377136,-100,4,1,1,40,0,0
377340,-66.6666666666667,4,1,1,40,0,0
377391,-200,4,1,1,40,0,0
377442,-66.6666666666667,4,1,1,40,0,0
377544,-133.333333333333,4,1,1,40,0,0
377748,-80,4,1,1,40,0,0
377774,-133.333333333333,4,1,1,40,0,0
377799,-80,4,1,1,40,0,0
377825,-133.333333333333,4,1,1,40,0,0
377850,-80,4,1,1,40,0,0
377901,-133.333333333333,4,1,1,40,0,0
377952,-80,4,1,1,40,0,0
378003,-133.333333333333,4,1,1,40,0,0
378054,-80,4,1,1,40,0,0
378105,-133.333333333333,4,1,1,40,0,0
378156,-80,4,1,1,40,0,0
378207,-133.333333333333,4,1,1,40,0,0
378258,-80,4,1,1,40,0,0
378335,-133.333333333333,4,1,1,40,0,0
378394,-80,4,1,1,40,0,0
378462,-133.333333333333,4,1,1,40,0,0
378530,-80,4,1,1,40,0,0
378598,-133.333333333333,4,1,1,40,0,0
378667,-80,4,1,1,40,0,0
378735,-133.333333333333,4,1,1,40,0,0
378803,-80,4,1,1,40,0,0
378871,-133.333333333333,4,1,1,40,0,0
378939,-80,4,1,1,40,0,0
379007,-133.333333333333,4,1,1,40,0,0
379075,-80,4,1,1,40,0,0
379126,-133.333333333333,4,1,1,40,0,0
379177,-100,4,1,1,40,0,0
379483,-52.6315789473684,4,1,1,40,0,0
379508,-1000,4,1,1,40,0,0
379534,-52.6315789473684,4,1,1,40,0,0
379559,-1000,4,1,1,40,0,0
379585,-52.6315789473684,4,1,1,40,0,0
379610,-1000,4,1,1,40,0,0
379636,-52.6315789473684,4,1,1,40,0,0
379661,-1000,4,1,1,40,0,0
379687,-52.6315789473684,4,1,1,40,0,0
379712,-1000,4,1,1,40,0,0
379738,-52.6315789473684,4,1,1,40,0,0
379763,-1000,4,1,1,40,0,0
379789,-100,4,1,1,40,0,0

[HitObjects]
320,192,27238,5,8,0:0:0:0:
448,192,27238,128,4,28871:0:0:0:0:
192,192,27238,1,8,0:0:0:0:
64,192,27442,1,0,0:0:0:0:
192,192,27646,1,0,0:0:0:0:
192,192,27952,1,0,0:0:0:0:
320,192,28871,128,0,30401:0:0:0:0:
64,192,29075,1,0,0:0:0:0:
192,192,29279,1,0,0:0:0:0:
192,192,29585,1,0,0:0:0:0:
192,192,30401,128,0,32952:0:0:0:0:
320,192,30707,1,0,0:0:0:0:
64,192,30911,1,0,0:0:0:0:
448,192,31115,128,0,31524:0:0:0:0:
64,192,31728,1,0,0:0:0:0:
320,192,31932,128,0,32340:0:0:0:0:
320,192,32952,128,0,33667:0:0:0:0:
448,192,33156,1,0,0:0:0:0:
192,192,33360,1,0,0:0:0:0:
64,192,33667,128,0,35299:0:0:0:0:
448,192,33973,1,0,0:0:0:0:
192,192,34177,1,0,0:0:0:0:
320,192,34381,1,0,0:0:0:0:
448,192,35299,128,0,36932:0:0:0:0:
320,192,35605,1,0,0:0:0:0:
64,192,35809,1,0,0:0:0:0:
192,192,36013,1,0,0:0:0:0:
192,192,36932,128,0,39075:0:0:0:0:
448,192,37238,1,0,0:0:0:0:
64,192,37442,1,0,0:0:0:0:
320,192,37646,128,0,38054:0:0:0:0:
448,192,38054,1,0,0:0:0:0:
64,192,38258,1,0,0:0:0:0:
320,192,38462,128,0,38871:0:0:0:0:
320,192,39075,128,0,39483:0:0:0:0:
448,192,39075,1,0,0:0:0:0:
448,192,39483,128,0,39789:0:0:0:0:
64,192,39483,1,0,0:0:0:0:
64,192,39789,128,0,40299:0:0:0:0:
320,192,39891,1,0,0:0:0:0:
448,192,40299,128,0,41932:0:0:0:0:
320,192,40299,1,0,0:0:0:0:
64,192,40503,1,0,0:0:0:0:
64,192,40707,1,0,0:0:0:0:
192,192,41013,1,0,0:0:0:0:
320,192,41932,128,0,43462:0:0:0:0:
64,192,42136,1,0,0:0:0:0:
64,192,42340,1,0,0:0:0:0:
448,192,42646,1,0,0:0:0:0:
192,192,43462,128,0,46013:0:0:0:0:
320,192,43769,1,0,0:0:0:0:
64,192,43973,1,0,0:0:0:0:
448,192,44177,128,0,44585:0:0:0:0:
64,192,44789,1,0,0:0:0:0:
320,192,44993,128,0,45401:0:0:0:0:
320,192,46013,128,0,46728:0:0:0:0:
448,192,46218,1,0,0:0:0:0:
192,192,46422,1,0,0:0:0:0:
64,192,46728,128,0,48462:0:0:0:0:
448,192,47034,1,0,0:0:0:0:
192,192,47238,1,0,0:0:0:0:
320,192,47442,1,0,0:0:0:0:
448,192,47646,1,8,0:0:0:0:
448,192,47748,1,8,0:0:0:0:
320,192,47850,1,8,0:0:0:0:
320,192,47952,1,8,0:0:0:0:
192,192,48054,1,8,0:0:0:0:
192,192,48156,1,8,0:0:0:0:
448,192,48258,1,8,0:0:0:0:
448,192,48360,1,8,0:0:0:0:
320,192,48462,1,8,0:0:0:0:
192,192,48462,1,8,0:0:0:0:
320,192,48564,1,8,0:0:0:0:
64,192,48667,1,8,0:0:0:0:
448,192,48667,1,8,0:0:0:0:
64,192,48769,1,8,0:0:0:0:
320,192,48871,1,8,0:0:0:0:
448,192,48871,1,8,0:0:0:0:
448,192,48973,1,8,0:0:0:0:
64,192,49075,1,8,0:0:0:0:
192,192,49075,1,8,0:0:0:0:
64,192,49177,1,8,0:0:0:0:
320,192,49279,1,8,0:0:0:0:
192,192,49279,1,8,0:0:0:0:
320,192,49381,1,8,0:0:0:0:
448,192,49483,1,8,0:0:0:0:
192,192,49483,1,8,0:0:0:0:
192,192,49585,1,8,0:0:0:0:
64,192,49687,1,8,0:0:0:0:
448,192,49687,1,8,0:0:0:0:
448,192,49789,1,8,0:0:0:0:
320,192,49891,1,8,0:0:0:0:
64,192,49891,1,8,0:0:0:0:
64,192,49993,1,8,0:0:0:0:
448,192,50095,1,8,0:0:0:0:
320,192,50095,1,8,0:0:0:0:
192,192,50146,1,8,0:0:0:0:
64,192,50197,1,8,0:0:0:0:
448,192,50248,1,8,0:0:0:0:
320,192,50299,1,8,0:0:0:0:
192,192,50350,1,8,0:0:0:0:
64,192,50401,1,8,0:0:0:0:
320,192,50452,1,8,0:0:0:0:
448,192,50503,1,8,0:0:0:0:
64,192,50554,1,8,0:0:0:0:
192,192,50605,1,8,0:0:0:0:
320,192,50656,1,8,0:0:0:0:
448,192,50707,1,8,0:0:0:0:
192,192,50758,1,8,0:0:0:0:
64,192,50809,1,8,0:0:0:0:
448,192,50860,1,8,0:0:0:0:
320,192,50911,1,8,0:0:0:0:
192,192,50962,1,8,0:0:0:0:
64,192,51013,1,8,0:0:0:0:
448,192,51064,1,8,0:0:0:0:
320,192,51115,1,8,0:0:0:0:
64,192,51167,1,8,0:0:0:0:
192,192,51218,1,8,0:0:0:0:
320,192,51269,1,8,0:0:0:0:
448,192,51320,1,8,0:0:0:0:
192,192,51320,1,8,0:0:0:0:
64,192,51371,1,8,0:0:0:0:
448,192,51422,1,8,0:0:0:0:
320,192,51422,1,8,0:0:0:0:
192,192,51473,1,8,0:0:0:0:
64,192,51524,1,8,0:0:0:0:
320,192,51524,1,8,0:0:0:0:
448,192,51575,1,8,0:0:0:0:
64,192,51626,1,8,0:0:0:0:
192,192,51626,1,8,0:0:0:0:
320,192,51677,1,8,0:0:0:0:
64,192,51728,1,8,0:0:0:0:
448,192,51728,128,8,52748:0:0:0:0:
64,192,52748,1,8,0:0:0:0:
192,192,52748,1,8,0:0:0:0:
448,192,52952,1,0,0:0:0:0:
320,192,52986,1,0,0:0:0:0:
192,192,53020,1,0,0:0:0:0:
64,192,53054,1,0,0:0:0:0:
448,192,53088,1,0,0:0:0:0:
320,192,53122,1,0,0:0:0:0:
192,192,53156,1,0,0:0:0:0:
64,192,53190,1,0,0:0:0:0:
448,192,53224,1,0,0:0:0:0:
320,192,53258,1,0,0:0:0:0:
192,192,53292,1,0,0:0:0:0:
64,192,53326,1,0,0:0:0:0:
320,192,53360,128,4,53769:0:0:0:0:
448,192,53360,128,8,53769:0:0:0:0:
320,192,53973,128,4,55605:0:0:0:0:
192,192,53973,128,8,55707:0:0:0:0:
64,192,53973,128,8,55809:0:0:0:0:
320,192,56013,128,8,56218:0:0:0:0:
448,192,56013,128,4,56218:0:0:0:0:
64,192,56320,128,4,56524:0:0:0:0:
192,192,56320,128,8,56524:0:0:0:0:
192,192,56626,128,8,56830:0:0:0:0:
320,192,56626,128,8,56932:0:0:0:0:
448,192,56626,128,4,57034:0:0:0:0:
64,192,57238,128,4,57442:0:0:0:0:
192,192,57238,128,8,57442:0:0:0:0:
320,192,57544,128,8,57748:0:0:0:0:
448,192,57544,128,4,57748:0:0:0:0:
320,192,57850,128,4,58462:0:0:0:0:
192,192,57850,128,8,58564:0:0:0:0:
64,192,57850,128,8,58667:0:0:0:0:
320,192,59075,128,8,59381:0:0:0:0:
448,192,59075,128,4,59381:0:0:0:0:
64,192,59483,128,4,59789:0:0:0:0:
192,192,59483,128,8,59789:0:0:0:0:
192,192,59891,128,8,60299:0:0:0:0:
320,192,59891,128,4,60299:0:0:0:0:
320,192,60503,128,8,62238:0:0:0:0:
448,192,60503,128,12,62340:0:0:0:0:
64,192,60911,128,0,61115:0:0:0:0:
192,192,61115,128,0,62136:0:0:0:0:
192,192,62544,128,8,62748:0:0:0:0:
64,192,62544,128,4,62748:0:0:0:0:
448,192,62850,128,4,63054:0:0:0:0:
320,192,62850,128,8,63054:0:0:0:0:
320,192,63156,128,8,63564:0:0:0:0:
64,192,63156,128,4,63360:0:0:0:0:
192,192,63156,128,8,63462:0:0:0:0:
448,192,63462,128,0,63769:0:0:0:0:
64,192,63769,128,4,63973:0:0:0:0:
192,192,63769,128,8,63973:0:0:0:0:
320,192,64075,128,8,64279:0:0:0:0:
448,192,64075,128,4,64279:0:0:0:0:
320,192,64381,128,4,65197:0:0:0:0:
192,192,64381,128,8,65299:0:0:0:0:
64,192,64381,128,8,65401:0:0:0:0:
64,192,65605,1,2,0:0:0:0:
192,192,65656,1,2,0:0:0:0:
320,192,65707,1,2,0:0:0:0:
64,192,65809,1,2,0:0:0:0:
192,192,65809,1,2,0:0:0:0:
448,192,65911,1,2,0:0:0:0:
320,192,65962,1,2,0:0:0:0:
192,192,66013,1,2,0:0:0:0:
448,192,66115,1,2,0:0:0:0:
320,192,66115,1,2,0:0:0:0:
64,192,66218,1,2,0:0:0:0:
192,192,66218,1,2,0:0:0:0:
192,192,66320,1,2,0:0:0:0:
320,192,66320,1,2,0:0:0:0:
320,192,66422,1,8,0:0:0:0:
448,192,66422,1,8,0:0:0:0:
64,192,66422,128,4,71320:0:0:0:0:
64,192,72544,5,2,0:0:0:0:
192,192,72544,1,2,0:0:0:0:
448,192,72748,1,4,0:0:0:0:
320,192,72748,1,8,0:0:0:0:
192,192,72748,1,8,0:0:0:0:
320,192,72952,1,4,0:0:0:0:
192,192,72952,1,8,0:0:0:0:
64,192,72952,1,8,0:0:0:0:
192,192,73156,1,0,0:0:0:0:
448,192,73360,1,0,0:0:0:0:
64,192,73462,1,0,0:0:0:0:
320,192,73667,1,0,0:0:0:0:
192,192,73871,1,0,0:0:0:0:
320,192,74075,1,0,0:0:0:0:
192,192,74177,1,0,0:0:0:0:
320,192,74279,1,0,0:0:0:0:
192,192,74381,1,0,0:0:0:0:
320,192,74483,1,0,0:0:0:0:
64,192,74585,1,0,0:0:0:0:
320,192,74789,1,0,0:0:0:0:
192,192,74891,1,0,0:0:0:0:
448,192,74993,1,0,0:0:0:0:
64,192,75095,1,0,0:0:0:0:
320,192,75299,1,0,0:0:0:0:
192,192,75503,1,0,0:0:0:0:
320,192,75707,1,0,0:0:0:0:
192,192,75809,1,0,0:0:0:0:
320,192,75911,1,0,0:0:0:0:
192,192,76013,1,0,0:0:0:0:
320,192,76115,1,0,0:0:0:0:
64,192,76218,1,0,0:0:0:0:
320,192,76422,1,0,0:0:0:0:
64,192,76626,1,0,0:0:0:0:
448,192,76728,1,0,0:0:0:0:
192,192,76932,1,0,0:0:0:0:
320,192,77136,1,0,0:0:0:0:
192,192,77340,1,0,0:0:0:0:
320,192,77442,1,0,0:0:0:0:
192,192,77544,1,0,0:0:0:0:
320,192,77646,1,0,0:0:0:0:
192,192,77748,1,0,0:0:0:0:
448,192,77850,1,0,0:0:0:0:
192,192,78054,1,0,0:0:0:0:
320,192,78156,1,0,0:0:0:0:
64,192,78258,1,0,0:0:0:0:
448,192,78360,1,0,0:0:0:0:
320,192,78564,1,0,0:0:0:0:
192,192,78667,128,2,78769:0:0:0:0:
64,192,78667,128,2,78820:0:0:0:0:
448,192,78871,1,0,0:0:0:0:
320,192,78922,1,0,0:0:0:0:
192,192,78973,1,0,0:0:0:0:
64,192,79024,1,0,0:0:0:0:
448,192,79075,1,0,0:0:0:0:
192,192,79177,1,8,0:0:0:0:
64,192,79177,1,8,0:0:0:0:
320,192,79177,1,4,0:0:0:0:
64,192,79483,1,8,0:0:0:0:
192,192,79483,1,8,0:0:0:0:
320,192,79483,1,4,0:0:0:0:
64,192,79585,1,8,0:0:0:0:
320,192,79687,1,8,0:0:0:0:
448,192,79687,1,8,0:0:0:0:
320,192,79789,1,8,0:0:0:0:
192,192,79891,1,8,0:0:0:0:
448,192,79891,1,8,0:0:0:0:
192,192,79993,1,8,0:0:0:0:
64,192,80095,1,8,0:0:0:0:
320,192,80095,1,8,0:0:0:0:
320,192,80197,1,8,0:0:0:0:
64,192,80299,1,8,0:0:0:0:
448,192,80299,1,8,0:0:0:0:
64,192,80401,1,8,0:0:0:0:
192,192,80503,1,8,0:0:0:0:
320,192,80503,1,8,0:0:0:0:
320,192,80605,1,8,0:0:0:0:
192,192,80707,1,8,0:0:0:0:
448,192,80707,1,8,0:0:0:0:
192,192,80809,1,8,0:0:0:0:
320,192,80911,1,8,0:0:0:0:
64,192,80911,1,8,0:0:0:0:
320,192,81013,1,8,0:0:0:0:
64,192,81115,1,8,0:0:0:0:
448,192,81115,1,8,0:0:0:0:
64,192,81218,1,8,0:0:0:0:
192,192,81320,1,8,0:0:0:0:
448,192,81320,1,8,0:0:0:0:
448,192,81422,1,8,0:0:0:0:
192,192,81524,1,8,0:0:0:0:
320,192,81524,1,8,0:0:0:0:
192,192,81626,1,8,0:0:0:0:
64,192,81728,1,8,0:0:0:0:
448,192,81728,1,8,0:0:0:0:
448,192,81830,1,8,0:0:0:0:
64,192,81932,1,8,0:0:0:0:
192,192,81932,1,8,0:0:0:0:
192,192,82034,1,8,0:0:0:0:
320,192,82136,1,8,0:0:0:0:
64,192,82136,1,8,0:0:0:0:
320,192,82238,1,8,0:0:0:0:
64,192,82340,1,8,0:0:0:0:
448,192,82340,1,8,0:0:0:0:
64,192,82442,1,8,0:0:0:0:
320,192,82544,1,8,0:0:0:0:
448,192,82544,1,8,0:0:0:0:
320,192,82646,1,8,0:0:0:0:
64,192,82748,1,8,0:0:0:0:
192,192,82748,1,8,0:0:0:0:
448,192,82748,1,12,0:0:0:0:
64,192,82850,1,8,0:0:0:0:
192,192,82952,1,8,0:0:0:0:
320,192,82952,1,8,0:0:0:0:
320,192,83054,1,8,0:0:0:0:
64,192,83156,1,8,0:0:0:0:
448,192,83156,1,8,0:0:0:0:
64,192,83258,1,8,0:0:0:0:
320,192,83360,1,8,0:0:0:0:
448,192,83360,1,8,0:0:0:0:
448,192,83462,1,8,0:0:0:0:
192,192,83564,1,8,0:0:0:0:
64,192,83564,1,8,0:0:0:0:
192,192,83667,1,8,0:0:0:0:
448,192,83769,1,8,0:0:0:0:
320,192,83769,1,8,0:0:0:0:
448,192,83871,1,8,0:0:0:0:
64,192,83973,1,8,0:0:0:0:
192,192,83973,1,8,0:0:0:0:
64,192,84075,1,8,0:0:0:0:
320,192,84177,1,8,0:0:0:0:
192,192,84177,1,8,0:0:0:0:
320,192,84279,1,8,0:0:0:0:
64,192,84381,1,8,0:0:0:0:
448,192,84381,1,8,0:0:0:0:
64,192,84483,1,8,0:0:0:0:
192,192,84585,1,8,0:0:0:0:
320,192,84585,1,8,0:0:0:0:
320,192,84687,1,8,0:0:0:0:
192,192,84789,1,8,0:0:0:0:
448,192,84789,1,8,0:0:0:0:
192,192,84891,1,8,0:0:0:0:
64,192,84993,1,8,0:0:0:0:
448,192,84993,1,8,0:0:0:0:
448,192,85095,1,8,0:0:0:0:
192,192,85197,1,8,0:0:0:0:
64,192,85197,1,8,0:0:0:0:
64,192,85299,1,8,0:0:0:0:
320,192,85401,1,8,0:0:0:0:
448,192,85401,1,8,0:0:0:0:
448,192,85503,1,8,0:0:0:0:
64,192,85605,128,12,85809:0:0:0:0:
320,192,85605,128,8,85809:0:0:0:0:
192,192,85605,128,12,85809:0:0:0:0:
64,192,86013,1,8,0:0:0:0:
192,192,86013,1,8,0:0:0:0:
320,192,86064,1,8,0:0:0:0:
448,192,86115,1,8,0:0:0:0:
64,192,86167,1,8,0:0:0:0:
192,192,86218,1,8,0:0:0:0:
320,192,86218,1,8,0:0:0:0:
448,192,86269,1,8,0:0:0:0:
64,192,86320,1,8,0:0:0:0:
192,192,86371,1,8,0:0:0:0:
320,192,86422,1,8,0:0:0:0:
448,192,86422,1,8,0:0:0:0:
192,192,86473,1,8,0:0:0:0:
64,192,86524,1,8,0:0:0:0:
448,192,86575,1,8,0:0:0:0:
320,192,86626,1,8,0:0:0:0:
192,192,86626,1,8,0:0:0:0:
64,192,86677,1,8,0:0:0:0:
448,192,86728,1,8,0:0:0:0:
320,192,86779,1,8,0:0:0:0:
192,192,86830,1,8,0:0:0:0:
64,192,86830,1,8,0:0:0:0:
448,192,86881,1,8,0:0:0:0:
320,192,86932,1,8,0:0:0:0:
192,192,86983,1,8,0:0:0:0:
64,192,87034,1,8,0:0:0:0:
448,192,87034,1,8,0:0:0:0:
320,192,87085,1,8,0:0:0:0:
192,192,87136,1,8,0:0:0:0:
64,192,87187,1,8,0:0:0:0:
320,192,87238,1,8,0:0:0:0:
448,192,87238,1,8,0:0:0:0:
64,192,87289,1,8,0:0:0:0:
192,192,87340,1,8,0:0:0:0:
320,192,87391,1,8,0:0:0:0:
64,192,87442,1,8,0:0:0:0:
448,192,87442,1,8,0:0:0:0:
192,192,87493,1,8,0:0:0:0:
320,192,87544,1,8,0:0:0:0:
448,192,87595,1,8,0:0:0:0:
64,192,87646,1,8,0:0:0:0:
192,192,87646,1,8,0:0:0:0:
320,192,87697,1,8,0:0:0:0:
448,192,87748,1,8,0:0:0:0:
64,192,87799,1,8,0:0:0:0:
320,192,87850,1,8,0:0:0:0:
192,192,87850,1,8,0:0:0:0:
448,192,87901,1,8,0:0:0:0:
64,192,87952,1,8,0:0:0:0:
192,192,88003,1,8,0:0:0:0:
448,192,88054,1,8,0:0:0:0:
320,192,88054,1,8,0:0:0:0:
192,192,88105,1,8,0:0:0:0:
64,192,88156,1,8,0:0:0:0:
448,192,88207,1,8,0:0:0:0:
192,192,88258,1,8,0:0:0:0:
320,192,88258,1,8,0:0:0:0:
64,192,88309,1,8,0:0:0:0:
448,192,88360,1,8,0:0:0:0:
320,192,88411,1,8,0:0:0:0:
64,192,88462,1,8,0:0:0:0:
192,192,88462,1,8,0:0:0:0:
320,192,88513,1,8,0:0:0:0:
448,192,88564,1,8,0:0:0:0:
64,192,88615,1,8,0:0:0:0:
192,192,88667,1,8,0:0:0:0:
320,192,88667,1,8,0:0:0:0:
448,192,88718,1,8,0:0:0:0:
64,192,88769,1,8,0:0:0:0:
192,192,88820,1,8,0:0:0:0:
448,192,88871,1,8,0:0:0:0:
320,192,88871,1,8,0:0:0:0:
192,192,88922,1,8,0:0:0:0:
64,192,88973,1,8,0:0:0:0:
448,192,89024,1,8,0:0:0:0:
320,192,89075,1,8,0:0:0:0:
192,192,89075,1,8,0:0:0:0:
64,192,89126,1,8,0:0:0:0:
448,192,89177,1,8,0:0:0:0:
320,192,89228,1,8,0:0:0:0:
192,192,89279,1,8,0:0:0:0:
64,192,89279,1,8,0:0:0:0:
320,192,89330,1,8,0:0:0:0:
192,192,89381,1,8,0:0:0:0:
448,192,89381,1,8,0:0:0:0:
64,192,89432,1,8,0:0:0:0:
448,192,89483,1,8,0:0:0:0:
320,192,89483,1,8,0:0:0:0:
64,192,89534,1,8,0:0:0:0:
192,192,89585,1,8,0:0:0:0:
320,192,89585,1,8,0:0:0:0:
448,192,89636,1,8,0:0:0:0:
64,192,89687,1,8,0:0:0:0:
192,192,89687,1,8,0:0:0:0:
448,192,89738,1,8,0:0:0:0:
320,192,89789,1,8,0:0:0:0:
64,192,89789,1,8,0:0:0:0:
192,192,89840,1,8,0:0:0:0:
448,192,89891,1,8,0:0:0:0:
320,192,89891,1,8,0:0:0:0:
192,192,89942,1,8,0:0:0:0:
64,192,89993,1,8,0:0:0:0:
448,192,89993,1,8,0:0:0:0:
320,192,90044,1,8,0:0:0:0:
192,192,90095,1,8,0:0:0:0:
64,192,90095,1,8,0:0:0:0:
448,192,90146,1,8,0:0:0:0:
320,192,90197,1,8,0:0:0:0:
192,192,90197,1,8,0:0:0:0:
64,192,90248,1,8,0:0:0:0:
448,192,90299,1,8,0:0:0:0:
320,192,90299,1,8,0:0:0:0:
64,192,90350,1,8,0:0:0:0:
192,192,90401,1,8,0:0:0:0:
448,192,90401,1,8,0:0:0:0:
320,192,90452,1,8,0:0:0:0:
192,192,90503,1,8,0:0:0:0:
64,192,90503,1,8,0:0:0:0:
192,192,90605,1,8,0:0:0:0:
64,192,90605,1,8,0:0:0:0:
320,192,90707,1,8,0:0:0:0:
448,192,90707,1,8,0:0:0:0:
320,192,90809,1,8,0:0:0:0:
448,192,90809,1,8,0:0:0:0:
320,192,90911,1,12,0:0:0:0:
448,192,90911,1,8,0:0:0:0:
64,192,90911,1,8,0:0:0:0:
192,192,90911,1,12,0:0:0:0:
64,192,91013,1,0,0:0:0:0:
448,192,91115,1,0,0:0:0:0:
448,192,91218,1,0,0:0:0:0:
64,192,91320,1,0,0:0:0:0:
192,192,91320,1,0,0:0:0:0:
192,192,91422,1,0,0:0:0:0:
64,192,91422,1,0,0:0:0:0:
320,192,91524,1,0,0:0:0:0:
448,192,91524,1,0,0:0:0:0:
320,192,91626,1,0,0:0:0:0:
448,192,91626,1,0,0:0:0:0:
64,192,91728,1,0,0:0:0:0:
192,192,91728,1,0,0:0:0:0:
64,192,91830,1,0,0:0:0:0:
192,192,91830,1,0,0:0:0:0:
320,192,91932,1,0,0:0:0:0:
448,192,91932,128,0,92136:0:0:0:0:
192,192,92136,1,0,0:0:0:0:
64,192,92136,128,0,92340:0:0:0:0:
320,192,92238,1,0,0:0:0:0:
448,192,92340,1,0,0:0:0:0:
64,192,92544,1,8,0:0:0:0:
448,192,92544,128,0,92748:0:0:0:0:
320,192,92544,128,0,92748:0:0:0:0:
192,192,92748,1,0,0:0:0:0:
64,192,92952,1,8,0:0:0:0:
192,192,92952,1,8,0:0:0:0:
448,192,92952,1,10,0:0:0:0:
320,192,93054,1,0,0:0:0:0:
192,192,93156,1,0,0:0:0:0:
64,192,93258,1,0,0:0:0:0:
320,192,93258,1,0,0:0:0:0:
192,192,93360,1,8,0:0:0:0:
320,192,93360,1,8,0:0:0:0:
448,192,93360,1,8,0:0:0:0:
64,192,93462,1,0,0:0:0:0:
320,192,93564,1,0,0:0:0:0:
448,192,93564,1,0,0:0:0:0:
192,192,93615,1,0,0:0:0:0:
64,192,93667,1,0,0:0:0:0:
448,192,93718,1,0,0:0:0:0:
64,192,93769,1,8,0:0:0:0:
192,192,93769,1,8,0:0:0:0:
320,192,93769,1,10,0:0:0:0:
448,192,93871,1,0,0:0:0:0:
192,192,93973,1,0,0:0:0:0:
64,192,93973,1,0,0:0:0:0:
448,192,94075,1,0,0:0:0:0:
64,192,94075,1,0,0:0:0:0:
192,192,94177,1,8,0:0:0:0:
320,192,94177,1,8,0:0:0:0:
448,192,94177,1,8,0:0:0:0:
64,192,94381,1,0,0:0:0:0:
192,192,94381,1,0,0:0:0:0:
320,192,94585,1,10,0:0:0:0:
448,192,94585,1,8,0:0:0:0:
192,192,94585,1,8,0:0:0:0:
64,192,94687,1,0,0:0:0:0:
448,192,94687,1,0,0:0:0:0:
192,192,94738,1,0,0:0:0:0:
320,192,94789,1,0,0:0:0:0:
448,192,94840,1,0,0:0:0:0:
64,192,94891,1,0,0:0:0:0:
192,192,94942,1,0,0:0:0:0:
320,192,94993,1,8,0:0:0:0:
448,192,94993,1,8,0:0:0:0:
64,192,94993,1,8,0:0:0:0:
192,192,95095,1,0,0:0:0:0:
320,192,95197,1,0,0:0:0:0:
448,192,95197,1,0,0:0:0:0:
64,192,95299,1,0,0:0:0:0:
192,192,95299,1,0,0:0:0:0:
64,192,95401,1,10,0:0:0:0:
192,192,95401,1,8,0:0:0:0:
320,192,95401,1,8,0:0:0:0:
320,192,95503,1,0,0:0:0:0:
448,192,95503,1,0,0:0:0:0:
64,192,95605,1,0,0:0:0:0:
192,192,95656,1,0,0:0:0:0:
448,192,95707,1,0,0:0:0:0:
320,192,95758,1,0,0:0:0:0:
64,192,95809,1,8,0:0:0:0:
448,192,95809,1,8,0:0:0:0:
192,192,95809,1,8,0:0:0:0:
192,192,96013,1,0,0:0:0:0:
64,192,96013,128,0,96218:0:0:0:0:
320,192,96218,1,8,0:0:0:0:
448,192,96218,1,8,0:0:0:0:
192,192,96218,1,10,0:0:0:0:
192,192,96422,1,0,0:0:0:0:
64,192,96422,1,0,0:0:0:0:
320,192,96524,1,0,0:0:0:0:
448,192,96524,1,0,0:0:0:0:
64,192,96626,1,8,0:0:0:0:
192,192,96626,1,8,0:0:0:0:
448,192,96626,1,8,0:0:0:0:
192,192,96728,1,0,0:0:0:0:
320,192,96728,1,0,0:0:0:0:
448,192,96830,1,0,0:0:0:0:
64,192,96932,1,0,0:0:0:0:
192,192,96983,1,0,0:0:0:0:
64,192,97034,1,8,0:0:0:0:
320,192,97034,1,8,0:0:0:0:
448,192,97034,1,10,0:0:0:0:
448,192,97136,1,0,0:0:0:0:
320,192,97136,1,0,0:0:0:0:
192,192,97238,1,0,0:0:0:0:
64,192,97238,1,0,0:0:0:0:
64,192,97340,1,0,0:0:0:0:
448,192,97340,1,0,0:0:0:0:
320,192,97442,1,8,0:0:0:0:
448,192,97442,1,8,0:0:0:0:
192,192,97442,1,8,0:0:0:0:
320,192,97544,1,0,0:0:0:0:
192,192,97544,1,0,0:0:0:0:
64,192,97646,1,0,0:0:0:0:
448,192,97748,1,0,0:0:0:0:
320,192,97799,1,0,0:0:0:0:
64,192,97850,1,10,0:0:0:0:
192,192,97850,1,8,0:0:0:0:
448,192,97850,1,8,0:0:0:0:
64,192,97952,1,0,0:0:0:0:
448,192,98054,1,0,0:0:0:0:
320,192,98054,1,0,0:0:0:0:
448,192,98156,1,0,0:0:0:0:
192,192,98258,1,8,0:0:0:0:
320,192,98258,1,8,0:0:0:0:
64,192,98258,1,8,0:0:0:0:
64,192,98360,1,0,0:0:0:0:
192,192,98360,1,0,0:0:0:0:
320,192,98462,1,0,0:0:0:0:
448,192,98564,1,0,0:0:0:0:
64,192,98667,1,8,0:0:0:0:
192,192,98667,1,8,0:0:0:0:
320,192,98667,1,10,0:0:0:0:
64,192,98769,128,4,98973:0:0:0:0:
192,192,98769,128,4,98973:0:0:0:0:
448,192,98769,128,4,98973:0:0:0:0:
192,192,99075,128,4,99279:0:0:0:0:
320,192,99075,128,4,99279:0:0:0:0:
448,192,99075,128,4,99279:0:0:0:0:
64,192,99279,1,0,0:0:0:0:
64,192,99483,1,8,0:0:0:0:
192,192,99483,1,8,0:0:0:0:
320,192,99483,1,10,0:0:0:0:
64,192,99687,1,0,0:0:0:0:
448,192,99789,1,0,0:0:0:0:
320,192,99789,1,0,0:0:0:0:
192,192,99891,1,8,0:0:0:0:
448,192,99891,1,8,0:0:0:0:
64,192,99891,1,8,0:0:0:0:
64,192,99993,1,0,0:0:0:0:
192,192,100044,1,0,0:0:0:0:
320,192,100095,1,0,0:0:0:0:
448,192,100095,1,0,0:0:0:0:
64,192,100197,1,0,0:0:0:0:
192,192,100197,1,0,0:0:0:0:
64,192,100299,1,10,0:0:0:0:
320,192,100299,1,8,0:0:0:0:
448,192,100299,1,8,0:0:0:0:
320,192,100503,1,0,0:0:0:0:
448,192,100503,1,0,0:0:0:0:
192,192,100605,1,0,0:0:0:0:
320,192,100605,1,0,0:0:0:0:
192,192,100707,1,8,0:0:0:0:
64,192,100707,1,8,0:0:0:0:
448,192,100707,1,8,0:0:0:0:
320,192,100809,1,0,0:0:0:0:
192,192,100911,1,0,0:0:0:0:
64,192,100911,1,0,0:0:0:0:
320,192,101013,1,0,0:0:0:0:
448,192,101013,1,0,0:0:0:0:
64,192,101115,1,10,0:0:0:0:
192,192,101115,1,8,0:0:0:0:
320,192,101115,1,8,0:0:0:0:
448,192,101167,1,0,0:0:0:0:
64,192,101218,1,0,0:0:0:0:
192,192,101269,1,0,0:0:0:0:
320,192,101320,1,0,0:0:0:0:
448,192,101371,1,0,0:0:0:0:
64,192,101422,1,0,0:0:0:0:
192,192,101473,1,0,0:0:0:0:
64,192,101524,1,8,0:0:0:0:
448,192,101524,1,8,0:0:0:0:
320,192,101524,1,8,0:0:0:0:
448,192,101626,1,0,0:0:0:0:
320,192,101626,1,0,0:0:0:0:
64,192,101728,1,0,0:0:0:0:
192,192,101728,1,0,0:0:0:0:
448,192,101830,1,0,0:0:0:0:
192,192,101932,1,10,0:0:0:0:
320,192,101932,1,8,0:0:0:0:
448,192,101932,1,8,0:0:0:0:
192,192,102136,1,0,0:0:0:0:
64,192,102136,1,0,0:0:0:0:
192,192,102238,1,0,0:0:0:0:
320,192,102238,1,0,0:0:0:0:
320,192,102340,1,8,0:0:0:0:
448,192,102340,1,8,0:0:0:0:
64,192,102340,128,0,102544:0:0:0:0:
448,192,102544,1,0,0:0:0:0:
64,192,102646,1,0,0:0:0:0:
192,192,102646,1,0,0:0:0:0:
192,192,102748,1,10,0:0:0:0:
320,192,102748,1,8,0:0:0:0:
448,192,102748,1,8,0:0:0:0:
64,192,102850,1,0,0:0:0:0:
448,192,102952,1,0,0:0:0:0:
320,192,102952,1,0,0:0:0:0:
192,192,103054,1,0,0:0:0:0:
64,192,103156,1,8,0:0:0:0:
448,192,103156,1,8,0:0:0:0:
320,192,103156,1,8,0:0:0:0:
192,192,103258,1,0,0:0:0:0:
320,192,103309,1,0,0:0:0:0:
64,192,103360,1,0,0:0:0:0:
448,192,103360,1,0,0:0:0:0:
192,192,103411,1,0,0:0:0:0:
320,192,103462,1,0,0:0:0:0:
64,192,103564,1,10,0:0:0:0:
192,192,103564,1,8,0:0:0:0:
448,192,103564,1,8,0:0:0:0:
320,192,103667,1,0,0:0:0:0:
448,192,103667,1,0,0:0:0:0:
64,192,103769,1,0,0:0:0:0:
192,192,103769,1,0,0:0:0:0:
64,192,103871,1,0,0:0:0:0:
448,192,103871,1,0,0:0:0:0:
192,192,103973,1,8,0:0:0:0:
320,192,103973,1,8,0:0:0:0:
448,192,103973,1,8,0:0:0:0:
64,192,104075,1,0,0:0:0:0:
320,192,104075,1,0,0:0:0:0:
192,192,104177,1,0,0:0:0:0:
448,192,104177,1,0,0:0:0:0:
64,192,104279,1,0,0:0:0:0:
192,192,104279,1,0,0:0:0:0:
64,192,104381,1,10,0:0:0:0:
320,192,104381,1,8,0:0:0:0:
448,192,104381,1,8,0:0:0:0:
192,192,104483,1,0,0:0:0:0:
320,192,104483,1,0,0:0:0:0:
64,192,104585,1,0,0:0:0:0:
448,192,104585,1,0,0:0:0:0:
448,192,104687,1,0,0:0:0:0:
64,192,104789,1,8,0:0:0:0:
192,192,104789,1,8,0:0:0:0:
320,192,104789,1,8,0:0:0:0:
448,192,104891,1,0,0:0:0:0:
64,192,104942,1,0,0:0:0:0:
192,192,104993,1,0,0:0:0:0:
320,192,104993,1,0,0:0:0:0:
448,192,105095,1,0,0:0:0:0:
320,192,105146,1,0,0:0:0:0:
448,192,105197,1,10,0:0:0:0:
64,192,105197,1,8,0:0:0:0:
192,192,105197,1,8,0:0:0:0:
320,192,105299,1,0,0:0:0:0:
192,192,105299,1,0,0:0:0:0:
64,192,105401,1,0,0:0:0:0:
320,192,105401,1,0,0:0:0:0:
448,192,105503,1,0,0:0:0:0:
64,192,105605,128,8,105911:0:0:0:0:
192,192,105605,128,8,105911:0:0:0:0:
320,192,105605,128,8,105911:0:0:0:0:
192,192,106013,1,12,0:0:0:0:
320,192,106013,128,0,106218:0:0:0:0:
448,192,106013,128,0,106218:0:0:0:0:
64,192,106013,1,12,0:0:0:0:
64,192,106218,1,0,0:0:0:0:
320,192,106422,1,8,0:0:0:0:
448,192,106422,1,8,0:0:0:0:
64,192,106422,1,8,0:0:0:0:
192,192,106524,1,0,0:0:0:0:
448,192,106626,1,0,0:0:0:0:
320,192,106677,1,0,0:0:0:0:
192,192,106728,1,0,0:0:0:0:
64,192,106779,1,0,0:0:0:0:
192,192,106830,1,8,0:0:0:0:
320,192,106830,1,8,0:0:0:0:
448,192,106830,1,2,0:0:0:0:
448,192,106932,1,0,0:0:0:0:
64,192,107034,1,0,0:0:0:0:
192,192,107034,1,0,0:0:0:0:
192,192,107136,1,0,0:0:0:0:
320,192,107136,1,0,0:0:0:0:
320,192,107238,1,8,0:0:0:0:
448,192,107238,1,8,0:0:0:0:
64,192,107238,1,8,0:0:0:0:
192,192,107442,1,0,0:0:0:0:
320,192,107442,1,0,0:0:0:0:
64,192,107646,1,8,0:0:0:0:
192,192,107646,1,8,0:0:0:0:
320,192,107646,1,10,0:0:0:0:
448,192,107748,1,0,0:0:0:0:
320,192,107799,1,0,0:0:0:0:
192,192,107850,1,0,0:0:0:0:
64,192,107850,1,0,0:0:0:0:
448,192,107901,1,0,0:0:0:0:
320,192,107952,1,0,0:0:0:0:
192,192,108003,1,0,0:0:0:0:
64,192,108054,1,8,0:0:0:0:
320,192,108054,1,8,0:0:0:0:
448,192,108054,1,8,0:0:0:0:
192,192,108156,1,0,0:0:0:0:
448,192,108258,1,0,0:0:0:0:
64,192,108258,1,0,0:0:0:0:
448,192,108360,1,0,0:0:0:0:
320,192,108360,1,0,0:0:0:0:
192,192,108462,1,8,0:0:0:0:
320,192,108462,1,10,0:0:0:0:
64,192,108462,1,8,0:0:0:0:
448,192,108564,1,0,0:0:0:0:
192,192,108667,1,0,0:0:0:0:
64,192,108667,1,0,0:0:0:0:
320,192,108718,1,0,0:0:0:0:
192,192,108769,1,0,0:0:0:0:
320,192,108820,1,0,0:0:0:0:
192,192,108871,128,0,109075:0:0:0:0:
64,192,109075,1,8,0:0:0:0:
448,192,109075,1,8,0:0:0:0:
320,192,109075,1,8,0:0:0:0:
192,192,109279,1,10,0:0:0:0:
64,192,109279,1,8,0:0:0:0:
448,192,109279,1,8,0:0:0:0:
64,192,109483,1,0,0:0:0:0:
320,192,109585,1,0,0:0:0:0:
448,192,109585,1,0,0:0:0:0:
64,192,109687,1,8,0:0:0:0:
192,192,109687,1,8,0:0:0:0:
448,192,109687,1,8,0:0:0:0:
192,192,109789,1,0,0:0:0:0:
64,192,109789,1,0,0:0:0:0:
448,192,109891,1,0,0:0:0:0:
320,192,109891,1,0,0:0:0:0:
64,192,109993,1,0,0:0:0:0:
192,192,110044,1,0,0:0:0:0:
64,192,110095,1,8,0:0:0:0:
320,192,110095,1,8,0:0:0:0:
448,192,110095,1,10,0:0:0:0:
320,192,110197,1,0,0:0:0:0:
448,192,110197,1,0,0:0:0:0:
192,192,110299,1,0,0:0:0:0:
64,192,110299,1,0,0:0:0:0:
320,192,110401,1,0,0:0:0:0:
448,192,110401,1,0,0:0:0:0:
320,192,110503,1,8,0:0:0:0:
192,192,110503,1,8,0:0:0:0:
448,192,110503,1,8,0:0:0:0:
64,192,110605,1,0,0:0:0:0:
192,192,110605,1,0,0:0:0:0:
64,192,110707,1,0,0:0:0:0:
448,192,110809,1,0,0:0:0:0:
320,192,110860,1,0,0:0:0:0:
64,192,110911,1,10,0:0:0:0:
448,192,110911,1,8,0:0:0:0:
192,192,110911,1,8,0:0:0:0:
192,192,111115,1,0,0:0:0:0:
320,192,111115,1,0,0:0:0:0:
64,192,111218,1,10,0:0:0:0:
320,192,111218,1,8,0:0:0:0:
448,192,111218,1,8,0:0:0:0:
64,192,111320,1,8,0:0:0:0:
192,192,111320,1,8,0:0:0:0:
448,192,111320,1,10,0:0:0:0:
320,192,111524,1,8,0:0:0:0:
192,192,111524,1,12,0:0:0:0:
64,192,111524,1,8,0:0:0:0:
448,192,111626,128,0,111728:0:0:0:0:
320,192,111830,128,12,112034:0:0:0:0:
192,192,111830,128,8,112034:0:0:0:0:
64,192,111830,128,8,112034:0:0:0:0:
192,192,112136,128,12,112442:0:0:0:0:
320,192,112136,128,12,112442:0:0:0:0:
448,192,112136,128,12,112442:0:0:0:0:
64,192,112544,128,12,112748:0:0:0:0:
192,192,112544,128,12,112748:0:0:0:0:
320,192,112544,128,12,112748:0:0:0:0:
192,192,112850,1,8,0:0:0:0:
64,192,112850,1,8,0:0:0:0:
192,192,112952,1,2,0:0:0:0:
448,192,112952,1,2,0:0:0:0:
320,192,112952,1,2,0:0:0:0:
64,192,113258,1,8,0:0:0:0:
192,192,113258,1,8,0:0:0:0:
448,192,113258,1,8,0:0:0:0:
320,192,113309,1,8,0:0:0:0:
192,192,113360,1,2,0:0:0:0:
64,192,113360,1,2,0:0:0:0:
320,192,113462,1,2,0:0:0:0:
448,192,113462,1,2,0:0:0:0:
448,192,113564,1,8,0:0:0:0:
192,192,113564,1,8,0:0:0:0:
64,192,113564,1,8,0:0:0:0:
64,192,113667,1,2,0:0:0:0:
192,192,113667,1,2,0:0:0:0:
448,192,113769,128,4,114075:0:0:0:0:
192,192,113769,128,4,114075:0:0:0:0:
320,192,113769,128,4,114075:0:0:0:0:
320,192,114177,128,4,114381:0:0:0:0:
192,192,114177,128,4,114381:0:0:0:0:
64,192,114177,128,4,114381:0:0:0:0:
320,192,114483,1,8,0:0:0:0:
448,192,114483,1,8,0:0:0:0:
64,192,114534,1,8,0:0:0:0:
192,192,114585,1,2,0:0:0:0:
448,192,114585,1,2,0:0:0:0:
320,192,114585,1,2,0:0:0:0:
192,192,114687,1,2,0:0:0:0:
64,192,114687,1,2,0:0:0:0:
448,192,114891,1,2,0:0:0:0:
192,192,114891,1,2,0:0:0:0:
64,192,114891,1,2,0:0:0:0:
320,192,114993,1,8,0:0:0:0:
448,192,114993,1,8,0:0:0:0:
64,192,115197,1,8,0:0:0:0:
320,192,115197,1,8,0:0:0:0:
448,192,115197,1,8,0:0:0:0:
448,192,115401,1,4,0:0:0:0:
192,192,115401,1,4,0:0:0:0:
64,192,115401,1,4,0:0:0:0:
448,192,115503,1,0,0:0:0:0:
192,192,115605,1,0,0:0:0:0:
64,192,115605,1,0,0:0:0:0:
192,192,115707,1,0,0:0:0:0:
448,192,115809,1,0,0:0:0:0:
320,192,115809,1,0,0:0:0:0:
320,192,115911,1,0,0:0:0:0:
64,192,116013,1,0,0:0:0:0:
192,192,116013,1,0,0:0:0:0:
64,192,116115,1,0,0:0:0:0:
320,192,116218,1,0,0:0:0:0:
448,192,116218,1,0,0:0:0:0:
448,192,116320,1,0,0:0:0:0:
320,192,116320,1,0,0:0:0:0:
64,192,116422,1,0,0:0:0:0:
192,192,116422,1,0,0:0:0:0:
64,192,116524,1,0,0:0:0:0:
192,192,116524,1,0,0:0:0:0:
448,192,116626,1,0,0:0:0:0:
320,192,116626,1,0,0:0:0:0:
448,192,116728,1,0,0:0:0:0:
320,192,116728,1,0,0:0:0:0:
192,192,116830,1,0,0:0:0:0:
64,192,116830,1,0,0:0:0:0:
320,192,116881,1,0,0:0:0:0:
448,192,116881,1,0,0:0:0:0:
64,192,116932,1,0,0:0:0:0:
192,192,116932,1,0,0:0:0:0:
320,192,116983,1,0,0:0:0:0:
448,192,116983,1,0,0:0:0:0:
64,192,117034,128,8,117238:0:0:0:0:
192,192,117034,128,8,117238:0:0:0:0:
320,192,117340,128,0,117544:0:0:0:0:
448,192,117340,128,0,117544:0:0:0:0:
192,192,117646,128,0,117850:0:0:0:0:
320,192,117646,128,0,117850:0:0:0:0:
64,192,117952,128,0,118156:0:0:0:0:
448,192,117952,128,0,118156:0:0:0:0:
192,192,118258,1,0,0:0:0:0:
320,192,118258,1,0,0:0:0:0:
448,192,118360,1,0,0:0:0:0:
320,192,118360,1,0,0:0:0:0:
192,192,118462,1,0,0:0:0:0:
64,192,118462,1,0,0:0:0:0:
192,192,118564,1,0,0:0:0:0:
320,192,118564,1,0,0:0:0:0:
64,192,118667,1,12,0:0:0:0:
448,192,118667,1,8,0:0:0:0:
320,192,118667,1,12,0:0:0:0:
192,192,118667,1,8,0:0:0:0:
448,192,118769,1,0,0:0:0:0:
192,192,118871,1,0,0:0:0:0:
64,192,118973,1,0,0:0:0:0:
64,192,119075,1,8,0:0:0:0:
320,192,119075,1,8,0:0:0:0:
448,192,119075,1,2,0:0:0:0:
448,192,119177,1,0,0:0:0:0:
64,192,119279,1,0,0:0:0:0:
192,192,119381,1,0,0:0:0:0:
320,192,119381,1,0,0:0:0:0:
64,192,119483,1,8,0:0:0:0:
320,192,119483,1,8,0:0:0:0:
448,192,119483,1,8,0:0:0:0:
64,192,119585,1,0,0:0:0:0:
448,192,119687,1,0,0:0:0:0:
192,192,119789,1,0,0:0:0:0:
320,192,119789,1,0,0:0:0:0:
192,192,119891,1,8,0:0:0:0:
64,192,119891,1,8,0:0:0:0:
448,192,119891,1,2,0:0:0:0:
448,192,119993,1,0,0:0:0:0:
192,192,120095,1,0,0:0:0:0:
64,192,120095,1,0,0:0:0:0:
320,192,120197,1,0,0:0:0:0:
64,192,120299,1,8,0:0:0:0:
320,192,120299,1,8,0:0:0:0:
448,192,120299,1,8,0:0:0:0:
64,192,120401,1,0,0:0:0:0:
448,192,120503,1,0,0:0:0:0:
320,192,120503,1,0,0:0:0:0:
192,192,120605,1,0,0:0:0:0:
64,192,120707,1,2,0:0:0:0:
192,192,120707,1,8,0:0:0:0:
448,192,120707,1,8,0:0:0:0:
448,192,120809,1,0,0:0:0:0:
64,192,120911,1,0,0:0:0:0:
320,192,121013,1,0,0:0:0:0:
192,192,121013,1,0,0:0:0:0:
64,192,121115,1,8,0:0:0:0:
320,192,121115,1,8,0:0:0:0:
448,192,121115,1,8,0:0:0:0:
64,192,121218,1,0,0:0:0:0:
448,192,121320,1,0,0:0:0:0:
320,192,121422,1,0,0:0:0:0:
192,192,121422,1,0,0:0:0:0:
192,192,121524,1,8,0:0:0:0:
448,192,121524,1,2,0:0:0:0:
64,192,121524,1,8,0:0:0:0:
448,192,121626,1,0,0:0:0:0:
192,192,121728,1,0,0:0:0:0:
64,192,121728,1,0,0:0:0:0:
320,192,121830,1,0,0:0:0:0:
64,192,121932,1,8,0:0:0:0:
320,192,121932,1,8,0:0:0:0:
448,192,121932,1,8,0:0:0:0:
64,192,122034,1,0,0:0:0:0:
192,192,122136,1,0,0:0:0:0:
448,192,122238,1,0,0:0:0:0:
448,192,122340,1,8,0:0:0:0:
320,192,122340,1,8,0:0:0:0:
64,192,122340,1,2,0:0:0:0:
64,192,122442,1,0,0:0:0:0:
448,192,122544,1,0,0:0:0:0:
320,192,122646,1,0,0:0:0:0:
192,192,122646,1,0,0:0:0:0:
320,192,122748,1,8,0:0:0:0:
448,192,122748,1,8,0:0:0:0:
64,192,122748,1,8,0:0:0:0:
64,192,122850,1,0,0:0:0:0:
448,192,122952,1,0,0:0:0:0:
192,192,123054,1,0,0:0:0:0:
320,192,123054,1,0,0:0:0:0:
64,192,123156,1,2,0:0:0:0:
192,192,123156,1,8,0:0:0:0:
448,192,123156,1,8,0:0:0:0:
448,192,123258,1,0,0:0:0:0:
192,192,123360,1,0,0:0:0:0:
64,192,123360,1,0,0:0:0:0:
320,192,123462,1,0,0:0:0:0:
64,192,123564,1,8,0:0:0:0:
320,192,123564,1,8,0:0:0:0:
448,192,123564,1,8,0:0:0:0:
64,192,123667,1,0,0:0:0:0:
448,192,123769,1,0,0:0:0:0:
320,192,123769,1,0,0:0:0:0:
64,192,123871,1,0,0:0:0:0:
192,192,123871,1,0,0:0:0:0:
320,192,123973,1,8,0:0:0:0:
192,192,123973,1,10,0:0:0:0:
448,192,123973,1,8,0:0:0:0:
448,192,124075,1,0,0:0:0:0:
64,192,124177,1,0,0:0:0:0:
192,192,124177,1,0,0:0:0:0:
320,192,124279,1,0,0:0:0:0:
64,192,124381,1,8,0:0:0:0:
320,192,124381,1,8,0:0:0:0:
448,192,124381,1,8,0:0:0:0:
64,192,124483,1,0,0:0:0:0:
448,192,124585,1,0,0:0:0:0:
320,192,124687,1,0,0:0:0:0:
192,192,124687,1,0,0:0:0:0:
64,192,124789,1,8,0:0:0:0:
192,192,124789,1,8,0:0:0:0:
448,192,124789,1,2,0:0:0:0:
448,192,124891,1,0,0:0:0:0:
192,192,124993,1,0,0:0:0:0:
64,192,125095,1,0,0:0:0:0:
64,192,125197,1,8,0:0:0:0:
320,192,125197,1,8,0:0:0:0:
448,192,125197,1,8,0:0:0:0:
448,192,125299,1,0,0:0:0:0:
320,192,125401,1,0,0:0:0:0:
64,192,125503,1,0,0:0:0:0:
448,192,125605,1,8,0:0:0:0:
192,192,125605,1,8,0:0:0:0:
64,192,125605,1,2,0:0:0:0:
448,192,125707,1,0,0:0:0:0:
320,192,125809,1,0,0:0:0:0:
192,192,125911,1,0,0:0:0:0:
64,192,125911,1,0,0:0:0:0:
320,192,126013,1,8,0:0:0:0:
64,192,126013,1,8,0:0:0:0:
448,192,126013,1,8,0:0:0:0:
448,192,126115,1,0,0:0:0:0:
64,192,126218,1,0,0:0:0:0:
320,192,126320,1,0,0:0:0:0:
192,192,126320,1,0,0:0:0:0:
64,192,126422,1,2,0:0:0:0:
448,192,126422,1,8,0:0:0:0:
320,192,126422,1,8,0:0:0:0:
64,192,126524,1,0,0:0:0:0:
448,192,126626,1,0,0:0:0:0:
320,192,126626,1,0,0:0:0:0:
192,192,126728,1,0,0:0:0:0:
64,192,126830,1,8,0:0:0:0:
192,192,126830,1,8,0:0:0:0:
448,192,126830,1,8,0:0:0:0:
448,192,126932,1,0,0:0:0:0:
64,192,127034,1,0,0:0:0:0:
192,192,127034,1,0,0:0:0:0:
320,192,127136,1,0,0:0:0:0:
64,192,127238,1,8,0:0:0:0:
320,192,127238,1,8,0:0:0:0:
448,192,127238,1,2,0:0:0:0:
64,192,127340,1,0,0:0:0:0:
192,192,127442,1,0,0:0:0:0:
448,192,127544,1,0,0:0:0:0:
320,192,127544,1,0,0:0:0:0:
448,192,127646,1,8,0:0:0:0:
64,192,127646,1,8,0:0:0:0:
192,192,127646,1,8,0:0:0:0:
64,192,127748,1,0,0:0:0:0:
448,192,127850,1,0,0:0:0:0:
320,192,127952,1,0,0:0:0:0:
192,192,127952,1,0,0:0:0:0:
64,192,128054,1,8,0:0:0:0:
192,192,128054,1,8,0:0:0:0:
448,192,128054,1,2,0:0:0:0:
448,192,128156,1,0,0:0:0:0:
192,192,128258,1,0,0:0:0:0:
320,192,128258,1,0,0:0:0:0:
64,192,128360,1,0,0:0:0:0:
64,192,128462,1,8,0:0:0:0:
320,192,128462,1,8,0:0:0:0:
448,192,128462,1,8,0:0:0:0:
448,192,128564,1,0,0:0:0:0:
192,192,128667,1,0,0:0:0:0:
64,192,128769,1,0,0:0:0:0:
64,192,128871,1,8,0:0:0:0:
320,192,128871,1,2,0:0:0:0:
448,192,128871,1,8,0:0:0:0:
448,192,128973,1,0,0:0:0:0:
64,192,129075,1,0,0:0:0:0:
192,192,129177,1,0,0:0:0:0:
320,192,129177,1,0,0:0:0:0:
64,192,129279,1,8,0:0:0:0:
448,192,129279,1,8,0:0:0:0:
192,192,129279,1,8,0:0:0:0:
448,192,129381,1,0,0:0:0:0:
64,192,129483,1,0,0:0:0:0:
320,192,129585,1,0,0:0:0:0:
192,192,129585,1,0,0:0:0:0:
448,192,129687,1,8,0:0:0:0:
64,192,129687,1,8,0:0:0:0:
320,192,129687,1,2,0:0:0:0:
64,192,129789,1,0,0:0:0:0:
192,192,129891,1,0,0:0:0:0:
320,192,129891,1,0,0:0:0:0:
448,192,129993,1,0,0:0:0:0:
192,192,130095,1,8,0:0:0:0:
64,192,130095,1,8,0:0:0:0:
448,192,130095,1,8,0:0:0:0:
64,192,130197,1,0,0:0:0:0:
448,192,130299,1,0,0:0:0:0:
320,192,130299,1,0,0:0:0:0:
64,192,130401,1,0,0:0:0:0:
192,192,130401,1,0,0:0:0:0:
448,192,130503,1,2,0:0:0:0:
64,192,130503,1,8,0:0:0:0:
320,192,130503,1,8,0:0:0:0:
448,192,130605,1,0,0:0:0:0:
192,192,130707,1,0,0:0:0:0:
320,192,130707,1,0,0:0:0:0:
64,192,130809,1,0,0:0:0:0:
448,192,130911,1,8,0:0:0:0:
320,192,130911,1,8,0:0:0:0:
64,192,130911,1,8,0:0:0:0:
448,192,131013,1,0,0:0:0:0:
64,192,131115,1,0,0:0:0:0:
192,192,131218,1,0,0:0:0:0:
320,192,131218,1,0,0:0:0:0:
64,192,131320,1,8,0:0:0:0:
192,192,131320,1,8,0:0:0:0:
448,192,131320,1,10,0:0:0:0:
448,192,131422,1,0,0:0:0:0:
320,192,131524,1,0,0:0:0:0:
64,192,131626,1,0,0:0:0:0:
448,192,131728,1,12,0:0:0:0:
192,192,131728,1,8,0:0:0:0:
320,192,131728,1,8,0:0:0:0:
64,192,131728,1,8,0:0:0:0:
448,192,131830,1,0,0:0:0:0:
192,192,131932,1,0,0:0:0:0:
64,192,132034,1,0,0:0:0:0:
64,192,132136,1,2,0:0:0:0:
320,192,132136,1,8,0:0:0:0:
448,192,132136,1,8,0:0:0:0:
448,192,132238,1,0,0:0:0:0:
320,192,132340,1,0,0:0:0:0:
64,192,132442,1,0,0:0:0:0:
192,192,132442,1,0,0:0:0:0:
64,192,132544,1,8,0:0:0:0:
320,192,132544,1,8,0:0:0:0:
448,192,132544,1,8,0:0:0:0:
448,192,132646,1,0,0:0:0:0:
64,192,132748,1,0,0:0:0:0:
192,192,132850,1,0,0:0:0:0:
320,192,132850,1,0,0:0:0:0:
320,192,132952,1,8,0:0:0:0:
64,192,132952,1,8,0:0:0:0:
448,192,132952,1,10,0:0:0:0:
64,192,133054,1,0,0:0:0:0:
320,192,133156,1,0,0:0:0:0:
448,192,133156,1,0,0:0:0:0:
192,192,133258,1,0,0:0:0:0:
448,192,133360,1,8,0:0:0:0:
64,192,133360,1,8,0:0:0:0:
192,192,133360,1,8,0:0:0:0:
448,192,133462,1,0,0:0:0:0:
192,192,133564,1,0,0:0:0:0:
64,192,133564,1,0,0:0:0:0:
320,192,133667,1,0,0:0:0:0:
64,192,133769,1,2,0:0:0:0:
320,192,133769,1,8,0:0:0:0:
448,192,133769,1,8,0:0:0:0:
64,192,133871,1,0,0:0:0:0:
192,192,133973,1,0,0:0:0:0:
448,192,134075,1,0,0:0:0:0:
320,192,134075,1,0,0:0:0:0:
192,192,134177,1,8,0:0:0:0:
448,192,134177,1,8,0:0:0:0:
64,192,134177,1,8,0:0:0:0:
64,192,134279,1,0,0:0:0:0:
448,192,134381,1,0,0:0:0:0:
320,192,134483,1,0,0:0:0:0:
192,192,134483,1,0,0:0:0:0:
64,192,134585,1,8,0:0:0:0:
192,192,134585,1,8,0:0:0:0:
448,192,134585,1,2,0:0:0:0:
448,192,134687,1,0,0:0:0:0:
192,192,134789,1,0,0:0:0:0:
320,192,134789,1,0,0:0:0:0:
64,192,134891,1,0,0:0:0:0:
448,192,134993,1,8,0:0:0:0:
320,192,134993,1,8,0:0:0:0:
64,192,134993,1,8,0:0:0:0:
448,192,135095,1,0,0:0:0:0:
320,192,135197,1,0,0:0:0:0:
64,192,135299,1,0,0:0:0:0:
64,192,135401,1,8,0:0:0:0:
320,192,135401,1,8,0:0:0:0:
448,192,135401,1,10,0:0:0:0:
448,192,135503,1,0,0:0:0:0:
64,192,135605,1,0,0:0:0:0:
320,192,135707,1,0,0:0:0:0:
192,192,135707,1,0,0:0:0:0:
320,192,135809,1,8,0:0:0:0:
64,192,135809,1,8,0:0:0:0:
448,192,135809,1,8,0:0:0:0:
64,192,135911,1,0,0:0:0:0:
448,192,136013,1,0,0:0:0:0:
320,192,136115,1,0,0:0:0:0:
192,192,136115,1,0,0:0:0:0:
64,192,136218,1,8,0:0:0:0:
448,192,136218,1,2,0:0:0:0:
192,192,136218,1,8,0:0:0:0:
448,192,136320,1,0,0:0:0:0:
320,192,136422,1,0,0:0:0:0:
192,192,136422,1,0,0:0:0:0:
64,192,136524,1,0,0:0:0:0:
64,192,136626,1,8,0:0:0:0:
320,192,136626,1,8,0:0:0:0:
448,192,136626,1,8,0:0:0:0:
448,192,136728,1,0,0:0:0:0:
192,192,136830,1,0,0:0:0:0:
64,192,136830,1,0,0:0:0:0:
448,192,136932,1,0,0:0:0:0:
320,192,136932,1,0,0:0:0:0:
192,192,137034,1,8,0:0:0:0:
448,192,137034,1,2,0:0:0:0:
64,192,137034,1,8,0:0:0:0:
64,192,137136,1,0,0:0:0:0:
192,192,137238,1,0,0:0:0:0:
320,192,137238,1,0,0:0:0:0:
448,192,137340,1,0,0:0:0:0:
64,192,137442,1,8,0:0:0:0:
192,192,137442,1,8,0:0:0:0:
448,192,137442,1,8,0:0:0:0:
64,192,137544,1,0,0:0:0:0:
448,192,137646,1,0,0:0:0:0:
192,192,137748,1,0,0:0:0:0:
320,192,137748,1,0,0:0:0:0:
192,192,137850,1,8,0:0:0:0:
64,192,137850,1,8,0:0:0:0:
448,192,137850,1,2,0:0:0:0:
448,192,137952,1,0,0:0:0:0:
320,192,138054,1,0,0:0:0:0:
64,192,138156,1,0,0:0:0:0:
448,192,138258,1,8,0:0:0:0:
192,192,138258,1,8,0:0:0:0:
64,192,138258,1,8,0:0:0:0:
448,192,138360,1,0,0:0:0:0:
192,192,138462,1,0,0:0:0:0:
64,192,138564,1,0,0:0:0:0:
64,192,138667,1,8,0:0:0:0:
320,192,138667,1,2,0:0:0:0:
448,192,138667,1,8,0:0:0:0:
448,192,138769,1,0,0:0:0:0:
320,192,138871,1,0,0:0:0:0:
64,192,138973,1,0,0:0:0:0:
192,192,138973,1,0,0:0:0:0:
192,192,139075,1,8,0:0:0:0:
320,192,139075,1,8,0:0:0:0:
448,192,139075,1,8,0:0:0:0:
448,192,139177,1,0,0:0:0:0:
64,192,139279,1,0,0:0:0:0:
192,192,139381,1,0,0:0:0:0:
320,192,139381,1,0,0:0:0:0:
320,192,139483,1,8,0:0:0:0:
64,192,139483,1,8,0:0:0:0:
448,192,139483,1,10,0:0:0:0:
64,192,139585,1,0,0:0:0:0:
192,192,139687,1,0,0:0:0:0:
320,192,139687,1,0,0:0:0:0:
448,192,139789,1,0,0:0:0:0:
64,192,139891,1,8,0:0:0:0:
192,192,139891,1,8,0:0:0:0:
448,192,139891,1,8,0:0:0:0:
64,192,139993,1,0,0:0:0:0:
192,192,140095,1,0,0:0:0:0:
320,192,140095,1,0,0:0:0:0:
448,192,140197,1,0,0:0:0:0:
448,192,140299,1,2,0:0:0:0:
320,192,140299,1,8,0:0:0:0:
64,192,140299,1,8,0:0:0:0:
64,192,140401,1,0,0:0:0:0:
192,192,140503,1,0,0:0:0:0:
320,192,140605,1,0,0:0:0:0:
448,192,140605,1,0,0:0:0:0:
320,192,140707,1,8,0:0:0:0:
64,192,140707,1,8,0:0:0:0:
192,192,140707,1,8,0:0:0:0:
64,192,140809,1,0,0:0:0:0:
448,192,140911,1,0,0:0:0:0:
320,192,141013,1,0,0:0:0:0:
192,192,141013,1,0,0:0:0:0:
448,192,141115,1,10,0:0:0:0:
192,192,141115,1,8,0:0:0:0:
64,192,141115,1,8,0:0:0:0:
448,192,141218,1,0,0:0:0:0:
192,192,141320,1,0,0:0:0:0:
320,192,141320,1,0,0:0:0:0:
64,192,141422,1,0,0:0:0:0:
64,192,141524,1,8,0:0:0:0:
320,192,141524,1,8,0:0:0:0:
448,192,141524,1,8,0:0:0:0:
192,192,141626,1,0,0:0:0:0:
320,192,141728,1,0,0:0:0:0:
448,192,141728,1,0,0:0:0:0:
320,192,141830,1,8,0:0:0:0:
192,192,141830,1,8,0:0:0:0:
64,192,141830,1,8,0:0:0:0:
64,192,141932,1,8,0:0:0:0:
192,192,141932,1,8,0:0:0:0:
448,192,141932,1,8,0:0:0:0:
320,192,142034,1,0,0:0:0:0:
64,192,142136,1,8,0:0:0:0:
192,192,142136,1,8,0:0:0:0:
320,192,142238,1,8,0:0:0:0:
448,192,142238,1,8,0:0:0:0:
192,192,142238,1,8,0:0:0:0:
320,192,142340,1,8,0:0:0:0:
64,192,142340,1,8,0:0:0:0:
448,192,142340,1,8,0:0:0:0:
64,192,142544,1,0,0:0:0:0:
192,192,142544,1,0,0:0:0:0:
448,192,142646,1,8,0:0:0:0:
320,192,142646,1,8,0:0:0:0:
64,192,142646,1,8,0:0:0:0:
320,192,142850,1,0,0:0:0:0:
448,192,142850,1,0,0:0:0:0:
192,192,142952,1,8,0:0:0:0:
448,192,142952,1,8,0:0:0:0:
64,192,142952,1,8,0:0:0:0:
64,192,143156,1,8,0:0:0:0:
192,192,143156,1,8,0:0:0:0:
448,192,143156,1,8,0:0:0:0:
448,192,143360,1,8,0:0:0:0:
192,192,143360,1,8,0:0:0:0:
320,192,143360,1,8,0:0:0:0:
192,192,143564,1,0,0:0:0:0:
64,192,143564,1,0,0:0:0:0:
320,192,143667,1,0,0:0:0:0:
448,192,143667,1,0,0:0:0:0:
192,192,143769,1,8,0:0:0:0:
448,192,143769,1,8,0:0:0:0:
64,192,143769,1,8,0:0:0:0:
320,192,143973,1,0,0:0:0:0:
448,192,143973,1,0,0:0:0:0:
192,192,144075,1,0,0:0:0:0:
64,192,144075,1,0,0:0:0:0:
448,192,144177,1,8,0:0:0:0:
320,192,144177,1,8,0:0:0:0:
64,192,144177,1,8,0:0:0:0:
320,192,144279,1,0,0:0:0:0:
448,192,144279,1,0,0:0:0:0:
192,192,144381,1,0,0:0:0:0:
64,192,144381,1,0,0:0:0:0:
320,192,144483,1,0,0:0:0:0:
448,192,144483,1,0,0:0:0:0:
192,192,144585,1,8,0:0:0:0:
64,192,144585,1,8,0:0:0:0:
320,192,144636,1,8,0:0:0:0:
448,192,144636,1,8,0:0:0:0:
64,192,144687,1,8,0:0:0:0:
192,192,144687,1,8,0:0:0:0:
320,192,144738,1,8,0:0:0:0:
448,192,144738,1,8,0:0:0:0:
192,192,144789,1,8,0:0:0:0:
64,192,144789,128,12,144891:0:0:0:0:
320,192,144891,1,0,0:0:0:0:
64,192,144993,1,0,0:0:0:0:
320,192,145095,1,0,0:0:0:0:
448,192,145095,128,0,145197:0:0:0:0:
192,192,145197,1,0,0:0:0:0:
448,192,145299,1,0,0:0:0:0:
320,192,145401,1,0,0:0:0:0:
64,192,145503,1,0,0:0:0:0:
192,192,145605,1,0,0:0:0:0:
320,192,145605,128,0,145707:0:0:0:0:
448,192,145707,1,0,0:0:0:0:
64,192,145809,1,0,0:0:0:0:
320,192,145911,1,0,0:0:0:0:
192,192,145911,128,0,146013:0:0:0:0:
64,192,146013,1,0,0:0:0:0:
448,192,146115,1,0,0:0:0:0:
192,192,146218,1,0,0:0:0:0:
320,192,146320,1,0,0:0:0:0:
64,192,146422,1,0,0:0:0:0:
448,192,146422,128,0,146524:0:0:0:0:
320,192,146524,1,0,0:0:0:0:
192,192,146626,1,0,0:0:0:0:
320,192,146728,1,0,0:0:0:0:
448,192,146728,128,0,146830:0:0:0:0:
64,192,146830,1,0,0:0:0:0:
320,192,146932,1,0,0:0:0:0:
192,192,146932,128,0,147034:0:0:0:0:
64,192,147034,1,0,0:0:0:0:
448,192,147136,1,0,0:0:0:0:
192,192,147238,1,0,0:0:0:0:
320,192,147238,128,0,147340:0:0:0:0:
64,192,147340,1,0,0:0:0:0:
192,192,147442,1,0,0:0:0:0:
320,192,147544,1,0,0:0:0:0:
448,192,147544,128,0,147646:0:0:0:0:
64,192,147646,1,0,0:0:0:0:
448,192,147748,1,0,0:0:0:0:
320,192,147748,128,0,147850:0:0:0:0:
192,192,147850,1,0,0:0:0:0:
320,192,147952,1,0,0:0:0:0:
448,192,148054,1,0,0:0:0:0:
64,192,148054,128,0,148156:0:0:0:0:
192,192,148156,1,0,0:0:0:0:
320,192,148258,1,0,0:0:0:0:
192,192,148360,1,0,0:0:0:0:
64,192,148360,128,0,148462:0:0:0:0:
448,192,148462,1,0,0:0:0:0:
64,192,148564,1,0,0:0:0:0:
320,192,148564,128,0,148667:0:0:0:0:
192,192,148667,1,0,0:0:0:0:
448,192,148769,1,0,0:0:0:0:
320,192,148871,1,0,0:0:0:0:
64,192,148871,128,0,148973:0:0:0:0:
192,192,148973,1,0,0:0:0:0:
448,192,149075,1,0,0:0:0:0:
192,192,149177,1,0,0:0:0:0:
64,192,149177,128,0,149279:0:0:0:0:
320,192,149279,1,0,0:0:0:0:
192,192,149381,1,0,0:0:0:0:
448,192,149381,128,0,149483:0:0:0:0:
64,192,149483,1,0,0:0:0:0:
192,192,149585,1,0,0:0:0:0:
320,192,149687,1,0,0:0:0:0:
448,192,149687,128,0,149789:0:0:0:0:
64,192,149789,1,0,0:0:0:0:
448,192,149891,1,0,0:0:0:0:
64,192,149993,1,0,0:0:0:0:
192,192,149993,128,0,150095:0:0:0:0:
320,192,150095,1,0,0:0:0:0:
192,192,150197,1,0,0:0:0:0:
64,192,150197,128,0,150299:0:0:0:0:
448,192,150299,1,0,0:0:0:0:
320,192,150401,1,0,0:0:0:0:
64,192,150503,1,0,0:0:0:0:
448,192,150503,128,0,150605:0:0:0:0:
192,192,150605,1,0,0:0:0:0:
448,192,150707,1,0,0:0:0:0:
192,192,150809,1,0,0:0:0:0:
64,192,150809,128,0,150911:0:0:0:0:
448,192,150911,1,2,0:0:0:0:
320,192,150962,1,2,0:0:0:0:
192,192,151013,1,2,0:0:0:0:
64,192,151064,1,2,0:0:0:0:
320,192,151115,1,0,0:0:0:0:
448,192,151115,1,8,0:0:0:0:
64,192,151218,1,8,0:0:0:0:
192,192,151218,1,0,0:0:0:0:
64,192,151320,1,8,0:0:0:0:
192,192,151320,1,8,0:0:0:0:
320,192,151320,1,8,0:0:0:0:
448,192,151320,1,8,0:0:0:0:
320,192,151422,1,8,0:0:0:0:
448,192,151422,1,8,0:0:0:0:
64,192,151524,1,8,0:0:0:0:
192,192,151524,1,8,0:0:0:0:
448,192,151626,1,8,0:0:0:0:
320,192,151626,1,8,0:0:0:0:
192,192,151728,1,8,0:0:0:0:
64,192,151728,1,8,0:0:0:0:
448,192,151728,1,8,0:0:0:0:
192,192,151830,1,8,0:0:0:0:
64,192,151830,1,8,0:0:0:0:
320,192,151932,1,8,0:0:0:0:
448,192,151932,1,8,0:0:0:0:
64,192,152034,1,8,0:0:0:0:
192,192,152034,1,8,0:0:0:0:
320,192,152136,1,8,0:0:0:0:
448,192,152136,1,8,0:0:0:0:
64,192,152136,1,8,0:0:0:0:
448,192,152238,1,8,0:0:0:0:
320,192,152238,1,8,0:0:0:0:
64,192,152340,1,8,0:0:0:0:
192,192,152340,1,8,0:0:0:0:
320,192,152442,1,8,0:0:0:0:
448,192,152442,1,8,0:0:0:0:
320,192,152544,1,8,0:0:0:0:
192,192,152544,1,8,0:0:0:0:
64,192,152544,1,8,0:0:0:0:
192,192,152646,1,8,0:0:0:0:
64,192,152646,1,8,0:0:0:0:
320,192,152748,1,8,0:0:0:0:
448,192,152748,1,8,0:0:0:0:
64,192,152850,1,8,0:0:0:0:
192,192,152850,1,8,0:0:0:0:
64,192,152952,1,8,0:0:0:0:
448,192,152952,1,8,0:0:0:0:
320,192,152952,1,8,0:0:0:0:
192,192,152952,1,8,0:0:0:0:
320,192,153054,1,8,0:0:0:0:
448,192,153054,1,8,0:0:0:0:
64,192,153156,1,8,0:0:0:0:
192,192,153156,1,8,0:0:0:0:
448,192,153258,1,8,0:0:0:0:
320,192,153258,1,8,0:0:0:0:
320,192,153360,1,8,0:0:0:0:
192,192,153360,1,8,0:0:0:0:
64,192,153360,1,8,0:0:0:0:
64,192,153462,1,8,0:0:0:0:
192,192,153462,1,8,0:0:0:0:
448,192,153564,1,8,0:0:0:0:
320,192,153564,1,8,0:0:0:0:
64,192,153667,1,8,0:0:0:0:
192,192,153667,1,8,0:0:0:0:
448,192,153769,1,8,0:0:0:0:
320,192,153769,1,8,0:0:0:0:
64,192,153769,1,8,0:0:0:0:
320,192,153871,1,8,0:0:0:0:
448,192,153871,1,8,0:0:0:0:
64,192,153973,1,8,0:0:0:0:
192,192,153973,1,8,0:0:0:0:
320,192,154075,1,8,0:0:0:0:
448,192,154075,1,8,0:0:0:0:
192,192,154177,1,8,0:0:0:0:
448,192,154177,1,8,0:0:0:0:
64,192,154177,1,8,0:0:0:0:
192,192,154279,1,8,0:0:0:0:
64,192,154279,1,8,0:0:0:0:
448,192,154381,1,8,0:0:0:0:
320,192,154381,1,8,0:0:0:0:
192,192,154483,1,8,0:0:0:0:
64,192,154483,1,8,0:0:0:0:
320,192,154585,1,8,0:0:0:0:
448,192,154585,1,12,0:0:0:0:
192,192,154636,1,8,0:0:0:0:
64,192,154687,1,8,0:0:0:0:
448,192,154738,1,8,0:0:0:0:
320,192,154789,1,8,0:0:0:0:
192,192,154789,1,8,0:0:0:0:
64,192,154840,1,8,0:0:0:0:
448,192,154891,1,8,0:0:0:0:
320,192,154942,1,8,0:0:0:0:
64,192,154993,1,8,0:0:0:0:
192,192,154993,1,8,0:0:0:0:
320,192,155044,1,8,0:0:0:0:
448,192,155095,1,8,0:0:0:0:
64,192,155146,1,8,0:0:0:0:
320,192,155197,1,8,0:0:0:0:
192,192,155197,1,8,0:0:0:0:
448,192,155248,1,8,0:0:0:0:
64,192,155299,1,8,0:0:0:0:
192,192,155350,1,8,0:0:0:0:
448,192,155401,1,12,0:0:0:0:
320,192,155401,1,8,0:0:0:0:
192,192,155452,1,8,0:0:0:0:
448,192,155503,1,8,0:0:0:0:
64,192,155503,1,8,0:0:0:0:
320,192,155554,1,8,0:0:0:0:
192,192,155605,1,8,0:0:0:0:
64,192,155605,1,8,0:0:0:0:
320,192,155656,1,8,0:0:0:0:
448,192,155707,1,8,0:0:0:0:
192,192,155707,1,8,0:0:0:0:
64,192,155758,1,8,0:0:0:0:
320,192,155809,1,8,0:0:0:0:
448,192,155809,1,8,0:0:0:0:
64,192,155860,1,8,0:0:0:0:
192,192,155911,1,8,0:0:0:0:
320,192,155911,1,8,0:0:0:0:
448,192,155962,1,8,0:0:0:0:
64,192,156013,1,8,0:0:0:0:
192,192,156013,1,8,0:0:0:0:
448,192,156064,1,8,0:0:0:0:
320,192,156115,1,8,0:0:0:0:
64,192,156115,1,8,0:0:0:0:
192,192,156167,1,8,0:0:0:0:
320,192,156218,1,8,0:0:0:0:
448,192,156218,1,8,0:0:0:0:
64,192,156320,1,0,0:0:0:0:
192,192,156422,1,0,0:0:0:0:
320,192,156524,1,0,0:0:0:0:
448,192,156626,1,0,0:0:0:0:
320,192,156728,1,0,0:0:0:0:
64,192,156830,1,0,0:0:0:0:
192,192,156830,1,0,0:0:0:0:
448,192,156932,1,0,0:0:0:0:
320,192,156932,1,0,0:0:0:0:
192,192,157034,1,0,0:0:0:0:
320,192,157034,1,0,0:0:0:0:
192,192,157136,1,0,0:0:0:0:
64,192,157136,1,0,0:0:0:0:
64,192,157340,1,0,0:0:0:0:
192,192,157340,1,0,0:0:0:0:
448,192,157442,1,0,0:0:0:0:
192,192,157544,1,0,0:0:0:0:
320,192,157544,1,0,0:0:0:0:
64,192,157646,1,0,0:0:0:0:
64,192,157850,1,8,0:0:0:0:
192,192,157850,1,8,0:0:0:0:
448,192,157850,1,12,0:0:0:0:
320,192,157850,1,8,0:0:0:0:
320,192,157952,1,0,0:0:0:0:
448,192,157952,1,0,0:0:0:0:
64,192,158054,1,0,0:0:0:0:
192,192,158054,1,0,0:0:0:0:
448,192,158156,1,0,0:0:0:0:
192,192,158258,1,8,0:0:0:0:
320,192,158258,1,8,0:0:0:0:
64,192,158258,1,10,0:0:0:0:
320,192,158360,1,0,0:0:0:0:
192,192,158360,1,0,0:0:0:0:
64,192,158462,1,0,0:0:0:0:
448,192,158462,1,0,0:0:0:0:
192,192,158564,1,0,0:0:0:0:
64,192,158667,1,8,0:0:0:0:
320,192,158667,1,8,0:0:0:0:
448,192,158667,1,8,0:0:0:0:
320,192,158769,1,0,0:0:0:0:
448,192,158769,1,0,0:0:0:0:
192,192,158871,1,0,0:0:0:0:
64,192,158871,1,0,0:0:0:0:
448,192,158973,1,0,0:0:0:0:
192,192,159075,1,8,0:0:0:0:
64,192,159075,1,10,0:0:0:0:
320,192,159075,1,8,0:0:0:0:
192,192,159177,1,0,0:0:0:0:
320,192,159177,1,0,0:0:0:0:
64,192,159279,1,0,0:0:0:0:
448,192,159279,1,0,0:0:0:0:
192,192,159381,1,0,0:0:0:0:
64,192,159483,1,8,0:0:0:0:
320,192,159483,1,8,0:0:0:0:
448,192,159483,1,8,0:0:0:0:
320,192,159585,1,0,0:0:0:0:
448,192,159585,1,0,0:0:0:0:
64,192,159687,1,0,0:0:0:0:
192,192,159687,1,0,0:0:0:0:
448,192,159789,1,0,0:0:0:0:
320,192,159891,1,10,0:0:0:0:
64,192,159891,1,8,0:0:0:0:
192,192,159891,1,8,0:0:0:0:
320,192,159993,1,0,0:0:0:0:
192,192,159993,1,0,0:0:0:0:
448,192,160095,1,0,0:0:0:0:
64,192,160095,1,0,0:0:0:0:
320,192,160197,1,0,0:0:0:0:
192,192,160299,1,8,0:0:0:0:
448,192,160299,1,8,0:0:0:0:
64,192,160299,1,8,0:0:0:0:
192,192,160401,1,0,0:0:0:0:
448,192,160401,1,0,0:0:0:0:
320,192,160503,1,0,0:0:0:0:
64,192,160503,1,0,0:0:0:0:
448,192,160605,1,0,0:0:0:0:
64,192,160707,1,10,0:0:0:0:
320,192,160707,1,8,0:0:0:0:
192,192,160707,1,8,0:0:0:0:
64,192,160809,1,0,0:0:0:0:
192,192,160809,1,0,0:0:0:0:
320,192,160911,1,0,0:0:0:0:
448,192,160911,1,0,0:0:0:0:
64,192,161013,1,0,0:0:0:0:
320,192,161115,1,8,0:0:0:0:
192,192,161115,1,8,0:0:0:0:
448,192,161115,1,8,0:0:0:0:
320,192,161218,1,0,0:0:0:0:
192,192,161218,1,0,0:0:0:0:
64,192,161320,1,0,0:0:0:0:
448,192,161320,1,0,0:0:0:0:
192,192,161422,1,0,0:0:0:0:
64,192,161524,1,10,0:0:0:0:
320,192,161524,1,8,0:0:0:0:
448,192,161524,1,8,0:0:0:0:
320,192,161626,1,0,0:0:0:0:
448,192,161626,1,0,0:0:0:0:
64,192,161728,1,0,0:0:0:0:
192,192,161728,1,0,0:0:0:0:
320,192,161830,1,0,0:0:0:0:
64,192,161932,1,8,0:0:0:0:
192,192,161932,1,8,0:0:0:0:
448,192,161932,1,8,0:0:0:0:
64,192,162034,1,0,0:0:0:0:
448,192,162034,1,0,0:0:0:0:
320,192,162136,1,0,0:0:0:0:
192,192,162136,1,0,0:0:0:0:
448,192,162238,1,0,0:0:0:0:
320,192,162340,1,10,0:0:0:0:
192,192,162340,1,8,0:0:0:0:
64,192,162340,1,8,0:0:0:0:
64,192,162442,1,0,0:0:0:0:
192,192,162442,1,0,0:0:0:0:
448,192,162544,1,0,0:0:0:0:
320,192,162544,1,0,0:0:0:0:
64,192,162646,1,0,0:0:0:0:
192,192,162748,1,8,0:0:0:0:
320,192,162748,1,8,0:0:0:0:
448,192,162748,1,8,0:0:0:0:
320,192,162850,1,0,0:0:0:0:
192,192,162850,1,0,0:0:0:0:
64,192,162952,1,0,0:0:0:0:
448,192,162952,1,0,0:0:0:0:
320,192,163054,1,0,0:0:0:0:
64,192,163156,1,8,0:0:0:0:
192,192,163156,1,8,0:0:0:0:
448,192,163156,1,10,0:0:0:0:
64,192,163258,1,0,0:0:0:0:
192,192,163258,1,0,0:0:0:0:
448,192,163360,1,0,0:0:0:0:
320,192,163360,1,0,0:0:0:0:
64,192,163462,1,0,0:0:0:0:
192,192,163564,1,8,0:0:0:0:
320,192,163564,1,8,0:0:0:0:
448,192,163564,1,8,0:0:0:0:
448,192,163667,1,0,0:0:0:0:
192,192,163667,1,0,0:0:0:0:
320,192,163769,1,0,0:0:0:0:
64,192,163769,1,0,0:0:0:0:
448,192,163871,1,0,0:0:0:0:
64,192,163973,1,8,0:0:0:0:
192,192,163973,1,8,0:0:0:0:
320,192,163973,1,10,0:0:0:0:
64,192,164075,1,0,0:0:0:0:
192,192,164075,1,0,0:0:0:0:
320,192,164177,1,0,0:0:0:0:
448,192,164177,1,0,0:0:0:0:
192,192,164279,1,0,0:0:0:0:
64,192,164381,1,8,0:0:0:0:
320,192,164381,1,8,0:0:0:0:
448,192,164381,1,8,0:0:0:0:
320,192,164483,1,0,0:0:0:0:
448,192,164483,1,0,0:0:0:0:
64,192,164585,1,0,0:0:0:0:
192,192,164585,1,0,0:0:0:0:
448,192,164687,1,0,0:0:0:0:
64,192,164789,1,10,0:0:0:0:
320,192,164789,1,8,0:0:0:0:
192,192,164789,1,8,0:0:0:0:
192,192,164891,1,0,0:0:0:0:
320,192,164891,1,0,0:0:0:0:
448,192,164993,1,0,0:0:0:0:
64,192,164993,1,0,0:0:0:0:
320,192,165095,1,0,0:0:0:0:
64,192,165197,1,8,0:0:0:0:
192,192,165197,1,8,0:0:0:0:
448,192,165197,1,8,0:0:0:0:
192,192,165299,1,0,0:0:0:0:
448,192,165299,1,0,0:0:0:0:
64,192,165401,1,0,0:0:0:0:
320,192,165401,1,0,0:0:0:0:
448,192,165503,1,0,0:0:0:0:
64,192,165605,1,8,0:0:0:0:
192,192,165605,1,8,0:0:0:0:
320,192,165605,1,10,0:0:0:0:
320,192,165707,1,0,0:0:0:0:
192,192,165707,1,0,0:0:0:0:
64,192,165809,1,0,0:0:0:0:
448,192,165809,1,0,0:0:0:0:
192,192,165911,1,0,0:0:0:0:
320,192,166013,1,8,0:0:0:0:
448,192,166013,1,8,0:0:0:0:
64,192,166013,1,8,0:0:0:0:
320,192,166115,1,0,0:0:0:0:
448,192,166115,1,0,0:0:0:0:
192,192,166218,1,0,0:0:0:0:
64,192,166218,1,0,0:0:0:0:
320,192,166320,1,0,0:0:0:0:
192,192,166422,1,8,0:0:0:0:
64,192,166422,1,10,0:0:0:0:
448,192,166422,1,8,0:0:0:0:
64,192,166524,1,0,0:0:0:0:
448,192,166524,1,0,0:0:0:0:
320,192,166626,1,0,0:0:0:0:
192,192,166626,1,0,0:0:0:0:
64,192,166728,1,0,0:0:0:0:
192,192,166830,1,8,0:0:0:0:
320,192,166830,1,8,0:0:0:0:
448,192,166830,1,8,0:0:0:0:
448,192,166932,1,0,0:0:0:0:
192,192,166932,1,0,0:0:0:0:
64,192,167034,1,0,0:0:0:0:
320,192,167034,1,0,0:0:0:0:
192,192,167136,1,0,0:0:0:0:
64,192,167238,1,10,0:0:0:0:
320,192,167238,1,8,0:0:0:0:
448,192,167238,1,8,0:0:0:0:
320,192,167340,1,0,0:0:0:0:
448,192,167340,1,0,0:0:0:0:
64,192,167442,1,0,0:0:0:0:
192,192,167442,1,0,0:0:0:0:
320,192,167544,1,0,0:0:0:0:
64,192,167646,1,8,0:0:0:0:
192,192,167646,1,8,0:0:0:0:
448,192,167646,1,8,0:0:0:0:
448,192,167748,1,0,0:0:0:0:
64,192,167748,1,0,0:0:0:0:
320,192,167850,1,0,0:0:0:0:
192,192,167850,1,0,0:0:0:0:
448,192,167952,1,0,0:0:0:0:
64,192,168054,1,8,0:0:0:0:
192,192,168054,1,8,0:0:0:0:
320,192,168054,1,10,0:0:0:0:
192,192,168156,1,0,0:0:0:0:
64,192,168156,1,0,0:0:0:0:
448,192,168258,1,0,0:0:0:0:
320,192,168258,1,0,0:0:0:0:
64,192,168360,1,0,0:0:0:0:
192,192,168462,1,8,0:0:0:0:
320,192,168462,1,8,0:0:0:0:
448,192,168462,1,8,0:0:0:0:
320,192,168564,1,0,0:0:0:0:
192,192,168564,1,0,0:0:0:0:
448,192,168667,1,0,0:0:0:0:
64,192,168667,1,0,0:0:0:0:
320,192,168769,1,0,0:0:0:0:
64,192,168871,1,8,0:0:0:0:
192,192,168871,1,8,0:0:0:0:
448,192,168871,1,10,0:0:0:0:
192,192,168973,1,0,0:0:0:0:
64,192,168973,1,0,0:0:0:0:
320,192,169075,1,0,0:0:0:0:
448,192,169075,1,0,0:0:0:0:
192,192,169177,1,0,0:0:0:0:
64,192,169279,1,8,0:0:0:0:
320,192,169279,1,8,0:0:0:0:
448,192,169279,1,8,0:0:0:0:
192,192,169483,1,12,0:0:0:0:
320,192,169483,1,8,0:0:0:0:
448,192,169483,1,8,0:0:0:0:
64,192,169789,1,8,0:0:0:0:
192,192,169789,1,8,0:0:0:0:
320,192,169789,1,12,0:0:0:0:
64,192,169993,1,12,0:0:0:0:
320,192,169993,1,8,0:0:0:0:
448,192,169993,1,8,0:0:0:0:
192,192,170095,1,12,0:0:0:0:
320,192,170095,1,8,0:0:0:0:
448,192,170095,1,8,0:0:0:0:
64,192,170401,1,8,0:0:0:0:
448,192,170401,1,12,0:0:0:0:
192,192,170401,1,8,0:0:0:0:
320,192,170707,1,8,0:0:0:0:
448,192,170707,1,8,0:0:0:0:
448,192,170911,1,12,0:0:0:0:
192,192,170911,1,8,0:0:0:0:
64,192,170911,1,8,0:0:0:0:
320,192,170911,1,8,0:0:0:0:
192,192,171013,1,0,0:0:0:0:
64,192,171013,1,0,0:0:0:0:
448,192,171115,1,0,0:0:0:0:
320,192,171115,1,0,0:0:0:0:
64,192,171218,1,0,0:0:0:0:
448,192,171320,1,10,0:0:0:0:
192,192,171320,1,8,0:0:0:0:
320,192,171320,1,8,0:0:0:0:
192,192,171422,1,0,0:0:0:0:
320,192,171422,1,0,0:0:0:0:
448,192,171524,1,0,0:0:0:0:
64,192,171524,1,0,0:0:0:0:
320,192,171626,1,0,0:0:0:0:
448,192,171728,1,8,0:0:0:0:
192,192,171728,1,8,0:0:0:0:
64,192,171728,1,8,0:0:0:0:
192,192,171830,1,0,0:0:0:0:
64,192,171830,1,0,0:0:0:0:
448,192,171932,1,0,0:0:0:0:
320,192,171932,1,0,0:0:0:0:
64,192,172034,1,0,0:0:0:0:
320,192,172136,1,8,0:0:0:0:
448,192,172136,1,8,0:0:0:0:
192,192,172136,1,10,0:0:0:0:
320,192,172238,1,0,0:0:0:0:
192,192,172238,1,0,0:0:0:0:
448,192,172340,1,0,0:0:0:0:
64,192,172340,1,0,0:0:0:0:
320,192,172442,1,0,0:0:0:0:
448,192,172544,1,8,0:0:0:0:
192,192,172544,1,8,0:0:0:0:
64,192,172544,1,8,0:0:0:0:
192,192,172646,1,0,0:0:0:0:
64,192,172646,1,0,0:0:0:0:
448,192,172748,1,0,0:0:0:0:
320,192,172748,1,0,0:0:0:0:
192,192,172850,1,0,0:0:0:0:
64,192,172952,1,10,0:0:0:0:
448,192,172952,1,8,0:0:0:0:
320,192,172952,1,8,0:0:0:0:
64,192,173054,1,0,0:0:0:0:
448,192,173054,1,0,0:0:0:0:
192,192,173156,1,0,0:0:0:0:
320,192,173156,1,0,0:0:0:0:
64,192,173258,1,0,0:0:0:0:
320,192,173360,1,8,0:0:0:0:
192,192,173360,1,8,0:0:0:0:
448,192,173360,1,8,0:0:0:0:
320,192,173462,1,0,0:0:0:0:
448,192,173462,1,0,0:0:0:0:
192,192,173564,1,0,0:0:0:0:
64,192,173564,1,0,0:0:0:0:
448,192,173667,1,0,0:0:0:0:
320,192,173769,1,10,0:0:0:0:
192,192,173769,1,8,0:0:0:0:
64,192,173769,1,8,0:0:0:0:
192,192,173871,1,0,0:0:0:0:
320,192,173871,1,0,0:0:0:0:
448,192,173973,1,0,0:0:0:0:
64,192,173973,1,0,0:0:0:0:
320,192,174075,1,0,0:0:0:0:
448,192,174177,1,8,0:0:0:0:
192,192,174177,1,8,0:0:0:0:
64,192,174177,1,8,0:0:0:0:
448,192,174279,1,0,0:0:0:0:
192,192,174279,1,0,0:0:0:0:
64,192,174381,1,0,0:0:0:0:
320,192,174381,1,0,0:0:0:0:
192,192,174483,1,0,0:0:0:0:
64,192,174585,1,10,0:0:0:0:
320,192,174585,1,8,0:0:0:0:
448,192,174585,1,8,0:0:0:0:
320,192,174687,1,0,0:0:0:0:
448,192,174687,1,0,0:0:0:0:
64,192,174789,1,0,0:0:0:0:
192,192,174789,1,0,0:0:0:0:
320,192,174891,1,0,0:0:0:0:
448,192,174993,1,8,0:0:0:0:
192,192,174993,1,8,0:0:0:0:
64,192,174993,1,8,0:0:0:0:
448,192,175095,1,0,0:0:0:0:
64,192,175095,1,0,0:0:0:0:
320,192,175197,1,0,0:0:0:0:
192,192,175197,1,0,0:0:0:0:
64,192,175299,1,0,0:0:0:0:
192,192,175401,1,10,0:0:0:0:
320,192,175401,1,8,0:0:0:0:
448,192,175401,1,8,0:0:0:0:
320,192,175503,1,0,0:0:0:0:
448,192,175503,1,0,0:0:0:0:
192,192,175605,1,0,0:0:0:0:
64,192,175605,1,0,0:0:0:0:
448,192,175707,1,0,0:0:0:0:
320,192,175809,1,8,0:0:0:0:
192,192,175809,1,8,0:0:0:0:
64,192,175809,1,8,0:0:0:0:
64,192,175911,1,0,0:0:0:0:
320,192,175911,1,0,0:0:0:0:
448,192,176013,1,0,0:0:0:0:
192,192,176013,1,0,0:0:0:0:
64,192,176115,1,0,0:0:0:0:
448,192,176218,1,8,0:0:0:0:
320,192,176218,1,8,0:0:0:0:
192,192,176218,1,10,0:0:0:0:
448,192,176320,1,0,0:0:0:0:
320,192,176320,1,0,0:0:0:0:
64,192,176422,1,0,0:0:0:0:
192,192,176422,1,0,0:0:0:0:
448,192,176524,1,0,0:0:0:0:
320,192,176626,1,8,0:0:0:0:
192,192,176626,1,8,0:0:0:0:
64,192,176626,1,8,0:0:0:0:
64,192,176728,1,0,0:0:0:0:
192,192,176728,1,0,0:0:0:0:
320,192,176830,1,0,0:0:0:0:
448,192,176830,1,0,0:0:0:0:
64,192,176932,1,8,0:0:0:0:
320,192,176932,1,8,0:0:0:0:
448,192,176932,1,8,0:0:0:0:
64,192,177034,1,0,0:0:0:0:
192,192,177034,1,0,0:0:0:0:
320,192,177136,1,0,0:0:0:0:
448,192,177136,1,0,0:0:0:0:
192,192,177238,1,8,0:0:0:0:
448,192,177238,1,8,0:0:0:0:
64,192,177238,1,8,0:0:0:0:
64,192,177340,1,8,0:0:0:0:
192,192,177340,1,8,0:0:0:0:
320,192,177442,1,8,0:0:0:0:
64,192,177442,1,8,0:0:0:0:
448,192,177442,1,8,0:0:0:0:
192,192,177442,1,8,0:0:0:0:
320,192,177544,1,8,0:0:0:0:
448,192,177544,1,8,0:0:0:0:
64,192,177646,1,8,0:0:0:0:
192,192,177646,1,8,0:0:0:0:
192,192,177748,1,8,0:0:0:0:
64,192,177748,1,8,0:0:0:0:
448,192,177850,1,8,0:0:0:0:
320,192,177850,1,8,0:0:0:0:
192,192,177952,1,8,0:0:0:0:
320,192,177952,1,8,0:0:0:0:
192,192,178054,1,8,0:0:0:0:
64,192,178054,1,8,0:0:0:0:
320,192,178156,1,8,0:0:0:0:
448,192,178156,1,8,0:0:0:0:
64,192,178258,128,8,178871:0:0:0:0:
320,192,178258,128,8,178871:0:0:0:0:
320,192,178973,1,8,0:0:0:0:
64,192,178973,1,8,0:0:0:0:
448,192,178973,1,8,0:0:0:0:
192,192,178973,1,8,0:0:0:0:
64,192,179075,1,8,0:0:0:0:
192,192,179075,1,8,0:0:0:0:
448,192,179177,1,8,0:0:0:0:
320,192,179177,1,8,0:0:0:0:
448,192,179279,1,8,0:0:0:0:
320,192,179279,1,8,0:0:0:0:
192,192,179381,1,8,0:0:0:0:
64,192,179381,1,8,0:0:0:0:
320,192,179483,1,8,0:0:0:0:
192,192,179483,1,8,0:0:0:0:
320,192,179585,1,8,0:0:0:0:
448,192,179585,1,8,0:0:0:0:
64,192,179687,1,8,0:0:0:0:
192,192,179687,1,8,0:0:0:0:
192,192,179789,1,8,0:0:0:0:
320,192,179789,1,8,0:0:0:0:
64,192,179891,128,8,180095:0:0:0:0:
448,192,179891,128,8,180095:0:0:0:0:
192,192,180095,1,2,0:0:0:0:
320,192,180095,1,2,0:0:0:0:
64,192,180503,128,12,180809:0:0:0:0:
192,192,180503,128,8,180809:0:0:0:0:
320,192,180503,128,8,180809:0:0:0:0:
448,192,180503,128,12,180809:0:0:0:0:
64,192,180911,1,8,0:0:0:0:
192,192,180911,1,8,0:0:0:0:
320,192,180911,1,8,0:0:0:0:
448,192,181115,1,8,0:0:0:0:
320,192,181115,1,8,0:0:0:0:
192,192,181115,1,8,0:0:0:0:
64,192,181320,128,12,181626:0:0:0:0:
192,192,181320,128,8,181626:0:0:0:0:
320,192,181320,128,8,181626:0:0:0:0:
320,192,181728,1,8,0:0:0:0:
448,192,181728,1,8,0:0:0:0:
64,192,181728,1,8,0:0:0:0:
448,192,181932,1,8,0:0:0:0:
192,192,181932,1,8,0:0:0:0:
64,192,181932,1,8,0:0:0:0:
320,192,182136,1,8,0:0:0:0:
64,192,182136,1,12,0:0:0:0:
448,192,182136,1,8,0:0:0:0:
64,192,182340,128,0,182544:0:0:0:0:
320,192,182340,128,0,182544:0:0:0:0:
448,192,182340,128,0,182544:0:0:0:0:
64,192,182646,128,0,182850:0:0:0:0:
192,192,182646,128,0,182850:0:0:0:0:
448,192,182646,128,0,182850:0:0:0:0:
192,192,182952,128,0,183156:0:0:0:0:
320,192,182952,128,0,183156:0:0:0:0:
448,192,182952,128,0,183156:0:0:0:0:
64,192,183258,128,0,183462:0:0:0:0:
192,192,183258,128,0,183462:0:0:0:0:
320,192,183258,128,0,183462:0:0:0:0:
64,192,183564,128,0,183667:0:0:0:0:
192,192,183564,128,0,183667:0:0:0:0:
448,192,183564,128,0,183667:0:0:0:0:
64,192,183769,128,0,183871:0:0:0:0:
320,192,183769,128,0,183871:0:0:0:0:
448,192,183769,128,0,183871:0:0:0:0:
192,192,183973,1,8,0:0:0:0:
320,192,183973,1,8,0:0:0:0:
448,192,183973,1,8,0:0:0:0:
192,192,184177,1,0,0:0:0:0:
64,192,184177,1,0,0:0:0:0:
64,192,184279,1,0,0:0:0:0:
192,192,184279,1,0,0:0:0:0:
320,192,184381,1,8,0:0:0:0:
448,192,184381,1,8,0:0:0:0:
320,192,184585,1,0,0:0:0:0:
448,192,184585,1,0,0:0:0:0:
320,192,184687,1,0,0:0:0:0:
448,192,184687,1,0,0:0:0:0:
64,192,184789,1,8,0:0:0:0:
192,192,184789,1,8,0:0:0:0:
64,192,184993,1,0,0:0:0:0:
320,192,184993,1,0,0:0:0:0:
320,192,185095,1,0,0:0:0:0:
64,192,185095,1,0,0:0:0:0:
192,192,185197,1,8,0:0:0:0:
448,192,185197,1,8,0:0:0:0:
192,192,185401,1,0,0:0:0:0:
448,192,185401,1,0,0:0:0:0:
192,192,185503,1,0,0:0:0:0:
448,192,185503,1,0,0:0:0:0:
64,192,185605,1,8,0:0:0:0:
320,192,185605,1,8,0:0:0:0:
192,192,185809,1,0,0:0:0:0:
320,192,185809,1,0,0:0:0:0:
192,192,185911,1,0,0:0:0:0:
320,192,185911,1,0,0:0:0:0:
448,192,186013,1,8,0:0:0:0:
64,192,186013,1,8,0:0:0:0:
64,192,186218,1,0,0:0:0:0:
448,192,186218,1,0,0:0:0:0:
64,192,186320,1,0,0:0:0:0:
448,192,186320,1,0,0:0:0:0:
192,192,186422,1,8,0:0:0:0:
320,192,186422,1,8,0:0:0:0:
448,192,186626,1,0,0:0:0:0:
192,192,186626,1,0,0:0:0:0:
448,192,186728,1,0,0:0:0:0:
192,192,186728,1,0,0:0:0:0:
320,192,186830,1,8,0:0:0:0:
64,192,186830,1,8,0:0:0:0:
320,192,187034,1,0,0:0:0:0:
64,192,187034,1,0,0:0:0:0:
320,192,187136,1,0,0:0:0:0:
64,192,187136,1,0,0:0:0:0:
192,192,187238,1,8,0:0:0:0:
448,192,187238,1,8,0:0:0:0:
192,192,187442,1,0,0:0:0:0:
64,192,187442,1,0,0:0:0:0:
192,192,187544,1,0,0:0:0:0:
64,192,187544,1,0,0:0:0:0:
320,192,187646,1,8,0:0:0:0:
448,192,187646,1,8,0:0:0:0:
320,192,187850,1,0,0:0:0:0:
448,192,187850,1,0,0:0:0:0:
320,192,187952,1,0,0:0:0:0:
448,192,187952,1,0,0:0:0:0:
64,192,188054,1,8,0:0:0:0:
192,192,188054,1,8,0:0:0:0:
64,192,188258,1,0,0:0:0:0:
448,192,188258,1,0,0:0:0:0:
448,192,188360,1,0,0:0:0:0:
64,192,188360,1,0,0:0:0:0:
320,192,188462,1,8,0:0:0:0:
192,192,188462,1,8,0:0:0:0:
192,192,188667,1,0,0:0:0:0:
320,192,188667,1,0,0:0:0:0:
192,192,188769,1,0,0:0:0:0:
320,192,188769,1,0,0:0:0:0:
448,192,188871,1,8,0:0:0:0:
64,192,188871,1,8,0:0:0:0:
320,192,189075,1,0,0:0:0:0:
64,192,189075,1,0,0:0:0:0:
320,192,189177,1,0,0:0:0:0:
64,192,189177,1,0,0:0:0:0:
448,192,189279,1,8,0:0:0:0:
192,192,189279,1,8,0:0:0:0:
448,192,189483,1,0,0:0:0:0:
192,192,189483,1,0,0:0:0:0:
448,192,189585,1,0,0:0:0:0:
192,192,189585,1,0,0:0:0:0:
64,192,189687,1,8,0:0:0:0:
320,192,189687,1,8,0:0:0:0:
192,192,189891,1,0,0:0:0:0:
64,192,189891,1,0,0:0:0:0:
64,192,189993,1,0,0:0:0:0:
192,192,189993,1,0,0:0:0:0:
320,192,190095,1,8,0:0:0:0:
448,192,190095,1,8,0:0:0:0:
320,192,190299,1,0,0:0:0:0:
448,192,190299,1,0,0:0:0:0:
448,192,190401,1,0,0:0:0:0:
320,192,190401,1,0,0:0:0:0:
192,192,190503,1,8,0:0:0:0:
64,192,190503,1,8,0:0:0:0:
448,192,190707,1,0,0:0:0:0:
64,192,190707,1,0,0:0:0:0:
448,192,190809,1,0,0:0:0:0:
64,192,190809,1,0,0:0:0:0:
192,192,190911,1,8,0:0:0:0:
320,192,190911,1,8,0:0:0:0:
192,192,191115,1,0,0:0:0:0:
320,192,191115,1,0,0:0:0:0:
192,192,191218,1,0,0:0:0:0:
320,192,191218,1,0,0:0:0:0:
448,192,191320,1,8,0:0:0:0:
64,192,191320,1,8,0:0:0:0:
192,192,191524,1,0,0:0:0:0:
64,192,191524,1,0,0:0:0:0:
192,192,191626,1,0,0:0:0:0:
64,192,191626,1,0,0:0:0:0:
448,192,191728,1,8,0:0:0:0:
320,192,191728,1,8,0:0:0:0:
320,192,191932,1,0,0:0:0:0:
448,192,191932,1,0,0:0:0:0:
448,192,192034,1,0,0:0:0:0:
320,192,192034,1,0,0:0:0:0:
192,192,192136,1,8,0:0:0:0:
64,192,192136,1,8,0:0:0:0:
192,192,192340,1,0,0:0:0:0:
448,192,192340,1,0,0:0:0:0:
192,192,192442,1,0,0:0:0:0:
448,192,192442,1,0,0:0:0:0:
320,192,192544,1,8,0:0:0:0:
64,192,192544,1,8,0:0:0:0:
64,192,192748,1,0,0:0:0:0:
320,192,192748,1,0,0:0:0:0:
320,192,192850,1,0,0:0:0:0:
64,192,192850,1,0,0:0:0:0:
192,192,192952,1,8,0:0:0:0:
448,192,192952,1,8,0:0:0:0:
320,192,193156,1,0,0:0:0:0:
448,192,193156,1,0,0:0:0:0:
320,192,193258,1,0,0:0:0:0:
448,192,193258,1,0,0:0:0:0:
64,192,193360,1,8,0:0:0:0:
192,192,193360,1,8,0:0:0:0:
192,192,193564,1,0,0:0:0:0:
64,192,193564,1,0,0:0:0:0:
192,192,193667,1,0,0:0:0:0:
64,192,193667,1,0,0:0:0:0:
448,192,193769,1,8,0:0:0:0:
320,192,193769,1,8,0:0:0:0:
448,192,193973,1,0,0:0:0:0:
64,192,193973,1,0,0:0:0:0:
64,192,194075,1,0,0:0:0:0:
448,192,194075,1,0,0:0:0:0:
192,192,194177,1,8,0:0:0:0:
320,192,194177,1,8,0:0:0:0:
192,192,194381,1,0,0:0:0:0:
320,192,194381,1,0,0:0:0:0:
320,192,194483,1,0,0:0:0:0:
192,192,194483,1,0,0:0:0:0:
64,192,194585,1,8,0:0:0:0:
448,192,194585,1,8,0:0:0:0:
320,192,194789,1,0,0:0:0:0:
448,192,194789,1,0,0:0:0:0:
320,192,194891,1,0,0:0:0:0:
448,192,194891,1,0,0:0:0:0:
320,192,194993,1,8,0:0:0:0:
64,192,194993,1,8,0:0:0:0:
192,192,194993,1,8,0:0:0:0:
448,192,195197,1,8,0:0:0:0:
320,192,195197,1,8,0:0:0:0:
192,192,195197,1,8,0:0:0:0:
64,192,195401,1,0,0:0:0:0:
64,192,195503,1,0,0:0:0:0:
192,192,195605,1,8,0:0:0:0:
320,192,195605,1,8,0:0:0:0:
448,192,195605,1,8,0:0:0:0:
448,192,195809,1,0,0:0:0:0:
448,192,195911,1,0,0:0:0:0:
320,192,196013,1,8,0:0:0:0:
192,192,196013,1,8,0:0:0:0:
64,192,196013,1,8,0:0:0:0:
192,192,196218,1,0,0:0:0:0:
192,192,196320,1,0,0:0:0:0:
64,192,196422,1,8,0:0:0:0:
320,192,196422,1,8,0:0:0:0:
448,192,196422,1,8,0:0:0:0:
64,197,196626,1,8,0:0:0:0:
192,197,196626,1,8,0:0:0:0:
320,197,196677,1,8,0:0:0:0:
448,197,196677,1,8,0:0:0:0:
64,197,196728,1,8,0:0:0:0:
192,197,196728,1,8,0:0:0:0:
320,192,196779,1,8,0:0:0:0:
448,192,196779,1,8,0:0:0:0:
192,192,196830,1,8,0:0:0:0:
64,192,196830,1,8,0:0:0:0:
448,192,196932,1,8,0:0:0:0:
320,192,196932,1,8,0:0:0:0:
192,192,197034,1,8,0:0:0:0:
64,192,197034,1,8,0:0:0:0:
448,192,197034,1,12,0:0:0:0:
320,192,197034,1,8,0:0:0:0:
64,192,197136,1,0,0:0:0:0:
320,192,197238,1,0,0:0:0:0:
448,192,197238,1,0,0:0:0:0:
192,192,197340,1,0,0:0:0:0:
448,192,197442,1,10,0:0:0:0:
192,192,197442,1,8,0:0:0:0:
64,192,197442,1,8,0:0:0:0:
448,192,197544,1,0,0:0:0:0:
192,192,197646,1,0,0:0:0:0:
320,192,197646,1,0,0:0:0:0:
64,192,197748,1,0,0:0:0:0:
448,192,197850,1,8,0:0:0:0:
320,192,197850,1,8,0:0:0:0:
64,192,197850,1,8,0:0:0:0:
448,192,197952,1,0,0:0:0:0:
192,192,198054,1,0,0:0:0:0:
64,192,198054,1,0,0:0:0:0:
320,192,198156,1,0,0:0:0:0:
448,192,198258,1,10,0:0:0:0:
320,192,198258,1,8,0:0:0:0:
64,192,198258,1,8,0:0:0:0:
64,192,198360,1,0,0:0:0:0:
192,192,198462,1,0,0:0:0:0:
320,192,198462,1,0,0:0:0:0:
448,192,198564,1,0,0:0:0:0:
64,192,198667,1,8,0:0:0:0:
192,192,198667,1,8,0:0:0:0:
448,192,198667,1,8,0:0:0:0:
64,192,198769,1,0,0:0:0:0:
448,192,198871,1,0,0:0:0:0:
320,192,198871,1,0,0:0:0:0:
192,192,198973,1,0,0:0:0:0:
448,192,199075,1,10,0:0:0:0:
192,192,199075,1,8,0:0:0:0:
64,192,199075,1,8,0:0:0:0:
448,192,199177,1,0,0:0:0:0:
320,192,199279,1,0,0:0:0:0:
192,192,199279,1,0,0:0:0:0:
64,192,199381,1,0,0:0:0:0:
448,192,199483,1,8,0:0:0:0:
192,192,199483,1,8,0:0:0:0:
64,192,199483,1,8,0:0:0:0:
448,192,199585,1,0,0:0:0:0:
320,192,199687,1,0,0:0:0:0:
192,192,199687,1,0,0:0:0:0:
64,192,199789,1,0,0:0:0:0:
448,192,199891,1,8,0:0:0:0:
320,192,199891,1,10,0:0:0:0:
64,192,199891,1,8,0:0:0:0:
448,192,199993,1,0,0:0:0:0:
192,192,200095,1,0,0:0:0:0:
64,192,200095,1,0,0:0:0:0:
320,192,200197,1,0,0:0:0:0:
64,192,200299,1,8,0:0:0:0:
320,192,200299,1,8,0:0:0:0:
192,192,200299,1,8,0:0:0:0:
64,192,200401,1,0,0:0:0:0:
192,192,200503,1,0,0:0:0:0:
320,192,200503,1,0,0:0:0:0:
448,192,200605,1,0,0:0:0:0:
448,192,200707,1,10,0:0:0:0:
192,192,200707,1,8,0:0:0:0:
64,192,200707,1,8,0:0:0:0:
64,192,200809,1,0,0:0:0:0:
192,192,200911,1,0,0:0:0:0:
320,192,200911,1,0,0:0:0:0:
448,192,201013,1,0,0:0:0:0:
448,192,201115,1,8,0:0:0:0:
320,192,201115,1,8,0:0:0:0:
64,192,201115,1,8,0:0:0:0:
64,192,201218,1,0,0:0:0:0:
320,192,201320,1,0,0:0:0:0:
448,192,201320,1,0,0:0:0:0:
192,192,201422,1,0,0:0:0:0:
448,192,201524,1,10,0:0:0:0:
192,192,201524,1,8,0:0:0:0:
64,192,201524,1,8,0:0:0:0:
448,192,201626,1,0,0:0:0:0:
192,192,201728,1,0,0:0:0:0:
64,192,201728,1,0,0:0:0:0:
320,192,201830,1,0,0:0:0:0:
448,192,201932,1,8,0:0:0:0:
320,192,201932,1,8,0:0:0:0:
64,192,201932,1,8,0:0:0:0:
64,192,202034,1,0,0:0:0:0:
192,192,202136,1,0,0:0:0:0:
320,192,202136,1,0,0:0:0:0:
448,192,202238,1,0,0:0:0:0:
192,192,202340,1,10,0:0:0:0:
64,192,202340,1,8,0:0:0:0:
448,192,202340,1,8,0:0:0:0:
64,192,202442,1,0,0:0:0:0:
320,192,202544,1,0,0:0:0:0:
448,192,202544,1,0,0:0:0:0:
192,192,202646,1,0,0:0:0:0:
448,192,202748,1,8,0:0:0:0:
320,192,202748,1,8,0:0:0:0:
192,192,202748,1,8,0:0:0:0:
448,192,202850,1,0,0:0:0:0:
320,192,202952,1,0,0:0:0:0:
192,192,202952,1,0,0:0:0:0:
64,192,203054,1,0,0:0:0:0:
320,192,203156,1,8,0:0:0:0:
448,192,203156,1,8,0:0:0:0:
64,192,203156,1,10,0:0:0:0:
448,192,203258,1,0,0:0:0:0:
192,192,203360,1,0,0:0:0:0:
64,192,203360,1,0,0:0:0:0:
320,192,203462,1,0,0:0:0:0:
64,192,203564,1,8,0:0:0:0:
320,192,203564,1,8,0:0:0:0:
448,192,203564,1,8,0:0:0:0:
64,192,203667,1,0,0:0:0:0:
320,192,203769,1,0,0:0:0:0:
448,192,203769,1,0,0:0:0:0:
192,192,203871,1,0,0:0:0:0:
448,192,203973,1,8,0:0:0:0:
192,192,203973,1,10,0:0:0:0:
64,192,203973,1,8,0:0:0:0:
448,192,204075,1,0,0:0:0:0:
320,192,204177,1,0,0:0:0:0:
192,192,204177,1,0,0:0:0:0:
64,192,204279,1,0,0:0:0:0:
320,192,204381,1,8,0:0:0:0:
448,192,204381,1,8,0:0:0:0:
64,192,204381,1,8,0:0:0:0:
448,192,204483,1,0,0:0:0:0:
192,192,204585,1,0,0:0:0:0:
320,192,204585,1,0,0:0:0:0:
64,192,204687,1,0,0:0:0:0:
448,192,204789,1,10,0:0:0:0:
320,192,204789,1,8,0:0:0:0:
64,192,204789,1,8,0:0:0:0:
320,192,204891,1,0,0:0:0:0:
64,192,204993,1,0,0:0:0:0:
192,192,204993,1,0,0:0:0:0:
448,192,205095,1,0,0:0:0:0:
320,192,205197,1,8,0:0:0:0:
192,192,205197,1,8,0:0:0:0:
64,192,205197,1,8,0:0:0:0:
64,192,205299,1,0,0:0:0:0:
320,192,205401,1,0,0:0:0:0:
448,192,205401,1,0,0:0:0:0:
192,192,205503,1,0,0:0:0:0:
192,192,205605,1,8,0:0:0:0:
320,192,205605,1,10,0:0:0:0:
448,192,205605,1,8,0:0:0:0:
448,192,205707,1,0,0:0:0:0:
192,192,205809,1,0,0:0:0:0:
320,192,205809,1,0,0:0:0:0:
64,192,205911,1,0,0:0:0:0:
448,192,206013,1,8,0:0:0:0:
192,192,206013,1,8,0:0:0:0:
64,192,206013,1,8,0:0:0:0:
448,192,206115,1,0,0:0:0:0:
320,192,206218,1,0,0:0:0:0:
192,192,206218,1,0,0:0:0:0:
64,192,206320,1,0,0:0:0:0:
64,192,206422,1,8,0:0:0:0:
192,192,206422,1,10,0:0:0:0:
448,192,206422,1,8,0:0:0:0:
448,192,206524,1,0,0:0:0:0:
64,192,206626,1,0,0:0:0:0:
192,192,206626,1,0,0:0:0:0:
320,192,206728,1,0,0:0:0:0:
448,192,206830,1,8,0:0:0:0:
320,192,206830,1,8,0:0:0:0:
64,192,206830,1,8,0:0:0:0:
192,192,206932,1,0,0:0:0:0:
192,192,207034,1,0,0:0:0:0:
64,192,207034,1,0,0:0:0:0:
320,192,207136,1,8,0:0:0:0:
448,192,207136,1,8,0:0:0:0:
64,192,207136,1,8,0:0:0:0:
448,192,207238,1,8,0:0:0:0:
320,192,207238,1,8,0:0:0:0:
192,192,207238,1,8,0:0:0:0:
64,192,207340,1,0,0:0:0:0:
448,192,207442,1,8,0:0:0:0:
320,192,207442,1,8,0:0:0:0:
64,192,207544,1,8,0:0:0:0:
192,192,207544,1,8,0:0:0:0:
448,192,207544,1,8,0:0:0:0:
320,192,207646,1,8,0:0:0:0:
192,192,207646,1,8,0:0:0:0:
64,192,207646,1,8,0:0:0:0:
320,192,207850,1,0,0:0:0:0:
448,192,207850,1,0,0:0:0:0:
192,192,207952,1,8,0:0:0:0:
448,192,207952,1,8,0:0:0:0:
64,192,207952,1,8,0:0:0:0:
64,192,208156,1,0,0:0:0:0:
192,192,208156,1,0,0:0:0:0:
320,192,208258,1,8,0:0:0:0:
64,192,208258,1,8,0:0:0:0:
448,192,208258,1,8,0:0:0:0:
192,192,208462,1,8,0:0:0:0:
448,192,208462,1,8,0:0:0:0:
64,192,208462,1,8,0:0:0:0:
448,192,208667,1,8,0:0:0:0:
320,192,208667,1,8,0:0:0:0:
64,192,208667,1,8,0:0:0:0:
320,192,208871,1,0,0:0:0:0:
448,192,208871,1,0,0:0:0:0:
192,192,208973,1,0,0:0:0:0:
64,192,208973,1,0,0:0:0:0:
320,192,209075,1,8,0:0:0:0:
448,192,209075,1,8,0:0:0:0:
64,192,209075,1,8,0:0:0:0:
192,192,209279,1,0,0:0:0:0:
64,192,209279,1,0,0:0:0:0:
320,192,209381,1,0,0:0:0:0:
448,192,209381,1,0,0:0:0:0:
448,192,209483,1,8,0:0:0:0:
192,192,209483,1,8,0:0:0:0:
64,192,209483,1,8,0:0:0:0:
64,192,209585,1,0,0:0:0:0:
192,192,209585,1,0,0:0:0:0:
320,192,209687,1,0,0:0:0:0:
448,192,209687,1,0,0:0:0:0:
192,192,209789,1,0,0:0:0:0:
64,192,209789,1,0,0:0:0:0:
320,192,209891,1,8,0:0:0:0:
448,192,209891,1,8,0:0:0:0:
192,192,209942,1,8,0:0:0:0:
64,192,209942,1,8,0:0:0:0:
448,192,209993,1,8,0:0:0:0:
320,192,209993,1,8,0:0:0:0:
192,192,210044,1,8,0:0:0:0:
64,192,210044,1,8,0:0:0:0:
320,192,210095,1,8,0:0:0:0:
448,192,210095,1,8,0:0:0:0:
64,192,210299,1,0,0:0:0:0:
320,192,210401,1,0,0:0:0:0:
64,192,210605,1,0,0:0:0:0:
320,192,210707,1,0,0:0:0:0:
320,192,211320,1,0,0:0:0:0:
192,192,211524,1,0,0:0:0:0:
320,192,211626,1,0,0:0:0:0:
192,192,211830,1,0,0:0:0:0:
320,192,211932,1,0,0:0:0:0:
320,192,212136,1,0,0:0:0:0:
192,192,212238,1,0,0:0:0:0:
320,192,212442,1,0,0:0:0:0:
192,192,212544,1,0,0:0:0:0:
192,192,212748,1,0,0:0:0:0:
320,192,212850,1,0,0:0:0:0:
192,192,213054,1,0,0:0:0:0:
320,192,213156,1,0,0:0:0:0:
448,192,213360,1,0,0:0:0:0:
192,192,213564,1,0,0:0:0:0:
448,192,213667,1,0,0:0:0:0:
192,192,213871,1,0,0:0:0:0:
448,192,213973,1,0,0:0:0:0:
320,192,214585,1,0,0:0:0:0:
192,192,214789,1,0,0:0:0:0:
320,192,214891,1,0,0:0:0:0:
192,192,215095,1,0,0:0:0:0:
320,192,215197,1,0,0:0:0:0:
192,192,215401,1,0,0:0:0:0:
320,192,215503,1,0,0:0:0:0:
320,192,215707,1,0,0:0:0:0:
64,192,215809,1,0,0:0:0:0:
320,192,216013,1,0,0:0:0:0:
64,192,216115,1,0,0:0:0:0:
320,192,216320,1,0,0:0:0:0:
64,192,216422,1,0,0:0:0:0:
320,192,216626,1,0,0:0:0:0:
64,192,216830,1,0,0:0:0:0:
320,192,216932,1,0,0:0:0:0:
64,192,217136,1,0,0:0:0:0:
320,192,217238,1,0,0:0:0:0:
320,192,217850,1,0,0:0:0:0:
192,192,218054,1,0,0:0:0:0:
320,192,218156,1,0,0:0:0:0:
192,192,218360,1,0,0:0:0:0:
320,192,218462,1,0,0:0:0:0:
320,192,218667,1,0,0:0:0:0:
192,192,218769,1,0,0:0:0:0:
320,192,218973,1,0,0:0:0:0:
192,192,219075,1,0,0:0:0:0:
192,192,219279,1,0,0:0:0:0:
320,192,219381,1,0,0:0:0:0:
192,192,219585,1,0,0:0:0:0:
320,192,219687,1,0,0:0:0:0:
64,192,219891,1,2,0:0:0:0:
192,192,219942,1,2,0:0:0:0:
448,192,219993,1,2,0:0:0:0:
320,192,220044,1,2,0:0:0:0:
64,192,220095,1,2,0:0:0:0:
192,192,220146,1,2,0:0:0:0:
320,192,220197,1,2,0:0:0:0:
448,192,220248,1,2,0:0:0:0:
64,192,220299,1,2,0:0:0:0:
192,192,220350,1,2,0:0:0:0:
448,192,220401,1,2,0:0:0:0:
320,192,220452,1,2,0:0:0:0:
192,192,220503,1,2,0:0:0:0:
64,192,220554,1,2,0:0:0:0:
448,192,220605,1,2,0:0:0:0:
320,192,220656,1,2,0:0:0:0:
192,192,220707,1,2,0:0:0:0:
64,192,220707,1,2,0:0:0:0:
448,192,220758,1,2,0:0:0:0:
320,192,220809,1,0,0:0:0:0:
192,192,220860,1,2,0:0:0:0:
64,192,220911,1,2,0:0:0:0:
448,192,220911,1,2,0:0:0:0:
320,192,220962,1,2,0:0:0:0:
192,192,221013,1,2,0:0:0:0:
64,192,221064,1,2,0:0:0:0:
448,192,221115,1,10,0:0:0:0:
320,192,221115,1,2,0:0:0:0:
64,192,221167,1,2,0:0:0:0:
192,192,221218,1,2,0:0:0:0:
320,192,221269,1,2,0:0:0:0:
448,192,221320,1,10,0:0:0:0:
192,192,221320,1,2,0:0:0:0:
64,192,221371,1,2,0:0:0:0:
448,192,221422,1,2,0:0:0:0:
320,192,221473,1,2,0:0:0:0:
64,192,221524,1,10,0:0:0:0:
192,192,221524,1,2,0:0:0:0:
320,192,221575,1,2,0:0:0:0:
64,192,221626,1,2,0:0:0:0:
448,192,221626,1,10,0:0:0:0:
192,192,221677,1,2,0:0:0:0:
320,192,221728,1,2,0:0:0:0:
448,192,221728,1,10,0:0:0:0:
192,192,221779,1,2,0:0:0:0:
64,192,221830,1,10,0:0:0:0:
320,192,221830,1,2,0:0:0:0:
448,192,221881,1,2,0:0:0:0:
192,192,221932,1,2,0:0:0:0:
64,192,221932,1,10,0:0:0:0:
448,192,221983,1,2,0:0:0:0:
320,192,222034,1,2,0:0:0:0:
192,192,222034,1,2,0:0:0:0:
64,192,222085,1,2,0:0:0:0:
448,192,222136,1,2,0:0:0:0:
320,192,222136,1,2,0:0:0:0:
64,192,222187,1,2,0:0:0:0:
448,192,222238,1,2,0:0:0:0:
192,192,222238,1,10,0:0:0:0:
320,192,222289,1,2,0:0:0:0:
192,192,222340,1,10,0:0:0:0:
64,192,222340,1,2,0:0:0:0:
320,192,222391,1,2,0:0:0:0:
448,192,222442,1,2,0:0:0:0:
192,192,222544,1,2,0:0:0:0:
64,192,222646,1,2,0:0:0:0:
192,192,222697,1,2,0:0:0:0:
320,192,222748,1,2,0:0:0:0:
64,192,222850,1,2,0:0:0:0:
448,192,222952,1,2,0:0:0:0:
320,192,223003,1,2,0:0:0:0:
192,192,223054,1,2,0:0:0:0:
64,192,223156,1,12,0:0:0:0:
192,192,223156,1,8,0:0:0:0:
448,192,223156,1,12,0:0:0:0:
320,192,223156,1,8,0:0:0:0:
64,192,223360,1,0,0:0:0:0:
320,192,223462,1,0,0:0:0:0:
64,192,223667,1,0,0:0:0:0:
320,192,223769,1,0,0:0:0:0:
64,192,223973,1,2,0:0:0:0:
448,192,223973,1,2,0:0:0:0:
192,192,224381,1,8,0:0:0:0:
320,192,224381,1,8,0:0:0:0:
448,192,224381,1,8,0:0:0:0:
192,192,224585,1,0,0:0:0:0:
320,192,224687,1,0,0:0:0:0:
192,192,224891,1,0,0:0:0:0:
320,192,224993,1,0,0:0:0:0:
64,192,225197,1,8,0:0:0:0:
320,192,225197,1,8,0:0:0:0:
448,192,225197,1,8,0:0:0:0:
192,192,225299,1,0,0:0:0:0:
320,192,225503,1,0,0:0:0:0:
64,192,225605,1,2,0:0:0:0:
448,192,225605,1,2,0:0:0:0:
192,192,225809,1,0,0:0:0:0:
320,192,225911,1,0,0:0:0:0:
192,192,226115,1,0,0:0:0:0:
320,192,226218,1,0,0:0:0:0:
192,192,226422,1,8,0:0:0:0:
320,192,226422,1,8,0:0:0:0:
448,192,226422,1,8,0:0:0:0:
192,192,226626,1,0,0:0:0:0:
448,192,226728,1,0,0:0:0:0:
192,192,226932,1,0,0:0:0:0:
448,192,227034,1,0,0:0:0:0:
64,192,227238,1,2,0:0:0:0:
448,192,227238,1,2,0:0:0:0:
64,192,227442,1,8,0:0:0:0:
192,192,227442,1,8,0:0:0:0:
448,192,227442,1,8,0:0:0:0:
64,192,227646,1,8,0:0:0:0:
320,192,227646,1,8,0:0:0:0:
448,192,227646,1,8,0:0:0:0:
320,192,227850,1,0,0:0:0:0:
192,192,227952,1,0,0:0:0:0:
320,192,228156,1,0,0:0:0:0:
192,192,228258,1,0,0:0:0:0:
64,192,228462,1,8,0:0:0:0:
320,192,228462,1,8,0:0:0:0:
448,192,228462,1,8,0:0:0:0:
192,192,228564,1,0,0:0:0:0:
320,192,228769,1,0,0:0:0:0:
64,192,228871,1,2,0:0:0:0:
448,192,228871,1,2,0:0:0:0:
64,192,229075,1,8,0:0:0:0:
192,192,229075,1,8,0:0:0:0:
320,192,229075,1,8,0:0:0:0:
448,192,229177,1,0,0:0:0:0:
192,192,229381,1,8,0:0:0:0:
64,192,229381,1,8,0:0:0:0:
320,192,229381,1,8,0:0:0:0:
448,192,229483,1,0,0:0:0:0:
320,192,229687,1,8,0:0:0:0:
192,192,229687,1,8,0:0:0:0:
448,192,229687,1,8,0:0:0:0:
448,192,229891,1,0,0:0:0:0:
192,192,229993,1,0,0:0:0:0:
448,192,230197,1,0,0:0:0:0:
64,192,230299,1,8,0:0:0:0:
192,192,230299,1,8,0:0:0:0:
320,192,230299,1,8,0:0:0:0:
64,192,230503,1,2,0:0:0:0:
448,192,230503,1,2,0:0:0:0:
64,192,230911,1,8,0:0:0:0:
192,192,230911,1,8,0:0:0:0:
320,192,230911,1,8,0:0:0:0:
320,192,231115,1,0,0:0:0:0:
192,192,231218,1,0,0:0:0:0:
320,192,231422,1,0,0:0:0:0:
192,192,231524,1,0,0:0:0:0:
64,192,231728,1,8,0:0:0:0:
192,192,231728,1,8,0:0:0:0:
448,192,231728,1,8,0:0:0:0:
320,192,231830,1,0,0:0:0:0:
192,192,232034,1,0,0:0:0:0:
64,192,232136,1,2,0:0:0:0:
448,192,232136,1,2,0:0:0:0:
320,192,232340,1,0,0:0:0:0:
192,192,232442,1,0,0:0:0:0:
320,192,232646,1,0,0:0:0:0:
192,192,232748,1,0,0:0:0:0:
64,192,232952,1,8,0:0:0:0:
192,192,232952,1,8,0:0:0:0:
448,192,232952,1,8,0:0:0:0:
448,192,233156,1,0,0:0:0:0:
64,192,233258,1,0,0:0:0:0:
448,192,233462,1,0,0:0:0:0:
64,192,233564,1,0,0:0:0:0:
64,192,233769,1,2,0:0:0:0:
448,192,233769,1,2,0:0:0:0:
64,192,233973,1,8,0:0:0:0:
320,192,233973,1,8,0:0:0:0:
448,192,233973,1,8,0:0:0:0:
64,192,234177,1,8,0:0:0:0:
192,192,234177,1,8,0:0:0:0:
320,192,234177,1,8,0:0:0:0:
320,192,234381,1,0,0:0:0:0:
64,192,234483,1,0,0:0:0:0:
320,192,234687,1,0,0:0:0:0:
64,192,234789,1,0,0:0:0:0:
64,192,234993,1,8,0:0:0:0:
192,192,234993,1,8,0:0:0:0:
448,192,234993,1,8,0:0:0:0:
320,192,235095,1,0,0:0:0:0:
64,192,235299,1,0,0:0:0:0:
320,192,235401,1,2,0:0:0:0:
448,192,235401,1,2,0:0:0:0:
448,192,235605,1,8,0:0:0:0:
192,192,235605,1,8,0:0:0:0:
64,192,235605,1,8,0:0:0:0:
320,192,235707,1,0,0:0:0:0:
320,192,235911,1,8,0:0:0:0:
64,192,235911,1,8,0:0:0:0:
448,192,235911,1,8,0:0:0:0:
192,192,236013,1,0,0:0:0:0:
192,192,236218,1,8,0:0:0:0:
448,192,236218,1,8,0:0:0:0:
320,192,236218,1,8,0:0:0:0:
448,192,237034,1,8,0:0:0:0:
448,192,237136,1,8,0:0:0:0:
64,192,237238,1,8,0:0:0:0:
64,192,237340,1,8,0:0:0:0:
320,192,237442,1,8,0:0:0:0:
320,192,237544,1,8,0:0:0:0:
192,192,237646,1,8,0:0:0:0:
192,192,237748,1,8,0:0:0:0:
448,192,237850,1,0,0:0:0:0:
320,192,237850,1,2,0:0:0:0:
192,192,237901,1,2,0:0:0:0:
64,192,237952,1,2,0:0:0:0:
448,192,238003,1,2,0:0:0:0:
320,192,238054,1,0,0:0:0:0:
192,192,238054,1,2,0:0:0:0:
64,192,238105,1,2,0:0:0:0:
448,192,238156,1,2,0:0:0:0:
320,192,238207,1,2,0:0:0:0:
64,192,238258,1,0,0:0:0:0:
192,192,238258,1,2,0:0:0:0:
320,192,238309,1,2,0:0:0:0:
64,192,238360,1,2,0:0:0:0:
448,192,238360,1,0,0:0:0:0:
192,192,238411,1,2,0:0:0:0:
320,192,238462,1,2,0:0:0:0:
448,192,238462,1,0,0:0:0:0:
64,192,238513,1,2,0:0:0:0:
320,192,238564,1,0,0:0:0:0:
192,192,238564,1,2,0:0:0:0:
448,192,238615,1,2,0:0:0:0:
64,192,238667,1,2,0:0:0:0:
192,192,238667,1,0,0:0:0:0:
448,192,238718,1,2,0:0:0:0:
320,192,238769,1,2,0:0:0:0:
64,192,238769,1,0,0:0:0:0:
192,192,238820,1,2,0:0:0:0:
320,192,238871,1,8,0:0:0:0:
448,192,238871,1,8,0:0:0:0:
64,192,239075,1,0,0:0:0:0:
192,192,239109,1,0,0:0:0:0:
320,192,239143,1,0,0:0:0:0:
448,192,239177,1,0,0:0:0:0:
64,192,239211,1,0,0:0:0:0:
192,192,239245,1,0,0:0:0:0:
320,192,239279,1,0,0:0:0:0:
448,192,239313,1,0,0:0:0:0:
64,192,239347,1,0,0:0:0:0:
192,192,239381,1,0,0:0:0:0:
320,192,239415,1,0,0:0:0:0:
448,192,239449,1,0,0:0:0:0:
64,192,239483,128,8,239891:0:0:0:0:
192,192,239483,128,4,239891:0:0:0:0:
448,192,239891,1,2,0:0:0:0:
320,192,239891,1,2,0:0:0:0:
320,192,240095,128,4,241728:0:0:0:0:
192,192,240095,128,8,241830:0:0:0:0:
64,192,240095,128,8,241932:0:0:0:0:
320,192,242136,128,8,242340:0:0:0:0:
448,192,242136,128,4,242340:0:0:0:0:
64,192,242340,1,2,0:0:0:0:
192,192,242340,1,2,0:0:0:0:
192,192,242442,128,8,242646:0:0:0:0:
64,192,242442,128,4,242646:0:0:0:0:
448,192,242646,1,2,0:0:0:0:
320,192,242646,1,2,0:0:0:0:
320,192,242748,128,4,242952:0:0:0:0:
192,192,242748,128,8,243054:0:0:0:0:
64,192,242748,128,8,243156:0:0:0:0:
448,192,243156,1,2,0:0:0:0:
320,192,243156,1,2,0:0:0:0:
64,192,243360,128,8,243564:0:0:0:0:
192,192,243360,128,4,243564:0:0:0:0:
320,192,243667,128,8,243871:0:0:0:0:
448,192,243667,128,4,243871:0:0:0:0:
64,192,243871,1,2,0:0:0:0:
192,192,243871,1,2,0:0:0:0:
192,192,243973,128,4,244585:0:0:0:0:
448,192,243973,128,8,244789:0:0:0:0:
320,192,243973,128,8,244687:0:0:0:0:
64,192,244993,1,2,0:0:0:0:
192,192,244993,1,2,0:0:0:0:
320,192,245197,128,8,245503:0:0:0:0:
448,192,245197,128,4,245503:0:0:0:0:
64,192,245605,128,4,245911:0:0:0:0:
192,192,245605,128,8,245911:0:0:0:0:
320,192,246013,128,8,246422:0:0:0:0:
448,192,246013,128,4,246422:0:0:0:0:
64,192,246422,1,2,0:0:0:0:
192,192,246422,1,2,0:0:0:0:
320,192,246626,128,8,248360:0:0:0:0:
448,192,246626,128,12,248462:0:0:0:0:
64,192,247034,128,0,247340:0:0:0:0:
192,192,247340,128,0,248258:0:0:0:0:
64,192,248667,128,4,248871:0:0:0:0:
192,192,248667,128,8,248871:0:0:0:0:
448,192,248871,1,2,0:0:0:0:
320,192,248871,1,2,0:0:0:0:
320,192,248973,128,8,249177:0:0:0:0:
448,192,248973,128,4,249177:0:0:0:0:
64,192,249177,1,2,0:0:0:0:
192,192,249177,1,2,0:0:0:0:
64,192,249279,128,4,249483:0:0:0:0:
192,192,249279,128,8,249585:0:0:0:0:
320,192,249279,128,8,249687:0:0:0:0:
448,192,249585,128,0,249891:0:0:0:0:
192,192,249687,1,2,0:0:0:0:
64,192,249687,1,2,0:0:0:0:
64,192,249891,128,4,250095:0:0:0:0:
192,192,249891,128,8,250095:0:0:0:0:
320,192,250197,128,8,250401:0:0:0:0:
448,192,250197,128,4,250401:0:0:0:0:
64,192,250401,1,2,0:0:0:0:
192,192,250401,1,2,0:0:0:0:
192,192,250503,128,4,251115:0:0:0:0:
320,192,250503,128,8,251218:0:0:0:0:
448,192,250503,128,8,251320:0:0:0:0:
64,192,251524,1,2,0:0:0:0:
192,192,251524,1,2,0:0:0:0:
320,192,251575,1,2,0:0:0:0:
448,192,251575,1,2,0:0:0:0:
192,192,251626,1,2,0:0:0:0:
64,192,251626,1,2,0:0:0:0:
320,192,251677,1,2,0:0:0:0:
448,192,251677,1,2,0:0:0:0:
192,192,251728,1,8,0:0:0:0:
64,192,251728,1,12,0:0:0:0:
448,192,252034,1,2,0:0:0:0:
320,192,252034,1,2,0:0:0:0:
64,192,252136,1,8,0:0:0:0:
192,192,252136,1,4,0:0:0:0:
320,192,252136,1,8,0:0:0:0:
64,192,252340,1,2,0:0:0:0:
192,192,252340,1,2,0:0:0:0:
448,192,252544,128,8,252850:0:0:0:0:
192,192,252544,1,8,0:0:0:0:
320,192,252544,1,4,0:0:0:0:
320,192,252850,128,0,253156:0:0:0:0:
64,192,252952,1,8,0:0:0:0:
192,192,252952,1,8,0:0:0:0:
192,192,253156,128,0,254993:0:0:0:0:
320,192,253360,1,8,0:0:0:0:
448,192,253360,1,8,0:0:0:0:
64,192,253769,1,8,0:0:0:0:
320,192,253769,1,8,0:0:0:0:
64,192,254177,1,8,0:0:0:0:
448,192,254177,1,8,0:0:0:0:
320,192,254585,1,8,0:0:0:0:
448,192,254585,1,8,0:0:0:0:
64,192,254993,1,8,0:0:0:0:
320,192,254993,1,8,0:0:0:0:
448,192,255197,128,0,255503:0:0:0:0:
64,192,255401,1,8,0:0:0:0:
320,192,255401,1,8,0:0:0:0:
192,192,255503,128,0,255809:0:0:0:0:
320,192,255809,128,0,256013:0:0:0:0:
64,192,255809,1,8,0:0:0:0:
448,192,255809,1,8,0:0:0:0:
192,192,256218,1,8,0:0:0:0:
448,192,256218,1,8,0:0:0:0:
320,192,256422,128,0,256728:0:0:0:0:
64,192,256626,1,8,0:0:0:0:
448,192,256626,1,8,0:0:0:0:
192,192,256728,128,0,257034:0:0:0:0:
64,192,257034,128,0,257850:0:0:0:0:
320,192,257034,1,8,0:0:0:0:
448,192,257034,1,8,0:0:0:0:
192,192,257442,1,8,0:0:0:0:
320,192,257442,1,8,0:0:0:0:
320,192,257850,1,8,0:0:0:0:
448,192,257850,1,8,0:0:0:0:
448,192,258258,128,0,258667:0:0:0:0:
64,192,258258,1,8,0:0:0:0:
320,192,258258,1,8,0:0:0:0:
320,192,258667,128,0,259075:0:0:0:0:
64,192,258667,1,8,0:0:0:0:
192,192,258667,1,8,0:0:0:0:
448,192,259075,128,0,259381:0:0:0:0:
192,192,259075,1,8,0:0:0:0:
64,192,259075,1,8,0:0:0:0:
320,192,259381,128,0,259687:0:0:0:0:
64,192,259483,1,8,0:0:0:0:
448,192,259483,1,8,0:0:0:0:
192,192,259687,128,0,260095:0:0:0:0:
320,192,259891,1,8,0:0:0:0:
448,192,259891,1,8,0:0:0:0:
64,192,260095,128,0,260299:0:0:0:0:
320,192,260299,128,0,261524:0:0:0:0:
192,192,260299,1,8,0:0:0:0:
448,192,260299,1,8,0:0:0:0:
64,192,260707,1,8,0:0:0:0:
192,192,260707,1,8,0:0:0:0:
448,192,261115,1,8,0:0:0:0:
192,192,261115,1,8,0:0:0:0:
64,192,261524,1,8,0:0:0:0:
192,192,261524,1,8,0:0:0:0:
448,192,261728,128,0,262034:0:0:0:0:
192,192,261932,1,8,0:0:0:0:
320,192,261932,1,8,0:0:0:0:
64,192,262034,128,0,262340:0:0:0:0:
192,192,262340,128,0,262646:0:0:0:0:
320,192,262340,1,8,0:0:0:0:
448,192,262340,1,8,0:0:0:0:
320,192,262646,128,0,262952:0:0:0:0:
64,192,262748,1,8,0:0:0:0:
192,192,262748,1,8,0:0:0:0:
448,192,262952,128,0,263258:0:0:0:0:
64,192,263156,1,8,0:0:0:0:
320,192,263156,1,8,0:0:0:0:
192,192,263258,128,0,263564:0:0:0:0:
448,192,263564,128,0,264585:0:0:0:0:
64,192,263564,1,8,0:0:0:0:
320,192,263564,1,8,0:0:0:0:
64,192,263973,1,8,0:0:0:0:
192,192,263973,1,8,0:0:0:0:
192,192,264381,1,8,0:0:0:0:
320,192,264381,1,8,0:0:0:0:
448,192,264789,5,2,0:0:0:0:
320,192,264840,1,2,0:0:0:0:
192,192,264891,1,2,0:0:0:0:
448,192,264993,1,2,0:0:0:0:
320,192,264993,1,2,0:0:0:0:
64,192,265095,1,8,0:0:0:0:
192,192,265146,1,8,0:0:0:0:
320,192,265197,1,8,0:0:0:0:
64,192,265299,1,8,0:0:0:0:
192,192,265299,1,8,0:0:0:0:
448,192,265401,1,8,0:0:0:0:
320,192,265401,1,8,0:0:0:0:
320,192,265503,1,8,0:0:0:0:
448,192,265503,1,8,0:0:0:0:
64,192,265605,1,8,0:0:0:0:
192,192,265605,1,12,0:0:0:0:
448,192,265605,1,8,0:0:0:0:
64,192,265707,1,8,0:0:0:0:
320,192,265809,1,8,0:0:0:0:
448,192,265809,1,8,0:0:0:0:
320,192,265911,1,8,0:0:0:0:
64,192,266013,1,8,0:0:0:0:
192,192,266013,1,8,0:0:0:0:
64,192,266115,1,8,0:0:0:0:
192,192,266218,1,8,0:0:0:0:
320,192,266218,1,8,0:0:0:0:
320,192,266320,1,8,0:0:0:0:
64,192,266422,1,8,0:0:0:0:
448,192,266422,1,8,0:0:0:0:
64,192,266524,1,8,0:0:0:0:
320,192,266626,1,8,0:0:0:0:
448,192,266626,1,8,0:0:0:0:
448,192,266728,1,8,0:0:0:0:
192,192,266830,1,8,0:0:0:0:
320,192,266830,1,8,0:0:0:0:
192,192,266932,1,8,0:0:0:0:
320,192,267034,1,8,0:0:0:0:
64,192,267034,1,8,0:0:0:0:
320,192,267136,1,8,0:0:0:0:
192,192,267238,1,8,0:0:0:0:
448,192,267238,1,8,0:0:0:0:
192,192,267340,1,8,0:0:0:0:
64,192,267442,1,8,0:0:0:0:
320,192,267442,1,8,0:0:0:0:
320,192,267544,1,8,0:0:0:0:
192,192,267646,1,8,0:0:0:0:
64,192,267646,1,8,0:0:0:0:
192,192,267748,1,8,0:0:0:0:
320,192,267850,1,8,0:0:0:0:
448,192,267850,1,8,0:0:0:0:
448,192,267952,1,8,0:0:0:0:
64,192,268054,1,8,0:0:0:0:
192,192,268054,1,8,0:0:0:0:
192,192,268156,1,8,0:0:0:0:
320,192,268258,1,8,0:0:0:0:
64,192,268258,1,8,0:0:0:0:
320,192,268360,1,8,0:0:0:0:
64,192,268462,1,8,0:0:0:0:
448,192,268462,1,8,0:0:0:0:
64,192,268564,1,8,0:0:0:0:
320,192,268667,1,8,0:0:0:0:
448,192,268667,1,8,0:0:0:0:
192,192,268667,1,12,0:0:0:0:
448,192,268769,1,8,0:0:0:0:
64,192,268871,1,8,0:0:0:0:
192,192,268871,1,8,0:0:0:0:
320,192,268871,1,12,0:0:0:0:
64,192,268973,1,8,0:0:0:0:
192,192,269075,1,8,0:0:0:0:
320,192,269075,1,8,0:0:0:0:
320,192,269177,1,8,0:0:0:0:
64,192,269279,1,8,0:0:0:0:
448,192,269279,1,8,0:0:0:0:
64,192,269381,1,8,0:0:0:0:
320,192,269483,1,8,0:0:0:0:
448,192,269483,1,8,0:0:0:0:
448,192,269585,1,8,0:0:0:0:
64,192,269687,1,8,0:0:0:0:
192,192,269687,1,8,0:0:0:0:
64,192,269789,1,8,0:0:0:0:
320,192,269891,1,8,0:0:0:0:
448,192,269891,1,8,0:0:0:0:
448,192,269993,1,8,0:0:0:0:
192,192,270095,1,8,0:0:0:0:
320,192,270095,1,8,0:0:0:0:
192,192,270197,1,8,0:0:0:0:
64,192,270299,1,8,0:0:0:0:
448,192,270299,1,8,0:0:0:0:
448,192,270401,1,8,0:0:0:0:
64,192,270503,1,8,0:0:0:0:
192,192,270503,1,8,0:0:0:0:
192,192,270605,1,8,0:0:0:0:
448,192,270707,1,8,0:0:0:0:
64,192,270707,1,8,0:0:0:0:
448,192,270809,1,8,0:0:0:0:
64,192,270911,1,8,0:0:0:0:
320,192,270911,1,8,0:0:0:0:
64,192,271013,1,8,0:0:0:0:
320,192,271115,1,8,0:0:0:0:
192,192,271115,1,8,0:0:0:0:
320,192,271218,1,8,0:0:0:0:
64,192,271320,1,8,0:0:0:0:
448,192,271320,1,8,0:0:0:0:
64,192,271422,1,8,0:0:0:0:
192,192,271524,1,8,0:0:0:0:
448,192,271524,1,8,0:0:0:0:
448,192,271626,1,8,0:0:0:0:
64,192,271728,1,8,0:0:0:0:
192,192,271728,1,8,0:0:0:0:
192,192,271830,1,8,0:0:0:0:
320,192,271830,1,8,0:0:0:0:
448,192,271830,1,12,0:0:0:0:
64,192,271932,1,8,0:0:0:0:
320,192,272034,1,8,0:0:0:0:
448,192,272034,1,8,0:0:0:0:
320,192,272136,1,8,0:0:0:0:
64,192,272136,1,12,0:0:0:0:
192,192,272136,1,8,0:0:0:0:
64,192,272238,1,8,0:0:0:0:
448,192,272340,1,8,0:0:0:0:
320,192,272340,1,8,0:0:0:0:
448,192,272442,1,8,0:0:0:0:
64,192,272544,1,8,0:0:0:0:
192,192,272544,1,8,0:0:0:0:
64,192,272646,1,8,0:0:0:0:
320,192,272748,1,8,0:0:0:0:
192,192,272748,1,8,0:0:0:0:
320,192,272850,1,8,0:0:0:0:
64,192,272952,1,8,0:0:0:0:
448,192,272952,1,8,0:0:0:0:
64,192,273054,1,8,0:0:0:0:
320,192,273156,1,8,0:0:0:0:
448,192,273156,1,8,0:0:0:0:
448,192,273258,1,8,0:0:0:0:
192,192,273360,1,8,0:0:0:0:
320,192,273360,1,8,0:0:0:0:
192,192,273462,1,8,0:0:0:0:
448,192,273564,1,8,0:0:0:0:
64,192,273564,1,8,0:0:0:0:
448,192,273667,1,8,0:0:0:0:
192,192,273769,1,8,0:0:0:0:
64,192,273769,1,8,0:0:0:0:
64,192,273871,1,8,0:0:0:0:
448,192,273973,1,8,0:0:0:0:
320,192,273973,1,8,0:0:0:0:
448,192,274075,1,8,0:0:0:0:
192,192,274177,1,8,0:0:0:0:
64,192,274177,1,8,0:0:0:0:
192,192,274279,1,8,0:0:0:0:
448,192,274381,1,8,0:0:0:0:
64,192,274381,1,8,0:0:0:0:
448,192,274483,1,8,0:0:0:0:
320,192,274585,1,8,0:0:0:0:
192,192,274585,1,8,0:0:0:0:
192,192,274687,1,8,0:0:0:0:
320,192,274789,1,8,0:0:0:0:
64,192,274789,1,8,0:0:0:0:
320,192,274891,1,8,0:0:0:0:
64,192,274993,1,8,0:0:0:0:
448,192,274993,1,8,0:0:0:0:
64,192,275095,1,8,0:0:0:0:
320,192,275197,1,8,0:0:0:0:
448,192,275197,1,8,0:0:0:0:
192,192,275197,1,12,0:0:0:0:
448,192,275299,1,8,0:0:0:0:
64,192,275401,1,8,0:0:0:0:
192,192,275401,1,8,0:0:0:0:
320,192,275401,1,12,0:0:0:0:
64,192,275503,1,8,0:0:0:0:
320,192,275605,1,8,0:0:0:0:
192,192,275605,1,8,0:0:0:0:
320,192,275707,1,8,0:0:0:0:
64,192,275809,1,8,0:0:0:0:
448,192,275809,1,8,0:0:0:0:
64,192,275911,1,8,0:0:0:0:
320,192,276013,1,8,0:0:0:0:
448,192,276013,1,8,0:0:0:0:
448,192,276115,1,8,0:0:0:0:
64,192,276218,1,8,0:0:0:0:
192,192,276218,1,8,0:0:0:0:
192,192,276320,1,8,0:0:0:0:
320,192,276422,1,8,0:0:0:0:
64,192,276422,1,8,0:0:0:0:
320,192,276524,1,8,0:0:0:0:
448,192,276626,1,8,0:0:0:0:
192,192,276626,1,8,0:0:0:0:
192,192,276728,1,8,0:0:0:0:
320,192,276830,1,8,0:0:0:0:
448,192,276830,1,8,0:0:0:0:
448,192,276932,1,8,0:0:0:0:
64,192,277034,1,8,0:0:0:0:
192,192,277034,1,8,0:0:0:0:
192,192,277136,1,8,0:0:0:0:
64,192,277238,1,8,0:0:0:0:
448,192,277238,1,8,0:0:0:0:
448,192,277340,1,8,0:0:0:0:
64,192,277442,1,8,0:0:0:0:
192,192,277442,1,8,0:0:0:0:
192,192,277544,1,8,0:0:0:0:
448,192,277646,1,8,0:0:0:0:
320,192,277646,1,8,0:0:0:0:
320,192,277748,1,8,0:0:0:0:
64,192,277850,128,2,278003:0:0:0:0:
192,192,277850,128,2,277952:0:0:0:0:
448,192,278054,1,0,0:0:0:0:
320,192,278105,1,0,0:0:0:0:
192,192,278156,1,0,0:0:0:0:
64,192,278207,1,0,0:0:0:0:
448,192,278258,1,0,0:0:0:0:
192,192,278360,1,8,0:0:0:0:
320,192,278360,1,8,0:0:0:0:
64,192,278360,1,8,0:0:0:0:
64,192,278667,128,8,278871:0:0:0:0:
192,192,278667,128,8,278871:0:0:0:0:
320,192,278667,128,8,278871:0:0:0:0:
320,192,278973,128,8,279177:0:0:0:0:
192,192,278973,128,8,279177:0:0:0:0:
448,192,278973,128,8,279177:0:0:0:0:
64,192,279279,128,8,279483:0:0:0:0:
448,192,279279,128,8,279483:0:0:0:0:
192,192,279279,128,8,279483:0:0:0:0:
448,192,279585,128,8,279789:0:0:0:0:
320,192,279585,128,8,279789:0:0:0:0:
64,192,279585,128,8,279789:0:0:0:0:
64,192,279891,128,8,279993:0:0:0:0:
320,192,279891,128,8,279993:0:0:0:0:
192,192,279891,128,8,279993:0:0:0:0:
192,192,280095,128,8,280197:0:0:0:0:
320,192,280095,128,8,280197:0:0:0:0:
448,192,280095,128,8,280197:0:0:0:0:
192,192,280299,128,8,280503:0:0:0:0:
448,192,280299,128,8,280503:0:0:0:0:
64,192,280299,128,8,280503:0:0:0:0:
64,192,280605,128,8,280809:0:0:0:0:
320,192,280605,128,8,280809:0:0:0:0:
448,192,280605,128,8,280809:0:0:0:0:
192,192,280911,128,8,281115:0:0:0:0:
320,192,280911,128,8,281115:0:0:0:0:
64,192,280911,128,8,281115:0:0:0:0:
448,192,281218,128,8,281422:0:0:0:0:
320,192,281218,128,8,281422:0:0:0:0:
192,192,281218,128,8,281422:0:0:0:0:
64,192,281524,1,8,0:0:0:0:
192,192,281524,1,8,0:0:0:0:
64,192,281626,1,8,0:0:0:0:
192,192,281626,1,8,0:0:0:0:
320,192,281728,1,8,0:0:0:0:
448,192,281728,1,8,0:0:0:0:
448,192,281830,1,8,0:0:0:0:
320,192,281830,1,8,0:0:0:0:
192,192,281932,128,8,282136:0:0:0:0:
320,192,281932,128,8,282136:0:0:0:0:
64,192,281932,128,8,282136:0:0:0:0:
448,192,282238,128,8,282442:0:0:0:0:
320,192,282238,128,8,282442:0:0:0:0:
192,192,282238,128,8,282442:0:0:0:0:
448,192,282544,128,8,282748:0:0:0:0:
320,192,282544,128,8,282748:0:0:0:0:
64,192,282544,128,8,282748:0:0:0:0:
64,192,282850,128,8,283054:0:0:0:0:
448,192,282850,128,8,283054:0:0:0:0:
192,192,282850,128,8,283054:0:0:0:0:
448,192,283156,128,8,283258:0:0:0:0:
320,192,283156,128,8,283258:0:0:0:0:
64,192,283156,128,8,283258:0:0:0:0:
64,192,283360,128,8,283462:0:0:0:0:
192,192,283360,128,8,283462:0:0:0:0:
448,192,283360,128,8,283462:0:0:0:0:
64,192,283564,128,8,283769:0:0:0:0:
320,192,283564,128,8,283769:0:0:0:0:
192,192,283564,128,8,283769:0:0:0:0:
320,192,283871,128,8,284075:0:0:0:0:
448,192,283871,128,8,284075:0:0:0:0:
64,192,283871,128,8,284075:0:0:0:0:
64,192,284177,128,8,284381:0:0:0:0:
448,192,284177,128,8,284381:0:0:0:0:
192,192,284177,128,8,284381:0:0:0:0:
448,192,284483,128,8,284687:0:0:0:0:
320,192,284483,128,8,284687:0:0:0:0:
192,192,284483,128,8,284687:0:0:0:0:
64,192,284789,128,8,284891:0:0:0:0:
320,192,284789,128,8,284891:0:0:0:0:
448,192,284789,128,8,284891:0:0:0:0:
64,192,284993,128,8,285095:0:0:0:0:
192,192,284993,128,8,285095:0:0:0:0:
448,192,284993,128,8,285095:0:0:0:0:
320,192,285197,1,8,0:0:0:0:
448,192,285197,1,8,0:0:0:0:
64,192,285248,1,8,0:0:0:0:
192,192,285299,1,8,0:0:0:0:
448,192,285299,1,8,0:0:0:0:
320,192,285350,1,8,0:0:0:0:
192,192,285401,1,8,0:0:0:0:
64,192,285401,1,8,0:0:0:0:
320,192,285452,1,8,0:0:0:0:
448,192,285503,1,8,0:0:0:0:
64,192,285503,1,8,0:0:0:0:
192,192,285554,1,8,0:0:0:0:
320,192,285605,1,8,0:0:0:0:
448,192,285605,1,8,0:0:0:0:
64,192,285656,1,8,0:0:0:0:
192,192,285707,1,8,0:0:0:0:
320,192,285707,1,8,0:0:0:0:
448,192,285758,1,8,0:0:0:0:
192,192,285809,1,8,0:0:0:0:
64,192,285809,1,8,0:0:0:0:
448,192,285860,1,8,0:0:0:0:
320,192,285911,1,8,0:0:0:0:
64,192,285911,1,8,0:0:0:0:
192,192,285962,1,8,0:0:0:0:
448,192,286013,1,8,0:0:0:0:
320,192,286013,1,8,0:0:0:0:
192,192,286064,1,8,0:0:0:0:
64,192,286115,1,8,0:0:0:0:
448,192,286115,1,8,0:0:0:0:
320,192,286167,1,8,0:0:0:0:
64,192,286218,1,8,0:0:0:0:
192,192,286218,1,8,0:0:0:0:
320,192,286269,1,8,0:0:0:0:
448,192,286320,1,8,0:0:0:0:
192,192,286320,1,8,0:0:0:0:
64,192,286371,1,8,0:0:0:0:
320,192,286422,1,8,0:0:0:0:
448,192,286422,1,8,0:0:0:0:
192,192,286473,1,8,0:0:0:0:
64,192,286524,1,8,0:0:0:0:
320,192,286524,1,8,0:0:0:0:
448,192,286575,1,8,0:0:0:0:
192,192,286626,1,8,0:0:0:0:
64,192,286626,1,8,0:0:0:0:
448,192,286677,1,8,0:0:0:0:
320,192,286728,1,8,0:0:0:0:
192,192,286728,1,8,0:0:0:0:
64,192,286779,1,8,0:0:0:0:
320,192,286830,1,8,0:0:0:0:
448,192,286830,1,8,0:0:0:0:
64,192,286881,1,8,0:0:0:0:
192,192,286932,1,8,0:0:0:0:
448,192,286932,1,8,0:0:0:0:
320,192,286983,1,8,0:0:0:0:
192,192,287034,1,8,0:0:0:0:
64,192,287034,1,8,0:0:0:0:
320,192,287085,1,8,0:0:0:0:
448,192,287136,1,8,0:0:0:0:
64,192,287136,1,8,0:0:0:0:
192,192,287187,1,8,0:0:0:0:
320,192,287238,1,8,0:0:0:0:
448,192,287238,1,8,0:0:0:0:
64,192,287289,1,8,0:0:0:0:
192,192,287340,1,8,0:0:0:0:
320,192,287340,1,8,0:0:0:0:
448,192,287391,1,8,0:0:0:0:
192,192,287442,1,8,0:0:0:0:
64,192,287442,1,8,0:0:0:0:
448,192,287493,1,8,0:0:0:0:
320,192,287544,1,8,0:0:0:0:
64,192,287544,1,8,0:0:0:0:
192,192,287595,1,8,0:0:0:0:
320,192,287646,1,8,0:0:0:0:
448,192,287646,1,8,0:0:0:0:
64,192,287697,1,8,0:0:0:0:
192,192,287748,1,8,0:0:0:0:
448,192,287748,1,8,0:0:0:0:
320,192,287799,1,8,0:0:0:0:
192,192,287850,1,8,0:0:0:0:
64,192,287850,1,8,0:0:0:0:
448,192,287901,1,8,0:0:0:0:
320,192,287952,1,8,0:0:0:0:
64,192,287952,1,8,0:0:0:0:
192,192,288003,1,8,0:0:0:0:
320,192,288054,1,8,0:0:0:0:
448,192,288054,1,8,0:0:0:0:
64,192,288105,1,8,0:0:0:0:
192,192,288156,1,8,0:0:0:0:
448,192,288156,1,8,0:0:0:0:
320,192,288207,1,8,0:0:0:0:
192,192,288258,1,8,0:0:0:0:
64,192,288258,1,8,0:0:0:0:
448,192,288309,1,8,0:0:0:0:
320,192,288360,1,8,0:0:0:0:
64,192,288360,1,8,0:0:0:0:
192,192,288411,1,8,0:0:0:0:
320,192,288462,1,8,0:0:0:0:
448,192,288462,1,8,0:0:0:0:
192,192,288513,1,8,0:0:0:0:
64,192,288564,1,8,0:0:0:0:
448,192,288564,1,8,0:0:0:0:
320,192,288615,1,8,0:0:0:0:
192,192,288667,1,8,0:0:0:0:
64,192,288667,1,8,0:0:0:0:
448,192,288718,1,8,0:0:0:0:
320,192,288769,1,8,0:0:0:0:
192,192,288769,1,8,0:0:0:0:
64,192,288820,1,8,0:0:0:0:
320,192,288871,1,8,0:0:0:0:
448,192,288871,1,8,0:0:0:0:
64,192,288922,1,8,0:0:0:0:
192,192,288973,1,8,0:0:0:0:
448,192,288973,1,8,0:0:0:0:
320,192,289024,1,8,0:0:0:0:
64,192,289075,1,8,0:0:0:0:
192,192,289075,1,8,0:0:0:0:
448,192,289126,1,8,0:0:0:0:
320,192,289177,1,8,0:0:0:0:
64,192,289177,1,8,0:0:0:0:
192,192,289228,1,8,0:0:0:0:
320,192,289279,1,8,0:0:0:0:
448,192,289279,1,8,0:0:0:0:
64,192,289330,1,8,0:0:0:0:
192,192,289381,1,8,0:0:0:0:
448,192,289381,1,8,0:0:0:0:
320,192,289432,1,8,0:0:0:0:
192,192,289483,1,8,0:0:0:0:
64,192,289483,1,8,0:0:0:0:
448,192,289534,1,8,0:0:0:0:
320,192,289585,1,8,0:0:0:0:
64,192,289585,1,8,0:0:0:0:
192,192,289636,1,8,0:0:0:0:
320,192,289687,1,8,0:0:0:0:
448,192,289687,1,8,0:0:0:0:
448,192,289789,1,8,0:0:0:0:
320,192,289789,1,8,0:0:0:0:
64,192,289891,1,8,0:0:0:0:
192,192,289891,1,8,0:0:0:0:
64,192,289993,1,8,0:0:0:0:
192,192,289993,1,8,0:0:0:0:
64,192,290095,1,8,0:0:0:0:
192,192,290095,1,8,0:0:0:0:
448,192,290095,1,8,0:0:0:0:
320,192,290095,1,8,0:0:0:0:
448,192,290299,1,0,0:0:0:0:
320,192,290401,1,0,0:0:0:0:
192,192,290503,1,0,0:0:0:0:
64,192,290605,1,0,0:0:0:0:
192,192,290707,1,0,0:0:0:0:
448,192,290809,1,0,0:0:0:0:
320,192,290809,1,0,0:0:0:0:
64,192,290911,1,0,0:0:0:0:
192,192,290911,1,0,0:0:0:0:
320,192,291013,1,0,0:0:0:0:
192,192,291013,1,0,0:0:0:0:
320,192,291115,1,0,0:0:0:0:
448,192,291115,1,0,0:0:0:0:
448,192,291320,1,0,0:0:0:0:
320,192,291320,1,0,0:0:0:0:
64,192,291422,1,0,0:0:0:0:
320,192,291524,1,0,0:0:0:0:
192,192,291524,1,0,0:0:0:0:
64,192,291728,1,8,0:0:0:0:
192,192,291728,1,8,0:0:0:0:
448,192,291728,1,8,0:0:0:0:
64,192,292136,1,14,0:0:0:0:
192,192,292136,1,8,0:0:0:0:
320,192,292136,1,8,0:0:0:0:
192,192,292238,1,0,0:0:0:0:
64,192,292238,1,0,0:0:0:0:
448,192,292340,1,0,0:0:0:0:
320,192,292340,1,0,0:0:0:0:
64,192,292442,1,0,0:0:0:0:
448,192,292544,1,8,0:0:0:0:
320,192,292544,1,8,0:0:0:0:
192,192,292544,1,8,0:0:0:0:
192,192,292646,1,0,0:0:0:0:
320,192,292646,1,0,0:0:0:0:
448,192,292748,1,0,0:0:0:0:
64,192,292748,1,0,0:0:0:0:
192,192,292850,1,0,0:0:0:0:
320,192,292952,1,8,0:0:0:0:
448,192,292952,1,10,0:0:0:0:
64,192,292952,1,8,0:0:0:0:
320,192,293054,1,0,0:0:0:0:
448,192,293054,1,0,0:0:0:0:
192,192,293156,1,0,0:0:0:0:
64,192,293156,1,0,0:0:0:0:
448,192,293258,1,0,0:0:0:0:
320,192,293360,1,8,0:0:0:0:
192,192,293360,1,8,0:0:0:0:
64,192,293360,1,8,0:0:0:0:
192,192,293462,1,0,0:0:0:0:
320,192,293462,1,0,0:0:0:0:
448,192,293564,1,0,0:0:0:0:
64,192,293564,1,0,0:0:0:0:
192,192,293667,1,0,0:0:0:0:
64,192,293769,1,8,0:0:0:0:
448,192,293769,1,10,0:0:0:0:
320,192,293769,1,8,0:0:0:0:
320,192,293871,1,0,0:0:0:0:
448,192,293871,1,0,0:0:0:0:
64,192,293973,1,0,0:0:0:0:
192,192,293973,1,0,0:0:0:0:
448,192,294075,1,0,0:0:0:0:
320,192,294177,1,8,0:0:0:0:
64,192,294177,1,8,0:0:0:0:
192,192,294177,1,8,0:0:0:0:
320,192,294279,1,0,0:0:0:0:
192,192,294279,1,0,0:0:0:0:
448,192,294381,1,0,0:0:0:0:
64,192,294381,1,0,0:0:0:0:
320,192,294483,1,0,0:0:0:0:
448,192,294585,1,8,0:0:0:0:
192,192,294585,1,8,0:0:0:0:
64,192,294585,1,10,0:0:0:0:
192,192,294687,1,0,0:0:0:0:
64,192,294687,1,0,0:0:0:0:
448,192,294789,1,0,0:0:0:0:
320,192,294789,1,0,0:0:0:0:
64,192,294891,1,0,0:0:0:0:
448,192,294993,1,8,0:0:0:0:
320,192,294993,1,8,0:0:0:0:
192,192,294993,1,8,0:0:0:0:
448,192,295095,1,0,0:0:0:0:
192,192,295095,1,0,0:0:0:0:
320,192,295197,1,0,0:0:0:0:
64,192,295197,1,0,0:0:0:0:
448,192,295299,1,0,0:0:0:0:
320,192,295401,1,10,0:0:0:0:
192,192,295401,1,8,0:0:0:0:
64,192,295401,1,8,0:0:0:0:
192,192,295503,1,0,0:0:0:0:
64,192,295503,1,0,0:0:0:0:
448,192,295605,1,0,0:0:0:0:
320,192,295605,1,0,0:0:0:0:
64,192,295707,1,0,0:0:0:0:
448,192,295809,1,8,0:0:0:0:
320,192,295809,1,8,0:0:0:0:
192,192,295809,1,8,0:0:0:0:
320,192,295911,1,0,0:0:0:0:
192,192,295911,1,0,0:0:0:0:
448,192,296013,1,0,0:0:0:0:
64,192,296013,1,0,0:0:0:0:
320,192,296115,1,0,0:0:0:0:
192,192,296218,1,8,0:0:0:0:
64,192,296218,1,10,0:0:0:0:
448,192,296218,1,8,0:0:0:0:
192,192,296320,1,0,0:0:0:0:
64,192,296320,1,0,0:0:0:0:
320,192,296422,1,0,0:0:0:0:
448,192,296422,1,0,0:0:0:0:
64,192,296524,1,0,0:0:0:0:
320,192,296626,1,8,0:0:0:0:
192,192,296626,1,8,0:0:0:0:
448,192,296626,1,8,0:0:0:0:
320,192,296728,1,0,0:0:0:0:
192,192,296728,1,0,0:0:0:0:
448,192,296830,1,0,0:0:0:0:
64,192,296830,1,0,0:0:0:0:
320,192,296932,1,0,0:0:0:0:
448,192,297034,1,8,0:0:0:0:
192,192,297034,1,10,0:0:0:0:
64,192,297034,1,8,0:0:0:0:
192,192,297136,1,0,0:0:0:0:
64,192,297136,1,0,0:0:0:0:
320,192,297238,1,0,0:0:0:0:
448,192,297238,1,0,0:0:0:0:
192,192,297340,1,0,0:0:0:0:
448,192,297442,1,8,0:0:0:0:
320,192,297442,1,8,0:0:0:0:
64,192,297442,1,8,0:0:0:0:
64,192,297544,1,0,0:0:0:0:
320,192,297544,1,0,0:0:0:0:
192,192,297646,1,0,0:0:0:0:
448,192,297646,1,0,0:0:0:0:
320,192,297748,1,0,0:0:0:0:
448,192,297850,1,8,0:0:0:0:
192,192,297850,1,8,0:0:0:0:
64,192,297850,1,10,0:0:0:0:
192,192,297952,1,0,0:0:0:0:
64,192,297952,1,0,0:0:0:0:
448,192,298054,1,0,0:0:0:0:
320,192,298054,1,0,0:0:0:0:
64,192,298156,1,0,0:0:0:0:
320,192,298258,1,8,0:0:0:0:
192,192,298258,1,8,0:0:0:0:
448,192,298258,1,8,0:0:0:0:
192,192,298360,1,0,0:0:0:0:
320,192,298360,1,0,0:0:0:0:
448,192,298462,1,0,0:0:0:0:
64,192,298462,1,0,0:0:0:0:
320,192,298564,1,0,0:0:0:0:
448,192,298667,1,10,0:0:0:0:
192,192,298667,1,8,0:0:0:0:
64,192,298667,1,8,0:0:0:0:
192,192,298769,1,0,0:0:0:0:
64,192,298769,1,0,0:0:0:0:
448,192,298871,1,0,0:0:0:0:
320,192,298871,1,0,0:0:0:0:
64,192,298973,1,0,0:0:0:0:
448,192,299075,1,8,0:0:0:0:
192,192,299075,1,8,0:0:0:0:
320,192,299075,1,8,0:0:0:0:
192,192,299177,1,0,0:0:0:0:
448,192,299177,1,0,0:0:0:0:
320,192,299279,1,0,0:0:0:0:
64,192,299279,1,0,0:0:0:0:
448,192,299381,1,0,0:0:0:0:
448,192,299483,1,10,0:0:0:0:
64,192,299483,1,8,0:0:0:0:
192,192,299483,1,8,0:0:0:0:
64,192,299585,1,0,0:0:0:0:
192,192,299585,1,0,0:0:0:0:
320,192,299687,1,0,0:0:0:0:
448,192,299687,1,0,0:0:0:0:
192,192,299789,1,0,0:0:0:0:
320,192,299891,1,8,0:0:0:0:
64,192,299891,1,8,0:0:0:0:
448,192,299891,1,8,0:0:0:0:
448,192,299993,1,0,0:0:0:0:
64,192,299993,1,0,0:0:0:0:
192,192,300095,1,0,0:0:0:0:
320,192,300095,1,0,0:0:0:0:
448,192,300197,1,0,0:0:0:0:
192,192,300299,1,8,0:0:0:0:
320,192,300299,1,8,0:0:0:0:
64,192,300299,1,10,0:0:0:0:
192,192,300401,1,0,0:0:0:0:
64,192,300401,1,0,0:0:0:0:
320,192,300503,1,0,0:0:0:0:
448,192,300503,1,0,0:0:0:0:
192,192,300605,1,0,0:0:0:0:
320,192,300707,1,8,0:0:0:0:
448,192,300707,1,8,0:0:0:0:
64,192,300707,1,8,0:0:0:0:
320,192,300809,1,0,0:0:0:0:
64,192,300809,1,0,0:0:0:0:
448,192,300911,1,0,0:0:0:0:
192,192,300911,1,0,0:0:0:0:
320,192,301013,1,0,0:0:0:0:
448,192,301115,1,10,0:0:0:0:
192,192,301115,1,8,0:0:0:0:
64,192,301115,1,8,0:0:0:0:
192,192,301218,1,0,0:0:0:0:
64,192,301218,1,0,0:0:0:0:
448,192,301320,1,0,0:0:0:0:
320,192,301320,1,0,0:0:0:0:
64,192,301422,1,0,0:0:0:0:
448,192,301524,1,8,0:0:0:0:
320,192,301524,1,8,0:0:0:0:
192,192,301524,1,8,0:0:0:0:
320,192,301626,1,0,0:0:0:0:
192,192,301626,1,0,0:0:0:0:
448,192,301728,1,0,0:0:0:0:
64,192,301728,1,0,0:0:0:0:
320,192,301830,1,0,0:0:0:0:
448,192,301932,1,10,0:0:0:0:
192,192,301932,1,8,0:0:0:0:
64,192,301932,1,8,0:0:0:0:
192,192,302034,1,0,0:0:0:0:
64,192,302034,1,0,0:0:0:0:
448,192,302136,1,0,0:0:0:0:
320,192,302136,1,0,0:0:0:0:
64,192,302238,1,0,0:0:0:0:
320,192,302340,1,8,0:0:0:0:
192,192,302340,1,8,0:0:0:0:
448,192,302340,1,8,0:0:0:0:
320,192,302442,1,0,0:0:0:0:
192,192,302442,1,0,0:0:0:0:
448,192,302544,1,0,0:0:0:0:
64,192,302544,1,0,0:0:0:0:
320,192,302646,1,0,0:0:0:0:
448,192,302748,1,10,0:0:0:0:
64,192,302748,1,8,0:0:0:0:
192,192,302748,1,8,0:0:0:0:
192,192,302850,1,0,0:0:0:0:
64,192,302850,1,0,0:0:0:0:
320,192,302952,1,0,0:0:0:0:
448,192,302952,1,0,0:0:0:0:
64,192,303054,1,0,0:0:0:0:
448,192,303156,1,12,0:0:0:0:
320,192,303156,1,8,0:0:0:0:
192,192,303156,1,8,0:0:0:0:
448,192,303360,1,12,0:0:0:0:
192,192,303360,1,8,0:0:0:0:
64,192,303360,1,8,0:0:0:0:
64,192,303667,1,12,0:0:0:0:
320,192,303667,1,8,0:0:0:0:
192,192,303667,1,8,0:0:0:0:
320,192,303871,1,8,0:0:0:0:
448,192,303871,1,8,0:0:0:0:
64,192,303871,1,12,0:0:0:0:
192,192,303973,1,12,0:0:0:0:
320,192,303973,1,8,0:0:0:0:
448,192,303973,1,8,0:0:0:0:
64,192,304279,1,8,0:0:0:0:
192,192,304279,1,8,0:0:0:0:
448,192,304279,1,12,0:0:0:0:
448,192,304585,1,8,0:0:0:0:
320,192,304585,1,8,0:0:0:0:
64,192,304789,1,12,0:0:0:0:
320,192,304789,1,8,0:0:0:0:
448,192,304789,1,8,0:0:0:0:
320,192,304891,1,0,0:0:0:0:
448,192,304891,1,0,0:0:0:0:
64,192,304993,1,0,0:0:0:0:
192,192,304993,1,0,0:0:0:0:
448,192,305095,1,0,0:0:0:0:
192,192,305197,1,8,0:0:0:0:
320,192,305197,1,8,0:0:0:0:
64,192,305197,1,10,0:0:0:0:
320,192,305299,1,0,0:0:0:0:
192,192,305299,1,0,0:0:0:0:
64,192,305401,1,0,0:0:0:0:
448,192,305401,1,0,0:0:0:0:
192,192,305503,1,0,0:0:0:0:
64,192,305605,1,8,0:0:0:0:
320,192,305605,1,8,0:0:0:0:
448,192,305605,1,8,0:0:0:0:
320,192,305707,1,0,0:0:0:0:
448,192,305707,1,0,0:0:0:0:
192,192,305809,1,0,0:0:0:0:
64,192,305809,1,0,0:0:0:0:
320,192,305911,1,0,0:0:0:0:
192,192,306013,1,8,0:0:0:0:
64,192,306013,1,10,0:0:0:0:
448,192,306013,1,8,0:0:0:0:
448,192,306115,1,0,0:0:0:0:
64,192,306115,1,0,0:0:0:0:
320,192,306218,1,0,0:0:0:0:
192,192,306218,1,0,0:0:0:0:
64,192,306320,1,0,0:0:0:0:
192,192,306422,1,8,0:0:0:0:
320,192,306422,1,8,0:0:0:0:
448,192,306422,1,8,0:0:0:0:
320,192,306524,1,0,0:0:0:0:
448,192,306524,1,0,0:0:0:0:
64,192,306626,1,0,0:0:0:0:
192,192,306626,1,0,0:0:0:0:
448,192,306728,1,0,0:0:0:0:
320,192,306830,1,8,0:0:0:0:
64,192,306830,1,10,0:0:0:0:
192,192,306830,1,8,0:0:0:0:
320,192,306932,1,0,0:0:0:0:
192,192,306932,1,0,0:0:0:0:
64,192,307034,1,0,0:0:0:0:
448,192,307034,1,0,0:0:0:0:
192,192,307136,1,0,0:0:0:0:
448,192,307238,1,8,0:0:0:0:
320,192,307238,1,8,0:0:0:0:
64,192,307238,1,8,0:0:0:0:
320,192,307340,1,0,0:0:0:0:
448,192,307340,1,0,0:0:0:0:
64,192,307442,1,0,0:0:0:0:
192,192,307442,1,0,0:0:0:0:
320,192,307544,1,0,0:0:0:0:
64,192,307646,1,8,0:0:0:0:
192,192,307646,1,8,0:0:0:0:
448,192,307646,1,10,0:0:0:0:
64,192,307748,1,0,0:0:0:0:
448,192,307748,1,0,0:0:0:0:
320,192,307850,1,0,0:0:0:0:
192,192,307850,1,0,0:0:0:0:
64,192,307952,1,0,0:0:0:0:
320,192,308054,1,8,0:0:0:0:
192,192,308054,1,8,0:0:0:0:
448,192,308054,1,8,0:0:0:0:
448,192,308156,1,0,0:0:0:0:
320,192,308156,1,0,0:0:0:0:
192,192,308258,1,0,0:0:0:0:
64,192,308258,1,0,0:0:0:0:
448,192,308360,1,0,0:0:0:0:
192,192,308462,1,10,0:0:0:0:
64,192,308462,1,8,0:0:0:0:
320,192,308462,1,8,0:0:0:0:
192,192,308564,1,0,0:0:0:0:
320,192,308564,1,0,0:0:0:0:
448,192,308667,1,0,0:0:0:0:
64,192,308667,1,0,0:0:0:0:
192,192,308769,1,0,0:0:0:0:
64,192,308871,1,8,0:0:0:0:
320,192,308871,1,8,0:0:0:0:
448,192,308871,1,8,0:0:0:0:
320,192,308973,1,0,0:0:0:0:
448,192,308973,1,0,0:0:0:0:
192,192,309075,1,0,0:0:0:0:
64,192,309075,1,0,0:0:0:0:
320,192,309177,1,0,0:0:0:0:
448,192,309279,1,8,0:0:0:0:
192,192,309279,1,10,0:0:0:0:
64,192,309279,1,8,0:0:0:0:
448,192,309381,1,0,0:0:0:0:
64,192,309381,1,0,0:0:0:0:
320,192,309483,1,0,0:0:0:0:
192,192,309483,1,0,0:0:0:0:
64,192,309585,1,0,0:0:0:0:
192,192,309687,1,8,0:0:0:0:
320,192,309687,1,8,0:0:0:0:
448,192,309687,1,8,0:0:0:0:
320,192,309789,1,0,0:0:0:0:
448,192,309789,1,0,0:0:0:0:
64,192,309891,1,0,0:0:0:0:
192,192,309891,1,0,0:0:0:0:
320,192,309993,1,0,0:0:0:0:
64,192,310095,1,8,0:0:0:0:
192,192,310095,1,10,0:0:0:0:
448,192,310095,1,8,0:0:0:0:
448,192,310197,1,0,0:0:0:0:
64,192,310197,1,0,0:0:0:0:
320,192,310299,1,0,0:0:0:0:
192,192,310299,1,0,0:0:0:0:
64,192,310401,1,0,0:0:0:0:
192,192,310503,1,8,0:0:0:0:
320,192,310503,1,8,0:0:0:0:
448,192,310503,1,8,0:0:0:0:
448,192,310605,1,0,0:0:0:0:
320,192,310605,1,0,0:0:0:0:
64,192,310707,1,0,0:0:0:0:
192,192,310707,1,0,0:0:0:0:
448,192,310809,1,8,0:0:0:0:
192,192,310809,1,8,0:0:0:0:
64,192,310809,1,8,0:0:0:0:
448,192,310911,1,0,0:0:0:0:
320,192,310911,1,0,0:0:0:0:
64,192,311013,1,0,0:0:0:0:
192,192,311013,1,0,0:0:0:0:
448,192,311115,1,8,0:0:0:0:
320,192,311115,1,8,0:0:0:0:
64,192,311115,1,8,0:0:0:0:
320,192,311218,1,8,0:0:0:0:
448,192,311218,1,8,0:0:0:0:
192,192,311320,1,8,0:0:0:0:
320,192,311320,1,8,0:0:0:0:
64,192,311320,1,8,0:0:0:0:
448,192,311320,1,4,0:0:0:0:
64,192,311422,1,8,0:0:0:0:
192,192,311422,1,8,0:0:0:0:
448,192,311524,1,8,0:0:0:0:
320,192,311524,1,8,0:0:0:0:
448,192,311626,1,8,0:0:0:0:
320,192,311626,1,8,0:0:0:0:
192,192,311728,1,8,0:0:0:0:
64,192,311728,1,8,0:0:0:0:
192,192,311830,1,8,0:0:0:0:
320,192,311830,1,8,0:0:0:0:
320,192,311932,1,8,0:0:0:0:
448,192,311932,1,8,0:0:0:0:
192,192,312034,1,8,0:0:0:0:
64,192,312034,1,8,0:0:0:0:
448,192,312136,128,8,312748:0:0:0:0:
192,192,312136,128,8,312748:0:0:0:0:
192,192,312850,1,8,0:0:0:0:
448,192,312850,1,8,0:0:0:0:
64,192,312850,1,8,0:0:0:0:
320,192,312850,1,8,0:0:0:0:
320,192,312952,1,8,0:0:0:0:
448,192,312952,1,8,0:0:0:0:
192,192,313054,1,8,0:0:0:0:
64,192,313054,1,8,0:0:0:0:
64,192,313156,1,8,0:0:0:0:
192,192,313156,1,8,0:0:0:0:
320,192,313258,1,8,0:0:0:0:
448,192,313258,1,8,0:0:0:0:
192,192,313360,1,8,0:0:0:0:
320,192,313360,1,8,0:0:0:0:
64,192,313462,1,8,0:0:0:0:
192,192,313462,1,8,0:0:0:0:
320,192,313564,1,8,0:0:0:0:
448,192,313564,1,8,0:0:0:0:
320,192,313667,1,8,0:0:0:0:
192,192,313667,1,8,0:0:0:0:
448,192,313769,128,8,313973:0:0:0:0:
64,192,313769,128,8,313973:0:0:0:0:
320,192,313973,1,2,0:0:0:0:
192,192,313973,1,2,0:0:0:0:
64,192,314381,128,12,314687:0:0:0:0:
192,192,314381,128,8,314687:0:0:0:0:
320,192,314381,128,8,314687:0:0:0:0:
448,192,314381,128,12,314687:0:0:0:0:
448,192,314789,1,8,0:0:0:0:
192,192,314789,1,8,0:0:0:0:
320,192,314789,1,8,0:0:0:0:
64,192,314993,1,8,0:0:0:0:
192,192,314993,1,8,0:0:0:0:
320,192,314993,1,8,0:0:0:0:
192,192,315197,128,8,315503:0:0:0:0:
320,192,315197,128,12,315503:0:0:0:0:
448,192,315197,128,12,315503:0:0:0:0:
192,192,315605,1,8,0:0:0:0:
64,192,315605,1,8,0:0:0:0:
448,192,315605,1,8,0:0:0:0:
64,192,315809,1,8,0:0:0:0:
320,192,315809,1,8,0:0:0:0:
448,192,315809,1,8,0:0:0:0:
192,192,316013,1,8,0:0:0:0:
64,192,316013,1,8,0:0:0:0:
448,192,316013,1,8,0:0:0:0:
448,192,316218,128,0,316422:0:0:0:0:
192,192,316218,128,0,316422:0:0:0:0:
64,192,316218,128,0,316422:0:0:0:0:
448,192,316524,128,0,316728:0:0:0:0:
320,192,316524,128,0,316728:0:0:0:0:
64,192,316524,128,0,316728:0:0:0:0:
320,192,316830,128,0,317034:0:0:0:0:
192,192,316830,128,0,317034:0:0:0:0:
64,192,316830,128,0,317034:0:0:0:0:
448,192,317136,128,0,317340:0:0:0:0:
320,192,317136,128,0,317340:0:0:0:0:
192,192,317136,128,0,317340:0:0:0:0:
448,192,317442,128,0,317544:0:0:0:0:
320,192,317442,128,0,317544:0:0:0:0:
64,192,317442,128,0,317544:0:0:0:0:
64,192,317646,128,0,317748:0:0:0:0:
192,192,317646,128,0,317748:0:0:0:0:
448,192,317646,128,0,317748:0:0:0:0:
64,192,317850,1,8,0:0:0:0:
192,192,317850,1,8,0:0:0:0:
320,192,317850,1,8,0:0:0:0:
320,192,318054,1,0,0:0:0:0:
448,192,318054,1,0,0:0:0:0:
64,192,318156,1,0,0:0:0:0:
192,192,318156,1,0,0:0:0:0:
192,192,318258,1,8,0:0:0:0:
320,192,318258,1,8,0:0:0:0:
448,192,318258,1,10,0:0:0:0:
448,192,318462,1,0,0:0:0:0:
320,192,318462,1,0,0:0:0:0:
64,192,318564,1,0,0:0:0:0:
192,192,318564,1,0,0:0:0:0:
64,192,318667,1,8,0:0:0:0:
192,192,318667,1,8,0:0:0:0:
448,192,318667,1,8,0:0:0:0:
320,192,318769,1,0,0:0:0:0:
448,192,318769,1,0,0:0:0:0:
64,192,318871,1,0,0:0:0:0:
320,192,318871,1,0,0:0:0:0:
64,192,318973,1,0,0:0:0:0:
192,192,318973,1,0,0:0:0:0:
320,192,319075,1,10,0:0:0:0:
448,192,319075,1,8,0:0:0:0:
192,192,319075,1,8,0:0:0:0:
448,192,319177,1,0,0:0:0:0:
64,192,319177,1,0,0:0:0:0:
192,192,319279,1,0,0:0:0:0:
320,192,319279,1,0,0:0:0:0:
320,192,319483,1,8,0:0:0:0:
64,192,319483,1,8,0:0:0:0:
192,192,319483,1,8,0:0:0:0:
448,192,319585,1,0,0:0:0:0:
320,192,319585,1,0,0:0:0:0:
448,192,319687,1,0,0:0:0:0:
64,192,319687,1,0,0:0:0:0:
64,192,319789,1,0,0:0:0:0:
192,192,319789,1,0,0:0:0:0:
192,192,319891,1,8,0:0:0:0:
320,192,319891,1,8,0:0:0:0:
448,192,319891,1,10,0:0:0:0:
320,192,320095,1,0,0:0:0:0:
448,192,320095,1,0,0:0:0:0:
192,192,320197,1,0,0:0:0:0:
64,192,320197,1,0,0:0:0:0:
64,192,320299,1,8,0:0:0:0:
448,192,320299,1,8,0:0:0:0:
320,192,320299,1,8,0:0:0:0:
192,192,320350,1,0,0:0:0:0:
320,192,320401,1,0,0:0:0:0:
448,192,320401,1,0,0:0:0:0:
64,192,320503,1,0,0:0:0:0:
192,192,320503,1,0,0:0:0:0:
448,192,320605,1,0,0:0:0:0:
320,192,320605,1,0,0:0:0:0:
320,192,320707,1,10,0:0:0:0:
448,192,320707,1,8,0:0:0:0:
64,192,320707,1,8,0:0:0:0:
192,192,320809,1,0,0:0:0:0:
64,192,320809,1,0,0:0:0:0:
320,192,320911,1,0,0:0:0:0:
448,192,320911,1,0,0:0:0:0:
192,192,320962,1,0,0:0:0:0:
64,192,321013,1,0,0:0:0:0:
448,192,321064,1,0,0:0:0:0:
64,192,321115,1,8,0:0:0:0:
192,192,321115,1,8,0:0:0:0:
320,192,321115,1,8,0:0:0:0:
192,192,321320,1,0,0:0:0:0:
64,192,321320,1,0,0:0:0:0:
192,192,321524,1,8,0:0:0:0:
320,192,321524,1,8,0:0:0:0:
448,192,321524,1,10,0:0:0:0:
320,192,321728,1,0,0:0:0:0:
448,192,321728,1,0,0:0:0:0:
192,192,321830,1,0,0:0:0:0:
64,192,321830,1,0,0:0:0:0:
64,192,321932,1,8,0:0:0:0:
448,192,321932,1,8,0:0:0:0:
192,192,321932,1,8,0:0:0:0:
320,192,322034,1,0,0:0:0:0:
448,192,322034,1,0,0:0:0:0:
192,192,322136,1,0,0:0:0:0:
320,192,322136,1,0,0:0:0:0:
64,192,322238,1,0,0:0:0:0:
192,192,322238,1,0,0:0:0:0:
320,192,322340,1,8,0:0:0:0:
448,192,322340,1,8,0:0:0:0:
64,192,322340,1,2,0:0:0:0:
448,192,322442,1,0,0:0:0:0:
320,192,322442,1,0,0:0:0:0:
64,192,322544,1,0,0:0:0:0:
192,192,322544,1,0,0:0:0:0:
64,192,322748,1,8,0:0:0:0:
320,192,322748,1,8,0:0:0:0:
448,192,322748,128,8,322952:0:0:0:0:
64,192,322952,1,0,0:0:0:0:
192,192,323054,1,0,0:0:0:0:
320,192,323054,1,0,0:0:0:0:
64,192,323156,1,8,0:0:0:0:
448,192,323156,1,10,0:0:0:0:
320,192,323156,1,8,0:0:0:0:
64,192,323258,1,0,0:0:0:0:
192,192,323258,1,0,0:0:0:0:
192,192,323360,1,0,0:0:0:0:
320,192,323360,1,0,0:0:0:0:
448,192,323462,1,0,0:0:0:0:
64,192,323462,1,0,0:0:0:0:
320,192,323513,1,0,0:0:0:0:
64,192,323564,1,8,0:0:0:0:
448,192,323564,1,8,0:0:0:0:
192,192,323564,1,8,0:0:0:0:
320,192,323769,1,0,0:0:0:0:
192,192,323973,1,8,0:0:0:0:
64,192,323973,1,10,0:0:0:0:
448,192,323973,1,8,0:0:0:0:
320,192,324075,1,0,0:0:0:0:
448,192,324075,1,0,0:0:0:0:
192,192,324177,1,0,0:0:0:0:
64,192,324177,1,0,0:0:0:0:
320,192,324279,1,0,0:0:0:0:
448,192,324279,1,0,0:0:0:0:
64,192,324381,1,8,0:0:0:0:
320,192,324381,1,8,0:0:0:0:
448,192,324381,1,8,0:0:0:0:
192,192,324585,1,0,0:0:0:0:
320,192,324585,1,0,0:0:0:0:
64,192,324789,1,10,0:0:0:0:
192,192,324789,1,8,0:0:0:0:
448,192,324789,128,8,324993:0:0:0:0:
64,192,324993,1,0,0:0:0:0:
192,192,324993,1,0,0:0:0:0:
448,192,325095,1,0,0:0:0:0:
320,192,325095,1,0,0:0:0:0:
192,192,325197,1,8,0:0:0:0:
64,192,325197,1,8,0:0:0:0:
320,192,325197,1,8,0:0:0:0:
64,192,325299,1,0,0:0:0:0:
192,192,325299,1,0,0:0:0:0:
320,192,325401,1,0,0:0:0:0:
448,192,325401,1,0,0:0:0:0:
64,192,325503,1,0,0:0:0:0:
192,192,325503,1,0,0:0:0:0:
192,192,325605,1,8,0:0:0:0:
320,192,325605,1,10,0:0:0:0:
448,192,325605,1,8,0:0:0:0:
448,192,325707,1,0,0:0:0:0:
320,192,325707,1,0,0:0:0:0:
192,192,325809,1,0,0:0:0:0:
64,192,325809,1,0,0:0:0:0:
448,192,326013,1,8,0:0:0:0:
192,192,326013,1,8,0:0:0:0:
64,192,326013,1,8,0:0:0:0:
192,192,326115,1,0,0:0:0:0:
64,192,326115,1,0,0:0:0:0:
320,192,326218,1,0,0:0:0:0:
448,192,326218,1,0,0:0:0:0:
320,192,326320,1,0,0:0:0:0:
64,192,326320,1,0,0:0:0:0:
64,192,326422,1,8,0:0:0:0:
192,192,326422,1,8,0:0:0:0:
448,192,326422,1,10,0:0:0:0:
320,192,326626,1,0,0:0:0:0:
448,192,326626,1,0,0:0:0:0:
64,192,326728,1,0,0:0:0:0:
192,192,326728,1,0,0:0:0:0:
320,192,326830,1,8,0:0:0:0:
448,192,326830,1,8,0:0:0:0:
64,192,326830,1,8,0:0:0:0:
192,192,326881,1,0,0:0:0:0:
320,192,326932,1,0,0:0:0:0:
448,192,326932,1,0,0:0:0:0:
64,192,327034,1,0,0:0:0:0:
192,192,327034,1,0,0:0:0:0:
448,192,327136,1,0,0:0:0:0:
320,192,327136,1,0,0:0:0:0:
64,192,327238,1,8,0:0:0:0:
192,192,327238,1,10,0:0:0:0:
320,192,327238,1,8,0:0:0:0:
64,192,327340,1,0,0:0:0:0:
192,192,327340,1,0,0:0:0:0:
320,192,327442,1,0,0:0:0:0:
448,192,327442,1,0,0:0:0:0:
192,192,327493,1,0,0:0:0:0:
64,192,327544,1,0,0:0:0:0:
448,192,327595,1,0,0:0:0:0:
192,192,327646,1,8,0:0:0:0:
320,192,327646,1,8,0:0:0:0:
64,192,327646,1,8,0:0:0:0:
320,192,327850,1,0,0:0:0:0:
448,192,327850,128,0,327952:0:0:0:0:
192,192,328054,1,8,0:0:0:0:
64,192,328054,1,10,0:0:0:0:
448,192,328054,128,8,328156:0:0:0:0:
192,192,328258,1,0,0:0:0:0:
448,192,328258,128,0,328360:0:0:0:0:
64,192,328462,1,8,0:0:0:0:
320,192,328462,1,8,0:0:0:0:
448,192,328462,128,8,328667:0:0:0:0:
64,192,328769,1,0,0:0:0:0:
320,192,328769,1,0,0:0:0:0:
192,192,328871,1,10,0:0:0:0:
320,192,328871,1,8,0:0:0:0:
448,192,328871,1,8,0:0:0:0:
64,192,328973,1,0,0:0:0:0:
448,192,328973,1,0,0:0:0:0:
320,192,329075,1,0,0:0:0:0:
192,192,329075,1,0,0:0:0:0:
64,192,329279,1,12,0:0:0:0:
192,192,329279,1,8,0:0:0:0:
320,192,329279,1,8,0:0:0:0:
192,192,329483,1,8,0:0:0:0:
320,192,329483,1,8,0:0:0:0:
448,192,329483,1,12,0:0:0:0:
64,192,329789,1,12,0:0:0:0:
192,192,329789,1,8,0:0:0:0:
448,192,329789,1,8,0:0:0:0:
64,192,329993,1,8,0:0:0:0:
192,192,329993,1,8,0:0:0:0:
320,192,329993,1,12,0:0:0:0:
192,192,330095,1,8,0:0:0:0:
448,192,330095,1,12,0:0:0:0:
64,192,330095,1,8,0:0:0:0:
192,192,330401,1,8,0:0:0:0:
448,192,330401,1,8,0:0:0:0:
64,192,330401,1,12,0:0:0:0:
64,192,330707,1,8,0:0:0:0:
192,192,330707,1,8,0:0:0:0:
320,192,330758,1,0,0:0:0:0:
448,192,330809,1,0,0:0:0:0:
64,192,330860,1,0,0:0:0:0:
320,192,330911,1,8,0:0:0:0:
448,192,330911,1,8,0:0:0:0:
192,192,330911,1,12,0:0:0:0:
192,192,331115,1,0,0:0:0:0:
64,192,331115,1,0,0:0:0:0:
320,192,331320,1,8,0:0:0:0:
192,192,331320,1,8,0:0:0:0:
64,192,331320,1,10,0:0:0:0:
64,192,331524,1,0,0:0:0:0:
192,192,331524,1,0,0:0:0:0:
320,192,331626,1,0,0:0:0:0:
448,192,331626,1,0,0:0:0:0:
448,192,331728,1,8,0:0:0:0:
320,192,331728,1,8,0:0:0:0:
64,192,331728,1,8,0:0:0:0:
64,192,331830,1,0,0:0:0:0:
192,192,331830,1,0,0:0:0:0:
320,192,331932,1,0,0:0:0:0:
448,192,331932,1,0,0:0:0:0:
64,192,332034,1,0,0:0:0:0:
192,192,332034,1,0,0:0:0:0:
192,192,332136,1,10,0:0:0:0:
64,192,332136,1,8,0:0:0:0:
320,192,332136,1,8,0:0:0:0:
320,192,332238,1,0,0:0:0:0:
448,192,332238,1,0,0:0:0:0:
192,192,332340,1,0,0:0:0:0:
64,192,332340,1,0,0:0:0:0:
192,192,332544,1,8,0:0:0:0:
448,192,332544,1,8,0:0:0:0:
320,192,332544,1,8,0:0:0:0:
64,192,332646,1,0,0:0:0:0:
192,192,332646,1,0,0:0:0:0:
64,192,332748,1,0,0:0:0:0:
448,192,332748,1,0,0:0:0:0:
448,192,332850,1,0,0:0:0:0:
320,192,332850,1,0,0:0:0:0:
320,192,332952,1,8,0:0:0:0:
192,192,332952,1,8,0:0:0:0:
64,192,332952,1,10,0:0:0:0:
192,192,333156,1,0,0:0:0:0:
64,192,333156,1,0,0:0:0:0:
320,192,333258,1,0,0:0:0:0:
448,192,333258,1,0,0:0:0:0:
448,192,333360,1,8,0:0:0:0:
64,192,333360,1,8,0:0:0:0:
192,192,333360,1,8,0:0:0:0:
320,192,333411,1,0,0:0:0:0:
192,192,333462,1,0,0:0:0:0:
64,192,333462,1,0,0:0:0:0:
448,192,333564,1,0,0:0:0:0:
64,192,333667,1,0,0:0:0:0:
192,192,333667,1,0,0:0:0:0:
192,192,333769,1,10,0:0:0:0:
64,192,333769,1,8,0:0:0:0:
448,192,333769,1,8,0:0:0:0:
320,192,333871,1,0,0:0:0:0:
448,192,333871,1,0,0:0:0:0:
64,192,333973,1,0,0:0:0:0:
192,192,333973,1,0,0:0:0:0:
320,192,334024,1,0,0:0:0:0:
448,192,334075,1,0,0:0:0:0:
64,192,334126,1,0,0:0:0:0:
448,192,334177,1,8,0:0:0:0:
320,192,334177,1,8,0:0:0:0:
192,192,334177,1,8,0:0:0:0:
320,192,334381,1,0,0:0:0:0:
448,192,334381,1,0,0:0:0:0:
320,192,334585,1,8,0:0:0:0:
192,192,334585,1,8,0:0:0:0:
64,192,334585,1,10,0:0:0:0:
448,192,334789,1,0,0:0:0:0:
320,192,334789,1,0,0:0:0:0:
64,192,334891,1,0,0:0:0:0:
192,192,334891,1,0,0:0:0:0:
448,192,334993,1,8,0:0:0:0:
192,192,334993,1,8,0:0:0:0:
64,192,334993,1,8,0:0:0:0:
320,192,335095,1,0,0:0:0:0:
448,192,335095,1,0,0:0:0:0:
64,192,335197,1,0,0:0:0:0:
192,192,335197,1,0,0:0:0:0:
448,192,335299,1,0,0:0:0:0:
320,192,335299,1,0,0:0:0:0:
320,192,335401,1,10,0:0:0:0:
192,192,335401,1,8,0:0:0:0:
64,192,335401,1,8,0:0:0:0:
64,192,335503,1,0,0:0:0:0:
192,192,335503,1,0,0:0:0:0:
448,192,335605,1,0,0:0:0:0:
320,192,335605,1,0,0:0:0:0:
448,192,335809,1,8,0:0:0:0:
192,192,335809,1,8,0:0:0:0:
64,192,335809,128,8,336013:0:0:0:0:
448,192,336013,1,0,0:0:0:0:
320,192,336115,1,0,0:0:0:0:
192,192,336115,1,0,0:0:0:0:
448,192,336218,1,8,0:0:0:0:
64,192,336218,1,10,0:0:0:0:
192,192,336218,1,8,0:0:0:0:
448,192,336320,1,0,0:0:0:0:
320,192,336320,1,0,0:0:0:0:
192,192,336422,1,0,0:0:0:0:
64,192,336422,1,0,0:0:0:0:
320,192,336524,1,0,0:0:0:0:
448,192,336524,1,0,0:0:0:0:
192,192,336575,1,0,0:0:0:0:
320,192,336626,1,8,0:0:0:0:
448,192,336626,1,8,0:0:0:0:
64,192,336626,1,8,0:0:0:0:
192,192,336728,1,0,0:0:0:0:
320,192,336830,1,0,0:0:0:0:
64,192,336932,1,0,0:0:0:0:
320,192,337034,1,10,0:0:0:0:
64,192,337034,1,8,0:0:0:0:
448,192,337034,1,8,0:0:0:0:
320,192,337136,1,0,0:0:0:0:
448,192,337136,1,0,0:0:0:0:
192,192,337238,1,0,0:0:0:0:
64,192,337238,1,0,0:0:0:0:
448,192,337340,1,0,0:0:0:0:
320,192,337340,1,0,0:0:0:0:
448,192,337442,1,12,0:0:0:0:
192,192,337442,1,8,0:0:0:0:
64,192,337442,1,8,0:0:0:0:
64,192,337544,1,8,0:0:0:0:
448,192,337646,1,8,0:0:0:0:
320,192,337646,1,8,0:0:0:0:
448,192,337748,1,8,0:0:0:0:
192,192,337850,1,8,0:0:0:0:
64,192,337850,1,8,0:0:0:0:
64,192,337952,1,8,0:0:0:0:
320,192,338054,1,8,0:0:0:0:
448,192,338054,1,8,0:0:0:0:
320,192,338156,1,8,0:0:0:0:
64,192,338258,1,8,0:0:0:0:
192,192,338258,1,8,0:0:0:0:
192,192,338360,1,8,0:0:0:0:
320,192,338462,1,8,0:0:0:0:
64,192,338462,1,8,0:0:0:0:
320,192,338564,1,8,0:0:0:0:
448,192,338667,1,8,0:0:0:0:
192,192,338667,1,8,0:0:0:0:
192,192,338769,1,8,0:0:0:0:
448,192,338871,1,8,0:0:0:0:
64,192,338871,1,8,0:0:0:0:
448,192,338973,1,8,0:0:0:0:
320,192,339075,1,8,0:0:0:0:
192,192,339075,1,8,0:0:0:0:
192,192,339177,1,8,0:0:0:0:
320,192,339279,1,8,0:0:0:0:
64,192,339279,1,8,0:0:0:0:
320,192,339381,1,8,0:0:0:0:
448,192,339483,1,8,0:0:0:0:
64,192,339483,1,8,0:0:0:0:
64,192,339585,1,8,0:0:0:0:
320,192,339687,1,8,0:0:0:0:
192,192,339687,1,8,0:0:0:0:
320,192,339789,1,8,0:0:0:0:
448,192,339891,1,8,0:0:0:0:
192,192,339891,1,8,0:0:0:0:
192,192,339993,1,8,0:0:0:0:
320,192,340095,1,8,0:0:0:0:
64,192,340095,1,8,0:0:0:0:
320,192,340197,1,8,0:0:0:0:
64,192,340299,1,8,0:0:0:0:
448,192,340299,1,8,0:0:0:0:
64,192,340401,1,8,0:0:0:0:
192,192,340503,1,8,0:0:0:0:
448,192,340503,1,8,0:0:0:0:
448,192,340605,1,8,0:0:0:0:
64,192,340707,1,8,0:0:0:0:
192,192,340707,1,8,0:0:0:0:
320,192,340758,1,8,0:0:0:0:
448,192,340809,1,8,0:0:0:0:
64,192,340809,1,8,0:0:0:0:
192,192,340860,1,8,0:0:0:0:
320,192,340911,1,8,0:0:0:0:
448,192,340911,1,8,0:0:0:0:
192,192,340962,1,8,0:0:0:0:
64,192,341013,1,8,0:0:0:0:
320,192,341013,1,8,0:0:0:0:
448,192,341064,1,8,0:0:0:0:
192,192,341115,1,8,0:0:0:0:
64,192,341115,1,8,0:0:0:0:
448,192,341167,1,8,0:0:0:0:
320,192,341218,1,8,0:0:0:0:
192,192,341218,1,8,0:0:0:0:
64,192,341269,1,8,0:0:0:0:
320,192,341320,1,8,0:0:0:0:
448,192,341320,1,8,0:0:0:0:
64,192,341371,1,8,0:0:0:0:
192,192,341422,1,8,0:0:0:0:
448,192,341422,1,8,0:0:0:0:
320,192,341473,1,8,0:0:0:0:
192,192,341524,1,8,0:0:0:0:
64,192,341524,1,8,0:0:0:0:
320,192,341575,1,8,0:0:0:0:
448,192,341626,1,8,0:0:0:0:
64,192,341626,1,8,0:0:0:0:
192,192,341677,1,8,0:0:0:0:
320,192,341728,1,8,0:0:0:0:
448,192,341728,1,8,0:0:0:0:
64,192,341779,1,8,0:0:0:0:
192,192,341830,1,8,0:0:0:0:
320,192,341830,1,8,0:0:0:0:
448,192,341881,1,8,0:0:0:0:
192,192,341932,1,8,0:0:0:0:
64,192,341932,1,8,0:0:0:0:
448,192,341983,1,8,0:0:0:0:
320,192,342034,1,8,0:0:0:0:
64,192,342034,1,8,0:0:0:0:
192,192,342085,1,8,0:0:0:0:
320,192,342136,1,8,0:0:0:0:
448,192,342136,1,8,0:0:0:0:
64,192,342187,1,8,0:0:0:0:
192,192,342238,1,8,0:0:0:0:
320,192,342238,1,8,0:0:0:0:
448,192,342289,1,8,0:0:0:0:
64,192,342340,1,8,0:0:0:0:
192,192,342391,1,0,0:0:0:0:
320,192,342442,1,0,0:0:0:0:
448,192,342493,1,0,0:0:0:0:
192,192,342544,1,0,0:0:0:0:
64,192,342595,1,0,0:0:0:0:
320,192,342646,1,0,0:0:0:0:
448,192,342697,1,0,0:0:0:0:
64,192,342748,1,0,0:0:0:0:
192,192,342799,1,0,0:0:0:0:
448,192,342850,1,0,0:0:0:0:
320,192,342901,1,0,0:0:0:0:
192,192,342952,1,0,0:0:0:0:
64,192,343003,1,0,0:0:0:0:
320,192,343054,1,0,0:0:0:0:
448,192,343105,1,0,0:0:0:0:
192,192,343156,1,0,0:0:0:0:
64,192,343207,1,0,0:0:0:0:
448,192,343258,1,0,0:0:0:0:
320,192,343309,1,0,0:0:0:0:
64,192,343360,1,0,0:0:0:0:
192,192,343411,1,0,0:0:0:0:
320,192,343462,1,0,0:0:0:0:
448,192,343513,1,0,0:0:0:0:
64,192,343564,1,0,0:0:0:0:
192,192,343615,1,0,0:0:0:0:
448,192,343667,1,0,0:0:0:0:
320,192,343718,1,0,0:0:0:0:
64,192,343769,1,0,0:0:0:0:
192,192,343820,1,0,0:0:0:0:
320,192,343871,1,0,0:0:0:0:
448,192,343922,1,0,0:0:0:0:
192,192,343973,1,8,0:0:0:0:
64,192,343973,1,12,0:0:0:0:
320,192,344075,1,8,0:0:0:0:
448,192,344075,1,8,0:0:0:0:
192,192,344177,1,8,0:0:0:0:
320,192,344177,1,8,0:0:0:0:
192,192,344279,1,8,0:0:0:0:
64,192,344279,1,8,0:0:0:0:
320,192,344381,1,8,0:0:0:0:
448,192,344381,1,8,0:0:0:0:
448,192,344483,1,8,0:0:0:0:
320,192,344483,1,8,0:0:0:0:
64,192,344585,1,8,0:0:0:0:
192,192,344585,1,8,0:0:0:0:
320,192,344687,1,8,0:0:0:0:
192,192,344687,1,8,0:0:0:0:
320,192,344789,1,8,0:0:0:0:
448,192,344789,1,8,0:0:0:0:
192,192,344891,1,8,0:0:0:0:
64,192,344891,1,8,0:0:0:0:
64,192,344993,1,8,0:0:0:0:
192,192,344993,1,8,0:0:0:0:
448,192,345095,1,8,0:0:0:0:
320,192,345095,1,8,0:0:0:0:
64,192,345197,1,8,0:0:0:0:
448,192,345197,1,8,0:0:0:0:
192,192,345265,1,0,0:0:0:0:
320,192,345333,1,0,0:0:0:0:
448,192,345401,1,0,0:0:0:0:
64,192,345401,1,0,0:0:0:0:
192,192,345469,1,0,0:0:0:0:
320,192,345537,1,0,0:0:0:0:
448,192,345605,1,0,0:0:0:0:
64,192,345605,1,12,0:0:0:0:
192,192,345707,1,8,0:0:0:0:
64,192,345707,1,8,0:0:0:0:
320,192,345809,1,8,0:0:0:0:
448,192,345809,1,8,0:0:0:0:
192,192,345911,1,8,0:0:0:0:
320,192,345911,1,8,0:0:0:0:
192,192,346013,1,8,0:0:0:0:
64,192,346013,1,8,0:0:0:0:
448,192,346115,1,8,0:0:0:0:
320,192,346115,1,8,0:0:0:0:
448,192,346218,1,8,0:0:0:0:
320,192,346218,1,8,0:0:0:0:
64,192,346320,1,8,0:0:0:0:
192,192,346320,1,8,0:0:0:0:
192,192,346422,1,8,0:0:0:0:
320,192,346422,1,8,0:0:0:0:
448,192,346524,1,8,0:0:0:0:
320,192,346524,1,8,0:0:0:0:
192,192,346626,1,8,0:0:0:0:
64,192,346626,1,8,0:0:0:0:
192,192,346728,1,8,0:0:0:0:
320,192,346728,1,8,0:0:0:0:
448,192,346830,128,8,346932:0:0:0:0:
64,192,346830,1,8,0:0:0:0:
320,192,346932,128,0,347034:0:0:0:0:
64,192,347034,128,0,347136:0:0:0:0:
192,192,347136,128,0,347238:0:0:0:0:
320,192,347238,1,8,0:0:0:0:
448,192,347238,1,12,0:0:0:0:
192,192,347340,1,8,0:0:0:0:
64,192,347340,1,8,0:0:0:0:
320,192,347442,1,8,0:0:0:0:
192,192,347442,1,8,0:0:0:0:
448,192,347544,1,8,0:0:0:0:
320,192,347544,1,8,0:0:0:0:
192,192,347646,1,8,0:0:0:0:
64,192,347646,1,8,0:0:0:0:
64,192,347748,1,8,0:0:0:0:
192,192,347748,1,8,0:0:0:0:
320,192,347850,1,8,0:0:0:0:
448,192,347850,1,8,0:0:0:0:
320,192,347952,1,8,0:0:0:0:
192,192,347952,1,8,0:0:0:0:
64,192,348054,1,8,0:0:0:0:
192,192,348054,1,8,0:0:0:0:
320,192,348156,1,8,0:0:0:0:
448,192,348156,1,8,0:0:0:0:
320,192,348258,1,8,0:0:0:0:
448,192,348258,1,8,0:0:0:0:
64,192,348360,1,8,0:0:0:0:
192,192,348360,1,8,0:0:0:0:
64,192,348462,1,8,0:0:0:0:
192,192,348462,1,8,0:0:0:0:
64,192,348598,1,0,0:0:0:0:
192,192,348598,1,0,0:0:0:0:
320,192,348667,1,0,0:0:0:0:
448,192,348667,1,0,0:0:0:0:
320,192,348803,1,0,0:0:0:0:
448,192,348803,1,0,0:0:0:0:
64,192,348871,1,8,0:0:0:0:
192,192,348871,1,12,0:0:0:0:
320,192,348973,1,8,0:0:0:0:
448,192,348973,1,8,0:0:0:0:
64,192,349075,1,8,0:0:0:0:
192,192,349075,1,8,0:0:0:0:
320,192,349177,1,8,0:0:0:0:
448,192,349177,1,8,0:0:0:0:
448,192,349279,1,8,0:0:0:0:
320,192,349279,1,8,0:0:0:0:
64,192,349381,1,8,0:0:0:0:
192,192,349381,1,8,0:0:0:0:
448,192,349483,1,8,0:0:0:0:
320,192,349483,1,8,0:0:0:0:
192,192,349585,1,8,0:0:0:0:
64,192,349585,1,8,0:0:0:0:
64,192,349687,128,8,350401:0:0:0:0:
192,192,349687,128,8,350401:0:0:0:0:
320,192,349687,128,8,350401:0:0:0:0:
448,192,350503,1,8,0:0:0:0:
320,192,350503,1,8,0:0:0:0:
192,192,350554,1,8,0:0:0:0:
64,192,350605,1,8,0:0:0:0:
448,192,350656,1,8,0:0:0:0:
320,192,350707,1,8,0:0:0:0:
192,192,350758,1,8,0:0:0:0:
64,192,350809,1,8,0:0:0:0:
448,192,350860,1,8,0:0:0:0:
192,192,350911,1,8,0:0:0:0:
320,192,350911,1,8,0:0:0:0:
64,192,350962,1,8,0:0:0:0:
448,192,351013,1,8,0:0:0:0:
320,192,351064,1,8,0:0:0:0:
192,192,351115,1,8,0:0:0:0:
64,192,351167,1,8,0:0:0:0:
448,192,351218,1,8,0:0:0:0:
320,192,351269,1,8,0:0:0:0:
192,192,351320,1,8,0:0:0:0:
64,192,351320,1,8,0:0:0:0:
320,192,351371,1,8,0:0:0:0:
448,192,351422,1,8,0:0:0:0:
64,192,351473,1,8,0:0:0:0:
192,192,351524,1,8,0:0:0:0:
320,192,351575,1,8,0:0:0:0:
448,192,351626,1,8,0:0:0:0:
64,192,351677,1,8,0:0:0:0:
320,192,351728,1,8,0:0:0:0:
192,192,351728,1,8,0:0:0:0:
448,192,351779,1,8,0:0:0:0:
64,192,351830,1,8,0:0:0:0:
192,192,351881,1,8,0:0:0:0:
320,192,351932,1,8,0:0:0:0:
448,192,351983,1,8,0:0:0:0:
64,192,352034,1,8,0:0:0:0:
192,192,352085,1,8,0:0:0:0:
448,192,352136,1,8,0:0:0:0:
320,192,352136,1,8,0:0:0:0:
192,192,352187,1,8,0:0:0:0:
64,192,352238,1,8,0:0:0:0:
448,192,352289,1,8,0:0:0:0:
320,192,352340,1,8,0:0:0:0:
192,192,352340,1,8,0:0:0:0:
64,192,352391,1,8,0:0:0:0:
448,192,352442,1,8,0:0:0:0:
320,192,352493,1,8,0:0:0:0:
192,192,352544,1,8,0:0:0:0:
64,192,352544,1,8,0:0:0:0:
320,192,352595,1,8,0:0:0:0:
448,192,352646,1,8,0:0:0:0:
64,192,352697,1,8,0:0:0:0:
192,192,352748,1,8,0:0:0:0:
320,192,352748,1,8,0:0:0:0:
448,192,352799,1,8,0:0:0:0:
64,192,352850,1,8,0:0:0:0:
192,192,352901,1,8,0:0:0:0:
448,192,352952,1,8,0:0:0:0:
320,192,352952,1,8,0:0:0:0:
192,192,353003,1,8,0:0:0:0:
64,192,353054,1,8,0:0:0:0:
448,192,353105,1,8,0:0:0:0:
192,192,353156,1,8,0:0:0:0:
320,192,353156,1,8,0:0:0:0:
64,192,353207,1,8,0:0:0:0:
448,192,353258,1,8,0:0:0:0:
320,192,353309,1,8,0:0:0:0:
64,192,353360,1,8,0:0:0:0:
192,192,353360,1,8,0:0:0:0:
320,192,353411,1,8,0:0:0:0:
448,192,353462,1,8,0:0:0:0:
64,192,353513,1,8,0:0:0:0:
320,192,353564,1,8,0:0:0:0:
192,192,353564,1,8,0:0:0:0:
448,192,353615,1,8,0:0:0:0:
64,192,353667,1,8,0:0:0:0:
192,192,353718,1,8,0:0:0:0:
320,192,353769,1,8,0:0:0:0:
448,192,353769,1,8,0:0:0:0:
448,192,353871,1,8,0:0:0:0:
320,192,353871,1,8,0:0:0:0:
64,192,353973,1,8,0:0:0:0:
192,192,353973,1,8,0:0:0:0:
64,192,354075,1,8,0:0:0:0:
192,192,354075,1,8,0:0:0:0:
320,192,354177,1,8,0:0:0:0:
448,192,354177,1,8,0:0:0:0:
320,192,354279,1,8,0:0:0:0:
448,192,354279,1,8,0:0:0:0:
64,192,354381,1,8,0:0:0:0:
192,192,354381,1,8,0:0:0:0:
64,192,354483,1,8,0:0:0:0:
192,192,354483,1,8,0:0:0:0:
320,192,354585,1,8,0:0:0:0:
448,192,354585,1,8,0:0:0:0:
320,192,354687,1,8,0:0:0:0:
448,192,354687,1,8,0:0:0:0:
192,192,354789,1,8,0:0:0:0:
64,192,354789,1,8,0:0:0:0:
64,192,354891,1,8,0:0:0:0:
192,192,354891,1,8,0:0:0:0:
320,192,354993,1,8,0:0:0:0:
448,192,354993,1,8,0:0:0:0:
192,192,355044,1,8,0:0:0:0:
64,192,355095,1,8,0:0:0:0:
448,192,355095,1,8,0:0:0:0:
320,192,355146,1,8,0:0:0:0:
64,192,355197,1,8,0:0:0:0:
192,192,355197,1,8,0:0:0:0:
448,192,355248,1,8,0:0:0:0:
320,192,355299,1,8,0:0:0:0:
64,192,355299,1,8,0:0:0:0:
192,192,355350,1,8,0:0:0:0:
320,192,355401,1,8,0:0:0:0:
448,192,355401,1,8,0:0:0:0:
448,192,355503,1,0,0:0:0:0:
64,192,355605,1,0,0:0:0:0:
64,192,355707,1,0,0:0:0:0:
448,192,355809,1,0,0:0:0:0:
448,192,355911,1,0,0:0:0:0:
320,192,355911,1,0,0:0:0:0:
192,192,356013,1,0,0:0:0:0:
64,192,356013,1,0,0:0:0:0:
64,192,356115,1,0,0:0:0:0:
192,192,356115,1,0,0:0:0:0:
320,192,356218,1,0,0:0:0:0:
448,192,356218,1,0,0:0:0:0:
320,192,356320,1,0,0:0:0:0:
448,192,356320,1,0,0:0:0:0:
64,192,356422,128,0,356626:0:0:0:0:
192,192,356422,1,0,0:0:0:0:
448,192,356626,128,0,356830:0:0:0:0:
320,192,356626,1,0,0:0:0:0:
320,192,357034,1,8,0:0:0:0:
448,192,357034,1,8,0:0:0:0:
64,192,357034,1,8,0:0:0:0:
192,192,357085,1,0,0:0:0:0:
320,192,357136,1,0,0:0:0:0:
192,192,357187,1,0,0:0:0:0:
320,192,357238,1,0,0:0:0:0:
192,192,357340,1,0,0:0:0:0:
448,192,357442,1,14,0:0:0:0:
320,192,357442,1,8,0:0:0:0:
64,192,357442,1,8,0:0:0:0:
448,192,357646,1,0,0:0:0:0:
320,192,357646,1,0,0:0:0:0:
64,192,357748,1,0,0:0:0:0:
320,192,357850,1,8,0:0:0:0:
192,192,357850,1,8,0:0:0:0:
64,192,357850,1,8,0:0:0:0:
448,192,357952,1,0,0:0:0:0:
320,192,358054,1,0,0:0:0:0:
448,192,358054,1,0,0:0:0:0:
192,192,358105,1,0,0:0:0:0:
64,192,358156,1,0,0:0:0:0:
448,192,358207,1,0,0:0:0:0:
192,192,358258,1,10,0:0:0:0:
320,192,358258,1,8,0:0:0:0:
64,192,358258,1,8,0:0:0:0:
320,192,358360,1,0,0:0:0:0:
448,192,358462,1,0,0:0:0:0:
64,192,358462,1,0,0:0:0:0:
320,192,358564,1,0,0:0:0:0:
448,192,358564,1,0,0:0:0:0:
320,192,358667,1,8,0:0:0:0:
192,192,358667,1,8,0:0:0:0:
64,192,358667,1,8,0:0:0:0:
320,192,358871,1,0,0:0:0:0:
448,192,358871,1,0,0:0:0:0:
448,192,359075,1,10,0:0:0:0:
192,192,359075,1,8,0:0:0:0:
64,192,359075,1,8,0:0:0:0:
320,192,359177,1,0,0:0:0:0:
448,192,359177,1,0,0:0:0:0:
64,192,359228,1,0,0:0:0:0:
192,192,359279,1,0,0:0:0:0:
320,192,359330,1,0,0:0:0:0:
448,192,359381,1,0,0:0:0:0:
64,192,359432,1,0,0:0:0:0:
192,192,359483,1,8,0:0:0:0:
448,192,359483,1,8,0:0:0:0:
320,192,359483,1,8,0:0:0:0:
64,192,359585,1,0,0:0:0:0:
320,192,359687,1,0,0:0:0:0:
192,192,359789,1,8,0:0:0:0:
448,192,359789,1,8,0:0:0:0:
64,192,359789,1,8,0:0:0:0:
448,192,359891,1,0,0:0:0:0:
320,192,359891,1,0,0:0:0:0:
192,192,359993,1,0,0:0:0:0:
64,192,359993,1,0,0:0:0:0:
320,192,360095,1,8,0:0:0:0:
192,192,360095,1,8,0:0:0:0:
448,192,360095,1,8,0:0:0:0:
64,192,360197,1,0,0:0:0:0:
320,192,360299,1,8,0:0:0:0:
192,192,360299,1,8,0:0:0:0:
64,192,360299,1,8,0:0:0:0:
448,192,360299,128,8,360503:0:0:0:0:
320,192,360503,128,0,360707:0:0:0:0:
192,192,360707,1,8,0:0:0:0:
64,192,360707,1,8,0:0:0:0:
448,192,360707,1,14,0:0:0:0:
192,192,360911,1,0,0:0:0:0:
64,192,360911,1,0,0:0:0:0:
448,192,361115,1,8,0:0:0:0:
320,192,361115,1,8,0:0:0:0:
64,192,361115,1,8,0:0:0:0:
192,192,361218,1,0,0:0:0:0:
64,192,361218,1,0,0:0:0:0:
320,192,361320,1,0,0:0:0:0:
64,192,361422,1,0,0:0:0:0:
192,192,361473,1,0,0:0:0:0:
448,192,361524,1,8,0:0:0:0:
320,192,361524,1,10,0:0:0:0:
64,192,361524,1,8,0:0:0:0:
192,192,361626,1,0,0:0:0:0:
320,192,361626,1,0,0:0:0:0:
192,192,361728,1,0,0:0:0:0:
64,192,361728,1,0,0:0:0:0:
448,192,361830,1,0,0:0:0:0:
320,192,361830,1,0,0:0:0:0:
448,192,361932,1,8,0:0:0:0:
320,192,361932,1,8,0:0:0:0:
64,192,361932,128,8,362136:0:0:0:0:
448,192,362136,1,0,0:0:0:0:
192,192,362238,1,2,0:0:0:0:
320,192,362238,1,2,0:0:0:0:
448,192,362238,128,0,362544:0:0:0:0:
64,192,362544,1,8,0:0:0:0:
192,192,362544,1,8,0:0:0:0:
320,192,362544,1,8,0:0:0:0:
64,192,362748,1,0,0:0:0:0:
192,192,362748,1,0,0:0:0:0:
64,192,362850,1,8,0:0:0:0:
320,192,362850,1,8,0:0:0:0:
448,192,362850,1,8,0:0:0:0:
448,192,363054,1,0,0:0:0:0:
64,192,363156,1,2,0:0:0:0:
192,192,363156,1,2,0:0:0:0:
320,192,363207,1,2,0:0:0:0:
448,192,363207,1,2,0:0:0:0:
64,192,363258,1,2,0:0:0:0:
192,192,363258,1,2,0:0:0:0:
320,192,363360,1,8,0:0:0:0:
448,192,363360,1,8,0:0:0:0:
64,192,363411,1,8,0:0:0:0:
192,192,363411,1,8,0:0:0:0:
320,192,363462,1,8,0:0:0:0:
448,192,363462,1,8,0:0:0:0:
64,192,363513,1,8,0:0:0:0:
192,192,363513,1,8,0:0:0:0:
320,192,363564,1,8,0:0:0:0:
448,192,363564,1,12,0:0:0:0:
64,192,363769,1,0,0:0:0:0:
192,192,363769,1,0,0:0:0:0:
448,192,363871,1,0,0:0:0:0:
448,192,363973,1,10,0:0:0:0:
320,192,363973,1,8,0:0:0:0:
192,192,363973,1,8,0:0:0:0:
320,192,364177,1,0,0:0:0:0:
448,192,364177,1,0,0:0:0:0:
192,192,364279,1,0,0:0:0:0:
320,192,364381,1,8,0:0:0:0:
64,192,364381,1,8,0:0:0:0:
448,192,364381,1,8,0:0:0:0:
448,192,364483,1,0,0:0:0:0:
320,192,364534,1,0,0:0:0:0:
192,192,364585,1,0,0:0:0:0:
64,192,364585,1,0,0:0:0:0:
320,192,364687,1,0,0:0:0:0:
192,192,364789,1,8,0:0:0:0:
64,192,364789,1,8,0:0:0:0:
448,192,364789,128,0,364993:0:0:0:0:
320,192,364993,1,8,0:0:0:0:
192,192,364993,1,8,0:0:0:0:
64,192,364993,128,8,365299:0:0:0:0:
64,192,365401,1,8,0:0:0:0:
320,192,365401,1,8,0:0:0:0:
448,192,365401,1,8,0:0:0:0:
448,192,365605,1,10,0:0:0:0:
192,192,365605,1,8,0:0:0:0:
64,192,365605,1,8,0:0:0:0:
320,192,365656,1,0,0:0:0:0:
192,192,365707,1,0,0:0:0:0:
64,192,365758,1,0,0:0:0:0:
448,192,365809,1,0,0:0:0:0:
320,192,365860,1,0,0:0:0:0:
192,192,365911,1,0,0:0:0:0:
64,192,365911,1,0,0:0:0:0:
448,192,366013,1,8,0:0:0:0:
320,192,366013,1,8,0:0:0:0:
192,192,366013,1,8,0:0:0:0:
448,192,366115,1,0,0:0:0:0:
64,192,366115,1,0,0:0:0:0:
320,192,366218,1,0,0:0:0:0:
192,192,366218,1,0,0:0:0:0:
64,192,366320,1,0,0:0:0:0:
448,192,366422,1,2,0:0:0:0:
320,192,366422,1,2,0:0:0:0:
64,192,366473,1,2,0:0:0:0:
192,192,366473,1,2,0:0:0:0:
448,192,366524,1,2,0:0:0:0:
320,192,366524,1,2,0:0:0:0:
192,192,366626,1,2,0:0:0:0:
64,192,366626,1,2,0:0:0:0:
448,192,366728,1,2,0:0:0:0:
320,192,366728,1,2,0:0:0:0:
448,192,366830,1,8,0:0:0:0:
192,192,366830,1,8,0:0:0:0:
64,192,366830,1,8,0:0:0:0:
320,192,366932,1,0,0:0:0:0:
192,192,367034,1,0,0:0:0:0:
448,192,367136,1,8,0:0:0:0:
320,192,367136,1,8,0:0:0:0:
320,192,367238,1,2,0:0:0:0:
192,192,367238,1,2,0:0:0:0:
64,192,367238,1,2,0:0:0:0:
192,192,367442,1,0,0:0:0:0:
320,192,367544,1,8,0:0:0:0:
448,192,367544,1,8,0:0:0:0:
448,192,367646,1,2,0:0:0:0:
320,192,367646,1,2,0:0:0:0:
64,192,367646,1,2,0:0:0:0:
64,192,367850,1,0,0:0:0:0:
192,192,367901,1,0,0:0:0:0:
448,192,367952,1,8,0:0:0:0:
320,192,367952,1,8,0:0:0:0:
448,192,368054,1,2,0:0:0:0:
320,192,368054,1,2,0:0:0:0:
192,192,368054,1,2,0:0:0:0:
192,192,368156,1,0,0:0:0:0:
64,192,368156,1,0,0:0:0:0:
448,192,368258,1,0,0:0:0:0:
320,192,368258,1,0,0:0:0:0:
192,192,368360,1,8,0:0:0:0:
64,192,368360,1,8,0:0:0:0:
320,192,368462,1,8,0:0:0:0:
192,192,368462,1,8,0:0:0:0:
64,192,368462,1,8,0:0:0:0:
448,192,368564,1,0,0:0:0:0:
192,192,368667,1,2,0:0:0:0:
320,192,368667,1,2,0:0:0:0:
64,192,368769,1,8,0:0:0:0:
192,192,368769,1,8,0:0:0:0:
448,192,368769,1,8,0:0:0:0:
320,192,368871,1,0,0:0:0:0:
64,192,368973,1,2,0:0:0:0:
448,192,368973,1,2,0:0:0:0:
320,192,369075,1,8,0:0:0:0:
192,192,369075,1,8,0:0:0:0:
448,192,369075,1,8,0:0:0:0:
64,192,369177,1,0,0:0:0:0:
192,192,369279,1,2,0:0:0:0:
320,192,369279,1,2,0:0:0:0:
192,192,369381,1,8,0:0:0:0:
320,192,369381,1,8,0:0:0:0:
448,192,369381,1,8,0:0:0:0:
448,192,369483,1,0,0:0:0:0:
192,192,369585,1,8,0:0:0:0:
64,192,369585,1,8,0:0:0:0:
320,192,369585,1,8,0:0:0:0:
64,192,369687,1,0,0:0:0:0:
320,192,369789,1,8,0:0:0:0:
192,192,369789,1,8,0:0:0:0:
448,192,369789,1,8,0:0:0:0:
320,192,369891,1,0,0:0:0:0:
192,192,369891,1,0,0:0:0:0:
64,192,369993,1,0,0:0:0:0:
448,192,370095,128,8,370401:0:0:0:0:
320,192,370095,128,8,370401:0:0:0:0:
192,192,370095,128,8,370401:0:0:0:0:
448,192,370503,1,8,0:0:0:0:
64,192,370503,128,4,370707:0:0:0:0:
192,192,370503,128,4,370707:0:0:0:0:
320,192,370503,1,8,0:0:0:0:
448,192,370707,1,0,0:0:0:0:
192,192,370911,1,8,0:0:0:0:
64,192,370911,1,8,0:0:0:0:
448,192,370911,1,8,0:0:0:0:
320,192,371013,1,0,0:0:0:0:
64,192,371115,1,0,0:0:0:0:
192,192,371115,1,0,0:0:0:0:
320,192,371167,1,0,0:0:0:0:
448,192,371218,1,0,0:0:0:0:
64,192,371269,1,0,0:0:0:0:
448,192,371320,1,8,0:0:0:0:
320,192,371320,1,8,0:0:0:0:
192,192,371320,1,10,0:0:0:0:
320,192,371524,1,0,0:0:0:0:
64,192,371524,1,0,0:0:0:0:
320,192,371626,1,0,0:0:0:0:
448,192,371626,1,0,0:0:0:0:
192,192,371728,1,8,0:0:0:0:
64,192,371728,1,8,0:0:0:0:
448,192,371728,1,8,0:0:0:0:
192,192,371932,1,0,0:0:0:0:
64,192,371932,1,0,0:0:0:0:
64,192,372136,1,10,0:0:0:0:
320,192,372136,1,8,0:0:0:0:
192,192,372136,1,8,0:0:0:0:
448,192,372238,1,0,0:0:0:0:
320,192,372238,1,0,0:0:0:0:
64,192,372289,1,0,0:0:0:0:
192,192,372340,1,0,0:0:0:0:
320,192,372391,1,0,0:0:0:0:
448,192,372442,1,0,0:0:0:0:
64,192,372493,1,0,0:0:0:0:
320,192,372544,1,8,0:0:0:0:
192,192,372544,1,8,0:0:0:0:
448,192,372544,1,8,0:0:0:0:
320,192,372646,1,0,0:0:0:0:
64,192,372748,1,0,0:0:0:0:
192,192,372748,1,0,0:0:0:0:
448,192,372850,1,0,0:0:0:0:
320,192,372952,1,8,0:0:0:0:
192,192,372952,1,8,0:0:0:0:
64,192,372952,1,10,0:0:0:0:
448,192,373054,1,0,0:0:0:0:
320,192,373156,1,0,0:0:0:0:
64,192,373156,1,0,0:0:0:0:
448,192,373207,1,0,0:0:0:0:
192,192,373258,1,0,0:0:0:0:
64,192,373309,1,0,0:0:0:0:
320,192,373360,1,0,0:0:0:0:
448,192,373360,1,0,0:0:0:0:
192,192,373564,128,8,373667:0:0:0:0:
320,192,373564,128,8,373667:0:0:0:0:
448,192,373564,128,10,373667:0:0:0:0:
320,192,373769,128,8,373871:0:0:0:0:
64,192,373769,128,10,373871:0:0:0:0:
192,192,373769,128,8,373871:0:0:0:0:
64,192,373973,128,8,374075:0:0:0:0:
320,192,373973,128,8,374075:0:0:0:0:
448,192,373973,128,10,374075:0:0:0:0:
448,192,374177,128,8,374381:0:0:0:0:
64,192,374177,128,10,374381:0:0:0:0:
192,192,374177,128,8,374381:0:0:0:0:
192,192,374483,128,8,374687:0:0:0:0:
64,192,374483,128,8,374687:0:0:0:0:
448,192,374483,128,10,374687:0:0:0:0:
448,192,374789,128,8,374891:0:0:0:0:
320,192,374789,128,8,374891:0:0:0:0:
192,192,374789,128,10,374891:0:0:0:0:
192,192,374993,1,8,0:0:0:0:
320,192,374993,1,8,0:0:0:0:
64,192,374993,128,12,375401:0:0:0:0:
320,192,375401,1,8,0:0:0:0:
448,192,375401,1,8,0:0:0:0:
64,192,375503,1,2,0:0:0:0:
192,192,375503,1,2,0:0:0:0:
320,192,375503,1,2,0:0:0:0:
64,192,375707,1,8,0:0:0:0:
192,192,375707,1,8,0:0:0:0:
192,192,375809,1,2,0:0:0:0:
320,192,375809,1,2,0:0:0:0:
448,192,375809,1,2,0:0:0:0:
64,192,376013,1,8,0:0:0:0:
192,192,376013,1,8,0:0:0:0:
64,192,376115,1,8,0:0:0:0:
192,192,376115,1,8,0:0:0:0:
64,192,376218,1,8,0:0:0:0:
192,192,376218,1,8,0:0:0:0:
448,192,376320,1,8,0:0:0:0:
320,192,376320,1,8,0:0:0:0:
192,192,376320,1,12,0:0:0:0:
320,192,376626,1,12,0:0:0:0:
192,192,376626,1,8,0:0:0:0:
64,192,376626,1,8,0:0:0:0:
192,192,376830,1,0,0:0:0:0:
320,192,377034,1,8,0:0:0:0:
448,192,377034,1,8,0:0:0:0:
192,192,377034,1,8,0:0:0:0:
192,192,377238,1,0,0:0:0:0:
320,192,377340,1,2,0:0:0:0:
448,192,377340,1,2,0:0:0:0:
64,192,377442,1,2,0:0:0:0:
192,192,377442,1,2,0:0:0:0:
448,192,377748,1,8,0:0:0:0:
192,192,377748,1,8,0:0:0:0:
64,192,377748,1,8,0:0:0:0:
320,192,377799,1,8,0:0:0:0:
64,192,377850,1,2,0:0:0:0:
192,192,377850,1,2,0:0:0:0:
320,192,377952,1,2,0:0:0:0:
448,192,377952,1,2,0:0:0:0:
64,192,378054,1,8,0:0:0:0:
320,192,378054,1,8,0:0:0:0:
448,192,378054,1,8,0:0:0:0:
192,192,378156,1,2,0:0:0:0:
64,192,378156,1,2,0:0:0:0:
448,192,378258,1,8,0:0:0:0:
320,192,378258,1,8,0:0:0:0:
192,192,378258,1,8,0:0:0:0:
64,192,378394,1,8,0:0:0:0:
192,192,378394,1,8,0:0:0:0:
320,192,378394,1,8,0:0:0:0:
192,192,378530,1,8,0:0:0:0:
320,192,378530,1,8,0:0:0:0:
448,192,378530,1,8,0:0:0:0:
64,192,378667,1,8,0:0:0:0:
192,192,378667,1,8,0:0:0:0:
448,192,378667,1,8,0:0:0:0:
320,192,378803,1,8,0:0:0:0:
448,192,378803,1,8,0:0:0:0:
64,192,378803,1,8,0:0:0:0:
192,192,378939,1,8,0:0:0:0:
64,192,378939,1,8,0:0:0:0:
448,192,378939,1,10,0:0:0:0:
320,192,379075,1,2,0:0:0:0:
448,192,379075,1,2,0:0:0:0:
320,192,379177,1,2,0:0:0:0:
448,192,379177,1,2,0:0:0:0:
64,192,379279,1,2,0:0:0:0:
64,192,379381,1,2,0:0:0:0:
192,192,379381,1,2,0:0:0:0:
448,192,379483,128,0,379585:0:0:0:0:
320,192,379483,1,0,0:0:0:0:
64,192,379585,128,0,379789:0:0:0:0:
64,192,379891,1,8,0:0:0:0:
192,192,379891,1,8,0:0:0:0:
320,192,379891,1,8,0:0:0:0:
320,192,380095,1,0,0:0:0:0:
64,192,380299,1,0,0:0:0:0:
448,192,380401,1,0,0:0:0:0:
192,192,380605,1,0,0:0:0:0:
320,192,380809,1,0,0:0:0:0:
192,192,381013,1,0,0:0:0:0:
320,192,381218,1,0,0:0:0:0:
192,192,381320,1,0,0:0:0:0:
320,192,381422,1,0,0:0:0:0:
64,192,381524,128,8,381728:0:0:0:0:
192,192,381524,128,8,381728:0:0:0:0:
320,192,381830,128,0,382034:0:0:0:0:
448,192,381830,128,0,382034:0:0:0:0:
192,192,382136,128,0,382340:0:0:0:0:
320,192,382136,128,0,382340:0:0:0:0:
64,192,382442,128,0,382646:0:0:0:0:
448,192,382442,128,0,382646:0:0:0:0:
192,192,382748,1,0,0:0:0:0:
320,192,382748,1,0,0:0:0:0:
64,192,382850,1,0,0:0:0:0:
192,192,382850,1,0,0:0:0:0:
448,192,382952,1,0,0:0:0:0:
320,192,382952,1,0,0:0:0:0:
192,192,383054,1,0,0:0:0:0:
320,192,383054,1,0,0:0:0:0:
192,192,383156,1,8,0:0:0:0:
448,192,383156,1,12,0:0:0:0:
64,192,383156,1,8,0:0:0:0:
64,192,383564,1,8,0:0:0:0:
192,192,383564,1,8,0:0:0:0:
320,192,383564,1,8,0:0:0:0:
64,192,383871,1,8,0:0:0:0:
192,192,383973,1,8,0:0:0:0:
320,192,383973,1,8,0:0:0:0:
448,192,383973,1,8,0:0:0:0:
320,192,384279,1,8,0:0:0:0:
64,192,384381,1,8,0:0:0:0:
192,192,384381,1,8,0:0:0:0:
448,192,384381,1,8,0:0:0:0:
192,192,384585,1,8,0:0:0:0:
320,192,384789,1,8,0:0:0:0:
448,192,384789,1,8,0:0:0:0:
64,192,384789,1,8,0:0:0:0:
448,192,384993,1,8,0:0:0:0:
64,192,385197,1,8,0:0:0:0:
192,192,385197,1,8,0:0:0:0:
320,192,385197,1,8,0:0:0:0:
64,192,385503,1,8,0:0:0:0:
192,192,385605,1,8,0:0:0:0:
320,192,385605,1,8,0:0:0:0:
448,192,385605,1,8,0:0:0:0:
320,192,385911,1,8,0:0:0:0:
64,192,386013,1,8,0:0:0:0:
192,192,386013,1,8,0:0:0:0:
448,192,386013,1,8,0:0:0:0:
192,192,386218,1,8,0:0:0:0:
64,192,386422,1,8,0:0:0:0:
448,192,386422,1,8,0:0:0:0:
320,192,386422,1,8,0:0:0:0:
64,192,386830,1,8,0:0:0:0:
192,192,386830,1,8,0:0:0:0:
320,192,386830,1,8,0:0:0:0:
64,192,387136,1,8,0:0:0:0:
192,192,387238,1,8,0:0:0:0:
320,192,387238,1,8,0:0:0:0:
448,192,387238,1,8,0:0:0:0:
320,192,387544,1,8,0:0:0:0:
64,192,387646,1,8,0:0:0:0:
192,192,387646,1,8,0:0:0:0:
448,192,387646,1,8,0:0:0:0:
192,192,387850,1,8,0:0:0:0:
320,192,388054,1,8,0:0:0:0:
448,192,388054,1,8,0:0:0:0:
64,192,388054,1,8,0:0:0:0:
64,192,388462,1,8,0:0:0:0:
192,192,388462,1,8,0:0:0:0:
320,192,388462,1,8,0:0:0:0:
192,192,388871,1,8,0:0:0:0:
320,192,388871,1,8,0:0:0:0:
448,192,388871,1,8,0:0:0:0:
64,192,388973,1,8,0:0:0:0:
320,192,389177,1,8,0:0:0:0:
64,192,389279,1,8,0:0:0:0:
192,192,389279,1,8,0:0:0:0:
448,192,389279,1,8,0:0:0:0:
64,192,389687,1,8,0:0:0:0:
448,192,389687,1,8,0:0:0:0:
320,192,389687,1,8,0:0:0:0:
64,192,390095,1,8,0:0:0:0:
192,192,390095,1,8,0:0:0:0:
320,192,390095,1,8,0:0:0:0:
64,192,390401,1,8,0:0:0:0:
192,192,390503,1,8,0:0:0:0:
320,192,390503,1,8,0:0:0:0:
448,192,390503,1,8,0:0:0:0:
320,192,390809,1,8,0:0:0:0:
64,192,390911,1,8,0:0:0:0:
192,192,390911,1,8,0:0:0:0:
448,192,390911,1,8,0:0:0:0:
192,192,391115,1,8,0:0:0:0:
320,192,391320,1,8,0:0:0:0:
448,192,391320,1,8,0:0:0:0:
64,192,391320,1,8,0:0:0:0:
448,192,391524,1,8,0:0:0:0:
64,192,391728,1,8,0:0:0:0:
192,192,391728,1,8,0:0:0:0:
320,192,391728,1,8,0:0:0:0:
64,192,392034,1,8,0:0:0:0:
192,192,392136,1,8,0:0:0:0:
320,192,392136,1,8,0:0:0:0:
448,192,392136,1,8,0:0:0:0:
320,192,392442,1,8,0:0:0:0:
64,192,392544,1,8,0:0:0:0:
192,192,392544,1,8,0:0:0:0:
448,192,392544,1,8,0:0:0:0:
192,192,392748,1,8,0:0:0:0:
64,192,392952,1,8,0:0:0:0:
448,192,392952,1,8,0:0:0:0:
320,192,392952,1,8,0:0:0:0:
64,192,393360,1,8,0:0:0:0:
192,192,393360,1,8,0:0:0:0:
320,192,393360,1,8,0:0:0:0:
64,192,393667,1,8,0:0:0:0:
192,192,393769,1,8,0:0:0:0:
320,192,393769,1,8,0:0:0:0:
448,192,393769,1,8,0:0:0:0:
320,192,394075,1,8,0:0:0:0:
64,192,394177,1,8,0:0:0:0:
192,192,394177,1,8,0:0:0:0:
448,192,394177,1,8,0:0:0:0:
192,192,394381,1,8,0:0:0:0:
320,192,394585,1,8,0:0:0:0:
448,192,394585,1,8,0:0:0:0:
64,192,394585,1,8,0:0:0:0:
64,192,394993,1,8,0:0:0:0:
192,192,394993,1,8,0:0:0:0:
320,192,394993,1,8,0:0:0:0:
192,192,395401,1,8,0:0:0:0:
320,192,395401,1,8,0:0:0:0:
448,192,395401,1,8,0:0:0:0:
64,192,395503,1,8,0:0:0:0:
320,192,395707,1,8,0:0:0:0:
64,192,395809,1,8,0:0:0:0:
192,192,395809,1,8,0:0:0:0:
448,192,395809,1,8,0:0:0:0:
64,192,396218,1,12,0:0:0:0:
448,192,396218,1,8,0:0:0:0:
320,192,396218,1,8,0:0:0:0:
320,192,396626,1,0,0:0:0:0:
192,192,396932,1,0,0:0:0:0:
320,192,397136,1,0,0:0:0:0:
192,192,397340,1,0,0:0:0:0:
320,192,397544,1,0,0:0:0:0:
192,192,397646,1,0,0:0:0:0:
448,192,397850,1,0,0:0:0:0:
64,192,398054,1,0,0:0:0:0:
320,192,398258,1,0,0:0:0:0:
192,192,398564,1,0,0:0:0:0:
320,192,398769,1,0,0:0:0:0:
192,192,398973,1,0,0:0:0:0:
448,192,399075,1,0,0:0:0:0:
64,192,399279,1,0,0:0:0:0:
448,192,399483,128,0,399891:0:0:0:0:
64,192,399891,1,0,0:0:0:0:
320,192,400197,1,0,0:0:0:0:
192,192,400401,1,0,0:0:0:0:
320,192,400605,1,0,0:0:0:0:
192,192,400809,1,0,0:0:0:0:
320,192,400911,1,0,0:0:0:0:
192,192,401115,1,0,0:0:0:0:
320,192,401524,1,0,0:0:0:0:
192,192,401626,1,0,0:0:0:0:
320,192,401830,1,0,0:0:0:0:
192,192,402034,1,0,0:0:0:0:
320,192,402238,1,0,0:0:0:0:
192,192,402442,1,0,0:0:0:0:
448,192,402748,128,0,403156:0:0:0:0:
192,192,403156,1,0,0:0:0:0:
320,192,403462,1,0,0:0:0:0:
192,192,403667,1,0,0:0:0:0:
320,192,403871,1,0,0:0:0:0:
192,192,404075,1,0,0:0:0:0:
320,192,404177,1,0,0:0:0:0:
448,192,404381,1,0,0:0:0:0:
64,192,404585,1,0,0:0:0:0:
320,192,404789,1,0,0:0:0:0:
192,192,405095,1,0,0:0:0:0:
320,192,405299,1,0,0:0:0:0:
192,192,405503,1,0,0:0:0:0:
448,192,405605,1,0,0:0:0:0:
64,192,405809,1,0,0:0:0:0:
320,192,406013,1,0,0:0:0:0:
448,192,406013,128,0,409279:0:0:0:0:
64,192,406422,1,0,0:0:0:0:
320,192,406728,1,0,0:0:0:0:
192,192,406932,1,0,0:0:0:0:
320,192,407136,1,0,0:0:0:0:
192,192,407340,1,0,0:0:0:0:
320,192,407442,1,0,0:0:0:0:
192,192,407646,1,0,0:0:0:0:
320,192,408054,1,0,0:0:0:0:
192,192,408156,1,0,0:0:0:0:
320,192,408360,1,0,0:0:0:0:
192,192,408564,1,0,0:0:0:0:
320,192,408769,128,0,409279:0:0:0:0:
192,192,408973,128,0,409279:0:0:0:0:
