osu file format v14

[General]
AudioFilename: audio.mp3
AudioLeadIn: 0
PreviewTime: 182836
Countdown: 0
SampleSet: Soft
StackLeniency: 0.2
Mode: 3
LetterboxInBreaks: 0
SpecialStyle: 0
WidescreenStoryboard: 1

[Editor]
Bookmarks: 214693
DistanceSpacing: 0.8
BeatDivisor: 4
GridSize: 32
TimelineZoom: 1.800001

[Metadata]
Title:ANOMALY
TitleUnicode:∀NØMALY
Artist:Camellia
ArtistUnicode:かめりあ
Creator:_VianK_
Version:DISTORTION // I
Source:
Tags:featured artist fa cametek kamelcamellia WE ARE THE BOSS t+pazolite MOTF-0007 Comic Market 90 西a-55a comiket C.H.S Electronic Instrumental hardcore speedcore pumpcore trap Natural_Warp
BeatmapID:3090354
BeatmapSetID:1489897

[Difficulty]
HPDrainRate:8
CircleSize:5
OverallDifficulty:8
ApproachRate:5
SliderMultiplier:1.4
SliderTickRate:1

[Events]
//Background and Video events
0,0,"natural-warp-true-anomaly-steamvr-2019-artwork-01-wallpaper.jpg",0,0
//Break Periods
//Storyboard Layer 0 (Background)
//Storyboard Layer 1 (Fail)
//Storyboard Layer 2 (Pass)
//Storyboard Layer 3 (Foreground)
//Storyboard Layer 4 (Overlay)
//Storyboard Sound Samples

[TimingPoints]
265,285.714285714286,4,2,1,30,1,0
164836,-100,4,2,1,30,0,1
181979,-100,4,2,1,30,0,0
183122,-100,4,2,1,30,0,1
201407,-100,4,2,1,30,0,0
228836,-100,4,2,1,30,0,1
247122,-100,4,2,1,30,0,0

[HitObjects]
51,192,265,128,0,4550:0:0:0:0:
51,192,4836,1,0,0:0:0:70:soft-hitwhistle.wav
460,192,4836,1,0,0:0:0:50:Cymbol.wav
256,192,4836,128,0,5122:0:0:0:70:BaSS.wav
256,192,5265,128,0,5836:0:0:0:0:
256,192,5979,128,0,6265:0:0:0:0:
256,192,6407,128,0,6979:0:0:0:0:
256,192,7122,128,0,7407:0:0:0:0:
256,192,7550,128,0,8122:0:0:0:0:
256,192,8265,128,0,8550:0:0:0:0:
256,192,8693,128,0,9336:0:0:0:0:
51,192,8979,128,0,9336:0:0:0:70:soft-hitwhistle.wav
460,192,8979,128,0,9336:0:0:0:60:CrashL.wav
51,192,9407,1,0,0:0:0:70:soft-hitwhistle.wav
460,192,9407,1,0,0:0:0:50:Cymbol.wav
256,192,9407,128,0,9693:0:0:0:70:BaSS.wav
256,192,9836,128,0,10407:0:0:0:0:
256,192,10550,128,0,10836:0:0:0:0:
256,192,10979,128,0,11550:0:0:0:0:
256,192,11693,128,0,11979:0:0:0:0:
256,192,12122,128,0,12693:0:0:0:0:
256,192,12836,128,0,13122:0:0:0:0:
256,192,13265,128,0,13907:0:0:0:0:
460,192,13550,128,0,13907:0:0:0:70:soft-hitwhistle.wav
51,192,13550,128,0,13907:0:0:0:60:CrashL.wav
460,192,13979,1,0,0:0:0:70:soft-hitwhistle.wav
51,192,13979,1,0,0:0:0:50:Cymbol.wav
256,192,13979,1,0,0:0:0:70:BaSS.wav
51,192,14122,1,0,0:0:0:70:BaSS.wav
51,192,14265,1,0,0:0:0:70:BaSS.wav
51,192,14407,1,0,0:0:0:70:BaSS.wav
358,192,14550,1,0,0:0:0:70:BaSS.wav
358,192,14693,1,0,0:0:0:70:BaSS.wav
358,192,14836,1,0,0:0:0:70:BaSS.wav
358,192,14979,1,0,0:0:0:70:BaSS.wav
153,192,15122,1,0,0:0:0:70:BaSS.wav
153,192,15265,1,0,0:0:0:70:BaSS.wav
153,192,15407,1,0,0:0:0:70:BaSS.wav
153,192,15550,1,0,0:0:0:70:BaSS.wav
460,192,15693,1,0,0:0:0:70:BaSS.wav
460,192,15836,1,0,0:0:0:70:BaSS.wav
460,192,15979,1,0,0:0:0:70:BaSS.wav
460,192,16122,1,0,0:0:0:70:BaSS.wav
256,192,16265,1,0,0:0:0:70:BaSS.wav
256,192,16407,1,0,0:0:0:70:BaSS.wav
256,192,16550,1,0,0:0:0:70:BaSS.wav
256,192,16693,1,0,0:0:0:70:BaSS.wav
51,192,16836,1,0,0:0:0:70:BaSS.wav
51,192,16979,1,0,0:0:0:70:BaSS.wav
51,192,17122,1,0,0:0:0:70:BaSS.wav
51,192,17265,1,0,0:0:0:70:BaSS.wav
358,192,17407,1,0,0:0:0:70:BaSS.wav
358,192,17550,1,0,0:0:0:70:BaSS.wav
358,192,17693,1,0,0:0:0:70:BaSS.wav
358,192,17836,1,0,0:0:0:70:BaSS.wav
256,192,17979,1,0,0:0:0:70:BaSS.wav
153,192,18122,1,0,0:0:0:70:soft-hitwhistle.wav
51,192,18122,128,0,18479:0:0:0:60:CrashL.wav
460,192,18122,128,0,18479:0:0:0:0:
51,192,18550,1,0,0:0:0:70:soft-hitwhistle.wav
460,192,18550,1,0,0:0:0:50:Cymbol.wav
256,192,18550,1,0,0:0:0:70:BaSS.wav
460,192,18693,1,0,0:0:0:70:BaSS.wav
460,192,18836,1,0,0:0:0:70:BaSS.wav
460,192,18979,1,0,0:0:0:70:BaSS.wav
153,192,19122,1,0,0:0:0:70:BaSS.wav
153,192,19265,1,0,0:0:0:70:BaSS.wav
153,192,19407,1,0,0:0:0:70:BaSS.wav
153,192,19550,1,0,0:0:0:70:BaSS.wav
358,192,19693,1,0,0:0:0:70:BaSS.wav
358,192,19836,1,0,0:0:0:70:BaSS.wav
358,192,19979,1,0,0:0:0:70:BaSS.wav
358,192,20122,1,0,0:0:0:70:BaSS.wav
51,192,20265,1,0,0:0:0:70:BaSS.wav
51,192,20407,1,0,0:0:0:70:BaSS.wav
51,192,20550,1,0,0:0:0:70:BaSS.wav
51,192,20693,1,0,0:0:0:70:BaSS.wav
256,192,20836,1,0,0:0:0:70:BaSS.wav
256,192,20979,1,0,0:0:0:70:BaSS.wav
256,192,21122,1,0,0:0:0:70:BaSS.wav
256,192,21265,1,0,0:0:0:70:BaSS.wav
460,192,21407,1,0,0:0:0:70:BaSS.wav
460,192,21550,1,0,0:0:0:70:BaSS.wav
460,192,21693,1,0,0:0:0:70:BaSS.wav
460,192,21836,1,0,0:0:0:70:BaSS.wav
153,192,21979,1,0,0:0:0:60:LR_HiHat Click.wav
358,192,22050,1,0,0:0:0:60:LR_HiHat Click.wav
153,192,22122,1,0,0:0:0:60:LR_HiHat Click.wav
358,192,22193,1,0,0:0:0:60:LR_HiHat Click.wav
51,192,22265,1,0,0:0:0:60:LR_HiHat Click.wav
256,192,22407,1,0,0:0:0:60:LR_HiHat Click.wav
460,192,22550,128,0,22622:0:0:0:60:LR_HiHat Click.wav
51,192,22765,128,0,22836:0:0:0:60:LR_HiHat Click.wav
358,192,22979,128,0,23122:0:0:0:60:LR_HiHat Click.wav
256,192,23122,1,0,0:0:0:70:soft-hitwhistle.wav
51,192,23122,1,0,0:0:0:50:Cymbol.wav
460,192,23122,1,0,0:0:0:70:BaSS.wav
153,192,23407,1,0,0:0:0:60:LR4_Snare DWRS.wav
51,192,23407,1,0,0:0:0:60:LR4_SnareBPDT.wav
51,192,23693,1,0,0:0:0:60:LR4_Snare DWRS.wav
153,192,23693,1,0,0:0:0:60:LR4_SnareBPDT.wav
153,192,23979,1,0,0:0:0:60:LR4_Snare DWRS.wav
51,192,23979,1,0,0:0:0:60:LR4_SnareBPDT.wav
51,192,24265,1,0,0:0:0:60:LR4_Snare DWRS.wav
153,192,24265,1,0,0:0:0:60:LR4_SnareBPDT.wav
153,192,24550,1,0,0:0:0:60:LR4_Snare DWRS.wav
51,192,24550,1,0,0:0:0:60:LR4_SnareBPDT.wav
153,192,24836,1,0,0:0:0:60:LR4_Snare DWRS.wav
51,192,24836,1,0,0:0:0:60:LR4_SnareBPDT.wav
153,192,25122,1,0,0:0:0:60:LR4_Snare DWRS.wav
51,192,25122,1,0,0:0:0:60:LR4_SnareBPDT.wav
51,192,25407,1,0,0:0:0:70:soft-hitwhistle.wav
256,192,25407,1,0,0:0:0:50:Cymbol.wav
460,192,25407,1,0,0:0:0:70:BaSS.wav
153,192,25622,1,0,0:0:0:70:soft-hitwhistle.wav
256,192,25622,1,0,0:0:0:50:Cymbol.wav
460,192,25622,1,0,0:0:0:70:BaSS.wav
358,192,25836,1,0,0:0:0:70:soft-hitwhistle.wav
460,192,25836,1,0,0:0:0:50:Cymbol.wav
51,192,25836,1,0,0:0:0:70:BaSS.wav
153,192,25979,1,0,0:0:0:40:soft-hitwhistle.wav
51,192,25979,1,0,0:0:0:0:
153,192,26265,1,0,0:0:0:60:LR4_Snare DWRS.wav
51,192,26265,1,0,0:0:0:60:LR4_SnareBPDT.wav
51,192,26550,1,0,0:0:0:60:LR4_Snare DWRS.wav
153,192,26550,1,0,0:0:0:60:LR4_SnareBPDT.wav
358,192,26622,1,0,0:0:0:60:LR4_Snare DWRS.wav
153,192,26693,1,0,0:0:0:60:LR4_SnareBPDT.wav
358,192,26765,1,0,0:0:0:60:LR4_Snare DWRS.wav
153,192,26836,1,0,0:0:0:60:LR4_Snare DWRS.wav
51,192,26836,1,0,0:0:0:60:LR4_SnareBPDT.wav
358,192,26979,1,0,0:0:0:60:LR4_SnareBPDT.wav
460,192,26979,1,0,0:0:0:0:
153,192,27122,1,0,0:0:0:60:LR4_Snare DWRS.wav
51,192,27122,1,0,0:0:0:60:LR4_SnareBPDT.wav
153,192,27265,128,0,27622:0:0:0:70:soft-hitwhistle.wav
256,192,27265,128,0,27622:0:0:0:60:CrashL.wav
358,192,27265,128,0,27622:0:0:0:70:BaSS.wav
460,192,27693,128,0,27907:0:0:0:70:soft-hitwhistle.wav
51,192,27693,128,0,27907:0:0:0:60:CrashL.wav
256,192,27693,128,0,27907:0:0:0:70:BaSS.wav
256,192,27979,1,0,0:0:0:70:soft-hitwhistle.wav
51,192,27979,1,0,0:0:0:50:Cymbol.wav
460,192,27979,1,0,0:0:0:70:BaSS.wav
358,192,28265,1,0,0:0:0:60:LR4_Snare DWRS.wav
460,192,28265,1,0,0:0:0:60:LR4_SnareBPDT.wav
460,192,28550,1,0,0:0:0:60:LR4_Snare DWRS.wav
358,192,28550,1,0,0:0:0:60:LR4_SnareBPDT.wav
358,192,28836,1,0,0:0:0:60:LR4_Snare DWRS.wav
460,192,28836,1,0,0:0:0:60:LR4_SnareBPDT.wav
460,192,29122,1,0,0:0:0:60:LR4_Snare DWRS.wav
358,192,29122,1,0,0:0:0:60:LR4_SnareBPDT.wav
358,192,29407,1,0,0:0:0:60:LR4_Snare DWRS.wav
460,192,29407,1,0,0:0:0:60:LR4_SnareBPDT.wav
358,192,29693,1,0,0:0:0:60:LR4_Snare DWRS.wav
460,192,29693,1,0,0:0:0:60:LR4_SnareBPDT.wav
460,192,29979,1,0,0:0:0:70:soft-hitwhistle.wav
256,192,29979,1,0,0:0:0:50:Cymbol.wav
51,192,29979,1,0,0:0:0:70:BaSS.wav
153,192,30193,1,0,0:0:0:70:soft-hitwhistle.wav
256,192,30193,1,0,0:0:0:50:Cymbol.wav
358,192,30193,1,0,0:0:0:70:BaSS.wav
51,192,30407,1,0,0:0:0:70:soft-hitwhistle.wav
153,192,30407,1,0,0:0:0:50:Cymbol.wav
460,192,30407,1,0,0:0:0:70:BaSS.wav
358,192,30550,1,0,0:0:0:40:soft-hitwhistle.wav
460,192,30550,1,0,0:0:0:0:
358,192,30836,1,0,0:0:0:60:LR4_Snare DWRS.wav
460,192,30836,1,0,0:0:0:60:LR4_SnareBPDT.wav
153,192,30979,1,0,0:0:0:70:soft-hitwhistle.wav
51,192,30979,1,0,0:0:0:50:Cymbol.wav
460,192,30979,1,0,0:0:0:70:BaSS.wav
460,192,31193,1,0,0:0:0:70:soft-hitwhistle.wav
256,192,31193,1,0,0:0:0:50:Cymbol.wav
153,192,31193,1,0,0:0:0:70:BaSS.wav
358,192,31407,1,0,0:0:0:70:soft-hitwhistle.wav
256,192,31407,1,0,0:0:0:50:Cymbol.wav
51,192,31407,1,0,0:0:0:70:BaSS.wav
153,192,31622,1,0,0:0:0:70:soft-hitwhistle.wav
358,192,31622,1,0,0:0:0:50:Cymbol.wav
460,192,31622,1,0,0:0:0:70:BaSS.wav
358,192,31836,128,0,32193:0:0:0:70:soft-hitwhistle.wav
460,192,31836,128,0,32193:0:0:0:50:Cymbol.wav
51,192,31836,128,0,32193:0:0:0:70:BaSS.wav
256,192,31836,128,0,32193:0:0:0:0:
358,192,32265,128,0,32479:0:0:0:70:soft-hitwhistle.wav
153,192,32265,128,0,32479:0:0:0:60:CrashL.wav
256,192,32265,128,0,32479:0:0:0:70:BaSS.wav
358,192,32550,1,0,0:0:0:60:LR4_Snare DWRS.wav
153,192,32550,1,0,0:0:0:60:LR4_SnareBPDT.wav
153,192,32836,128,0,33050:0:0:0:70:soft-hitwhistle.wav
256,192,32836,128,0,33050:0:0:0:60:CrashL.wav
358,192,32836,128,0,33050:0:0:0:70:BaSS.wav
358,192,33122,1,0,0:0:0:60:LR4_Snare DWRS.wav
153,192,33122,1,0,0:0:0:60:LR4_SnareBPDT.wav
358,192,33407,128,0,33622:0:0:0:70:soft-hitwhistle.wav
153,192,33407,128,0,33622:0:0:0:60:CrashL.wav
256,192,33407,128,0,33622:0:0:0:70:BaSS.wav
153,192,33693,1,0,0:0:0:60:LR4_Snare DWRS.wav
358,192,33693,1,0,0:0:0:60:LR4_SnareBPDT.wav
153,192,33979,1,0,0:0:0:60:LR4_Snare DWRS.wav
358,192,33979,1,0,0:0:0:60:LR4_SnareBPDT.wav
153,192,34122,128,0,34479:0:0:0:70:soft-hitwhistle.wav
358,192,34122,128,0,34479:0:0:0:60:CrashL.wav
460,192,34122,128,0,34479:0:0:0:70:BaSS.wav
51,192,34550,128,0,34765:0:0:0:70:soft-hitwhistle.wav
460,192,34550,128,0,34765:0:0:0:60:CrashL.wav
256,192,34550,128,0,34765:0:0:0:70:BaSS.wav
51,192,34836,1,0,0:0:0:60:LR4_Snare DWRS.wav
460,192,34836,1,0,0:0:0:60:LR4_SnareBPDT.wav
51,192,35122,128,0,35336:0:0:0:70:soft-hitwhistle.wav
256,192,35122,128,0,35336:0:0:0:60:CrashL.wav
460,192,35122,128,0,35336:0:0:0:70:BaSS.wav
460,192,35407,1,0,0:0:0:60:LR4_Snare DWRS.wav
51,192,35407,1,0,0:0:0:60:LR4_SnareBPDT.wav
256,192,35693,128,0,35907:0:0:0:70:soft-hitwhistle.wav
51,192,35693,128,0,35907:0:0:0:60:CrashL.wav
460,192,35693,128,0,35907:0:0:0:70:BaSS.wav
460,192,35979,1,0,0:0:0:60:LR4_Snare DWRS.wav
51,192,35979,1,0,0:0:0:60:LR4_SnareBPDT.wav
51,192,36265,1,0,0:0:0:60:LR4_Snare DWRS.wav
460,192,36265,1,0,0:0:0:60:LR4_SnareBPDT.wav
358,192,36407,128,0,36765:0:0:0:70:soft-hitwhistle.wav
460,192,36407,128,0,36765:0:0:0:60:CrashL.wav
51,192,36407,128,0,36765:0:0:0:70:BaSS.wav
51,192,36836,1,0,0:0:0:50:Drop.wav
256,192,36836,1,0,0:0:0:70:BaSS.wav
153,192,37050,1,0,0:0:0:70:soft-hitwhistle.wav
460,192,37050,1,0,0:0:0:50:Drop.wav
358,192,37193,1,0,0:0:0:70:soft-hitwhistle.wav
256,192,37193,1,0,0:0:0:50:Drop.wav
51,192,37265,1,0,0:0:0:70:soft-hitwhistle.wav
153,192,37265,1,0,0:0:0:50:Drop.wav
460,192,37407,1,0,0:0:0:50:Drop.wav
256,192,37407,1,0,0:0:0:70:BaSS.wav
51,192,37622,1,0,0:0:0:70:soft-hitwhistle.wav
358,192,37622,1,0,0:0:0:50:Drop.wav
256,192,37765,1,0,0:0:0:70:soft-hitwhistle.wav
153,192,37765,1,0,0:0:0:50:Drop.wav
358,192,37836,1,0,0:0:0:70:soft-hitwhistle.wav
460,192,37836,1,0,0:0:0:50:Drop.wav
153,192,37979,1,0,0:0:0:50:Drop.wav
51,192,37979,1,0,0:0:0:70:BaSS.wav
460,192,38193,1,0,0:0:0:70:soft-hitwhistle.wav
358,192,38193,1,0,0:0:0:50:Drop.wav
153,192,38336,1,0,0:0:0:70:soft-hitwhistle.wav
51,192,38336,1,0,0:0:0:50:Drop.wav
256,192,38407,1,0,0:0:0:70:soft-hitwhistle.wav
358,192,38407,1,0,0:0:0:50:Drop.wav
51,192,38550,1,0,0:0:0:50:Drop.wav
460,192,38550,1,0,0:0:0:70:BaSS.wav
256,192,38765,1,0,0:0:0:70:soft-hitwhistle.wav
153,192,38765,1,0,0:0:0:50:Drop.wav
358,192,38907,1,0,0:0:0:70:soft-hitwhistle.wav
460,192,38907,1,0,0:0:0:50:Drop.wav
153,192,38979,1,0,0:0:0:70:soft-hitwhistle.wav
51,192,38979,1,0,0:0:0:50:Drop.wav
358,192,39122,1,0,0:0:0:50:Drop.wav
256,192,39122,1,0,0:0:0:70:BaSS.wav
153,192,39217,1,0,0:0:0:50:Drop.wav
51,192,39312,1,0,0:0:0:50:Drop.wav
358,192,39407,1,0,0:0:0:50:Drop.wav
460,192,39407,1,0,0:0:0:0:
256,192,39503,1,0,0:0:0:50:Drop.wav
153,192,39598,1,0,0:0:0:50:Drop.wav
51,192,39693,1,0,0:0:0:50:Drop.wav
460,192,39693,1,0,0:0:0:0:
358,192,39788,1,0,0:0:0:50:Drop.wav
256,192,39884,1,0,0:0:0:50:Drop.wav
153,192,39979,1,0,0:0:0:50:Drop.wav
51,192,39979,1,0,0:0:0:0:
460,192,40050,1,0,0:0:0:50:Drop.wav
256,192,40122,1,0,0:0:0:50:Drop.wav
51,192,40193,1,0,0:0:0:50:Drop.wav
358,192,40265,1,0,0:0:0:70:BaSS.wav
460,192,40265,1,0,0:0:0:0:
256,192,40693,1,0,0:0:0:60:LR_HiHat Click.wav
256,192,40836,1,0,0:0:0:60:LR_HiHat Click.wav
256,192,40979,128,0,41407:0:0:0:60:LR_HiHat Click.wav
153,192,41407,1,0,0:0:0:70:soft-hitwhistle.wav
51,192,41407,1,0,0:0:0:50:Cymbol.wav
460,192,41407,1,0,0:0:0:60:BaSS.wav
358,192,41550,1,0,0:0:0:0:
256,192,41693,1,0,0:0:0:70:soft-hitwhistle.wav
51,192,41693,1,0,0:0:0:60:BaSS.wav
358,192,41836,1,0,0:0:0:0:
460,192,41979,1,0,0:0:0:70:soft-hitwhistle.wav
153,192,41979,128,0,42265:0:0:0:60:BaSS.wav
51,192,42122,128,0,42265:0:0:0:0:
358,192,42265,1,0,0:0:0:70:soft-hitwhistle.wav
460,192,42265,1,0,0:0:0:60:BaSS.wav
256,192,42407,1,0,0:0:0:0:
153,192,42550,1,0,0:0:0:70:soft-hitwhistle.wav
460,192,42550,1,0,0:0:0:60:BaSS.wav
358,192,42693,1,0,0:0:0:0:
256,192,42836,1,0,0:0:0:70:soft-hitwhistle.wav
51,192,42836,1,0,0:0:0:60:BaSS.wav
153,192,42979,1,0,0:0:0:0:
460,192,43122,1,0,0:0:0:70:soft-hitwhistle.wav
358,192,43122,128,0,43407:0:0:0:60:BaSS.wav
153,192,43265,128,0,43407:0:0:0:0:
51,192,43407,1,0,0:0:0:70:soft-hitwhistle.wav
256,192,43407,1,0,0:0:0:60:BaSS.wav
358,192,43550,1,0,0:0:0:0:
460,192,43693,1,0,0:0:0:70:soft-hitwhistle.wav
153,192,43693,1,0,0:0:0:60:BaSS.wav
256,192,43836,1,0,0:0:0:0:
358,192,43979,1,0,0:0:0:70:soft-hitwhistle.wav
51,192,43979,1,0,0:0:0:60:BaSS.wav
153,192,44122,1,0,0:0:0:0:
256,192,44265,1,0,0:0:0:70:soft-hitwhistle.wav
460,192,44265,128,0,44550:0:0:0:60:BaSS.wav
358,192,44407,128,0,44550:0:0:0:0:
153,192,44550,1,0,0:0:0:70:soft-hitwhistle.wav
51,192,44550,1,0,0:0:0:60:BaSS.wav
256,192,44693,1,0,0:0:0:0:
358,192,44836,1,0,0:0:0:70:soft-hitwhistle.wav
153,192,44836,1,0,0:0:0:60:BaSS.wav
51,192,44979,1,0,0:0:0:0:
256,192,45122,1,0,0:0:0:70:soft-hitwhistle.wav
460,192,45122,1,0,0:0:0:60:BaSS.wav
153,192,45265,1,0,0:0:0:0:
51,192,45407,1,0,0:0:0:70:soft-hitwhistle.wav
358,192,45407,1,0,0:0:0:60:BaSS.wav
256,192,45550,1,0,0:0:0:0:
153,192,45693,1,0,0:0:0:70:soft-hitwhistle.wav
460,192,45693,1,0,0:0:0:60:BaSS.wav
358,192,45836,1,0,0:0:0:0:
256,192,45979,1,0,0:0:0:70:soft-hitwhistle.wav
51,192,45979,1,0,0:0:0:60:BaSS.wav
153,192,46122,1,0,0:0:0:0:
256,192,46265,1,0,0:0:0:70:soft-hitwhistle.wav
460,192,46265,1,0,0:0:0:60:BaSS.wav
358,192,46407,1,0,0:0:0:0:
51,192,46550,1,0,0:0:0:70:soft-hitwhistle.wav
460,192,46550,128,0,46836:0:0:0:60:BaSS.wav
153,192,46693,128,0,46836:0:0:0:0:
358,192,46836,1,0,0:0:0:70:soft-hitwhistle.wav
256,192,46836,1,0,0:0:0:60:BaSS.wav
51,192,46979,1,0,0:0:0:0:
460,192,47122,1,0,0:0:0:70:soft-hitwhistle.wav
153,192,47122,1,0,0:0:0:60:BaSS.wav
256,192,47265,1,0,0:0:0:0:
51,192,47407,1,0,0:0:0:70:soft-hitwhistle.wav
358,192,47407,1,0,0:0:0:60:BaSS.wav
256,192,47550,1,0,0:0:0:0:
460,192,47693,1,0,0:0:0:70:soft-hitwhistle.wav
153,192,47693,128,0,47979:0:0:0:60:BaSS.wav
358,192,47836,128,0,47979:0:0:0:0:
256,192,47979,1,0,0:0:0:70:soft-hitwhistle.wav
51,192,47979,1,0,0:0:0:60:BaSS.wav
153,192,48122,1,0,0:0:0:40:Drop.wav
460,192,48122,1,0,0:0:0:0:
358,192,48265,1,0,0:0:0:70:soft-hitwhistle.wav
51,192,48265,1,0,0:0:0:60:BaSS.wav
358,192,48407,1,0,0:0:0:70:soft-hitwhistle.wav
153,192,48407,1,0,0:0:0:60:BaSS.wav
256,192,48550,1,0,0:0:0:70:soft-hitwhistle.wav
460,192,48550,1,0,0:0:0:60:BaSS.wav
153,192,48693,1,0,0:0:0:0:
51,192,48836,128,0,49122:0:0:0:70:soft-hitwhistle.wav
460,192,48836,1,0,0:0:0:60:BaSS.wav
358,192,48979,128,0,49122:0:0:0:0:
256,192,49122,1,0,0:0:0:70:soft-hitwhistle.wav
153,192,49122,1,0,0:0:0:60:BaSS.wav
358,192,49265,1,0,0:0:0:0:
460,192,49407,1,0,0:0:0:70:soft-hitwhistle.wav
51,192,49407,1,0,0:0:0:60:BaSS.wav
153,192,49550,1,0,0:0:0:70:soft-hitwhistle.wav
358,192,49622,1,0,0:0:0:70:soft-hitwhistle.wav
153,192,49693,1,0,0:0:0:70:soft-hitwhistle.wav
358,192,49765,1,0,0:0:0:70:soft-hitwhistle.wav
460,192,49836,1,0,0:0:0:70:soft-hitwhistle.wav
51,192,49836,1,0,0:0:0:60:Snare.wav
153,192,49979,1,0,0:0:0:70:soft-hitwhistle.wav
358,192,50050,1,0,0:0:0:70:soft-hitwhistle.wav
153,192,50122,1,0,0:0:0:60:Snare.wav
358,192,50193,1,0,0:0:0:70:soft-hitwhistle.wav
51,192,50265,128,0,50407:0:0:0:70:soft-hitwhistle.wav
460,192,50265,128,0,50407:0:0:0:60:Snare.wav
153,192,50407,128,0,50550:0:0:0:70:soft-hitwhistle.wav
358,192,50407,128,0,50550:0:0:0:60:Snare.wav
256,192,50550,1,0,0:0:0:70:soft-hitwhistle.wav
51,192,50550,1,0,0:0:0:50:Cymbol.wav
460,192,50550,1,0,0:0:0:60:BaSS.wav
153,192,50693,1,0,0:0:0:0:
51,192,50836,1,0,0:0:0:70:soft-hitwhistle.wav
358,192,50836,1,0,0:0:0:60:BaSS.wav
256,192,50979,1,0,0:0:0:0:
153,192,51122,1,0,0:0:0:70:soft-hitwhistle.wav
460,192,51122,128,0,51407:0:0:0:60:BaSS.wav
358,192,51265,128,0,51407:0:0:0:0:
256,192,51407,1,0,0:0:0:70:soft-hitwhistle.wav
51,192,51407,1,0,0:0:0:60:BaSS.wav
153,192,51550,1,0,0:0:0:0:
256,192,51693,1,0,0:0:0:70:soft-hitwhistle.wav
460,192,51693,1,0,0:0:0:60:BaSS.wav
358,192,51836,1,0,0:0:0:0:
460,192,51979,1,0,0:0:0:70:soft-hitwhistle.wav
153,192,51979,1,0,0:0:0:60:BaSS.wav
256,192,52122,1,0,0:0:0:0:
51,192,52265,128,0,52550:0:0:0:70:soft-hitwhistle.wav
358,192,52265,1,0,0:0:0:60:BaSS.wav
153,192,52407,128,0,52550:0:0:0:0:
256,192,52550,1,0,0:0:0:70:soft-hitwhistle.wav
460,192,52550,1,0,0:0:0:60:BaSS.wav
358,192,52622,1,0,0:0:0:60:LR_HiHat Click.wav
153,192,52693,1,0,0:0:0:60:LR_HiHat Click.wav
358,192,52765,1,0,0:0:0:60:LR_HiHat Click.wav
153,192,52836,128,0,53122:0:0:0:60:LR_HiHat Click.wav
358,192,53122,1,0,0:0:0:70:soft-hitwhistle.wav
460,192,53122,1,0,0:0:0:50:Cymbol.wav
51,192,53122,1,0,0:0:0:60:BaSS.wav
256,192,53265,1,0,0:0:0:0:
460,192,53407,1,0,0:0:0:70:soft-hitwhistle.wav
153,192,53407,128,0,53693:0:0:0:60:BaSS.wav
358,192,53550,128,0,53693:0:0:0:0:
256,192,53693,1,0,0:0:0:70:soft-hitwhistle.wav
51,192,53693,1,0,0:0:0:60:BaSS.wav
153,192,53836,1,0,0:0:0:0:
256,192,53979,1,0,0:0:0:70:soft-hitwhistle.wav
460,192,53979,1,0,0:0:0:60:BaSS.wav
358,192,54122,1,0,0:0:0:0:
51,192,54265,1,0,0:0:0:70:soft-hitwhistle.wav
153,192,54265,1,0,0:0:0:60:BaSS.wav
256,192,54407,1,0,0:0:0:0:
358,192,54550,1,0,0:0:0:70:soft-hitwhistle.wav
460,192,54550,1,0,0:0:0:60:LR_HiHat Click.wav
153,192,54622,1,0,0:0:0:60:LR_HiHat Click.wav
358,192,54693,1,0,0:0:0:60:LR_HiHat Click.wav
51,192,54836,128,0,55122:0:0:0:0:
153,192,55122,1,0,0:0:0:70:soft-hitwhistle.wav
460,192,55122,1,0,0:0:0:60:BaSS.wav
460,192,55336,1,0,0:0:0:70:soft-hitwhistle.wav
153,192,55336,1,0,0:0:0:60:BaSS.wav
256,192,55550,1,0,0:0:0:70:soft-hitwhistle.wav
358,192,55550,1,0,0:0:0:60:BaSS.wav
51,192,55836,1,0,0:0:0:70:soft-hitwhistle.wav
460,192,55836,1,0,0:0:0:60:BaSS.wav
460,192,56050,1,0,0:0:0:70:soft-hitwhistle.wav
51,192,56050,1,0,0:0:0:60:BaSS.wav
460,192,56265,1,0,0:0:0:70:soft-hitwhistle.wav
51,192,56265,1,0,0:0:0:60:BaSS.wav
460,192,56479,1,0,0:0:0:70:soft-hitwhistle.wav
51,192,56479,1,0,0:0:0:60:BaSS.wav
153,192,56693,1,0,0:0:0:70:soft-hitwhistle.wav
358,192,56693,1,0,0:0:0:60:BaSS.wav
153,192,56979,1,0,0:0:0:70:soft-hitwhistle.wav
358,192,56979,1,0,0:0:0:60:BaSS.wav
153,192,57193,128,0,57407:0:0:0:70:soft-hitwhistle.wav
358,192,57193,128,0,57407:0:0:0:60:BaSS.wav
51,192,57407,1,0,0:0:0:70:soft-hitwhistle.wav
460,192,57407,1,0,0:0:0:50:Cymbol.wav
256,192,57407,1,0,0:0:0:60:BaSS.wav
153,192,57550,1,0,0:0:0:60:LR_HiHat Click.wav
358,192,57622,1,0,0:0:0:60:LR_HiHat Click.wav
153,192,57693,1,0,0:0:0:60:LR_HiHat Click.wav
256,192,57836,1,0,0:0:0:60:LR_HiHat Click.wav
256,192,57979,1,0,0:0:0:60:LR_HiHat Click.wav
256,192,58122,128,0,58550:0:0:0:60:LR_HiHat Click.wav
153,192,58550,1,0,0:0:0:70:soft-hitwhistle.wav
51,192,58550,1,0,0:0:0:50:Cymbol.wav
358,192,58550,1,0,0:0:0:60:Snare.wav
460,192,58550,1,0,0:0:0:0:
153,192,58765,1,0,0:0:0:60:LR_HiHat Click.wav
153,192,58907,1,0,0:0:0:60:LR_HiHat Click.wav
358,192,59050,1,0,0:0:0:60:LR_HiHat Click.wav
153,192,59122,1,0,0:0:0:60:LR_HiHat Click.wav
358,192,59193,1,0,0:0:0:60:LR_HiHat Click.wav
153,192,59265,1,0,0:0:0:60:LR_HiHat Click.wav
460,192,59336,1,0,0:0:0:60:LR_HiHat Click.wav
256,192,59407,1,0,0:0:0:60:LR_HiHat Click.wav
51,192,59479,1,0,0:0:0:60:LR_HiHat Click.wav
358,192,59550,1,0,0:0:0:60:LR_HiHat Click.wav
153,192,59622,1,0,0:0:0:60:LR_HiHat Click.wav
51,192,59693,1,0,0:0:0:70:soft-hitwhistle.wav
256,192,59693,1,0,0:0:0:50:Cymbol.wav
460,192,59693,1,0,0:0:0:60:Snare.wav
358,192,59836,1,0,0:0:0:0:
153,192,59979,1,0,0:0:0:70:soft-hitwhistle.wav
51,192,59979,1,0,0:0:0:60:LR4_SnareBPDT.wav
256,192,60122,1,0,0:0:0:0:
358,192,60265,1,0,0:0:0:70:soft-hitwhistle.wav
460,192,60265,1,0,0:0:0:0:
153,192,60407,1,0,0:0:0:0:
51,192,60550,1,0,0:0:0:70:soft-hitwhistle.wav
256,192,60550,1,0,0:0:0:60:LR4_SnareBPDT.wav
358,192,60693,1,0,0:0:0:0:
460,192,60836,1,0,0:0:0:70:soft-hitwhistle.wav
153,192,60836,1,0,0:0:0:0:
51,192,60979,1,0,0:0:0:0:
256,192,61122,1,0,0:0:0:70:soft-hitwhistle.wav
358,192,61122,1,0,0:0:0:60:LR4_SnareBPDT.wav
153,192,61265,1,0,0:0:0:0:
51,192,61407,1,0,0:0:0:70:soft-hitwhistle.wav
460,192,61407,1,0,0:0:0:0:
358,192,61550,1,0,0:0:0:0:
256,192,61693,1,0,0:0:0:70:soft-hitwhistle.wav
153,192,61693,1,0,0:0:0:60:LR4_SnareBPDT.wav
358,192,61836,1,0,0:0:0:70:soft-hitwhistle.wav
460,192,61836,1,0,0:0:0:0:
51,192,61979,1,0,0:0:0:0:
460,192,62122,1,0,0:0:0:70:soft-hitwhistle.wav
358,192,62122,1,0,0:0:0:0:
256,192,62265,1,0,0:0:0:70:soft-hitwhistle.wav
153,192,62265,1,0,0:0:0:60:LR4_SnareBPDT.wav
51,192,62407,1,0,0:0:0:0:
358,192,62550,1,0,0:0:0:70:soft-hitwhistle.wav
256,192,62550,1,0,0:0:0:0:
153,192,62693,1,0,0:0:0:0:
358,192,62836,1,0,0:0:0:70:soft-hitwhistle.wav
460,192,62836,1,0,0:0:0:60:LR4_SnareBPDT.wav
256,192,62979,1,0,0:0:0:0:
153,192,63122,1,0,0:0:0:70:soft-hitwhistle.wav
460,192,63122,1,0,0:0:0:0:
358,192,63265,1,0,0:0:0:0:
256,192,63407,1,0,0:0:0:70:soft-hitwhistle.wav
51,192,63407,1,0,0:0:0:60:LR4_SnareBPDT.wav
153,192,63550,1,0,0:0:0:0:
51,192,63693,1,0,0:0:0:70:soft-hitwhistle.wav
358,192,63693,1,0,0:0:0:0:
256,192,63836,1,0,0:0:0:50:LR4_Snare DWRS.wav
460,192,63836,1,0,0:0:0:0:
358,192,63979,1,0,0:0:0:70:soft-hitwhistle.wav
153,192,63979,1,0,0:0:0:60:LR4_SnareBPDT.wav
256,192,64122,1,0,0:0:0:50:LR4_Snare DWRS.wav
51,192,64122,1,0,0:0:0:0:
153,192,64265,1,0,0:0:0:70:soft-hitwhistle.wav
460,192,64265,1,0,0:0:0:0:
358,192,64407,1,0,0:0:0:0:
256,192,64550,1,0,0:0:0:70:soft-hitwhistle.wav
51,192,64550,1,0,0:0:0:60:LR4_SnareBPDT.wav
358,192,64693,1,0,0:0:0:0:
460,192,64836,1,0,0:0:0:70:soft-hitwhistle.wav
153,192,64836,1,0,0:0:0:0:
256,192,64979,1,0,0:0:0:0:
358,192,65122,1,0,0:0:0:70:soft-hitwhistle.wav
51,192,65122,1,0,0:0:0:60:LR4_SnareBPDT.wav
153,192,65265,1,0,0:0:0:0:
460,192,65407,1,0,0:0:0:70:soft-hitwhistle.wav
256,192,65407,1,0,0:0:0:0:
358,192,65550,1,0,0:0:0:0:
51,192,65693,1,0,0:0:0:70:soft-hitwhistle.wav
153,192,65693,1,0,0:0:0:60:LR4_SnareBPDT.wav
256,192,65836,1,0,0:0:0:0:
358,192,65979,1,0,0:0:0:70:soft-hitwhistle.wav
460,192,65979,1,0,0:0:0:0:
153,192,66122,1,0,0:0:0:0:
256,192,66265,1,0,0:0:0:70:soft-hitwhistle.wav
358,192,66265,1,0,0:0:0:60:LR4_SnareBPDT.wav
51,192,66407,1,0,0:0:0:70:soft-hitwhistle.wav
153,192,66407,1,0,0:0:0:0:
460,192,66550,1,0,0:0:0:0:
51,192,66693,1,0,0:0:0:70:soft-hitwhistle.wav
153,192,66693,1,0,0:0:0:0:
460,192,66836,1,0,0:0:0:70:soft-hitwhistle.wav
358,192,66836,1,0,0:0:0:60:LR4_SnareBPDT.wav
153,192,66979,1,0,0:0:0:0:
256,192,67122,1,0,0:0:0:70:soft-hitwhistle.wav
358,192,67122,1,0,0:0:0:0:
460,192,67265,1,0,0:0:0:0:
153,192,67407,1,0,0:0:0:70:soft-hitwhistle.wav
51,192,67407,1,0,0:0:0:60:LR4_SnareBPDT.wav
256,192,67550,1,0,0:0:0:0:
358,192,67693,1,0,0:0:0:70:soft-hitwhistle.wav
460,192,67693,1,0,0:0:0:0:
153,192,67836,1,0,0:0:0:70:soft-hitwhistle.wav
51,192,67836,1,0,0:0:0:0:
358,192,67979,1,0,0:0:0:70:soft-hitwhistle.wav
460,192,67979,1,0,0:0:0:60:LR4_SnareBPDT.wav
153,192,68050,1,0,0:0:0:70:soft-hitwhistle.wav
358,192,68122,1,0,0:0:0:70:soft-hitwhistle.wav
153,192,68193,1,0,0:0:0:70:soft-hitwhistle.wav
460,192,68265,1,0,0:0:0:60:LR4_SnareBPDT.wav
51,192,68265,1,0,0:0:0:50:Cymbol.wav
256,192,68265,1,0,0:0:0:60:Snare.wav
460,192,68479,1,0,0:0:0:60:LR4_SnareBPDT.wav
51,192,68479,1,0,0:0:0:50:Cymbol.wav
256,192,68479,1,0,0:0:0:60:Snare.wav
358,192,68693,1,0,0:0:0:70:soft-hitwhistle.wav
153,192,68693,1,0,0:0:0:50:Cymbol.wav
256,192,68693,1,0,0:0:0:60:BaSS.wav
153,192,68979,1,0,0:0:0:70:soft-hitwhistle.wav
358,192,69050,1,0,0:0:0:70:soft-hitwhistle.wav
256,192,69122,1,0,0:0:0:60:LR4_SnareBPDT.wav
51,192,69122,1,0,0:0:0:50:Cymbol.wav
460,192,69122,1,0,0:0:0:40:Ride.wav
153,192,69265,1,0,0:0:0:0:
51,192,69407,1,0,0:0:0:60:LR4_SnareBPDT.wav
358,192,69407,1,0,0:0:0:60:Snare.wav
460,192,69407,1,0,0:0:0:40:Ride.wav
256,192,69550,1,0,0:0:0:0:
153,192,69693,1,0,0:0:0:60:LR4_SnareBPDT.wav
51,192,69693,1,0,0:0:0:60:Snare.wav
358,192,69693,1,0,0:0:0:40:Ride.wav
460,192,69836,1,0,0:0:0:0:
51,192,69979,1,0,0:0:0:60:LR4_SnareBPDT.wav
153,192,69979,1,0,0:0:0:60:Snare.wav
256,192,69979,1,0,0:0:0:40:Ride.wav
358,192,70122,1,0,0:0:0:0:
460,192,70265,1,0,0:0:0:60:LR4_SnareBPDT.wav
51,192,70265,1,0,0:0:0:60:Snare.wav
153,192,70265,1,0,0:0:0:40:Ride.wav
256,192,70407,1,0,0:0:0:0:
358,192,70550,1,0,0:0:0:60:LR4_SnareBPDT.wav
460,192,70550,1,0,0:0:0:60:Snare.wav
51,192,70550,1,0,0:0:0:40:Ride.wav
256,192,70693,1,0,0:0:0:0:
153,192,70836,1,0,0:0:0:60:LR4_SnareBPDT.wav
51,192,70836,1,0,0:0:0:60:Snare.wav
460,192,70836,1,0,0:0:0:40:Ride.wav
358,192,70979,1,0,0:0:0:70:soft-hitwhistle.wav
256,192,70979,1,0,0:0:0:40:Ride.wav
51,192,70979,1,0,0:0:0:0:
460,192,71122,1,0,0:0:0:0:
358,192,71265,1,0,0:0:0:70:soft-hitwhistle.wav
256,192,71265,1,0,0:0:0:40:Ride.wav
51,192,71265,1,0,0:0:0:0:
153,192,71407,1,0,0:0:0:70:soft-hitwhistle.wav
358,192,71407,1,0,0:0:0:60:LR4_SnareBPDT.wav
460,192,71407,1,0,0:0:0:50:Cymbol.wav
51,192,71550,1,0,0:0:0:60:LR4_SnareBPDT.wav
256,192,71550,1,0,0:0:0:0:
460,192,71693,1,0,0:0:0:70:soft-hitwhistle.wav
153,192,71693,1,0,0:0:0:60:BaSS.wav
256,192,71836,1,0,0:0:0:60:LR4_SnareBPDT.wav
358,192,71836,1,0,0:0:0:0:
51,192,71979,1,0,0:0:0:70:soft-hitwhistle.wav
460,192,71979,1,0,0:0:0:60:BaSS.wav
256,192,72122,1,0,0:0:0:60:LR4_SnareBPDT.wav
153,192,72122,1,0,0:0:0:0:
358,192,72265,1,0,0:0:0:70:soft-hitwhistle.wav
51,192,72265,1,0,0:0:0:60:BaSS.wav
256,192,72407,1,0,0:0:0:60:LR4_SnareBPDT.wav
460,192,72407,1,0,0:0:0:0:
51,192,72550,1,0,0:0:0:70:soft-hitwhistle.wav
358,192,72550,1,0,0:0:0:60:BaSS.wav
153,192,72693,1,0,0:0:0:60:LR4_SnareBPDT.wav
460,192,72693,1,0,0:0:0:0:
256,192,72836,1,0,0:0:0:70:soft-hitwhistle.wav
51,192,72836,1,0,0:0:0:60:BaSS.wav
153,192,72979,1,0,0:0:0:60:LR4_SnareBPDT.wav
358,192,72979,1,0,0:0:0:0:
256,192,73122,1,0,0:0:0:70:BaSS.wav
460,192,73122,128,0,73407:0:0:0:0:
153,192,73407,1,0,0:0:0:70:soft-hitwhistle.wav
51,192,73407,1,0,0:0:0:50:Cymbol.wav
358,192,73407,1,0,0:0:0:70:BaSS.wav
256,192,73550,1,0,0:0:0:70:soft-hitwhistle.wav
153,192,73550,1,0,0:0:0:0:
358,192,73622,1,0,0:0:0:70:soft-hitwhistle.wav
460,192,73622,1,0,0:0:0:0:
153,192,73765,1,0,0:0:0:70:soft-hitwhistle.wav
256,192,73765,1,0,0:0:0:0:
358,192,73836,1,0,0:0:0:70:soft-hitwhistle.wav
460,192,73836,1,0,0:0:0:0:
51,192,73979,1,0,0:0:0:70:soft-hitwhistle.wav
460,192,73979,1,0,0:0:0:70:BaSS.wav
358,192,74122,1,0,0:0:0:70:soft-hitwhistle.wav
256,192,74122,1,0,0:0:0:0:
153,192,74193,1,0,0:0:0:70:soft-hitwhistle.wav
51,192,74193,1,0,0:0:0:0:
358,192,74336,1,0,0:0:0:70:soft-hitwhistle.wav
256,192,74336,1,0,0:0:0:0:
153,192,74407,1,0,0:0:0:70:soft-hitwhistle.wav
51,192,74407,1,0,0:0:0:0:
358,192,74550,1,0,0:0:0:70:soft-hitwhistle.wav
460,192,74550,1,0,0:0:0:70:BaSS.wav
256,192,74693,1,0,0:0:0:70:soft-hitwhistle.wav
51,192,74693,1,0,0:0:0:0:
358,192,74765,1,0,0:0:0:70:soft-hitwhistle.wav
460,192,74765,1,0,0:0:0:0:
51,192,74907,1,0,0:0:0:70:soft-hitwhistle.wav
256,192,74907,1,0,0:0:0:0:
358,192,74979,1,0,0:0:0:70:soft-hitwhistle.wav
460,192,74979,1,0,0:0:0:0:
153,192,75122,1,0,0:0:0:70:soft-hitwhistle.wav
51,192,75122,1,0,0:0:0:70:BaSS.wav
256,192,75265,1,0,0:0:0:70:soft-hitwhistle.wav
460,192,75265,1,0,0:0:0:0:
153,192,75336,1,0,0:0:0:70:soft-hitwhistle.wav
51,192,75336,1,0,0:0:0:0:
460,192,75479,1,0,0:0:0:70:soft-hitwhistle.wav
256,192,75479,1,0,0:0:0:0:
153,192,75550,1,0,0:0:0:70:soft-hitwhistle.wav
51,192,75550,1,0,0:0:0:0:
358,192,75693,1,0,0:0:0:70:soft-hitwhistle.wav
256,192,75693,1,0,0:0:0:70:BaSS.wav
153,192,75836,1,0,0:0:0:70:soft-hitwhistle.wav
51,192,75836,1,0,0:0:0:0:
358,192,75907,1,0,0:0:0:70:soft-hitwhistle.wav
460,192,75907,1,0,0:0:0:0:
51,192,76050,1,0,0:0:0:70:soft-hitwhistle.wav
153,192,76050,1,0,0:0:0:0:
358,192,76122,1,0,0:0:0:70:soft-hitwhistle.wav
460,192,76122,1,0,0:0:0:0:
256,192,76265,1,0,0:0:0:70:soft-hitwhistle.wav
51,192,76265,1,0,0:0:0:70:BaSS.wav
460,192,76407,1,0,0:0:0:70:soft-hitwhistle.wav
358,192,76407,1,0,0:0:0:0:
153,192,76479,1,0,0:0:0:70:soft-hitwhistle.wav
51,192,76479,1,0,0:0:0:0:
460,192,76622,1,0,0:0:0:70:soft-hitwhistle.wav
358,192,76622,1,0,0:0:0:0:
153,192,76693,1,0,0:0:0:70:soft-hitwhistle.wav
51,192,76693,1,0,0:0:0:0:
358,192,76836,1,0,0:0:0:70:soft-hitwhistle.wav
460,192,76836,1,0,0:0:0:45:LR4_SnareBPDT.wav
153,192,76907,1,0,0:0:0:45:LR4_SnareBPDT.wav
51,192,76979,1,0,0:0:0:45:LR4_SnareBPDT.wav
256,192,77050,1,0,0:0:0:45:LR4_SnareBPDT.wav
153,192,77122,1,0,0:0:0:45:LR4_SnareBPDT.wav
358,192,77193,1,0,0:0:0:45:LR4_SnareBPDT.wav
256,192,77265,1,0,0:0:0:45:LR4_SnareBPDT.wav
460,192,77336,1,0,0:0:0:45:LR4_SnareBPDT.wav
358,192,77407,1,0,0:0:0:70:soft-hitwhistle.wav
153,192,77407,1,0,0:0:0:45:LR4_SnareBPDT.wav
51,192,77479,1,0,0:0:0:45:LR4_SnareBPDT.wav
256,192,77550,1,0,0:0:0:70:Drop.wav
460,192,77550,1,0,0:0:0:0:
153,192,77622,1,0,0:0:0:40:LR4_SnareBPDT.wav
358,192,77693,128,0,77979:0:0:0:35:LR4_SnareBPDT.wav
460,192,77836,128,0,77979:0:0:0:25:LR4_SnareBPDT.wav
153,192,77979,1,0,0:0:0:70:soft-hitwhistle.wav
51,192,77979,1,0,0:0:0:50:Cymbol.wav
256,192,77979,1,0,0:0:0:60:BaSS.wav
51,192,78193,1,0,0:0:0:70:soft-hitwhistle.wav
256,192,78193,1,0,0:0:0:50:Cymbol.wav
460,192,78193,1,0,0:0:0:60:BaSS.wav
256,192,78407,1,0,0:0:0:70:soft-hitwhistle.wav
153,192,78407,1,0,0:0:0:50:Cymbol.wav
51,192,78407,1,0,0:0:0:60:BaSS.wav
51,192,78622,1,0,0:0:0:70:soft-hitwhistle.wav
256,192,78622,1,0,0:0:0:50:Cymbol.wav
460,192,78622,1,0,0:0:0:60:BaSS.wav
358,192,78836,1,0,0:0:0:70:soft-hitwhistle.wav
153,192,78836,1,0,0:0:0:50:Cymbol.wav
51,192,78836,1,0,0:0:0:60:BaSS.wav
51,192,79122,1,0,0:0:0:70:soft-hitwhistle.wav
153,192,79122,1,0,0:0:0:50:Cymbol.wav
358,192,79122,1,0,0:0:0:60:BaSS.wav
256,192,79336,1,0,0:0:0:70:soft-hitwhistle.wav
153,192,79336,1,0,0:0:0:50:Cymbol.wav
460,192,79336,1,0,0:0:0:60:BaSS.wav
358,192,79550,1,0,0:0:0:70:soft-hitwhistle.wav
153,192,79550,1,0,0:0:0:50:Cymbol.wav
51,192,79550,1,0,0:0:0:60:BaSS.wav
153,192,79765,1,0,0:0:0:70:soft-hitwhistle.wav
256,192,79765,1,0,0:0:0:50:Cymbol.wav
460,192,79765,1,0,0:0:0:60:BaSS.wav
358,192,79979,1,0,0:0:0:70:soft-hitwhistle.wav
153,192,79979,1,0,0:0:0:50:Cymbol.wav
51,192,79979,1,0,0:0:0:60:BaSS.wav
153,192,80122,1,0,0:0:0:70:soft-hitwhistle.wav
256,192,80122,1,0,0:0:0:50:Cymbol.wav
460,192,80122,1,0,0:0:0:60:BaSS.wav
460,192,80336,1,0,0:0:0:70:soft-hitwhistle.wav
256,192,80336,1,0,0:0:0:50:Cymbol.wav
153,192,80336,1,0,0:0:0:60:BaSS.wav
153,192,80550,1,0,0:0:0:70:soft-hitwhistle.wav
256,192,80550,1,0,0:0:0:50:Cymbol.wav
460,192,80550,1,0,0:0:0:60:BaSS.wav
460,192,80765,1,0,0:0:0:70:soft-hitwhistle.wav
256,192,80765,1,0,0:0:0:50:Cymbol.wav
153,192,80765,1,0,0:0:0:60:BaSS.wav
256,192,80979,1,0,0:0:0:70:soft-hitwhistle.wav
153,192,80979,1,0,0:0:0:50:Cymbol.wav
460,192,80979,1,0,0:0:0:60:BaSS.wav
460,192,81122,1,0,0:0:0:70:soft-hitwhistle.wav
358,192,81122,1,0,0:0:0:50:Cymbol.wav
51,192,81122,1,0,0:0:0:60:BaSS.wav
51,192,81336,1,0,0:0:0:70:soft-hitwhistle.wav
358,192,81336,1,0,0:0:0:50:Cymbol.wav
460,192,81336,1,0,0:0:0:60:BaSS.wav
460,192,81550,1,0,0:0:0:70:soft-hitwhistle.wav
358,192,81550,1,0,0:0:0:50:Cymbol.wav
51,192,81550,1,0,0:0:0:60:BaSS.wav
51,192,81765,1,0,0:0:0:70:soft-hitwhistle.wav
358,192,81765,1,0,0:0:0:50:Cymbol.wav
460,192,81765,1,0,0:0:0:60:BaSS.wav
460,192,81979,1,0,0:0:0:70:soft-hitwhistle.wav
358,192,81979,1,0,0:0:0:50:Cymbol.wav
51,192,81979,1,0,0:0:0:60:BaSS.wav
153,192,82122,128,0,82479:0:0:0:70:soft-hitwhistle.wav
256,192,82122,128,0,82479:0:0:0:60:CrashL.wav
358,192,82122,128,0,82479:0:0:0:60:BaSS.wav
256,192,82550,1,0,0:0:0:70:soft-hitwhistle.wav
460,192,82550,1,0,0:0:0:50:Cymbol.wav
358,192,82550,1,0,0:0:0:60:BaSS.wav
256,192,82765,1,0,0:0:0:70:soft-hitwhistle.wav
460,192,82765,1,0,0:0:0:50:Cymbol.wav
51,192,82765,1,0,0:0:0:60:BaSS.wav
256,192,82979,1,0,0:0:0:70:soft-hitwhistle.wav
358,192,82979,1,0,0:0:0:50:Cymbol.wav
460,192,82979,1,0,0:0:0:60:BaSS.wav
460,192,83193,1,0,0:0:0:70:soft-hitwhistle.wav
256,192,83193,1,0,0:0:0:50:Cymbol.wav
51,192,83193,1,0,0:0:0:60:BaSS.wav
153,192,83407,1,0,0:0:0:70:soft-hitwhistle.wav
358,192,83407,1,0,0:0:0:50:Cymbol.wav
460,192,83407,1,0,0:0:0:60:BaSS.wav
460,192,83693,1,0,0:0:0:70:soft-hitwhistle.wav
358,192,83693,1,0,0:0:0:50:Cymbol.wav
153,192,83693,1,0,0:0:0:60:BaSS.wav
51,192,83907,1,0,0:0:0:70:soft-hitwhistle.wav
256,192,83907,1,0,0:0:0:50:Cymbol.wav
358,192,83907,1,0,0:0:0:60:BaSS.wav
358,192,84122,1,0,0:0:0:70:soft-hitwhistle.wav
460,192,84122,1,0,0:0:0:50:Cymbol.wav
153,192,84122,1,0,0:0:0:60:BaSS.wav
256,192,84336,1,0,0:0:0:70:soft-hitwhistle.wav
358,192,84336,1,0,0:0:0:50:Cymbol.wav
51,192,84336,1,0,0:0:0:60:BaSS.wav
153,192,84550,1,0,0:0:0:70:soft-hitwhistle.wav
358,192,84550,1,0,0:0:0:50:Cymbol.wav
460,192,84550,1,0,0:0:0:60:BaSS.wav
358,192,84693,1,0,0:0:0:70:soft-hitwhistle.wav
256,192,84693,1,0,0:0:0:50:Cymbol.wav
51,192,84693,1,0,0:0:0:60:BaSS.wav
51,192,84907,1,0,0:0:0:70:soft-hitwhistle.wav
256,192,84907,1,0,0:0:0:50:Cymbol.wav
358,192,84907,1,0,0:0:0:60:BaSS.wav
358,192,85122,1,0,0:0:0:70:soft-hitwhistle.wav
256,192,85122,1,0,0:0:0:50:Cymbol.wav
51,192,85122,1,0,0:0:0:60:BaSS.wav
256,192,85336,1,0,0:0:0:70:soft-hitwhistle.wav
358,192,85336,1,0,0:0:0:50:Cymbol.wav
51,192,85336,1,0,0:0:0:60:BaSS.wav
51,192,85550,1,0,0:0:0:70:soft-hitwhistle.wav
256,192,85550,1,0,0:0:0:50:Cymbol.wav
358,192,85550,1,0,0:0:0:60:BaSS.wav
153,192,85693,1,0,0:0:0:50:LR4_SnareBPDT.wav
51,192,85693,1,0,0:0:0:60:Snare.wav
358,192,85765,1,0,0:0:0:50:LR4_SnareBPDT.wav
460,192,85765,1,0,0:0:0:60:Snare.wav
51,192,85836,1,0,0:0:0:50:LR4_SnareBPDT.wav
153,192,85836,1,0,0:0:0:60:Snare.wav
460,192,85907,1,0,0:0:0:50:LR4_SnareBPDT.wav
358,192,85907,1,0,0:0:0:60:Snare.wav
256,192,85979,1,0,0:0:0:70:soft-hitwhistle.wav
153,192,85979,1,0,0:0:0:40:LR4_Snare DWRS.wav
51,192,85979,1,0,0:0:0:50:Cymbol.wav
153,192,86169,1,0,0:0:0:70:soft-hitwhistle.wav
256,192,86169,1,0,0:0:0:40:LR4_Snare DWRS.wav
358,192,86169,1,0,0:0:0:50:Cymbol.wav
256,192,86360,1,0,0:0:0:70:soft-hitwhistle.wav
358,192,86360,1,0,0:0:0:40:LR4_Snare DWRS.wav
460,192,86360,1,0,0:0:0:50:Cymbol.wav
358,192,86550,1,0,0:0:0:70:soft-hitwhistle.wav
460,192,86550,1,0,0:0:0:40:LR4_Snare DWRS.wav
51,192,86550,1,0,0:0:0:50:Cymbol.wav
460,192,86741,1,0,0:0:0:70:soft-hitwhistle.wav
51,192,86741,1,0,0:0:0:40:LR4_Snare DWRS.wav
153,192,86741,1,0,0:0:0:50:Cymbol.wav
51,192,86931,1,0,0:0:0:70:soft-hitwhistle.wav
153,192,86931,1,0,0:0:0:50:Cymbol.wav
256,192,86931,1,0,0:0:0:60:BaSS.wav
51,192,87122,1,0,0:0:0:70:soft-hitwhistle.wav
460,192,87122,1,0,0:0:0:50:Cymbol.wav
256,192,87122,128,0,87407:0:0:0:60:BaSS.wav
256,192,87550,128,0,88122:0:0:0:0:
256,192,88265,128,0,88550:0:0:0:0:
256,192,88693,128,0,89265:0:0:0:0:
256,192,89407,128,0,89693:0:0:0:0:
256,192,89836,128,0,90407:0:0:0:0:
256,192,90550,128,0,90836:0:0:0:0:
256,192,90979,128,0,91622:0:0:0:0:
51,192,91265,128,0,91622:0:0:0:70:soft-hitwhistle.wav
460,192,91265,128,0,91622:0:0:0:60:CrashL.wav
51,192,91693,1,0,0:0:0:70:soft-hitwhistle.wav
256,192,91693,1,0,0:0:0:50:Cymbol.wav
460,192,91693,1,0,0:0:0:60:BaSS.wav
51,192,91979,128,0,92122:0:0:0:70:soft-hitwhistle.wav
358,192,91979,1,0,0:0:0:60:Snare.wav
153,192,92122,128,0,92265:0:0:0:0:
460,192,92265,1,0,0:0:0:70:soft-hitwhistle.wav
358,192,92265,128,0,92550:0:0:0:0:
51,192,92550,1,0,0:0:0:70:soft-hitwhistle.wav
460,192,92550,1,0,0:0:0:60:Snare.wav
153,192,92622,1,0,0:0:0:0:
256,192,92693,1,0,0:0:0:0:
358,192,92765,1,0,0:0:0:0:
51,192,92836,1,0,0:0:0:70:soft-hitwhistle.wav
460,192,92836,128,0,93122:0:0:0:0:
153,192,93122,1,0,0:0:0:70:soft-hitwhistle.wav
256,192,93122,1,0,0:0:0:60:Snare.wav
51,192,93193,1,0,0:0:0:0:
358,192,93265,1,0,0:0:0:0:
460,192,93336,1,0,0:0:0:0:
256,192,93407,1,0,0:0:0:70:soft-hitwhistle.wav
153,192,93407,1,0,0:0:0:0:
51,192,93479,1,0,0:0:0:0:
358,192,93550,1,0,0:0:0:0:
460,192,93622,1,0,0:0:0:0:
256,192,93693,1,0,0:0:0:70:soft-hitwhistle.wav
153,192,93693,1,0,0:0:0:60:Snare.wav
51,192,93765,1,0,0:0:0:0:
358,192,93836,1,0,0:0:0:0:
460,192,93907,1,0,0:0:0:0:
153,192,93979,1,0,0:0:0:70:soft-hitwhistle.wav
51,192,93979,1,0,0:0:0:0:
256,192,94050,1,0,0:0:0:0:
358,192,94122,1,0,0:0:0:0:
460,192,94193,1,0,0:0:0:0:
51,192,94265,1,0,0:0:0:70:soft-hitwhistle.wav
153,192,94265,1,0,0:0:0:60:Snare.wav
256,192,94336,1,0,0:0:0:0:
358,192,94407,1,0,0:0:0:0:
460,192,94479,1,0,0:0:0:0:
51,192,94550,1,0,0:0:0:70:soft-hitwhistle.wav
153,192,94550,1,0,0:0:0:0:
256,192,94622,1,0,0:0:0:0:
358,192,94693,1,0,0:0:0:0:
460,192,94765,1,0,0:0:0:0:
51,192,94836,1,0,0:0:0:70:soft-hitwhistle.wav
153,192,94836,1,0,0:0:0:60:Snare.wav
256,192,94907,1,0,0:0:0:0:
358,192,94979,1,0,0:0:0:0:
460,192,95050,1,0,0:0:0:0:
153,192,95122,1,0,0:0:0:70:soft-hitwhistle.wav
51,192,95122,128,0,96122:0:0:0:0:
358,192,95265,1,0,0:0:0:60:Drop.wav
460,192,95265,1,0,0:0:0:0:
256,192,95407,1,0,0:0:0:70:soft-hitwhistle.wav
153,192,95407,1,0,0:0:0:60:Snare.wav
358,192,95550,1,0,0:0:0:60:Drop.wav
460,192,95550,1,0,0:0:0:0:
256,192,95693,1,0,0:0:0:70:soft-hitwhistle.wav
153,192,95693,1,0,0:0:0:0:
358,192,95836,1,0,0:0:0:60:Drop.wav
460,192,95836,1,0,0:0:0:0:
256,192,95979,1,0,0:0:0:70:soft-hitwhistle.wav
358,192,95979,1,0,0:0:0:60:Snare.wav
256,192,96122,1,0,0:0:0:60:Drop.wav
153,192,96122,1,0,0:0:0:0:
358,192,96265,1,0,0:0:0:70:soft-hitwhistle.wav
460,192,96265,1,0,0:0:0:50:Cymbol.wav
51,192,96265,1,0,0:0:0:60:BaSS.wav
460,192,96550,128,0,96693:0:0:0:70:soft-hitwhistle.wav
153,192,96550,1,0,0:0:0:60:Snare.wav
358,192,96693,128,0,96836:0:0:0:0:
51,192,96836,1,0,0:0:0:70:soft-hitwhistle.wav
153,192,96836,128,0,97122:0:0:0:0:
51,192,97122,1,0,0:0:0:70:soft-hitwhistle.wav
460,192,97122,1,0,0:0:0:60:Snare.wav
358,192,97193,1,0,0:0:0:0:
256,192,97265,1,0,0:0:0:0:
153,192,97336,1,0,0:0:0:0:
51,192,97407,1,0,0:0:0:70:soft-hitwhistle.wav
460,192,97407,128,0,97693:0:0:0:0:
51,192,97693,1,0,0:0:0:70:soft-hitwhistle.wav
153,192,97693,1,0,0:0:0:60:Snare.wav
256,192,97765,1,0,0:0:0:0:
358,192,97836,1,0,0:0:0:0:
460,192,97907,1,0,0:0:0:0:
51,192,97979,1,0,0:0:0:70:soft-hitwhistle.wav
153,192,97979,1,0,0:0:0:0:
256,192,98050,1,0,0:0:0:0:
358,192,98122,1,0,0:0:0:0:
460,192,98193,1,0,0:0:0:0:
51,192,98265,1,0,0:0:0:70:soft-hitwhistle.wav
153,192,98265,1,0,0:0:0:60:Snare.wav
256,192,98336,1,0,0:0:0:0:
358,192,98407,1,0,0:0:0:0:
460,192,98479,1,0,0:0:0:0:
256,192,98550,1,0,0:0:0:70:soft-hitwhistle.wav
153,192,98550,1,0,0:0:0:0:
51,192,98622,1,0,0:0:0:0:
460,192,98693,1,0,0:0:0:0:
358,192,98765,1,0,0:0:0:0:
256,192,98836,1,0,0:0:0:70:soft-hitwhistle.wav
153,192,98836,1,0,0:0:0:60:Snare.wav
51,192,98907,1,0,0:0:0:0:
460,192,98979,1,0,0:0:0:0:
358,192,99050,1,0,0:0:0:0:
153,192,99122,1,0,0:0:0:70:soft-hitwhistle.wav
256,192,99122,1,0,0:0:0:0:
51,192,99193,1,0,0:0:0:0:
460,192,99265,1,0,0:0:0:0:
358,192,99336,1,0,0:0:0:0:
153,192,99407,1,0,0:0:0:70:soft-hitwhistle.wav
256,192,99407,1,0,0:0:0:60:Snare.wav
51,192,99479,1,0,0:0:0:0:
460,192,99550,1,0,0:0:0:0:
358,192,99622,1,0,0:0:0:0:
153,192,99693,1,0,0:0:0:70:soft-hitwhistle.wav
256,192,99693,1,0,0:0:0:0:
51,192,99765,1,0,0:0:0:0:
460,192,99836,1,0,0:0:0:0:
358,192,99907,1,0,0:0:0:70:soft-hitwhistle.wav
153,192,99979,1,0,0:0:0:60:Snare.wav
51,192,99979,1,0,0:0:0:0:
460,192,100050,1,0,0:0:0:0:
256,192,100122,1,0,0:0:0:60:Snare.wav
51,192,100193,1,0,0:0:0:70:soft-hitwhistle.wav
358,192,100265,1,0,0:0:0:0:
153,192,100336,1,0,0:0:0:70:soft-hitwhistle.wav
460,192,100407,1,0,0:0:0:70:soft-hitwhistle.wav
153,192,100550,1,0,0:0:0:60:BaSS.wav
358,192,100550,1,0,0:0:0:0:
51,192,100836,1,0,0:0:0:70:soft-hitwhistle.wav
460,192,100836,1,0,0:0:0:50:Cymbol.wav
256,192,100836,1,0,0:0:0:60:BaSS.wav
153,192,101122,1,0,0:0:0:60:LR4_Snare DWRS.wav
51,192,101122,1,0,0:0:0:60:Snare.wav
358,192,101265,1,0,0:0:0:70:soft-hitwhistle.wav
460,192,101265,1,0,0:0:0:0:
460,192,101550,1,0,0:0:0:70:soft-hitwhistle.wav
358,192,101550,1,0,0:0:0:0:
153,192,101693,1,0,0:0:0:60:LR4_Snare DWRS.wav
51,192,101693,1,0,0:0:0:60:Snare.wav
256,192,101765,1,0,0:0:0:0:
358,192,101836,1,0,0:0:0:0:
460,192,101907,1,0,0:0:0:0:
51,192,101979,1,0,0:0:0:70:soft-hitwhistle.wav
153,192,101979,1,0,0:0:0:60:BaSS.wav
460,192,102265,1,0,0:0:0:60:LR4_Snare DWRS.wav
358,192,102265,1,0,0:0:0:60:Snare.wav
256,192,102336,1,0,0:0:0:0:
153,192,102407,1,0,0:0:0:70:soft-hitwhistle.wav
51,192,102407,1,0,0:0:0:0:
460,192,102479,1,0,0:0:0:0:
358,192,102550,1,0,0:0:0:0:
256,192,102622,1,0,0:0:0:0:
153,192,102693,1,0,0:0:0:70:soft-hitwhistle.wav
51,192,102693,1,0,0:0:0:0:
256,192,102765,1,0,0:0:0:0:
358,192,102836,1,0,0:0:0:60:LR4_Snare DWRS.wav
460,192,102836,1,0,0:0:0:60:Snare.wav
51,192,102907,1,0,0:0:0:0:
153,192,102979,1,0,0:0:0:0:
256,192,103050,1,0,0:0:0:0:
358,192,103122,1,0,0:0:0:70:soft-hitwhistle.wav
460,192,103122,1,0,0:0:0:60:BaSS.wav
51,192,103193,1,0,0:0:0:0:
256,192,103265,1,0,0:0:0:0:
460,192,103336,1,0,0:0:0:0:
51,192,103407,1,0,0:0:0:60:LR4_Snare DWRS.wav
153,192,103407,1,0,0:0:0:60:Snare.wav
256,192,103479,1,0,0:0:0:0:
358,192,103550,1,0,0:0:0:70:soft-hitwhistle.wav
460,192,103550,1,0,0:0:0:0:
51,192,103622,1,0,0:0:0:0:
153,192,103693,1,0,0:0:0:0:
256,192,103765,1,0,0:0:0:0:
358,192,103836,1,0,0:0:0:70:soft-hitwhistle.wav
460,192,103836,1,0,0:0:0:0:
256,192,103907,1,0,0:0:0:0:
153,192,103979,1,0,0:0:0:60:LR4_Snare DWRS.wav
51,192,103979,1,0,0:0:0:60:Snare.wav
460,192,104050,1,0,0:0:0:0:
358,192,104122,1,0,0:0:0:0:
256,192,104193,1,0,0:0:0:0:
153,192,104265,1,0,0:0:0:70:soft-hitwhistle.wav
51,192,104265,1,0,0:0:0:60:BaSS.wav
358,192,104407,1,0,0:0:0:60:Drop.wav
460,192,104407,1,0,0:0:0:0:
153,192,104550,1,0,0:0:0:60:LR4_Snare DWRS.wav
51,192,104550,1,0,0:0:0:60:Snare.wav
358,192,104693,1,0,0:0:0:70:soft-hitwhistle.wav
460,192,104693,1,0,0:0:0:60:Drop.wav
153,192,104836,1,0,0:0:0:0:
256,192,104836,1,0,0:0:0:0:
358,192,104979,1,0,0:0:0:70:soft-hitwhistle.wav
460,192,104979,1,0,0:0:0:60:Drop.wav
256,192,105122,1,0,0:0:0:0:
51,192,105122,1,0,0:0:0:0:
153,192,105265,1,0,0:0:0:0:
358,192,105265,1,0,0:0:0:0:
51,192,105407,1,0,0:0:0:70:soft-hitwhistle.wav
256,192,105407,1,0,0:0:0:50:Cymbol.wav
460,192,105407,1,0,0:0:0:60:BaSS.wav
153,192,105550,1,0,0:0:0:70:soft-hitwhistle.wav
358,192,105550,1,0,0:0:0:0:
256,192,105693,1,0,0:0:0:70:soft-hitwhistle.wav
460,192,105693,1,0,0:0:0:60:LR4_SnareBPDT.wav
153,192,105836,1,0,0:0:0:70:soft-hitwhistle.wav
51,192,105836,1,0,0:0:0:0:
358,192,105979,1,0,0:0:0:70:soft-hitwhistle.wav
460,192,105979,1,0,0:0:0:60:LR4_SnareBPDT.wav
256,192,106122,1,0,0:0:0:70:soft-hitwhistle.wav
153,192,106122,1,0,0:0:0:0:
51,192,106265,1,0,0:0:0:70:soft-hitwhistle.wav
460,192,106265,1,0,0:0:0:60:LR4_SnareBPDT.wav
358,192,106407,1,0,0:0:0:70:soft-hitwhistle.wav
256,192,106407,1,0,0:0:0:0:
153,192,106550,1,0,0:0:0:70:soft-hitwhistle.wav
51,192,106550,1,0,0:0:0:60:LR4_SnareBPDT.wav
460,192,106550,1,0,0:0:0:50:Cymbol.wav
256,192,106693,1,0,0:0:0:70:soft-hitwhistle.wav
358,192,106693,1,0,0:0:0:0:
51,192,106836,1,0,0:0:0:70:soft-hitwhistle.wav
153,192,106836,1,0,0:0:0:60:LR4_SnareBPDT.wav
358,192,106979,1,0,0:0:0:70:soft-hitwhistle.wav
460,192,106979,1,0,0:0:0:0:
256,192,107122,1,0,0:0:0:70:soft-hitwhistle.wav
153,192,107122,1,0,0:0:0:60:LR4_SnareBPDT.wav
51,192,107265,1,0,0:0:0:70:soft-hitwhistle.wav
358,192,107265,1,0,0:0:0:0:
460,192,107407,1,0,0:0:0:70:soft-hitwhistle.wav
153,192,107407,1,0,0:0:0:60:LR4_SnareBPDT.wav
256,192,107550,1,0,0:0:0:70:soft-hitwhistle.wav
358,192,107550,1,0,0:0:0:0:
51,192,107693,1,0,0:0:0:70:soft-hitwhistle.wav
153,192,107693,1,0,0:0:0:60:LR4_SnareBPDT.wav
460,192,107693,1,0,0:0:0:50:Cymbol.wav
358,192,107765,1,0,0:0:0:70:soft-hitwhistle.wav
256,192,107836,1,0,0:0:0:70:soft-hitwhistle.wav
153,192,107907,1,0,0:0:0:70:soft-hitwhistle.wav
51,192,107979,1,0,0:0:0:70:soft-hitwhistle.wav
460,192,107979,1,0,0:0:0:60:LR4_SnareBPDT.wav
358,192,108050,1,0,0:0:0:70:soft-hitwhistle.wav
256,192,108122,1,0,0:0:0:70:soft-hitwhistle.wav
153,192,108193,1,0,0:0:0:70:soft-hitwhistle.wav
51,192,108265,1,0,0:0:0:70:soft-hitwhistle.wav
460,192,108265,1,0,0:0:0:60:LR4_SnareBPDT.wav
358,192,108336,1,0,0:0:0:70:soft-hitwhistle.wav
256,192,108407,1,0,0:0:0:70:soft-hitwhistle.wav
153,192,108479,1,0,0:0:0:70:soft-hitwhistle.wav
51,192,108550,1,0,0:0:0:70:soft-hitwhistle.wav
460,192,108550,1,0,0:0:0:60:LR4_SnareBPDT.wav
358,192,108622,1,0,0:0:0:70:soft-hitwhistle.wav
256,192,108693,1,0,0:0:0:70:soft-hitwhistle.wav
153,192,108765,1,0,0:0:0:70:soft-hitwhistle.wav
51,192,108836,1,0,0:0:0:70:soft-hitwhistle.wav
460,192,108836,1,0,0:0:0:60:BaSS.wav
358,192,109122,1,0,0:0:0:60:BaSS.wav
153,192,109193,1,0,0:0:0:50:Drop.wav
358,192,109265,1,0,0:0:0:50:Drop.wav
153,192,109336,1,0,0:0:0:50:Drop.wav
460,192,109479,1,0,0:0:0:50:Drop.wav
51,192,109550,1,0,0:0:0:50:Drop.wav
460,192,109622,1,0,0:0:0:50:Drop.wav
51,192,109693,128,0,109979:0:0:0:60:BaSS.wav
153,192,109979,1,0,0:0:0:70:soft-hitwhistle.wav
256,192,109979,1,0,0:0:0:50:Cymbol.wav
460,192,109979,1,0,0:0:0:60:BaSS.wav
358,192,110265,128,0,110407:0:0:0:0:
256,192,110407,128,0,110550:0:0:0:0:
153,192,110550,128,0,110836:0:0:0:60:LR4_SnareBPDT.wav
51,192,110550,1,0,0:0:0:60:Drop.wav
460,192,110550,1,0,0:0:0:0:
358,192,110836,1,0,0:0:0:70:soft-hitwhistle.wav
256,192,110836,1,0,0:0:0:50:Cymbol.wav
460,192,110836,1,0,0:0:0:0:
51,192,110907,1,0,0:0:0:0:
153,192,110979,1,0,0:0:0:0:
460,192,111050,1,0,0:0:0:0:
358,192,111122,1,0,0:0:0:0:
51,192,111193,1,0,0:0:0:0:
153,192,111265,1,0,0:0:0:0:
460,192,111336,1,0,0:0:0:0:
358,192,111407,1,0,0:0:0:70:soft-hitwhistle.wav
256,192,111407,1,0,0:0:0:0:
51,192,111479,1,0,0:0:0:0:
153,192,111550,1,0,0:0:0:0:
256,192,111622,1,0,0:0:0:0:
358,192,111693,1,0,0:0:0:60:LR4_SnareBPDT.wav
460,192,111693,1,0,0:0:0:60:Drop.wav
51,192,111693,1,0,0:0:0:0:
153,192,111765,1,0,0:0:0:0:
256,192,111836,1,0,0:0:0:0:
460,192,111907,1,0,0:0:0:0:
358,192,111979,1,0,0:0:0:0:
153,192,112050,1,0,0:0:0:0:
256,192,112122,1,0,0:0:0:0:
460,192,112193,1,0,0:0:0:0:
358,192,112265,1,0,0:0:0:70:soft-hitwhistle.wav
51,192,112265,1,0,0:0:0:0:
256,192,112336,1,0,0:0:0:0:
153,192,112407,1,0,0:0:0:0:
460,192,112479,1,0,0:0:0:0:
358,192,112550,1,0,0:0:0:0:
256,192,112622,1,0,0:0:0:0:
153,192,112693,1,0,0:0:0:0:
358,192,112765,1,0,0:0:0:0:
51,192,112836,1,0,0:0:0:60:LR4_SnareBPDT.wav
460,192,112836,1,0,0:0:0:60:Drop.wav
153,192,112836,1,0,0:0:0:0:
256,192,112907,1,0,0:0:0:0:
358,192,112979,1,0,0:0:0:0:
460,192,113050,1,0,0:0:0:0:
51,192,113122,1,0,0:0:0:70:soft-hitwhistle.wav
153,192,113122,1,0,0:0:0:0:
256,192,113193,1,0,0:0:0:0:
358,192,113265,1,0,0:0:0:0:
460,192,113336,1,0,0:0:0:0:
51,192,113407,128,0,113479:0:0:0:0:
51,192,113550,128,0,113622:0:0:0:0:
358,192,113693,128,0,113765:0:0:0:70:soft-hitwhistle.wav
460,192,113693,128,0,113765:0:0:0:0:
153,192,113836,128,0,113907:0:0:0:0:
460,192,113979,1,0,0:0:0:60:LR4_SnareBPDT.wav
153,192,113979,128,0,114050:0:0:0:60:Drop.wav
256,192,113979,1,0,0:0:0:0:
358,192,114122,128,0,114193:0:0:0:0:
358,192,114265,128,0,114336:0:0:0:0:
153,192,114407,128,0,114550:0:0:0:0:
51,192,114550,1,0,0:0:0:70:soft-hitwhistle.wav
256,192,114550,1,0,0:0:0:50:Cymbol.wav
460,192,114550,1,0,0:0:0:60:BaSS.wav
153,192,114836,128,0,114979:0:0:0:0:
256,192,114979,128,0,115122:0:0:0:0:
358,192,115122,128,0,115407:0:0:0:60:LR4_SnareBPDT.wav
51,192,115122,1,0,0:0:0:60:Drop.wav
460,192,115122,1,0,0:0:0:0:
256,192,115407,1,0,0:0:0:70:soft-hitwhistle.wav
153,192,115407,1,0,0:0:0:0:
51,192,115479,1,0,0:0:0:0:
358,192,115550,1,0,0:0:0:0:
460,192,115622,1,0,0:0:0:0:
153,192,115693,1,0,0:0:0:0:
51,192,115765,1,0,0:0:0:0:
358,192,115836,1,0,0:0:0:0:
460,192,115907,1,0,0:0:0:0:
256,192,115979,1,0,0:0:0:70:soft-hitwhistle.wav
153,192,115979,1,0,0:0:0:0:
51,192,116050,1,0,0:0:0:0:
460,192,116122,1,0,0:0:0:0:
358,192,116193,1,0,0:0:0:0:
256,192,116265,1,0,0:0:0:60:LR4_SnareBPDT.wav
153,192,116265,1,0,0:0:0:60:Drop.wav
51,192,116265,1,0,0:0:0:0:
460,192,116336,1,0,0:0:0:0:
358,192,116407,1,0,0:0:0:0:
51,192,116479,1,0,0:0:0:0:
153,192,116550,1,0,0:0:0:0:
460,192,116622,1,0,0:0:0:0:
358,192,116693,1,0,0:0:0:0:
51,192,116765,1,0,0:0:0:0:
153,192,116836,1,0,0:0:0:70:soft-hitwhistle.wav
256,192,116836,1,0,0:0:0:0:
460,192,116907,1,0,0:0:0:0:
358,192,116979,1,0,0:0:0:0:
51,192,117050,1,0,0:0:0:0:
153,192,117122,1,0,0:0:0:0:
460,192,117193,1,0,0:0:0:0:
358,192,117265,1,0,0:0:0:0:
256,192,117336,1,0,0:0:0:0:
153,192,117407,1,0,0:0:0:60:LR4_SnareBPDT.wav
51,192,117407,1,0,0:0:0:60:Drop.wav
460,192,117407,1,0,0:0:0:0:
358,192,117479,1,0,0:0:0:0:
256,192,117550,1,0,0:0:0:0:
51,192,117622,1,0,0:0:0:0:
460,192,117693,1,0,0:0:0:70:soft-hitwhistle.wav
153,192,117693,1,0,0:0:0:0:
256,192,117765,1,0,0:0:0:0:
358,192,117836,1,0,0:0:0:0:
51,192,117907,1,0,0:0:0:0:
153,192,117979,1,0,0:0:0:0:
256,192,118050,1,0,0:0:0:0:
358,192,118122,1,0,0:0:0:0:
460,192,118193,1,0,0:0:0:0:
153,192,118265,1,0,0:0:0:70:soft-hitwhistle.wav
51,192,118265,1,0,0:0:0:0:
358,192,118336,1,0,0:0:0:0:
256,192,118407,1,0,0:0:0:0:
153,192,118479,1,0,0:0:0:0:
51,192,118550,1,0,0:0:0:60:LR4_SnareBPDT.wav
460,192,118550,1,0,0:0:0:60:Drop.wav
358,192,118550,1,0,0:0:0:0:
256,192,118622,1,0,0:0:0:0:
153,192,118693,1,0,0:0:0:0:
51,192,118765,1,0,0:0:0:0:
460,192,118836,1,0,0:0:0:0:
358,192,118907,1,0,0:0:0:0:
256,192,118979,1,0,0:0:0:0:
153,192,119050,1,0,0:0:0:0:
51,192,119122,1,0,0:0:0:70:soft-hitwhistle.wav
358,192,119122,1,0,0:0:0:50:Cymbol.wav
460,192,119122,1,0,0:0:0:60:BaSS.wav
153,192,119407,128,0,119550:0:0:0:0:
256,192,119550,128,0,119693:0:0:0:0:
358,192,119693,128,0,119979:0:0:0:60:LR4_SnareBPDT.wav
460,192,119693,1,0,0:0:0:60:Drop.wav
51,192,119693,1,0,0:0:0:0:
153,192,119979,1,0,0:0:0:70:soft-hitwhistle.wav
256,192,119979,1,0,0:0:0:50:Cymbol.wav
51,192,119979,1,0,0:0:0:0:
460,192,120050,1,0,0:0:0:0:
358,192,120122,1,0,0:0:0:0:
51,192,120193,1,0,0:0:0:0:
153,192,120265,1,0,0:0:0:0:
460,192,120336,1,0,0:0:0:0:
358,192,120407,1,0,0:0:0:0:
51,192,120479,1,0,0:0:0:0:
153,192,120550,1,0,0:0:0:70:soft-hitwhistle.wav
256,192,120550,1,0,0:0:0:0:
460,192,120622,1,0,0:0:0:0:
358,192,120693,1,0,0:0:0:0:
256,192,120765,1,0,0:0:0:0:
153,192,120836,1,0,0:0:0:60:LR4_SnareBPDT.wav
51,192,120836,1,0,0:0:0:60:Drop.wav
460,192,120836,1,0,0:0:0:0:
358,192,120907,1,0,0:0:0:0:
256,192,120979,1,0,0:0:0:0:
51,192,121050,1,0,0:0:0:0:
153,192,121122,1,0,0:0:0:0:
358,192,121193,1,0,0:0:0:0:
256,192,121265,1,0,0:0:0:0:
51,192,121336,1,0,0:0:0:0:
153,192,121407,1,0,0:0:0:70:soft-hitwhistle.wav
460,192,121407,1,0,0:0:0:0:
256,192,121479,1,0,0:0:0:0:
358,192,121550,1,0,0:0:0:0:
51,192,121622,1,0,0:0:0:0:
153,192,121693,1,0,0:0:0:0:
256,192,121765,1,0,0:0:0:0:
358,192,121836,1,0,0:0:0:0:
153,192,121907,1,0,0:0:0:0:
460,192,121979,1,0,0:0:0:60:LR4_SnareBPDT.wav
51,192,121979,1,0,0:0:0:60:Drop.wav
358,192,121979,1,0,0:0:0:0:
256,192,122050,1,0,0:0:0:0:
153,192,122122,1,0,0:0:0:0:
51,192,122193,1,0,0:0:0:0:
460,192,122265,1,0,0:0:0:70:soft-hitwhistle.wav
358,192,122265,1,0,0:0:0:0:
256,192,122336,1,0,0:0:0:0:
153,192,122407,1,0,0:0:0:0:
51,192,122479,1,0,0:0:0:0:
460,192,122550,128,0,122622:0:0:0:0:
460,192,122693,128,0,122765:0:0:0:0:
153,192,122836,128,0,122907:0:0:0:70:soft-hitwhistle.wav
51,192,122836,128,0,122907:0:0:0:0:
358,192,122979,128,0,123050:0:0:0:0:
51,192,123122,1,0,0:0:0:60:LR4_SnareBPDT.wav
358,192,123122,128,0,123193:0:0:0:60:Drop.wav
256,192,123122,1,0,0:0:0:0:
153,192,123265,128,0,123336:0:0:0:0:
153,192,123407,128,0,123479:0:0:0:0:
358,192,123550,128,0,123693:0:0:0:0:
51,192,123693,1,0,0:0:0:70:soft-hitwhistle.wav
256,192,123693,1,0,0:0:0:50:Cymbol.wav
460,192,123693,1,0,0:0:0:60:BaSS.wav
153,192,123907,1,0,0:0:0:70:soft-hitwhistle.wav
358,192,123907,1,0,0:0:0:60:Drop.wav
256,192,124122,1,0,0:0:0:70:soft-hitwhistle.wav
51,192,124122,1,0,0:0:0:60:Drop.wav
153,192,124336,1,0,0:0:0:70:soft-hitwhistle.wav
460,192,124336,1,0,0:0:0:60:Drop.wav
358,192,124550,1,0,0:0:0:70:soft-hitwhistle.wav
51,192,124550,1,0,0:0:0:60:Drop.wav
256,192,124836,1,0,0:0:0:70:soft-hitwhistle.wav
153,192,124836,1,0,0:0:0:50:Cymbol.wav
460,192,124836,1,0,0:0:0:60:BaSS.wav
51,192,125050,1,0,0:0:0:70:soft-hitwhistle.wav
358,192,125050,1,0,0:0:0:60:Drop.wav
153,192,125265,1,0,0:0:0:70:soft-hitwhistle.wav
460,192,125265,1,0,0:0:0:60:Drop.wav
256,192,125479,1,0,0:0:0:70:soft-hitwhistle.wav
358,192,125479,1,0,0:0:0:60:Drop.wav
51,192,125693,1,0,0:0:0:70:soft-hitwhistle.wav
460,192,125693,1,0,0:0:0:60:Drop.wav
256,192,125979,1,0,0:0:0:70:soft-hitwhistle.wav
153,192,125979,1,0,0:0:0:50:Cymbol.wav
358,192,125979,1,0,0:0:0:60:BaSS.wav
51,192,126193,1,0,0:0:0:70:soft-hitwhistle.wav
460,192,126193,1,0,0:0:0:60:Drop.wav
256,192,126407,1,0,0:0:0:70:soft-hitwhistle.wav
153,192,126407,1,0,0:0:0:60:Drop.wav
358,192,126479,1,0,0:0:0:70:soft-hitwhistle.wav
460,192,126479,1,0,0:0:0:60:Drop.wav
153,192,126550,1,0,0:0:0:70:soft-hitwhistle.wav
51,192,126550,1,0,0:0:0:0:
51,192,126765,1,0,0:0:0:70:soft-hitwhistle.wav
460,192,126765,1,0,0:0:0:60:Drop.wav
358,192,126979,1,0,0:0:0:70:soft-hitwhistle.wav
256,192,126979,1,0,0:0:0:60:Drop.wav
153,192,127050,1,0,0:0:0:70:soft-hitwhistle.wav
51,192,127050,1,0,0:0:0:60:Drop.wav
460,192,127122,128,0,128265:0:0:0:0:
358,192,127693,128,0,128265:0:0:0:0:
51,192,128265,128,0,128336:0:0:0:70:soft-hitwhistle.wav
153,192,128265,1,0,0:0:0:50:Cymbol.wav
256,192,128265,1,0,0:0:0:60:BaSS.wav
153,192,128693,128,0,128765:0:0:0:0:
256,192,129122,128,0,129193:0:0:0:0:
460,192,129693,128,0,129765:0:0:0:0:
51,192,130550,128,0,130622:0:0:0:0:
153,192,130979,128,0,131050:0:0:0:0:
256,192,131407,128,0,131479:0:0:0:0:
358,192,131979,128,0,132050:0:0:0:0:
256,192,132550,128,0,132622:0:0:0:0:
153,192,132836,128,0,132907:0:0:0:0:
256,192,133265,128,0,133336:0:0:0:0:
358,192,133693,128,0,133765:0:0:0:0:
358,192,134265,128,0,134336:0:0:0:0:
51,192,135122,128,0,135193:0:0:0:0:
153,192,135550,128,0,135622:0:0:0:0:
358,192,135979,128,0,136050:0:0:0:0:
256,192,136550,128,0,136622:0:0:0:0:
153,192,137122,128,0,137193:0:0:0:0:
460,192,137407,128,0,137479:0:0:0:0:
358,192,137836,128,0,137907:0:0:0:0:
153,192,138265,128,0,138336:0:0:0:0:
358,192,138836,128,0,138907:0:0:0:0:
460,192,139693,128,0,139765:0:0:0:0:
256,192,140122,128,0,140193:0:0:0:0:
51,192,140550,128,0,140622:0:0:0:0:
358,192,141122,128,0,141193:0:0:0:0:
358,192,141693,128,0,141765:0:0:0:0:
460,192,141979,128,0,142050:0:0:0:0:
256,192,142407,128,0,142479:0:0:0:0:
51,192,142836,128,0,144265:0:0:0:0:
358,192,144265,1,0,0:0:0:50:soft-hitwhistle.wav
153,192,144336,1,0,0:0:0:50:soft-hitwhistle.wav
358,192,144407,1,0,0:0:0:50:soft-hitwhistle.wav
153,192,144479,1,0,0:0:0:50:soft-hitwhistle.wav
358,192,144693,1,0,0:0:0:70:LR_HiHat Click.wav
460,192,144836,128,0,144979:0:0:0:70:LR_HiHat Click.wav
256,192,144836,128,0,144979:0:0:0:0:
358,192,145050,128,0,145193:0:0:0:70:LR_HiHat Click.wav
153,192,145050,128,0,145193:0:0:0:0:
256,192,145265,128,0,145407:0:0:0:70:LR_HiHat Click.wav
51,192,145265,128,0,145407:0:0:0:0:
460,192,145407,1,0,0:0:0:40:soft-hitwhistle.wav
51,192,145479,1,0,0:0:0:40:soft-hitwhistle.wav
460,192,145550,1,0,0:0:0:40:soft-hitwhistle.wav
51,192,145622,1,0,0:0:0:40:soft-hitwhistle.wav
460,192,145693,1,0,0:0:0:40:soft-hitwhistle.wav
256,192,145836,1,0,0:0:0:70:LR_HiHat Click.wav
51,192,145979,1,0,0:0:0:70:LR_HiHat Click.wav
460,192,146050,1,0,0:0:0:70:LR_HiHat Click.wav
153,192,146122,1,0,0:0:0:70:LR_HiHat Click.wav
460,192,146193,1,0,0:0:0:70:LR_HiHat Click.wav
256,192,146265,1,0,0:0:0:70:LR_HiHat Click.wav
358,192,146407,1,0,0:0:0:70:LR_HiHat Click.wav
460,192,146550,1,0,0:0:0:70:soft-hitwhistle.wav
51,192,146550,1,0,0:0:0:60:BaSS.wav
256,192,146550,1,0,0:0:0:0:
460,192,146836,1,0,0:0:0:60:Ride.wav
460,192,147122,1,0,0:0:0:60:Ride.wav
460,192,147407,1,0,0:0:0:60:Ride.wav
460,192,147693,1,0,0:0:0:60:Ride.wav
460,192,147979,1,0,0:0:0:60:Ride.wav
460,192,148265,1,0,0:0:0:60:Ride.wav
460,192,148550,1,0,0:0:0:60:Ride.wav
460,192,148836,1,0,0:0:0:60:Ride.wav
460,192,149122,1,0,0:0:0:60:Ride.wav
460,192,149407,1,0,0:0:0:60:Ride.wav
460,192,149693,1,0,0:0:0:60:Ride.wav
460,192,149979,1,0,0:0:0:60:Ride.wav
460,192,150265,1,0,0:0:0:60:Ride.wav
460,192,150550,1,0,0:0:0:60:Ride.wav
460,192,150836,1,0,0:0:0:60:Ride.wav
358,192,150907,1,0,0:0:0:0:
256,192,150979,1,0,0:0:0:0:
153,192,151050,1,0,0:0:0:0:
51,192,151122,1,0,0:0:0:60:Ride.wav
51,192,151407,1,0,0:0:0:60:Ride.wav
51,192,151693,1,0,0:0:0:60:Ride.wav
51,192,151979,1,0,0:0:0:60:Ride.wav
51,192,152265,1,0,0:0:0:60:Ride.wav
51,192,152550,1,0,0:0:0:60:Ride.wav
51,192,152836,1,0,0:0:0:60:Ride.wav
51,192,153122,1,0,0:0:0:60:Ride.wav
51,192,153407,1,0,0:0:0:70:soft-hitwhistle.wav
153,192,153407,1,0,0:0:0:0:
153,192,153693,1,0,0:0:0:70:soft-hitwhistle.wav
51,192,153693,1,0,0:0:0:0:
153,192,153979,1,0,0:0:0:70:soft-hitwhistle.wav
51,192,153979,1,0,0:0:0:0:
153,192,154265,1,0,0:0:0:70:soft-hitwhistle.wav
51,192,154265,1,0,0:0:0:0:
153,192,154550,1,0,0:0:0:70:soft-hitwhistle.wav
51,192,154550,1,0,0:0:0:0:
153,192,154836,1,0,0:0:0:70:soft-hitwhistle.wav
51,192,154836,1,0,0:0:0:0:
153,192,155122,1,0,0:0:0:70:soft-hitwhistle.wav
51,192,155122,1,0,0:0:0:0:
358,192,155265,1,0,0:0:0:70:soft-hitwhistle.wav
460,192,155265,1,0,0:0:0:0:
153,192,155407,1,0,0:0:0:70:soft-hitwhistle.wav
51,192,155407,1,0,0:0:0:0:
358,192,155550,1,0,0:0:0:70:soft-hitwhistle.wav
460,192,155550,1,0,0:0:0:0:
51,192,155693,1,0,0:0:0:70:soft-hitwhistle.wav
256,192,155693,1,0,0:0:0:50:LR4_SnareBPDT.wav
460,192,155693,1,0,0:0:0:60:Cymbol.wav
153,192,155836,1,0,0:0:0:70:soft-hitwhistle.wav
358,192,155836,1,0,0:0:0:50:LR4_SnareBPDT.wav
51,192,155979,1,0,0:0:0:70:soft-hitwhistle.wav
256,192,155979,1,0,0:0:0:50:LR4_SnareBPDT.wav
358,192,156122,1,0,0:0:0:70:soft-hitwhistle.wav
460,192,156122,1,0,0:0:0:50:LR4_SnareBPDT.wav
153,192,156265,1,0,0:0:0:70:soft-hitwhistle.wav
51,192,156265,1,0,0:0:0:50:LR4_SnareBPDT.wav
256,192,156407,1,0,0:0:0:70:soft-hitwhistle.wav
358,192,156407,1,0,0:0:0:50:LR4_SnareBPDT.wav
153,192,156550,1,0,0:0:0:70:soft-hitwhistle.wav
460,192,156550,1,0,0:0:0:50:LR4_SnareBPDT.wav
51,192,156693,1,0,0:0:0:70:soft-hitwhistle.wav
358,192,156693,1,0,0:0:0:50:LR4_SnareBPDT.wav
256,192,156836,1,0,0:0:0:70:soft-hitwhistle.wav
460,192,156836,1,0,0:0:0:50:LR4_SnareBPDT.wav
153,192,156979,1,0,0:0:0:70:soft-hitwhistle.wav
51,192,156979,1,0,0:0:0:50:LR4_SnareBPDT.wav
256,192,157122,1,0,0:0:0:70:soft-hitwhistle.wav
358,192,157122,1,0,0:0:0:50:LR4_SnareBPDT.wav
460,192,157265,1,0,0:0:0:70:soft-hitwhistle.wav
153,192,157265,1,0,0:0:0:50:LR4_SnareBPDT.wav
358,192,157407,1,0,0:0:0:70:soft-hitwhistle.wav
51,192,157407,1,0,0:0:0:50:LR4_SnareBPDT.wav
460,192,157479,1,0,0:0:0:50:LR4_SnareBPDT.wav
153,192,157550,1,0,0:0:0:50:LR4_SnareBPDT.wav
256,192,157622,1,0,0:0:0:50:LR4_SnareBPDT.wav
460,192,157693,128,0,157979:0:0:0:60:LR_HiHat Click.wav
358,192,157693,1,0,0:0:0:0:
51,192,157979,1,0,0:0:0:70:soft-hitwhistle.wav
256,192,157979,1,0,0:0:0:50:LR4_SnareBPDT.wav
153,192,157979,1,0,0:0:0:60:Cymbol.wav
460,192,158122,1,0,0:0:0:70:soft-hitwhistle.wav
358,192,158122,1,0,0:0:0:50:LR4_SnareBPDT.wav
256,192,158265,1,0,0:0:0:70:soft-hitwhistle.wav
51,192,158265,1,0,0:0:0:50:LR4_SnareBPDT.wav
153,192,158407,1,0,0:0:0:70:soft-hitwhistle.wav
460,192,158407,1,0,0:0:0:50:LR4_SnareBPDT.wav
358,192,158550,1,0,0:0:0:70:soft-hitwhistle.wav
256,192,158550,1,0,0:0:0:50:LR4_SnareBPDT.wav
153,192,158693,1,0,0:0:0:70:soft-hitwhistle.wav
51,192,158693,1,0,0:0:0:50:LR4_SnareBPDT.wav
460,192,158836,1,0,0:0:0:70:soft-hitwhistle.wav
358,192,158836,1,0,0:0:0:50:LR4_SnareBPDT.wav
256,192,158979,1,0,0:0:0:70:soft-hitwhistle.wav
153,192,158979,1,0,0:0:0:50:LR4_SnareBPDT.wav
51,192,159122,1,0,0:0:0:70:soft-hitwhistle.wav
358,192,159122,1,0,0:0:0:50:LR4_SnareBPDT.wav
256,192,159265,1,0,0:0:0:70:soft-hitwhistle.wav
460,192,159265,1,0,0:0:0:50:LR4_SnareBPDT.wav
153,192,159407,1,0,0:0:0:70:soft-hitwhistle.wav
51,192,159407,1,0,0:0:0:50:LR4_SnareBPDT.wav
460,192,159550,1,0,0:0:0:70:soft-hitwhistle.wav
358,192,159550,1,0,0:0:0:50:LR4_SnareBPDT.wav
256,192,159693,1,0,0:0:0:70:soft-hitwhistle.wav
153,192,159693,1,0,0:0:0:50:LR4_SnareBPDT.wav
51,192,159765,1,0,0:0:0:50:LR4_SnareBPDT.wav
460,192,159836,1,0,0:0:0:50:LR4_SnareBPDT.wav
358,192,159907,1,0,0:0:0:50:LR4_SnareBPDT.wav
153,192,159979,1,0,0:0:0:60:LR_HiHat Click.wav
256,192,159979,128,0,160265:0:0:0:0:
51,192,160265,1,0,0:0:0:70:soft-hitwhistle.wav
460,192,160265,1,0,0:0:0:50:Drop.wav
358,192,160336,1,0,0:0:0:50:Drop.wav
256,192,160407,1,0,0:0:0:70:soft-hitwhistle.wav
153,192,160407,1,0,0:0:0:50:Drop.wav
51,192,160550,1,0,0:0:0:70:soft-hitwhistle.wav
460,192,160550,1,0,0:0:0:50:Drop.wav
153,192,160622,1,0,0:0:0:50:Drop.wav
256,192,160693,1,0,0:0:0:70:soft-hitwhistle.wav
358,192,160693,1,0,0:0:0:50:Drop.wav
51,192,160836,1,0,0:0:0:70:soft-hitwhistle.wav
153,192,160836,1,0,0:0:0:50:Drop.wav
256,192,160907,1,0,0:0:0:50:Drop.wav
358,192,160979,1,0,0:0:0:70:soft-hitwhistle.wav
460,192,160979,1,0,0:0:0:50:Drop.wav
256,192,161122,1,0,0:0:0:70:soft-hitwhistle.wav
153,192,161122,1,0,0:0:0:50:Drop.wav
51,192,161193,1,0,0:0:0:50:Drop.wav
460,192,161265,1,0,0:0:0:70:soft-hitwhistle.wav
358,192,161265,1,0,0:0:0:50:Drop.wav
256,192,161407,1,0,0:0:0:70:soft-hitwhistle.wav
51,192,161407,1,0,0:0:0:50:Drop.wav
358,192,161479,1,0,0:0:0:50:Drop.wav
460,192,161550,1,0,0:0:0:70:soft-hitwhistle.wav
153,192,161550,1,0,0:0:0:50:Drop.wav
358,192,161693,1,0,0:0:0:70:soft-hitwhistle.wav
256,192,161693,1,0,0:0:0:50:Drop.wav
153,192,161765,1,0,0:0:0:50:Drop.wav
51,192,161836,1,0,0:0:0:70:soft-hitwhistle.wav
460,192,161836,1,0,0:0:0:50:Drop.wav
358,192,161979,1,0,0:0:0:70:soft-hitwhistle.wav
256,192,161979,1,0,0:0:0:50:Drop.wav
460,192,162050,1,0,0:0:0:50:Drop.wav
153,192,162122,1,0,0:0:0:70:soft-hitwhistle.wav
51,192,162122,1,0,0:0:0:50:Drop.wav
256,192,162265,1,0,0:0:0:70:soft-hitwhistle.wav
460,192,162265,1,0,0:0:0:50:Drop.wav
51,192,162336,1,0,0:0:0:50:Drop.wav
153,192,162407,1,0,0:0:0:70:soft-hitwhistle.wav
358,192,162407,1,0,0:0:0:50:Drop.wav
256,192,162550,1,0,0:0:0:70:soft-hitwhistle.wav
51,192,162550,1,0,0:0:0:50:Drop.wav
358,192,162622,1,0,0:0:0:50:Drop.wav
460,192,162693,1,0,0:0:0:70:soft-hitwhistle.wav
153,192,162693,1,0,0:0:0:50:Drop.wav
256,192,162765,1,0,0:0:0:50:Drop.wav
358,192,162836,1,0,0:0:0:70:soft-hitwhistle.wav
51,192,162836,1,0,0:0:0:50:Drop.wav
153,192,162907,1,0,0:0:0:50:Drop.wav
256,192,162979,1,0,0:0:0:70:soft-hitwhistle.wav
460,192,162979,1,0,0:0:0:50:Drop.wav
358,192,163050,1,0,0:0:0:50:Drop.wav
153,192,163122,1,0,0:0:0:70:soft-hitwhistle.wav
51,192,163122,128,0,163336:0:0:0:50:Drop.wav
256,192,163193,1,0,0:0:0:50:Drop.wav
358,192,163265,1,0,0:0:0:50:Drop.wav
460,192,163336,128,0,163622:0:0:0:50:Drop.wav
51,192,163407,1,0,0:0:0:50:Drop.wav
153,192,163479,1,0,0:0:0:50:Drop.wav
256,192,163550,1,0,0:0:0:50:Drop.wav
358,192,163622,1,0,0:0:0:50:Drop.wav
460,192,163693,1,0,0:0:0:70:soft-hitwhistle.wav
51,192,163693,1,0,0:0:0:60:BaSS.wav
256,192,164122,128,0,164836:0:0:0:0:
153,192,164836,1,0,0:0:0:70:soft-hitwhistle.wav
51,192,164836,128,0,164979:0:0:0:50:Cymbol.wav
460,192,164836,128,0,164979:0:0:0:0:
256,192,164979,1,0,0:0:0:0:
153,192,165050,1,0,0:0:0:0:
51,192,165122,1,0,0:0:0:70:soft-hitwhistle.wav
460,192,165122,1,0,0:0:0:60:LR4_SnareBPDT.wav
358,192,165193,1,0,0:0:0:0:
256,192,165265,128,0,165407:0:0:0:0:
51,192,165407,1,0,0:0:0:70:soft-hitwhistle.wav
153,192,165407,1,0,0:0:0:0:
256,192,165479,128,0,165693:0:0:0:0:
51,192,165693,128,0,165836:0:0:0:70:soft-hitwhistle.wav
358,192,165693,128,0,165836:0:0:0:60:LR4_SnareBPDT.wav
153,192,165836,128,0,165979:0:0:0:0:
460,192,165836,128,0,165979:0:0:0:0:
256,192,165979,128,0,166122:0:0:0:70:soft-hitwhistle.wav
51,192,165979,128,0,166265:0:0:0:0:
460,192,166122,1,0,0:0:0:0:
358,192,166193,1,0,0:0:0:0:
256,192,166265,1,0,0:0:0:70:soft-hitwhistle.wav
153,192,166265,1,0,0:0:0:60:LR4_SnareBPDT.wav
460,192,166336,1,0,0:0:0:0:
358,192,166407,1,0,0:0:0:0:
256,192,166479,1,0,0:0:0:0:
51,192,166550,1,0,0:0:0:70:soft-hitwhistle.wav
153,192,166550,128,0,166693:0:0:0:0:
256,192,166693,1,0,0:0:0:0:
358,192,166765,128,0,166979:0:0:0:0:
51,192,166836,1,0,0:0:0:70:soft-hitwhistle.wav
460,192,166836,1,0,0:0:0:60:LR4_SnareBPDT.wav
153,192,166979,128,0,167122:0:0:0:0:
51,192,167122,128,0,167265:0:0:0:70:soft-hitwhistle.wav
460,192,167122,128,0,167265:0:0:0:0:
256,192,167265,1,0,0:0:0:0:
153,192,167336,1,0,0:0:0:0:
51,192,167407,1,0,0:0:0:70:soft-hitwhistle.wav
460,192,167407,1,0,0:0:0:60:LR4_SnareBPDT.wav
358,192,167479,1,0,0:0:0:0:
256,192,167550,128,0,167693:0:0:0:0:
51,192,167693,1,0,0:0:0:70:soft-hitwhistle.wav
153,192,167693,1,0,0:0:0:0:
256,192,167765,128,0,167979:0:0:0:0:
358,192,167979,128,0,168122:0:0:0:70:soft-hitwhistle.wav
460,192,167979,128,0,168122:0:0:0:60:LR4_SnareBPDT.wav
153,192,168122,128,0,168265:0:0:0:0:
51,192,168122,128,0,168265:0:0:0:0:
358,192,168265,128,0,168407:0:0:0:70:soft-hitwhistle.wav
256,192,168265,1,0,0:0:0:0:
153,192,168407,1,0,0:0:0:0:
256,192,168479,1,0,0:0:0:0:
460,192,168479,1,0,0:0:0:0:
51,192,168550,1,0,0:0:0:70:soft-hitwhistle.wav
358,192,168550,1,0,0:0:0:60:LR4_SnareBPDT.wav
153,192,168693,128,0,168836:0:0:0:0:
256,192,168693,128,0,168836:0:0:0:0:
358,192,168836,128,0,168979:0:0:0:70:soft-hitwhistle.wav
460,192,168836,1,0,0:0:0:0:
153,192,168979,1,0,0:0:0:0:
256,192,169050,1,0,0:0:0:0:
460,192,169050,1,0,0:0:0:0:
358,192,169122,1,0,0:0:0:70:soft-hitwhistle.wav
51,192,169122,1,0,0:0:0:60:LR4_SnareBPDT.wav
153,192,169265,128,0,169407:0:0:0:0:
256,192,169265,128,0,169407:0:0:0:0:
460,192,169407,128,0,169550:0:0:0:70:soft-hitwhistle.wav
51,192,169407,128,0,169550:0:0:0:0:
256,192,169550,1,0,0:0:0:0:
358,192,169622,1,0,0:0:0:0:
460,192,169693,1,0,0:0:0:70:soft-hitwhistle.wav
51,192,169693,1,0,0:0:0:60:LR4_SnareBPDT.wav
153,192,169765,1,0,0:0:0:0:
256,192,169836,128,0,169979:0:0:0:0:
460,192,169979,1,0,0:0:0:70:soft-hitwhistle.wav
358,192,169979,1,0,0:0:0:0:
256,192,170050,128,0,170265:0:0:0:0:
460,192,170265,128,0,170407:0:0:0:70:soft-hitwhistle.wav
153,192,170265,128,0,170407:0:0:0:60:LR4_SnareBPDT.wav
358,192,170407,128,0,170550:0:0:0:0:
51,192,170407,128,0,170550:0:0:0:0:
256,192,170550,128,0,170693:0:0:0:70:soft-hitwhistle.wav
460,192,170550,128,0,170836:0:0:0:0:
51,192,170693,1,0,0:0:0:0:
153,192,170765,1,0,0:0:0:0:
256,192,170836,1,0,0:0:0:70:soft-hitwhistle.wav
358,192,170836,1,0,0:0:0:60:LR4_SnareBPDT.wav
51,192,170907,1,0,0:0:0:0:
153,192,170979,1,0,0:0:0:0:
256,192,171050,1,0,0:0:0:0:
460,192,171122,1,0,0:0:0:70:soft-hitwhistle.wav
358,192,171122,128,0,171265:0:0:0:0:
256,192,171265,1,0,0:0:0:0:
153,192,171336,128,0,171550:0:0:0:0:
460,192,171407,1,0,0:0:0:70:soft-hitwhistle.wav
51,192,171407,1,0,0:0:0:60:LR4_SnareBPDT.wav
358,192,171550,128,0,171693:0:0:0:0:
460,192,171693,128,0,171836:0:0:0:70:soft-hitwhistle.wav
51,192,171693,128,0,171836:0:0:0:0:
153,192,171836,1,0,0:0:0:0:
256,192,171907,1,0,0:0:0:0:
51,192,171979,1,0,0:0:0:70:soft-hitwhistle.wav
460,192,171979,1,0,0:0:0:60:LR4_SnareBPDT.wav
358,192,172050,1,0,0:0:0:0:
256,192,172122,1,0,0:0:0:0:
51,192,172193,1,0,0:0:0:0:
153,192,172265,1,0,0:0:0:70:soft-hitwhistle.wav
358,192,172265,1,0,0:0:0:0:
460,192,172336,1,0,0:0:0:0:
256,192,172407,1,0,0:0:0:0:
358,192,172479,1,0,0:0:0:0:
460,192,172550,1,0,0:0:0:70:soft-hitwhistle.wav
51,192,172550,1,0,0:0:0:60:LR4_SnareBPDT.wav
153,192,172622,1,0,0:0:0:0:
358,192,172693,1,0,0:0:0:0:
256,192,172765,1,0,0:0:0:0:
460,192,172836,1,0,0:0:0:70:soft-hitwhistle.wav
51,192,172836,128,0,173122:0:0:0:50:Cymbol.wav
153,192,172836,128,0,173122:0:0:0:0:
358,192,173122,1,0,0:0:0:60:LR4_SnareBPDT.wav
460,192,173122,1,0,0:0:0:0:
256,192,173265,128,0,173550:0:0:0:70:soft-hitwhistle.wav
153,192,173265,128,0,173550:0:0:0:50:Cymbol.wav
460,192,173265,1,0,0:0:0:0:
460,192,173550,1,0,0:0:0:60:LR4_SnareBPDT.wav
51,192,173550,1,0,0:0:0:0:
358,192,173693,1,0,0:0:0:70:soft-hitwhistle.wav
153,192,173693,1,0,0:0:0:0:
51,192,173765,1,0,0:0:0:70:soft-hitwhistle.wav
256,192,173836,1,0,0:0:0:70:soft-hitwhistle.wav
153,192,173907,1,0,0:0:0:70:soft-hitwhistle.wav
460,192,173979,128,0,174122:0:0:0:70:soft-hitwhistle.wav
51,192,173979,128,0,174122:0:0:0:50:Cymbol.wav
358,192,173979,1,0,0:0:0:0:
256,192,174122,1,0,0:0:0:0:
358,192,174193,1,0,0:0:0:0:
460,192,174265,1,0,0:0:0:70:soft-hitwhistle.wav
51,192,174265,1,0,0:0:0:60:LR4_SnareBPDT.wav
153,192,174336,1,0,0:0:0:0:
256,192,174407,128,0,174550:0:0:0:0:
460,192,174550,1,0,0:0:0:70:soft-hitwhistle.wav
358,192,174550,1,0,0:0:0:0:
256,192,174622,128,0,174836:0:0:0:0:
358,192,174836,128,0,174979:0:0:0:70:soft-hitwhistle.wav
460,192,174836,128,0,174979:0:0:0:60:LR4_SnareBPDT.wav
51,192,174979,128,0,175122:0:0:0:0:
153,192,174979,128,0,175122:0:0:0:0:
460,192,175122,128,0,175407:0:0:0:70:soft-hitwhistle.wav
256,192,175122,1,0,0:0:0:0:
51,192,175265,1,0,0:0:0:0:
153,192,175336,1,0,0:0:0:0:
256,192,175407,1,0,0:0:0:70:soft-hitwhistle.wav
358,192,175407,1,0,0:0:0:60:LR4_SnareBPDT.wav
51,192,175479,1,0,0:0:0:0:
153,192,175550,1,0,0:0:0:0:
256,192,175622,1,0,0:0:0:0:
358,192,175693,1,0,0:0:0:70:soft-hitwhistle.wav
460,192,175693,128,0,175836:0:0:0:0:
256,192,175765,1,0,0:0:0:45:Snare.wav
153,192,175836,1,0,0:0:0:45:LR4_SnareBPDT.wav
460,192,175907,1,0,0:0:0:45:Snare.wav
51,192,175907,128,0,176050:0:0:0:0:
358,192,175979,1,0,0:0:0:60:LR4_SnareBPDT.wav
256,192,176050,1,0,0:0:0:45:Snare.wav
51,192,176122,1,0,0:0:0:70:soft-hitwhistle.wav
460,192,176122,1,0,0:0:0:50:Cymbol.wav
153,192,176122,1,0,0:0:0:0:
358,192,176122,1,0,0:0:0:0:
153,192,176407,1,0,0:0:0:0:
256,192,176479,1,0,0:0:0:0:
358,192,176550,1,0,0:0:0:70:soft-hitwhistle.wav
51,192,176550,128,0,176693:0:0:0:60:LR4_SnareBPDT.wav
460,192,176550,128,0,176693:0:0:0:50:Cymbol.wav
153,192,176693,128,0,176836:0:0:0:0:
358,192,176836,1,0,0:0:0:70:soft-hitwhistle.wav
460,192,176836,1,0,0:0:0:0:
153,192,176907,128,0,177122:0:0:0:0:
256,192,177122,128,0,177265:0:0:0:70:soft-hitwhistle.wav
460,192,177122,128,0,177265:0:0:0:60:LR4_SnareBPDT.wav
51,192,177265,128,0,177407:0:0:0:0:
358,192,177265,128,0,177407:0:0:0:0:
460,192,177407,1,0,0:0:0:70:soft-hitwhistle.wav
153,192,177407,128,0,177550:0:0:0:0:
256,192,177550,1,0,0:0:0:0:
358,192,177622,1,0,0:0:0:0:
460,192,177622,1,0,0:0:0:0:
51,192,177693,1,0,0:0:0:60:LR4_SnareBPDT.wav
153,192,177693,1,0,0:0:0:0:
256,192,177836,1,0,0:0:0:45:Snare.wav
460,192,177836,1,0,0:0:0:0:
153,192,177907,1,0,0:0:0:45:LR4_SnareBPDT.wav
51,192,177979,1,0,0:0:0:70:soft-hitwhistle.wav
358,192,177979,1,0,0:0:0:0:
256,192,178050,1,0,0:0:0:45:LR4_SnareBPDT.wav
153,192,178122,1,0,0:0:0:45:Snare.wav
256,192,178193,1,0,0:0:0:0:
460,192,178193,1,0,0:0:0:0:
358,192,178265,1,0,0:0:0:60:LR4_SnareBPDT.wav
51,192,178265,1,0,0:0:0:0:
256,192,178407,1,0,0:0:0:70:soft-hitwhistle.wav
153,192,178407,1,0,0:0:0:0:
51,192,178550,1,0,0:0:0:70:soft-hitwhistle.wav
358,192,178550,1,0,0:0:0:50:Cymbol.wav
460,192,178550,1,0,0:0:0:0:
153,192,178765,1,0,0:0:0:70:soft-hitwhistle.wav
256,192,178765,1,0,0:0:0:50:Cymbol.wav
460,192,178765,1,0,0:0:0:0:
358,192,178979,1,0,0:0:0:70:soft-hitwhistle.wav
153,192,178979,1,0,0:0:0:50:Cymbol.wav
51,192,178979,1,0,0:0:0:0:
460,192,179122,1,0,0:0:0:60:LR_HiHat Click.wav
51,192,179193,1,0,0:0:0:60:LR_HiHat Click.wav
358,192,179265,1,0,0:0:0:60:LR_HiHat Click.wav
153,192,179336,1,0,0:0:0:60:LR_HiHat Click.wav
460,192,179407,1,0,0:0:0:60:LR_HiHat Click.wav
51,192,179479,1,0,0:0:0:60:LR_HiHat Click.wav
358,192,179550,1,0,0:0:0:60:LR_HiHat Click.wav
153,192,179622,1,0,0:0:0:60:LR_HiHat Click.wav
256,192,179693,1,0,0:0:0:70:soft-hitwhistle.wav
460,192,179693,1,0,0:0:0:50:Cymbol.wav
51,192,179693,1,0,0:0:0:0:
358,192,179907,1,0,0:0:0:70:soft-hitwhistle.wav
460,192,179907,1,0,0:0:0:50:Cymbol.wav
153,192,179907,1,0,0:0:0:0:
51,192,180122,1,0,0:0:0:70:soft-hitwhistle.wav
460,192,180122,1,0,0:0:0:50:Cymbol.wav
153,192,180122,1,0,0:0:0:0:
256,192,180265,128,0,180836:0:0:0:60:LR_HiHat Click.wav
51,192,180836,1,0,0:0:0:70:soft-hitwhistle.wav
153,192,180836,1,0,0:0:0:50:Cymbol.wav
460,192,180836,1,0,0:0:0:0:
358,192,180907,1,0,0:0:0:0:
256,192,180979,1,0,0:0:0:0:
153,192,181050,1,0,0:0:0:0:
460,192,181122,1,0,0:0:0:0:
358,192,181193,1,0,0:0:0:0:
256,192,181265,1,0,0:0:0:70:soft-hitwhistle.wav
153,192,181265,1,0,0:0:0:50:Cymbol.wav
51,192,181265,1,0,0:0:0:0:
358,192,181336,1,0,0:0:0:0:
460,192,181407,1,0,0:0:0:0:
51,192,181479,1,0,0:0:0:0:
153,192,181550,1,0,0:0:0:70:soft-hitwhistle.wav
256,192,181550,1,0,0:0:0:50:Cymbol.wav
358,192,181550,1,0,0:0:0:0:
460,192,181622,1,0,0:0:0:0:
51,192,181693,1,0,0:0:0:0:
153,192,181765,1,0,0:0:0:0:
256,192,181836,1,0,0:0:0:70:soft-hitwhistle.wav
358,192,181836,1,0,0:0:0:50:Cymbol.wav
460,192,181836,1,0,0:0:0:0:
153,192,181907,1,0,0:0:0:0:
51,192,181979,128,0,182193:0:0:0:0:
153,192,182193,128,0,182407:0:0:0:0:
358,192,182407,128,0,182622:0:0:0:0:
460,192,182622,128,0,182836:0:0:0:0:
51,192,182836,1,0,0:0:0:0:
153,192,182907,1,0,0:0:0:0:
256,192,182979,1,0,0:0:0:0:
358,192,183050,1,0,0:0:0:0:
460,192,183122,1,0,0:0:0:70:soft-hitwhistle.wav
153,192,183122,1,0,0:0:0:50:Cymbol.wav
51,192,183122,128,0,183407:0:0:0:60:BaSS.wav
358,192,183265,1,0,0:0:0:0:
256,192,183407,1,0,0:0:0:70:soft-hitwhistle.wav
153,192,183407,1,0,0:0:0:60:LR4_SnareBPDT.wav
358,192,183550,128,0,183693:0:0:0:0:
460,192,183550,128,0,183693:0:0:0:0:
153,192,183693,1,0,0:0:0:70:soft-hitwhistle.wav
51,192,183693,1,0,0:0:0:0:
358,192,183836,128,0,183979:0:0:0:0:
460,192,183836,128,0,183979:0:0:0:0:
51,192,183979,1,0,0:0:0:70:soft-hitwhistle.wav
256,192,183979,1,0,0:0:0:60:LR4_SnareBPDT.wav
358,192,184122,128,0,184265:0:0:0:0:
460,192,184122,128,0,184550:0:0:0:0:
153,192,184265,1,0,0:0:0:70:soft-hitwhistle.wav
51,192,184265,1,0,0:0:0:0:
153,192,184407,1,0,0:0:0:0:
51,192,184550,128,0,184693:0:0:0:70:soft-hitwhistle.wav
256,192,184550,128,0,184693:0:0:0:60:LR4_SnareBPDT.wav
153,192,184693,128,0,184836:0:0:0:0:
358,192,184693,128,0,184836:0:0:0:0:
460,192,184836,1,0,0:0:0:70:soft-hitwhistle.wav
256,192,184836,1,0,0:0:0:0:
153,192,184979,128,0,185122:0:0:0:0:
358,192,184979,128,0,185122:0:0:0:0:
256,192,185122,1,0,0:0:0:70:soft-hitwhistle.wav
51,192,185122,1,0,0:0:0:60:LR4_SnareBPDT.wav
153,192,185265,128,0,185550:0:0:0:0:
358,192,185265,128,0,185407:0:0:0:0:
256,192,185407,1,0,0:0:0:70:soft-hitwhistle.wav
460,192,185407,1,0,0:0:0:0:
51,192,185550,1,0,0:0:0:0:
358,192,185550,1,0,0:0:0:0:
358,192,185693,128,0,185979:0:0:0:70:soft-hitwhistle.wav
51,192,185693,128,0,185979:0:0:0:60:LR4_SnareBPDT.wav
153,192,185836,1,0,0:0:0:0:
256,192,185979,1,0,0:0:0:70:soft-hitwhistle.wav
460,192,185979,1,0,0:0:0:0:
153,192,186050,1,0,0:0:0:0:
358,192,186122,1,0,0:0:0:0:
256,192,186193,1,0,0:0:0:0:
460,192,186265,1,0,0:0:0:70:soft-hitwhistle.wav
51,192,186265,1,0,0:0:0:60:LR4_SnareBPDT.wav
153,192,186336,1,0,0:0:0:0:
256,192,186407,1,0,0:0:0:0:
358,192,186479,1,0,0:0:0:0:
460,192,186550,1,0,0:0:0:70:soft-hitwhistle.wav
51,192,186550,128,0,186836:0:0:0:0:
153,192,186550,128,0,186836:0:0:0:0:
358,192,186693,1,0,0:0:0:0:
256,192,186836,1,0,0:0:0:70:soft-hitwhistle.wav
460,192,186836,1,0,0:0:0:60:LR4_SnareBPDT.wav
460,192,186979,128,0,187265:0:0:0:0:
358,192,186979,128,0,187265:0:0:0:0:
153,192,187122,1,0,0:0:0:70:soft-hitwhistle.wav
51,192,187122,1,0,0:0:0:0:
256,192,187265,1,0,0:0:0:0:
153,192,187336,1,0,0:0:0:0:
51,192,187407,1,0,0:0:0:70:soft-hitwhistle.wav
460,192,187407,1,0,0:0:0:60:LR4_SnareBPDT.wav
358,192,187479,1,0,0:0:0:0:
256,192,187550,1,0,0:0:0:0:
153,192,187622,1,0,0:0:0:0:
460,192,187693,1,0,0:0:0:70:soft-hitwhistle.wav
51,192,187693,128,0,187979:0:0:0:0:
358,192,187836,1,0,0:0:0:0:
256,192,187979,1,0,0:0:0:70:soft-hitwhistle.wav
153,192,187979,1,0,0:0:0:60:LR4_SnareBPDT.wav
358,192,188122,128,0,188265:0:0:0:0:
460,192,188122,128,0,188265:0:0:0:0:
153,192,188265,1,0,0:0:0:70:soft-hitwhistle.wav
51,192,188265,1,0,0:0:0:0:
358,192,188407,128,0,188550:0:0:0:0:
460,192,188407,128,0,188550:0:0:0:0:
51,192,188550,1,0,0:0:0:70:soft-hitwhistle.wav
256,192,188550,1,0,0:0:0:60:LR4_SnareBPDT.wav
358,192,188693,128,0,188836:0:0:0:0:
460,192,188693,128,0,189122:0:0:0:0:
153,192,188836,1,0,0:0:0:70:soft-hitwhistle.wav
51,192,188836,1,0,0:0:0:0:
358,192,188979,1,0,0:0:0:0:
51,192,189122,128,0,189265:0:0:0:70:soft-hitwhistle.wav
256,192,189122,128,0,189265:0:0:0:60:LR4_SnareBPDT.wav
153,192,189265,128,0,189407:0:0:0:0:
358,192,189265,128,0,189407:0:0:0:0:
460,192,189407,1,0,0:0:0:70:soft-hitwhistle.wav
256,192,189407,1,0,0:0:0:0:
153,192,189550,128,0,189693:0:0:0:0:
358,192,189550,128,0,189693:0:0:0:0:
51,192,189693,1,0,0:0:0:70:soft-hitwhistle.wav
256,192,189693,1,0,0:0:0:60:LR4_SnareBPDT.wav
460,192,189836,128,0,190050:0:0:0:0:
358,192,189836,128,0,190050:0:0:0:0:
51,192,189979,1,0,0:0:0:70:soft-hitwhistle.wav
153,192,189979,1,0,0:0:0:0:
358,192,190122,1,0,0:0:0:0:
460,192,190122,1,0,0:0:0:0:
460,192,190265,128,0,190550:0:0:0:70:soft-hitwhistle.wav
358,192,190265,128,0,190550:0:0:0:60:LR4_SnareBPDT.wav
51,192,190265,1,0,0:0:0:0:
256,192,190407,1,0,0:0:0:0:
51,192,190550,128,0,190693:0:0:0:70:soft-hitwhistle.wav
153,192,190550,128,0,190693:0:0:0:0:
358,192,190693,1,0,0:0:0:0:
51,192,190765,128,0,190979:0:0:0:0:
153,192,190765,128,0,190979:0:0:0:0:
256,192,190836,1,0,0:0:0:70:soft-hitwhistle.wav
460,192,190836,1,0,0:0:0:60:LR4_SnareBPDT.wav
358,192,190979,128,0,191122:0:0:0:0:
51,192,191122,1,0,0:0:0:70:soft-hitwhistle.wav
460,192,191122,1,0,0:0:0:0:
153,192,191193,1,0,0:0:0:0:
256,192,191265,1,0,0:0:0:0:
358,192,191336,1,0,0:0:0:0:
460,192,191407,1,0,0:0:0:70:soft-hitwhistle.wav
51,192,191407,1,0,0:0:0:60:LR4_SnareBPDT.wav
256,192,191550,1,0,0:0:0:0:
153,192,191622,1,0,0:0:0:0:
460,192,191693,1,0,0:0:0:70:soft-hitwhistle.wav
51,192,191693,1,0,0:0:0:0:
358,192,191765,1,0,0:0:0:0:
256,192,191836,1,0,0:0:0:0:
51,192,191979,1,0,0:0:0:70:soft-hitwhistle.wav
460,192,191979,1,0,0:0:0:60:LR4_SnareBPDT.wav
153,192,192050,1,0,0:0:0:0:
256,192,192122,1,0,0:0:0:0:
358,192,192193,1,0,0:0:0:0:
51,192,192265,1,0,0:0:0:70:soft-hitwhistle.wav
153,192,192265,1,0,0:0:0:50:Cymbol.wav
460,192,192265,128,0,192550:0:0:0:60:BaSS.wav
153,192,192407,1,0,0:0:0:0:
256,192,192550,1,0,0:0:0:70:soft-hitwhistle.wav
358,192,192550,1,0,0:0:0:60:LR4_SnareBPDT.wav
153,192,192693,128,0,192836:0:0:0:0:
51,192,192693,128,0,192836:0:0:0:0:
358,192,192836,1,0,0:0:0:70:soft-hitwhistle.wav
460,192,192836,1,0,0:0:0:0:
153,192,192979,128,0,193122:0:0:0:0:
51,192,192979,128,0,193122:0:0:0:0:
460,192,193122,1,0,0:0:0:70:soft-hitwhistle.wav
256,192,193122,1,0,0:0:0:60:LR4_SnareBPDT.wav
153,192,193265,128,0,193407:0:0:0:0:
51,192,193265,128,0,193693:0:0:0:0:
358,192,193407,1,0,0:0:0:70:soft-hitwhistle.wav
460,192,193407,1,0,0:0:0:0:
358,192,193550,1,0,0:0:0:0:
460,192,193693,128,0,193836:0:0:0:70:soft-hitwhistle.wav
256,192,193693,128,0,193836:0:0:0:60:LR4_SnareBPDT.wav
358,192,193836,128,0,193979:0:0:0:0:
153,192,193836,128,0,193979:0:0:0:0:
51,192,193979,1,0,0:0:0:70:soft-hitwhistle.wav
256,192,193979,1,0,0:0:0:0:
358,192,194122,128,0,194265:0:0:0:0:
153,192,194122,128,0,194265:0:0:0:0:
256,192,194265,1,0,0:0:0:70:soft-hitwhistle.wav
460,192,194265,1,0,0:0:0:60:LR4_SnareBPDT.wav
358,192,194407,128,0,194693:0:0:0:0:
153,192,194407,128,0,194550:0:0:0:0:
256,192,194550,1,0,0:0:0:70:soft-hitwhistle.wav
51,192,194550,1,0,0:0:0:0:
460,192,194693,1,0,0:0:0:0:
153,192,194693,1,0,0:0:0:0:
153,192,194836,128,0,195122:0:0:0:70:soft-hitwhistle.wav
460,192,194836,128,0,195122:0:0:0:60:LR4_SnareBPDT.wav
358,192,194979,1,0,0:0:0:0:
256,192,195122,1,0,0:0:0:70:soft-hitwhistle.wav
51,192,195122,1,0,0:0:0:0:
358,192,195193,1,0,0:0:0:0:
153,192,195265,1,0,0:0:0:0:
256,192,195336,1,0,0:0:0:0:
51,192,195407,1,0,0:0:0:70:soft-hitwhistle.wav
460,192,195407,1,0,0:0:0:60:LR4_SnareBPDT.wav
358,192,195479,1,0,0:0:0:0:
256,192,195550,1,0,0:0:0:0:
153,192,195622,1,0,0:0:0:0:
51,192,195693,1,0,0:0:0:70:soft-hitwhistle.wav
460,192,195693,128,0,195979:0:0:0:0:
358,192,195693,128,0,195979:0:0:0:0:
153,192,195836,1,0,0:0:0:0:
256,192,195979,1,0,0:0:0:70:soft-hitwhistle.wav
51,192,195979,1,0,0:0:0:60:LR4_SnareBPDT.wav
51,192,196122,128,0,196407:0:0:0:0:
153,192,196122,128,0,196407:0:0:0:0:
358,192,196265,1,0,0:0:0:70:soft-hitwhistle.wav
460,192,196265,1,0,0:0:0:0:
256,192,196407,1,0,0:0:0:0:
358,192,196479,1,0,0:0:0:0:
460,192,196550,1,0,0:0:0:70:soft-hitwhistle.wav
51,192,196550,1,0,0:0:0:60:LR4_SnareBPDT.wav
153,192,196622,1,0,0:0:0:0:
256,192,196693,1,0,0:0:0:0:
358,192,196765,1,0,0:0:0:0:
51,192,196836,1,0,0:0:0:70:soft-hitwhistle.wav
460,192,196836,128,0,197122:0:0:0:0:
153,192,196979,1,0,0:0:0:0:
256,192,197122,1,0,0:0:0:70:soft-hitwhistle.wav
358,192,197122,1,0,0:0:0:60:LR4_SnareBPDT.wav
153,192,197265,128,0,197407:0:0:0:0:
51,192,197265,128,0,197407:0:0:0:0:
358,192,197407,1,0,0:0:0:70:soft-hitwhistle.wav
460,192,197407,1,0,0:0:0:0:
153,192,197550,128,0,197693:0:0:0:0:
51,192,197550,128,0,197693:0:0:0:0:
460,192,197693,1,0,0:0:0:70:soft-hitwhistle.wav
256,192,197693,1,0,0:0:0:60:LR4_SnareBPDT.wav
153,192,197836,128,0,197979:0:0:0:0:
51,192,197836,128,0,198265:0:0:0:0:
358,192,197979,1,0,0:0:0:70:soft-hitwhistle.wav
460,192,197979,1,0,0:0:0:0:
153,192,198122,1,0,0:0:0:0:
460,192,198265,128,0,198407:0:0:0:70:soft-hitwhistle.wav
256,192,198265,128,0,198407:0:0:0:60:LR4_SnareBPDT.wav
358,192,198407,128,0,198550:0:0:0:0:
153,192,198407,128,0,198550:0:0:0:0:
51,192,198550,1,0,0:0:0:70:soft-hitwhistle.wav
256,192,198550,1,0,0:0:0:0:
358,192,198693,128,0,198836:0:0:0:0:
153,192,198693,128,0,198836:0:0:0:0:
460,192,198836,1,0,0:0:0:70:soft-hitwhistle.wav
256,192,198836,1,0,0:0:0:60:LR4_SnareBPDT.wav
153,192,198979,128,0,199122:0:0:0:0:
51,192,198979,128,0,199122:0:0:0:0:
256,192,199122,1,0,0:0:0:70:soft-hitwhistle.wav
358,192,199122,1,0,0:0:0:50:Cymbol.wav
460,192,199122,1,0,0:0:0:60:BaSS.wav
256,192,199336,1,0,0:0:0:70:soft-hitwhistle.wav
358,192,199336,1,0,0:0:0:50:Cymbol.wav
460,192,199336,1,0,0:0:0:60:BaSS.wav
153,192,199550,1,0,0:0:0:70:soft-hitwhistle.wav
51,192,199550,1,0,0:0:0:60:LR4_SnareBPDT.wav
256,192,199693,1,0,0:0:0:70:soft-hitwhistle.wav
51,192,199693,1,0,0:0:0:50:Cymbol.wav
460,192,199693,1,0,0:0:0:60:BaSS.wav
460,192,199907,1,0,0:0:0:70:soft-hitwhistle.wav
256,192,199907,1,0,0:0:0:50:Cymbol.wav
51,192,199907,1,0,0:0:0:60:BaSS.wav
358,192,200122,1,0,0:0:0:70:soft-hitwhistle.wav
460,192,200122,1,0,0:0:0:60:LR4_SnareBPDT.wav
51,192,200265,1,0,0:0:0:50:Cymbol.wav
153,192,200265,1,0,0:0:0:60:BaSS.wav
256,192,200336,1,0,0:0:0:0:
358,192,200407,1,0,0:0:0:0:
51,192,200479,1,0,0:0:0:50:Cymbol.wav
460,192,200479,1,0,0:0:0:60:BaSS.wav
153,192,200550,1,0,0:0:0:0:
256,192,200622,1,0,0:0:0:0:
358,192,200693,1,0,0:0:0:60:LR4_SnareBPDT.wav
460,192,200693,1,0,0:0:0:60:Snare.wav
153,192,200836,1,0,0:0:0:70:soft-hitwhistle.wav
51,192,200836,1,0,0:0:0:50:LR4_Snare DWRS.wav
358,192,200907,1,0,0:0:0:50:LR4_Snare DWRS.wav
256,192,200979,1,0,0:0:0:50:LR4_Snare DWRS.wav
153,192,201050,1,0,0:0:0:50:LR4_Snare DWRS.wav
460,192,201122,1,0,0:0:0:50:LR4_Snare DWRS.wav
51,192,201122,1,0,0:0:0:0:
358,192,201193,1,0,0:0:0:50:LR4_Snare DWRS.wav
256,192,201265,1,0,0:0:0:50:LR4_Snare DWRS.wav
153,192,201336,1,0,0:0:0:50:LR4_Snare DWRS.wav
460,192,201407,128,0,201979:0:0:0:70:soft-hitwhistle.wav
358,192,201407,1,0,0:0:0:50:Cymbol.wav
51,192,201407,1,0,0:0:0:60:BaSS.wav
153,192,201550,1,0,0:0:0:0:
256,192,201693,1,0,0:0:0:60:LR4_SnareBPDT.wav
51,192,201836,128,0,202407:0:0:0:70:soft-hitwhistle.wav
358,192,201836,1,0,0:0:0:50:Cymbol.wav
153,192,201836,1,0,0:0:0:60:BaSS.wav
256,192,201979,1,0,0:0:0:0:
153,192,202122,1,0,0:0:0:60:LR4_SnareBPDT.wav
358,192,202265,1,0,0:0:0:70:soft-hitwhistle.wav
256,192,202265,1,0,0:0:0:50:Cymbol.wav
460,192,202265,128,0,202693:0:0:0:60:BaSS.wav
153,192,202407,1,0,0:0:0:0:
256,192,202550,1,0,0:0:0:60:LR4_SnareBPDT.wav
358,192,202693,1,0,0:0:0:70:soft-hitwhistle.wav
153,192,202693,1,0,0:0:0:50:Cymbol.wav
51,192,202693,128,0,202979:0:0:0:60:BaSS.wav
460,192,202836,1,0,0:0:0:0:
153,192,202979,1,0,0:0:0:60:LR4_SnareBPDT.wav
256,192,203050,1,0,0:0:0:0:
358,192,203122,1,0,0:0:0:0:
460,192,203193,1,0,0:0:0:0:
358,192,203265,1,0,0:0:0:0:
153,192,203336,1,0,0:0:0:0:
51,192,203407,1,0,0:0:0:0:
153,192,203479,1,0,0:0:0:0:
256,192,203550,1,0,0:0:0:0:
358,192,203622,1,0,0:0:0:0:
51,192,203693,128,0,204265:0:0:0:70:soft-hitwhistle.wav
460,192,203693,128,0,203836:0:0:0:50:Cymbol.wav
153,192,203693,1,0,0:0:0:60:BaSS.wav
358,192,203836,1,0,0:0:0:0:
256,192,203979,1,0,0:0:0:60:LR4_SnareBPDT.wav
460,192,204122,128,0,204693:0:0:0:70:soft-hitwhistle.wav
153,192,204122,1,0,0:0:0:50:Cymbol.wav
358,192,204122,1,0,0:0:0:60:BaSS.wav
256,192,204265,1,0,0:0:0:0:
358,192,204407,1,0,0:0:0:60:LR4_SnareBPDT.wav
153,192,204550,1,0,0:0:0:70:soft-hitwhistle.wav
256,192,204550,1,0,0:0:0:50:Cymbol.wav
51,192,204550,128,0,204979:0:0:0:60:BaSS.wav
358,192,204693,1,0,0:0:0:0:
256,192,204836,1,0,0:0:0:60:LR4_SnareBPDT.wav
153,192,204979,1,0,0:0:0:70:soft-hitwhistle.wav
358,192,204979,1,0,0:0:0:50:Cymbol.wav
460,192,204979,128,0,205265:0:0:0:60:BaSS.wav
51,192,205122,1,0,0:0:0:0:
358,192,205265,1,0,0:0:0:60:LR4_SnareBPDT.wav
256,192,205336,1,0,0:0:0:0:
153,192,205407,1,0,0:0:0:0:
51,192,205479,1,0,0:0:0:0:
153,192,205550,1,0,0:0:0:0:
358,192,205622,1,0,0:0:0:0:
460,192,205693,1,0,0:0:0:0:
358,192,205765,1,0,0:0:0:0:
256,192,205836,1,0,0:0:0:0:
153,192,205907,1,0,0:0:0:0:
358,192,205979,1,0,0:0:0:70:soft-hitwhistle.wav
460,192,205979,128,0,206407:0:0:0:50:Cymbol.wav
51,192,205979,1,0,0:0:0:60:BaSS.wav
153,192,206122,1,0,0:0:0:0:
256,192,206265,1,0,0:0:0:60:LR4_SnareBPDT.wav
51,192,206407,128,0,206836:0:0:0:70:soft-hitwhistle.wav
153,192,206407,1,0,0:0:0:50:Cymbol.wav
358,192,206407,1,0,0:0:0:60:BaSS.wav
256,192,206550,1,0,0:0:0:0:
153,192,206693,1,0,0:0:0:60:LR4_SnareBPDT.wav
460,192,206836,128,0,207265:0:0:0:70:soft-hitwhistle.wav
256,192,206836,1,0,0:0:0:50:Cymbol.wav
358,192,206836,1,0,0:0:0:60:BaSS.wav
153,192,206979,1,0,0:0:0:0:
256,192,207122,1,0,0:0:0:60:LR4_SnareBPDT.wav
51,192,207265,128,0,207550:0:0:0:70:soft-hitwhistle.wav
153,192,207265,1,0,0:0:0:50:Cymbol.wav
358,192,207265,1,0,0:0:0:60:BaSS.wav
460,192,207407,1,0,0:0:0:0:
153,192,207550,1,0,0:0:0:60:LR4_SnareBPDT.wav
256,192,207622,1,0,0:0:0:0:
358,192,207693,1,0,0:0:0:0:
460,192,207765,1,0,0:0:0:0:
358,192,207836,1,0,0:0:0:0:
153,192,207907,1,0,0:0:0:0:
51,192,207979,1,0,0:0:0:0:
153,192,208050,1,0,0:0:0:0:
256,192,208122,1,0,0:0:0:0:
358,192,208193,1,0,0:0:0:0:
153,192,208265,1,0,0:0:0:70:soft-hitwhistle.wav
51,192,208265,128,0,208693:0:0:0:50:Cymbol.wav
460,192,208265,1,0,0:0:0:60:BaSS.wav
358,192,208407,1,0,0:0:0:0:
256,192,208550,1,0,0:0:0:60:LR4_SnareBPDT.wav
358,192,208693,1,0,0:0:0:70:soft-hitwhistle.wav
153,192,208693,1,0,0:0:0:50:Cymbol.wav
460,192,208693,128,0,209122:0:0:0:60:BaSS.wav
256,192,208836,1,0,0:0:0:0:
153,192,208979,1,0,0:0:0:60:LR4_SnareBPDT.wav
358,192,209122,1,0,0:0:0:70:soft-hitwhistle.wav
256,192,209122,1,0,0:0:0:50:Cymbol.wav
51,192,209122,1,0,0:0:0:60:BaSS.wav
153,192,209407,128,0,209693:0:0:0:0:
358,192,209550,128,0,209836:0:0:0:0:
51,192,209693,128,0,210122:0:0:0:0:
460,192,209836,128,0,210122:0:0:0:0:
256,192,210122,128,0,210550:0:0:0:0:
51,192,210550,128,0,212836:0:0:0:70:soft-hitwhistle.wav
153,192,210550,1,0,0:0:0:50:Cymbol.wav
358,192,210550,1,0,0:0:0:60:BaSS.wav
460,192,210550,1,0,0:0:0:0:
358,192,210836,1,0,0:0:0:60:LR4_Snare DWRS.wav
460,192,210836,1,0,0:0:0:60:LR4_SnareBPDT.wav
358,192,211122,1,0,0:0:0:60:LR4_Snare DWRS.wav
460,192,211122,1,0,0:0:0:60:LR4_SnareBPDT.wav
358,192,211407,1,0,0:0:0:60:LR4_Snare DWRS.wav
460,192,211407,1,0,0:0:0:60:LR4_SnareBPDT.wav
358,192,211693,1,0,0:0:0:60:LR4_Snare DWRS.wav
460,192,211693,1,0,0:0:0:60:LR4_SnareBPDT.wav
358,192,211979,1,0,0:0:0:60:LR4_Snare DWRS.wav
460,192,211979,1,0,0:0:0:60:LR4_SnareBPDT.wav
358,192,212265,1,0,0:0:0:60:LR4_Snare DWRS.wav
460,192,212265,1,0,0:0:0:60:LR4_SnareBPDT.wav
358,192,212550,1,0,0:0:0:60:LR4_Snare DWRS.wav
460,192,212550,1,0,0:0:0:60:LR4_SnareBPDT.wav
460,192,212836,1,0,0:0:0:60:LR4_Snare DWRS.wav
358,192,212836,1,0,0:0:0:60:LR4_SnareBPDT.wav
358,192,213122,1,0,0:0:0:60:LR4_Snare DWRS.wav
460,192,213122,1,0,0:0:0:60:LR4_SnareBPDT.wav
460,192,213407,1,0,0:0:0:60:LR4_Snare DWRS.wav
358,192,213407,1,0,0:0:0:60:LR4_SnareBPDT.wav
358,192,213693,1,0,0:0:0:60:LR4_Snare DWRS.wav
460,192,213693,1,0,0:0:0:60:LR4_SnareBPDT.wav
256,192,213979,1,0,0:0:0:60:LR_HiHat Click.wav
358,192,214193,1,0,0:0:0:60:LR_HiHat Click.wav
153,192,214265,1,0,0:0:0:60:LR_HiHat Click.wav
460,192,214407,1,0,0:0:0:60:LR_HiHat Click.wav
51,192,214550,1,0,0:0:0:60:LR_HiHat Click.wav
460,192,214693,128,0,215050:0:0:0:60:LR4_Snare DWRS.wav
358,192,214693,128,0,215050:0:0:0:60:LR4_SnareBPDT.wav
153,192,214693,128,0,215050:0:0:0:60:CrashL.wav
51,192,215122,128,0,215336:0:0:0:60:LR4_Snare DWRS.wav
460,192,215122,128,0,215336:0:0:0:60:LR4_SnareBPDT.wav
256,192,215122,128,0,215336:0:0:0:60:CrashL.wav
256,192,215407,1,0,0:0:0:60:LR4_Snare DWRS.wav
460,192,215407,1,0,0:0:0:60:LR4_SnareBPDT.wav
51,192,215407,1,0,0:0:0:50:Cymbol.wav
153,192,215693,1,0,0:0:0:60:LR4_Snare DWRS.wav
51,192,215693,1,0,0:0:0:60:LR4_SnareBPDT.wav
51,192,215979,1,0,0:0:0:60:LR4_Snare DWRS.wav
153,192,215979,1,0,0:0:0:60:LR4_SnareBPDT.wav
153,192,216265,1,0,0:0:0:60:LR4_Snare DWRS.wav
51,192,216265,1,0,0:0:0:60:LR4_SnareBPDT.wav
51,192,216550,1,0,0:0:0:60:LR4_Snare DWRS.wav
153,192,216550,1,0,0:0:0:60:LR4_SnareBPDT.wav
153,192,216836,1,0,0:0:0:60:LR4_Snare DWRS.wav
51,192,216836,1,0,0:0:0:60:LR4_SnareBPDT.wav
153,192,217122,1,0,0:0:0:60:LR4_Snare DWRS.wav
51,192,217122,1,0,0:0:0:60:LR4_SnareBPDT.wav
51,192,217407,1,0,0:0:0:60:LR4_Snare DWRS.wav
153,192,217407,1,0,0:0:0:60:LR4_SnareBPDT.wav
51,192,217693,1,0,0:0:0:60:LR4_Snare DWRS.wav
153,192,217693,1,0,0:0:0:60:LR4_SnareBPDT.wav
153,192,217979,1,0,0:0:0:60:LR4_Snare DWRS.wav
51,192,217979,1,0,0:0:0:60:LR4_SnareBPDT.wav
153,192,218265,1,0,0:0:0:60:LR4_Snare DWRS.wav
51,192,218265,1,0,0:0:0:60:LR4_SnareBPDT.wav
358,192,218407,1,0,0:0:0:60:LR4_Snare DWRS.wav
460,192,218407,1,0,0:0:0:60:LR4_SnareBPDT.wav
51,192,218407,1,0,0:0:0:50:Cymbol.wav
51,192,218622,1,0,0:0:0:60:LR4_Snare DWRS.wav
256,192,218622,1,0,0:0:0:60:LR4_SnareBPDT.wav
358,192,218622,1,0,0:0:0:50:Cymbol.wav
153,192,218836,1,0,0:0:0:60:LR4_Snare DWRS.wav
256,192,218836,1,0,0:0:0:60:LR4_SnareBPDT.wav
460,192,218836,1,0,0:0:0:50:Cymbol.wav
358,192,219050,1,0,0:0:0:60:LR4_Snare DWRS.wav
153,192,219050,1,0,0:0:0:60:LR4_SnareBPDT.wav
51,192,219050,1,0,0:0:0:50:Cymbol.wav
153,192,219265,128,0,219622:0:0:0:60:LR4_Snare DWRS.wav
51,192,219265,128,0,219622:0:0:0:60:LR4_SnareBPDT.wav
460,192,219265,128,0,219622:0:0:0:60:CrashL.wav
256,192,219265,128,0,219622:0:0:0:0:
153,192,219693,128,0,219907:0:0:0:60:LR4_Snare DWRS.wav
358,192,219693,128,0,219907:0:0:0:60:LR4_SnareBPDT.wav
256,192,219693,128,0,219907:0:0:0:50:Cymbol.wav
153,192,219979,1,0,0:0:0:60:LR4_Snare DWRS.wav
358,192,219979,1,0,0:0:0:60:LR4_SnareBPDT.wav
358,192,220265,1,0,0:0:0:60:LR4_Snare DWRS.wav
153,192,220265,1,0,0:0:0:60:LR4_SnareBPDT.wav
256,192,220550,128,0,220836:0:0:0:0:
153,192,220836,128,0,221050:0:0:0:60:LR4_Snare DWRS.wav
358,192,220836,128,0,221050:0:0:0:60:LR4_SnareBPDT.wav
460,192,220836,128,0,221050:0:0:0:60:CrashL.wav
358,192,221122,1,0,0:0:0:60:LR4_Snare DWRS.wav
153,192,221122,1,0,0:0:0:60:LR4_SnareBPDT.wav
358,192,221407,1,0,0:0:0:60:LR4_Snare DWRS.wav
153,192,221407,1,0,0:0:0:60:LR4_SnareBPDT.wav
358,192,221550,128,0,221907:0:0:0:60:LR4_Snare DWRS.wav
153,192,221550,128,0,221907:0:0:0:60:LR4_SnareBPDT.wav
51,192,221550,128,0,221907:0:0:0:60:CrashL.wav
460,192,221979,128,0,222193:0:0:0:60:LR4_Snare DWRS.wav
51,192,221979,128,0,222193:0:0:0:60:LR4_SnareBPDT.wav
256,192,221979,128,0,222193:0:0:0:60:CrashL.wav
460,192,222265,1,0,0:0:0:60:LR4_Snare DWRS.wav
51,192,222265,1,0,0:0:0:60:LR4_SnareBPDT.wav
460,192,222550,1,0,0:0:0:60:LR4_Snare DWRS.wav
51,192,222550,1,0,0:0:0:60:LR4_SnareBPDT.wav
256,192,222836,128,0,223122:0:0:0:0:
358,192,223122,128,0,223336:0:0:0:60:LR4_Snare DWRS.wav
460,192,223122,128,0,223336:0:0:0:60:LR4_SnareBPDT.wav
51,192,223122,128,0,223336:0:0:0:60:CrashL.wav
51,192,223407,1,0,0:0:0:60:LR4_Snare DWRS.wav
460,192,223407,1,0,0:0:0:60:LR4_SnareBPDT.wav
460,192,223693,1,0,0:0:0:60:LR4_Snare DWRS.wav
51,192,223693,1,0,0:0:0:60:LR4_SnareBPDT.wav
153,192,223836,128,0,224193:0:0:0:60:LR4_Snare DWRS.wav
51,192,223836,128,0,224193:0:0:0:60:LR4_SnareBPDT.wav
460,192,223836,128,0,224193:0:0:0:60:CrashL.wav
460,192,224265,1,0,0:0:0:50:Drop.wav
256,192,224265,1,0,0:0:0:70:BaSS.wav
358,192,224479,1,0,0:0:0:70:soft-hitwhistle.wav
51,192,224479,1,0,0:0:0:50:Drop.wav
153,192,224622,1,0,0:0:0:70:soft-hitwhistle.wav
256,192,224622,1,0,0:0:0:50:Drop.wav
460,192,224693,1,0,0:0:0:70:soft-hitwhistle.wav
358,192,224693,1,0,0:0:0:50:Drop.wav
51,192,224836,1,0,0:0:0:50:Drop.wav
256,192,224836,1,0,0:0:0:70:BaSS.wav
460,192,225050,1,0,0:0:0:70:soft-hitwhistle.wav
153,192,225050,1,0,0:0:0:50:Drop.wav
256,192,225193,1,0,0:0:0:70:soft-hitwhistle.wav
358,192,225193,1,0,0:0:0:50:Drop.wav
153,192,225265,1,0,0:0:0:70:soft-hitwhistle.wav
51,192,225265,1,0,0:0:0:50:Drop.wav
358,192,225407,1,0,0:0:0:50:Drop.wav
460,192,225407,1,0,0:0:0:70:BaSS.wav
51,192,225622,1,0,0:0:0:70:soft-hitwhistle.wav
153,192,225622,1,0,0:0:0:50:Drop.wav
358,192,225765,1,0,0:0:0:70:soft-hitwhistle.wav
460,192,225765,1,0,0:0:0:50:Drop.wav
256,192,225836,1,0,0:0:0:70:soft-hitwhistle.wav
153,192,225836,1,0,0:0:0:50:Drop.wav
460,192,225979,1,0,0:0:0:50:Drop.wav
51,192,225979,1,0,0:0:0:70:BaSS.wav
256,192,226193,1,0,0:0:0:70:soft-hitwhistle.wav
358,192,226193,1,0,0:0:0:50:Drop.wav
153,192,226336,1,0,0:0:0:70:soft-hitwhistle.wav
51,192,226336,1,0,0:0:0:50:Drop.wav
358,192,226407,1,0,0:0:0:70:soft-hitwhistle.wav
460,192,226407,1,0,0:0:0:50:Drop.wav
153,192,226550,1,0,0:0:0:70:soft-hitwhistle.wav
256,192,226550,1,0,0:0:0:50:Drop.wav
358,192,226645,1,0,0:0:0:50:Drop.wav
460,192,226741,1,0,0:0:0:50:Drop.wav
153,192,226836,1,0,0:0:0:70:soft-hitwhistle.wav
51,192,226836,1,0,0:0:0:50:Drop.wav
256,192,226931,1,0,0:0:0:50:Drop.wav
358,192,227026,1,0,0:0:0:50:Drop.wav
460,192,227122,1,0,0:0:0:70:soft-hitwhistle.wav
51,192,227122,1,0,0:0:0:50:Drop.wav
153,192,227217,1,0,0:0:0:50:Drop.wav
256,192,227312,1,0,0:0:0:50:Drop.wav
358,192,227407,1,0,0:0:0:70:soft-hitwhistle.wav
460,192,227407,1,0,0:0:0:50:Drop.wav
51,192,227479,1,0,0:0:0:50:Drop.wav
256,192,227550,1,0,0:0:0:50:Drop.wav
460,192,227622,1,0,0:0:0:50:Drop.wav
153,192,227693,1,0,0:0:0:70:soft-hitwhistle.wav
51,192,227693,1,0,0:0:0:70:BaSS.wav
256,192,228122,128,0,228193:0:0:0:60:LR_HiHat Click.wav
256,192,228265,128,0,228336:0:0:0:60:LR_HiHat Click.wav
256,192,228407,128,0,228836:0:0:0:60:LR_HiHat Click.wav
51,192,228836,1,0,0:0:0:70:soft-hitwhistle.wav
153,192,228836,1,0,0:0:0:50:Cymbol.wav
460,192,228836,1,0,0:0:0:60:BaSS.wav
358,192,228979,1,0,0:0:0:0:
153,192,229050,1,0,0:0:0:0:
460,192,229122,1,0,0:0:0:70:soft-hitwhistle.wav
256,192,229122,1,0,0:0:0:60:LR4_SnareBPDT.wav
51,192,229193,1,0,0:0:0:0:
153,192,229336,1,0,0:0:0:0:
358,192,229407,1,0,0:0:0:70:soft-hitwhistle.wav
460,192,229407,1,0,0:0:0:0:
256,192,229479,1,0,0:0:0:0:
358,192,229622,1,0,0:0:0:0:
51,192,229693,1,0,0:0:0:70:soft-hitwhistle.wav
153,192,229693,1,0,0:0:0:60:LR4_SnareBPDT.wav
256,192,229836,1,0,0:0:0:0:
460,192,229836,1,0,0:0:0:0:
358,192,229979,1,0,0:0:0:70:soft-hitwhistle.wav
153,192,229979,1,0,0:0:0:0:
256,192,230122,1,0,0:0:0:0:
51,192,230122,1,0,0:0:0:0:
358,192,230265,1,0,0:0:0:70:soft-hitwhistle.wav
460,192,230265,1,0,0:0:0:60:LR4_SnareBPDT.wav
153,192,230336,1,0,0:0:0:0:
256,192,230479,1,0,0:0:0:0:
153,192,230550,1,0,0:0:0:70:soft-hitwhistle.wav
51,192,230550,1,0,0:0:0:0:
358,192,230622,1,0,0:0:0:0:
460,192,230765,1,0,0:0:0:0:
256,192,230836,128,0,231122:0:0:0:70:soft-hitwhistle.wav
153,192,230836,1,0,0:0:0:60:LR4_SnareBPDT.wav
51,192,231122,1,0,0:0:0:70:soft-hitwhistle.wav
460,192,231122,1,0,0:0:0:0:
358,192,231265,1,0,0:0:0:0:
153,192,231336,1,0,0:0:0:0:
256,192,231407,1,0,0:0:0:70:soft-hitwhistle.wav
460,192,231407,1,0,0:0:0:60:LR4_SnareBPDT.wav
51,192,231479,1,0,0:0:0:0:
153,192,231622,1,0,0:0:0:0:
460,192,231693,1,0,0:0:0:70:soft-hitwhistle.wav
358,192,231693,1,0,0:0:0:0:
256,192,231765,1,0,0:0:0:0:
358,192,231907,1,0,0:0:0:0:
153,192,231979,1,0,0:0:0:70:soft-hitwhistle.wav
51,192,231979,1,0,0:0:0:60:LR4_SnareBPDT.wav
256,192,232122,1,0,0:0:0:0:
460,192,232122,1,0,0:0:0:0:
51,192,232265,1,0,0:0:0:70:soft-hitwhistle.wav
358,192,232265,1,0,0:0:0:0:
153,192,232336,1,0,0:0:0:70:soft-hitwhistle.wav
460,192,232407,1,0,0:0:0:70:soft-hitwhistle.wav
358,192,232479,1,0,0:0:0:70:soft-hitwhistle.wav
51,192,232550,1,0,0:0:0:70:soft-hitwhistle.wav
153,192,232550,1,0,0:0:0:0:
460,192,232693,1,0,0:0:0:70:soft-hitwhistle.wav
256,192,232693,1,0,0:0:0:0:
51,192,232836,1,0,0:0:0:0:
460,192,232979,1,0,0:0:0:70:soft-hitwhistle.wav
153,192,232979,1,0,0:0:0:0:
358,192,233050,1,0,0:0:0:70:soft-hitwhistle.wav
256,192,233122,1,0,0:0:0:70:soft-hitwhistle.wav
51,192,233122,1,0,0:0:0:0:
153,192,233265,1,0,0:0:0:70:soft-hitwhistle.wav
358,192,233265,1,0,0:0:0:0:
256,192,233407,1,0,0:0:0:70:soft-hitwhistle.wav
460,192,233407,1,0,0:0:0:0:
51,192,233407,1,0,0:0:0:0:
153,192,233550,1,0,0:0:0:0:
358,192,233622,1,0,0:0:0:0:
51,192,233693,1,0,0:0:0:70:soft-hitwhistle.wav
256,192,233693,1,0,0:0:0:60:LR4_SnareBPDT.wav
460,192,233765,1,0,0:0:0:0:
358,192,233907,1,0,0:0:0:0:
153,192,233979,1,0,0:0:0:70:soft-hitwhistle.wav
51,192,233979,1,0,0:0:0:0:
256,192,234050,1,0,0:0:0:0:
153,192,234193,1,0,0:0:0:0:
460,192,234265,1,0,0:0:0:70:soft-hitwhistle.wav
358,192,234265,1,0,0:0:0:60:LR4_SnareBPDT.wav
256,192,234407,1,0,0:0:0:0:
51,192,234407,1,0,0:0:0:0:
153,192,234550,1,0,0:0:0:70:soft-hitwhistle.wav
358,192,234550,1,0,0:0:0:0:
256,192,234693,1,0,0:0:0:0:
460,192,234693,1,0,0:0:0:0:
153,192,234836,1,0,0:0:0:70:soft-hitwhistle.wav
51,192,234836,1,0,0:0:0:60:LR4_SnareBPDT.wav
358,192,234907,1,0,0:0:0:0:
256,192,235050,1,0,0:0:0:0:
358,192,235122,1,0,0:0:0:70:soft-hitwhistle.wav
460,192,235122,1,0,0:0:0:0:
153,192,235193,1,0,0:0:0:0:
51,192,235336,1,0,0:0:0:0:
256,192,235407,128,0,235693:0:0:0:70:soft-hitwhistle.wav
358,192,235407,1,0,0:0:0:60:LR4_SnareBPDT.wav
460,192,235693,1,0,0:0:0:70:soft-hitwhistle.wav
51,192,235693,1,0,0:0:0:0:
153,192,235836,1,0,0:0:0:0:
358,192,235907,1,0,0:0:0:0:
256,192,235979,1,0,0:0:0:70:soft-hitwhistle.wav
51,192,235979,1,0,0:0:0:60:LR4_SnareBPDT.wav
460,192,236050,1,0,0:0:0:0:
358,192,236193,1,0,0:0:0:0:
51,192,236265,1,0,0:0:0:70:soft-hitwhistle.wav
153,192,236265,1,0,0:0:0:0:
256,192,236336,1,0,0:0:0:0:
153,192,236479,1,0,0:0:0:0:
358,192,236550,1,0,0:0:0:70:soft-hitwhistle.wav
460,192,236550,1,0,0:0:0:60:LR4_SnareBPDT.wav
256,192,236693,1,0,0:0:0:0:
51,192,236693,1,0,0:0:0:0:
153,192,236836,1,0,0:0:0:70:soft-hitwhistle.wav
460,192,236836,1,0,0:0:0:40:LR4_Snare DWRS.wav
256,192,236979,1,0,0:0:0:0:
460,192,237122,1,0,0:0:0:70:soft-hitwhistle.wav
358,192,237122,1,0,0:0:0:40:LR4_Snare DWRS.wav
51,192,237265,1,0,0:0:0:0:
153,192,237265,1,0,0:0:0:0:
358,192,237336,1,0,0:0:0:0:
460,192,237407,1,0,0:0:0:70:soft-hitwhistle.wav
256,192,237479,1,0,0:0:0:0:
51,192,237550,1,0,0:0:0:0:
153,192,237550,1,0,0:0:0:0:
460,192,237693,1,0,0:0:0:70:soft-hitwhistle.wav
358,192,237693,128,0,237979:0:0:0:40:LR4_Snare DWRS.wav
153,192,237836,1,0,0:0:0:0:
51,192,237836,1,0,0:0:0:0:
256,192,237979,1,0,0:0:0:60:LR4_SnareBPDT.wav
51,192,237979,1,0,0:0:0:50:Cymbol.wav
460,192,237979,1,0,0:0:0:40:Ride.wav
358,192,238122,1,0,0:0:0:0:
256,192,238193,1,0,0:0:0:0:
51,192,238265,1,0,0:0:0:60:LR4_SnareBPDT.wav
153,192,238265,1,0,0:0:0:40:Ride.wav
460,192,238336,1,0,0:0:0:0:
256,192,238479,1,0,0:0:0:0:
358,192,238550,1,0,0:0:0:60:LR4_SnareBPDT.wav
153,192,238550,1,0,0:0:0:40:Ride.wav
51,192,238622,1,0,0:0:0:0:
358,192,238765,1,0,0:0:0:0:
256,192,238836,1,0,0:0:0:60:LR4_SnareBPDT.wav
153,192,238836,1,0,0:0:0:40:Ride.wav
460,192,238907,1,0,0:0:0:0:
358,192,238979,1,0,0:0:0:0:
51,192,239122,1,0,0:0:0:60:LR4_SnareBPDT.wav
153,192,239122,1,0,0:0:0:40:Ride.wav
358,192,239265,1,0,0:0:0:70:soft-hitwhistle.wav
256,192,239265,1,0,0:0:0:0:
153,192,239336,1,0,0:0:0:70:soft-hitwhistle.wav
51,192,239407,1,0,0:0:0:60:LR4_SnareBPDT.wav
460,192,239407,1,0,0:0:0:40:Ride.wav
358,192,239550,1,0,0:0:0:70:soft-hitwhistle.wav
256,192,239550,1,0,0:0:0:0:
153,192,239693,1,0,0:0:0:70:soft-hitwhistle.wav
51,192,239693,1,0,0:0:0:0:
460,192,239693,1,0,0:0:0:0:
256,192,239979,128,0,240265:0:0:0:0:
51,192,240265,1,0,0:0:0:60:LR4_SnareBPDT.wav
460,192,240265,1,0,0:0:0:50:Cymbol.wav
358,192,240265,1,0,0:0:0:40:Ride.wav
153,192,240407,1,0,0:0:0:70:soft-hitwhistle.wav
256,192,240407,1,0,0:0:0:0:
358,192,240550,1,0,0:0:0:60:LR4_SnareBPDT.wav
460,192,240550,1,0,0:0:0:40:Ride.wav
51,192,240622,1,0,0:0:0:0:
256,192,240765,1,0,0:0:0:0:
358,192,240836,1,0,0:0:0:60:LR4_SnareBPDT.wav
460,192,240836,1,0,0:0:0:40:Ride.wav
153,192,240907,1,0,0:0:0:0:
358,192,241050,1,0,0:0:0:0:
51,192,241122,1,0,0:0:0:60:LR4_SnareBPDT.wav
256,192,241122,1,0,0:0:0:40:Ride.wav
460,192,241193,1,0,0:0:0:0:
153,192,241265,1,0,0:0:0:0:
460,192,241407,1,0,0:0:0:60:LR4_SnareBPDT.wav
51,192,241407,1,0,0:0:0:40:Ride.wav
256,192,241407,1,0,0:0:0:0:
460,192,241622,1,0,0:0:0:70:soft-hitwhistle.wav
51,192,241622,1,0,0:0:0:0:
256,192,241622,1,0,0:0:0:0:
358,192,241836,1,0,0:0:0:70:soft-hitwhistle.wav
153,192,241836,1,0,0:0:0:0:
51,192,241836,1,0,0:0:0:0:
51,192,242050,1,0,0:0:0:70:soft-hitwhistle.wav
153,192,242050,1,0,0:0:0:0:
358,192,242050,1,0,0:0:0:0:
256,192,242265,128,0,242550:0:0:0:70:soft-hitwhistle.wav
51,192,242550,1,0,0:0:0:60:LR4_SnareBPDT.wav
153,192,242550,1,0,0:0:0:50:Cymbol.wav
460,192,242550,1,0,0:0:0:40:Ride.wav
358,192,242693,1,0,0:0:0:70:soft-hitwhistle.wav
256,192,242693,1,0,0:0:0:0:
153,192,242836,1,0,0:0:0:60:LR4_SnareBPDT.wav
51,192,242836,1,0,0:0:0:40:Ride.wav
460,192,242979,1,0,0:0:0:70:soft-hitwhistle.wav
358,192,242979,1,0,0:0:0:0:
256,192,243122,1,0,0:0:0:60:LR4_SnareBPDT.wav
153,192,243122,1,0,0:0:0:40:Ride.wav
51,192,243265,1,0,0:0:0:70:soft-hitwhistle.wav
460,192,243265,1,0,0:0:0:0:
358,192,243407,1,0,0:0:0:60:LR4_SnareBPDT.wav
256,192,243407,1,0,0:0:0:40:Ride.wav
153,192,243550,1,0,0:0:0:70:soft-hitwhistle.wav
51,192,243550,1,0,0:0:0:0:
460,192,243693,1,0,0:0:0:70:soft-hitwhistle.wav
358,192,243693,1,0,0:0:0:60:LR4_SnareBPDT.wav
153,192,243765,1,0,0:0:0:70:soft-hitwhistle.wav
256,192,243836,1,0,0:0:0:70:soft-hitwhistle.wav
358,192,243907,1,0,0:0:0:70:soft-hitwhistle.wav
51,192,243979,1,0,0:0:0:70:soft-hitwhistle.wav
153,192,243979,1,0,0:0:0:60:LR4_SnareBPDT.wav
358,192,244050,1,0,0:0:0:70:soft-hitwhistle.wav
256,192,244122,1,0,0:0:0:70:soft-hitwhistle.wav
153,192,244193,1,0,0:0:0:70:soft-hitwhistle.wav
460,192,244265,1,0,0:0:0:70:soft-hitwhistle.wav
358,192,244265,1,0,0:0:0:60:BaSS.wav
256,192,244550,128,0,244836:0:0:0:0:
51,192,244836,1,0,0:0:0:50:LR4_SnareBPDT.wav
153,192,244836,1,0,0:0:0:60:Snare.wav
358,192,244907,1,0,0:0:0:50:LR4_SnareBPDT.wav
460,192,244907,1,0,0:0:0:60:Snare.wav
153,192,244979,1,0,0:0:0:50:LR4_SnareBPDT.wav
51,192,244979,1,0,0:0:0:60:Snare.wav
358,192,245050,1,0,0:0:0:50:LR4_SnareBPDT.wav
460,192,245050,1,0,0:0:0:60:Snare.wav
256,192,245122,128,0,245407:0:0:0:70:soft-hitwhistle.wav
460,192,245407,1,0,0:0:0:50:LR4_SnareBPDT.wav
358,192,245407,1,0,0:0:0:60:Snare.wav
153,192,245479,1,0,0:0:0:50:LR4_SnareBPDT.wav
51,192,245479,1,0,0:0:0:60:Snare.wav
358,192,245550,1,0,0:0:0:50:LR4_SnareBPDT.wav
460,192,245550,1,0,0:0:0:60:Snare.wav
153,192,245622,1,0,0:0:0:50:LR4_SnareBPDT.wav
51,192,245622,1,0,0:0:0:60:Snare.wav
256,192,245693,128,0,245979:0:0:0:70:soft-hitwhistle.wav
51,192,245979,5,0,0:0:0:70:soft-hitwhistle.wav
460,192,245979,1,0,0:0:0:0:
153,192,246050,1,0,0:0:0:70:soft-hitwhistle.wav
358,192,246122,1,0,0:0:0:70:soft-hitwhistle.wav
460,192,246193,1,0,0:0:0:70:soft-hitwhistle.wav
51,192,246265,1,0,0:0:0:70:soft-hitwhistle.wav
153,192,246265,1,0,0:0:0:0:
358,192,246407,1,0,0:0:0:70:soft-hitwhistle.wav
460,192,246407,1,0,0:0:0:0:
256,192,246479,1,0,0:0:0:70:soft-hitwhistle.wav
153,192,246550,1,0,0:0:0:70:soft-hitwhistle.wav
460,192,246622,1,0,0:0:0:70:soft-hitwhistle.wav
51,192,246693,1,0,0:0:0:70:soft-hitwhistle.wav
256,192,246693,1,0,0:0:0:0:
153,192,246836,1,0,0:0:0:70:soft-hitwhistle.wav
358,192,246836,1,0,0:0:0:0:
460,192,246907,1,0,0:0:0:70:soft-hitwhistle.wav
51,192,246979,1,0,0:0:0:70:soft-hitwhistle.wav
153,192,247050,1,0,0:0:0:70:soft-hitwhistle.wav
256,192,247122,1,0,0:0:0:70:soft-hitwhistle.wav
358,192,247122,1,0,0:0:0:50:Cymbol.wav
460,192,247122,1,0,0:0:0:60:BaSS.wav
460,192,247336,1,0,0:0:0:70:soft-hitwhistle.wav
256,192,247336,1,0,0:0:0:50:Cymbol.wav
51,192,247336,1,0,0:0:0:60:BaSS.wav
256,192,247550,1,0,0:0:0:70:soft-hitwhistle.wav
358,192,247550,1,0,0:0:0:50:Cymbol.wav
460,192,247550,1,0,0:0:0:60:BaSS.wav
460,192,247765,1,0,0:0:0:70:soft-hitwhistle.wav
256,192,247765,1,0,0:0:0:50:Cymbol.wav
51,192,247765,1,0,0:0:0:60:BaSS.wav
153,192,247979,1,0,0:0:0:70:soft-hitwhistle.wav
358,192,247979,1,0,0:0:0:50:Cymbol.wav
460,192,247979,1,0,0:0:0:60:BaSS.wav
460,192,248265,1,0,0:0:0:70:soft-hitwhistle.wav
358,192,248265,1,0,0:0:0:50:Cymbol.wav
153,192,248265,1,0,0:0:0:60:BaSS.wav
256,192,248479,1,0,0:0:0:70:soft-hitwhistle.wav
358,192,248479,1,0,0:0:0:50:Cymbol.wav
51,192,248479,1,0,0:0:0:60:BaSS.wav
153,192,248693,1,0,0:0:0:70:soft-hitwhistle.wav
358,192,248693,1,0,0:0:0:50:Cymbol.wav
460,192,248693,1,0,0:0:0:60:BaSS.wav
358,192,248907,1,0,0:0:0:70:soft-hitwhistle.wav
256,192,248907,1,0,0:0:0:50:Cymbol.wav
51,192,248907,1,0,0:0:0:60:BaSS.wav
153,192,249122,1,0,0:0:0:70:soft-hitwhistle.wav
358,192,249122,1,0,0:0:0:50:Cymbol.wav
460,192,249122,1,0,0:0:0:60:BaSS.wav
358,192,249265,1,0,0:0:0:70:soft-hitwhistle.wav
256,192,249265,1,0,0:0:0:50:Cymbol.wav
51,192,249265,1,0,0:0:0:60:BaSS.wav
51,192,249479,1,0,0:0:0:70:soft-hitwhistle.wav
256,192,249479,1,0,0:0:0:50:Cymbol.wav
358,192,249479,1,0,0:0:0:60:BaSS.wav
358,192,249693,1,0,0:0:0:70:soft-hitwhistle.wav
256,192,249693,1,0,0:0:0:50:Cymbol.wav
51,192,249693,1,0,0:0:0:60:BaSS.wav
51,192,249907,1,0,0:0:0:70:soft-hitwhistle.wav
256,192,249907,1,0,0:0:0:50:Cymbol.wav
358,192,249907,1,0,0:0:0:60:BaSS.wav
256,192,250122,1,0,0:0:0:70:soft-hitwhistle.wav
358,192,250122,1,0,0:0:0:50:Cymbol.wav
51,192,250122,1,0,0:0:0:60:BaSS.wav
51,192,250265,1,0,0:0:0:70:soft-hitwhistle.wav
153,192,250265,1,0,0:0:0:50:Cymbol.wav
460,192,250265,1,0,0:0:0:60:BaSS.wav
460,192,250479,1,0,0:0:0:70:soft-hitwhistle.wav
153,192,250479,1,0,0:0:0:50:Cymbol.wav
51,192,250479,1,0,0:0:0:60:BaSS.wav
51,192,250693,1,0,0:0:0:70:soft-hitwhistle.wav
153,192,250693,1,0,0:0:0:50:Cymbol.wav
460,192,250693,1,0,0:0:0:60:BaSS.wav
460,192,250907,1,0,0:0:0:70:soft-hitwhistle.wav
153,192,250907,1,0,0:0:0:50:Cymbol.wav
51,192,250907,1,0,0:0:0:60:BaSS.wav
51,192,251122,1,0,0:0:0:70:soft-hitwhistle.wav
153,192,251122,1,0,0:0:0:50:Cymbol.wav
460,192,251122,1,0,0:0:0:60:BaSS.wav
358,192,251265,128,0,251622:0:0:0:70:soft-hitwhistle.wav
256,192,251265,128,0,251622:0:0:0:60:CrashL.wav
153,192,251265,128,0,251622:0:0:0:60:BaSS.wav
256,192,251693,1,0,0:0:0:70:soft-hitwhistle.wav
51,192,251693,1,0,0:0:0:50:Cymbol.wav
153,192,251693,1,0,0:0:0:60:BaSS.wav
256,192,251907,1,0,0:0:0:70:soft-hitwhistle.wav
51,192,251907,1,0,0:0:0:50:Cymbol.wav
460,192,251907,1,0,0:0:0:60:BaSS.wav
256,192,252122,1,0,0:0:0:70:soft-hitwhistle.wav
153,192,252122,1,0,0:0:0:50:Cymbol.wav
51,192,252122,1,0,0:0:0:60:BaSS.wav
51,192,252336,1,0,0:0:0:70:soft-hitwhistle.wav
256,192,252336,1,0,0:0:0:50:Cymbol.wav
460,192,252336,1,0,0:0:0:60:BaSS.wav
358,192,252550,1,0,0:0:0:70:soft-hitwhistle.wav
153,192,252550,1,0,0:0:0:50:Cymbol.wav
51,192,252550,1,0,0:0:0:60:BaSS.wav
51,192,252836,1,0,0:0:0:70:soft-hitwhistle.wav
153,192,252836,1,0,0:0:0:50:Cymbol.wav
358,192,252836,1,0,0:0:0:60:BaSS.wav
460,192,253050,1,0,0:0:0:70:soft-hitwhistle.wav
256,192,253050,1,0,0:0:0:50:Cymbol.wav
153,192,253050,1,0,0:0:0:60:BaSS.wav
153,192,253265,1,0,0:0:0:70:soft-hitwhistle.wav
51,192,253265,1,0,0:0:0:50:Cymbol.wav
358,192,253265,1,0,0:0:0:60:BaSS.wav
256,192,253479,1,0,0:0:0:70:soft-hitwhistle.wav
153,192,253479,1,0,0:0:0:50:Cymbol.wav
460,192,253479,1,0,0:0:0:60:BaSS.wav
358,192,253693,1,0,0:0:0:70:soft-hitwhistle.wav
153,192,253693,1,0,0:0:0:50:Cymbol.wav
51,192,253693,1,0,0:0:0:60:BaSS.wav
153,192,253836,1,0,0:0:0:70:soft-hitwhistle.wav
256,192,253836,1,0,0:0:0:50:Cymbol.wav
460,192,253836,1,0,0:0:0:60:BaSS.wav
460,192,254050,1,0,0:0:0:70:soft-hitwhistle.wav
256,192,254050,1,0,0:0:0:50:Cymbol.wav
153,192,254050,1,0,0:0:0:60:BaSS.wav
153,192,254265,1,0,0:0:0:70:soft-hitwhistle.wav
256,192,254265,1,0,0:0:0:50:Cymbol.wav
460,192,254265,1,0,0:0:0:60:BaSS.wav
256,192,254479,1,0,0:0:0:70:soft-hitwhistle.wav
153,192,254479,1,0,0:0:0:50:Cymbol.wav
460,192,254479,1,0,0:0:0:60:BaSS.wav
460,192,254693,1,0,0:0:0:70:soft-hitwhistle.wav
256,192,254693,1,0,0:0:0:50:Cymbol.wav
153,192,254693,1,0,0:0:0:60:BaSS.wav
358,192,254836,1,0,0:0:0:50:LR4_SnareBPDT.wav
460,192,254836,1,0,0:0:0:60:Snare.wav
153,192,254907,1,0,0:0:0:50:LR4_SnareBPDT.wav
51,192,254907,1,0,0:0:0:60:Snare.wav
460,192,254979,1,0,0:0:0:50:LR4_SnareBPDT.wav
358,192,254979,1,0,0:0:0:60:Snare.wav
51,192,255050,1,0,0:0:0:50:LR4_SnareBPDT.wav
153,192,255050,1,0,0:0:0:60:Snare.wav
256,192,255122,1,0,0:0:0:70:soft-hitwhistle.wav
358,192,255122,1,0,0:0:0:40:LR4_Snare DWRS.wav
460,192,255122,1,0,0:0:0:50:Cymbol.wav
358,192,255312,1,0,0:0:0:70:soft-hitwhistle.wav
256,192,255312,1,0,0:0:0:40:LR4_Snare DWRS.wav
153,192,255312,1,0,0:0:0:50:Cymbol.wav
256,192,255503,1,0,0:0:0:70:soft-hitwhistle.wav
153,192,255503,1,0,0:0:0:40:LR4_Snare DWRS.wav
51,192,255503,1,0,0:0:0:50:Cymbol.wav
153,192,255693,1,0,0:0:0:70:soft-hitwhistle.wav
51,192,255693,1,0,0:0:0:40:LR4_Snare DWRS.wav
460,192,255693,1,0,0:0:0:50:Cymbol.wav
51,192,255884,1,0,0:0:0:70:soft-hitwhistle.wav
460,192,255884,1,0,0:0:0:40:LR4_Snare DWRS.wav
358,192,255884,1,0,0:0:0:50:Cymbol.wav
460,192,256074,1,0,0:0:0:70:soft-hitwhistle.wav
358,192,256074,1,0,0:0:0:50:Cymbol.wav
256,192,256074,1,0,0:0:0:60:BaSS.wav
460,192,256265,1,0,0:0:0:70:soft-hitwhistle.wav
51,192,256265,1,0,0:0:0:50:Cymbol.wav
256,192,256265,128,0,256550:0:0:0:60:BaSS.wav
256,192,256693,128,0,257265:0:0:0:0:
256,192,257407,128,0,257693:0:0:0:0:
256,192,257836,128,0,258407:0:0:0:0:
256,192,258550,128,0,258836:0:0:0:0:
256,192,258979,128,0,259550:0:0:0:0:
256,192,259693,128,0,259979:0:0:0:0:
256,192,260122,128,0,260765:0:0:0:0:
460,192,260407,128,0,260765:0:0:0:70:soft-hitwhistle.wav
51,192,260407,128,0,260765:0:0:0:60:CrashL.wav
460,192,260836,128,0,261050:0:0:0:70:soft-hitwhistle.wav
51,192,260836,128,0,261050:0:0:0:50:Cymbol.wav
256,192,260836,128,0,261050:0:0:0:70:BaSS.wav
