osu file format v14

[General]
AudioFilename: audio.mp3
AudioLeadIn: 0
PreviewTime: 164861
Countdown: 1
SampleSet: Normal
StackLeniency: 0.7
Mode: 1
LetterboxInBreaks: 0
WidescreenStoryboard: 0

[Editor]
DistanceSpacing: 0.8
BeatDivisor: 4
GridSize: 16
TimelineZoom: 2.4

[Metadata]
Title:ANOMALY
TitleUnicode:∀NØMALY
Artist:Camellia
ArtistUnicode:かめりあ
Creator:Y O U T A
Version:( ,, ^ o ^ ,, )
Source:WE ARE THE BOSS
Tags:c90
BeatmapID:1061533
BeatmapSetID:498672

[Difficulty]
HPDrainRate:6
CircleSize:5
OverallDifficulty:6
ApproachRate:5
SliderMultiplier:1.4
SliderTickRate:1

[Events]
//Background and Video events
0,0,"CoJBuWZUIAAE3qP.jpg",0,90
//Break Periods
2,128490,136232
//Storyboard Layer 0 (Background)
//Storyboard Layer 1 (Fail)
//Storyboard Layer 2 (Pass)
//Storyboard Layer 3 (Foreground)
//Storyboard Sound Samples

[TimingPoints]
290,285.714285714286,4,1,0,100,1,0
37004,-98.0392156862745,4,1,0,100,0,0
37218,-96.1538461538461,4,1,0,100,0,0
37575,-94.3396226415094,4,1,0,100,0,0
37790,-92.5925925925926,4,1,0,100,0,0
38147,-90.9090909090909,4,1,0,100,0,0
38361,-89.2857142857143,4,1,0,100,0,0
38718,-87.719298245614,4,1,0,100,0,0
38932,-86.2068965517241,4,1,0,100,0,0
40575,-100,4,1,0,100,0,0
41432,-90.9090909090909,4,1,0,100,0,0
57575,-100,4,1,0,100,0,0
59718,-90.9090909090909,4,1,0,100,0,0
73575,-89.2857142857143,4,1,0,100,0,0
73790,-87.719298245614,4,1,0,100,0,0
74147,-86.2068965517241,4,1,0,100,0,0
74361,-84.7457627118644,4,1,0,100,0,0
74718,-83.3333333333333,4,1,0,100,0,0
75861,-80,4,1,0,100,0,0
77147,-83.3333333333333,4,1,0,100,0,0
78004,-90.9090909090909,4,1,0,100,0,0
87432,-100,4,1,0,100,0,0
91718,-90.9090909090909,4,1,0,100,0,0
105432,-86.9565217391304,4,1,0,100,0,0
107718,-83.3333333333333,4,1,0,100,0,0
109147,-90.9090909090909,4,1,0,100,0,0
128575,-100,4,1,0,100,0,0
144290,-90.9090909090909,4,1,0,100,0,0
146861,-100,4,1,0,100,0,0
155718,-90.9090909090909,4,1,0,100,0,0
160575,-89.2857142857143,4,1,0,100,0,0
160861,-87.719298245614,4,1,0,100,0,0
161147,-86.2068965517241,4,1,0,100,0,0
161432,-84.7457627118644,4,1,0,100,0,0
161718,-83.3333333333333,4,1,0,100,0,0
162575,-80,4,1,0,100,0,0
163861,-100,4,1,0,100,0,0
164861,-90.9090909090909,4,1,0,100,0,1
182004,-90.9090909090909,4,1,0,100,0,0
183147,-90.9090909090909,4,1,0,100,0,1
210575,-100,4,1,0,100,0,0
224432,-98.0392156862745,4,1,0,100,0,0
224647,-96.1538461538461,4,1,0,100,0,0
225004,-94.3396226415094,4,1,0,100,0,0
225218,-92.5925925925926,4,1,0,100,0,0
225575,-90.9090909090909,4,1,0,100,0,0
225790,-89.2857142857143,4,1,0,100,0,0
226147,-87.719298245614,4,1,0,100,0,0
226361,-86.2068965517241,4,1,0,100,0,0
228004,-100,4,1,0,100,0,0
228861,-90.9090909090909,4,1,0,100,0,1
238004,-83.3333333333333,4,1,0,100,0,1
239718,-83.3333333333333,4,1,0,100,0,0
240004,-100,4,1,0,100,0,0
240290,-83.3333333333333,4,1,0,100,0,1
242290,-83.3333333333333,4,1,0,100,0,0
242575,-83.3333333333333,4,1,0,100,0,1
244290,-83.3333333333333,4,1,0,100,0,0
244575,-100,4,1,0,100,0,0
244861,-83.3333333333333,4,1,0,100,0,1
247147,-90.9090909090909,4,1,0,100,0,0
256575,-100,4,1,0,100,0,0
260432,-90.9090909090909,4,1,0,100,0,0

[HitObjects]
256,192,1432,12,0,4718,0:0:0:0:
256,208,4861,5,4,0:0:0:0:
240,208,5147,1,0,0:0:0:0:
240,208,5290,1,8,0:0:0:0:
272,224,5718,1,0,0:0:0:0:
272,224,5861,1,0,0:0:0:0:
272,224,6004,1,8,0:0:0:0:
272,224,6290,1,0,0:0:0:0:
272,224,6432,1,8,0:0:0:0:
272,224,6861,1,0,0:0:0:0:
272,224,7004,1,0,0:0:0:0:
272,224,7147,1,8,0:0:0:0:
272,224,7432,1,0,0:0:0:0:
272,224,7575,1,8,0:0:0:0:
272,224,8004,1,0,0:0:0:0:
272,224,8147,1,0,0:0:0:0:
272,224,8290,1,8,0:0:0:0:
272,224,8575,1,0,0:0:0:0:
208,240,8718,1,8,0:0:0:0:
240,192,9004,1,4,0:0:0:0:
240,192,9432,1,4,0:0:0:0:
240,192,9718,1,0,0:0:0:0:
240,192,9861,1,8,0:0:0:0:
240,192,10290,1,0,0:0:0:0:
256,192,10432,1,0,0:0:0:0:
256,192,10575,1,8,0:0:0:0:
208,160,10861,1,0,0:0:0:0:
208,160,11004,1,8,0:0:0:0:
208,160,11432,1,0,0:0:0:0:
208,160,11575,1,0,0:0:0:0:
224,176,11718,1,8,0:0:0:0:
208,176,12004,1,0,0:0:0:0:
208,176,12147,1,8,0:0:0:0:
272,192,12575,1,0,0:0:0:0:
272,208,12718,1,0,0:0:0:0:
272,208,12861,1,8,0:0:0:0:
272,208,13147,1,0,0:0:0:0:
272,208,13290,1,8,0:0:0:0:
272,208,13575,1,4,0:0:0:0:
224,208,13718,1,8,0:0:0:0:
224,208,13790,1,8,0:0:0:0:
224,208,13861,1,8,0:0:0:0:
272,208,14004,1,4,0:0:0:0:
272,208,14290,1,0,0:0:0:0:
272,208,14575,1,0,0:0:0:0:
272,208,14861,1,0,0:0:0:0:
224,208,15004,1,0,0:0:0:0:
224,208,15147,1,8,0:0:0:0:
272,208,15432,1,0,0:0:0:0:
272,208,15718,1,0,0:0:0:0:
272,208,16004,1,0,0:0:0:0:
224,208,16147,1,0,0:0:0:0:
224,208,16290,1,8,0:0:0:0:
272,208,16575,1,0,0:0:0:0:
272,176,16861,1,0,0:0:0:0:
272,208,17147,1,0,0:0:0:0:
272,176,17290,1,0,0:0:0:0:
272,160,17432,1,8,0:0:0:0:
272,160,17718,1,0,0:0:0:0:
272,160,18004,1,0,0:0:0:0:
272,160,18147,1,4,0:0:0:0:
272,160,18290,1,8,0:0:0:0:
272,160,18361,1,8,0:0:0:0:
272,160,18432,1,8,0:0:0:0:
272,160,18575,1,4,0:0:0:0:
272,160,18861,1,0,0:0:0:0:
272,160,19147,1,0,0:0:0:0:
272,160,19432,1,0,0:0:0:0:
272,160,19575,1,0,0:0:0:0:
272,160,19718,1,8,0:0:0:0:
240,176,20004,1,0,0:0:0:0:
240,176,20147,1,8,0:0:0:0:
240,176,20290,1,0,0:0:0:0:
224,176,20575,1,0,0:0:0:0:
224,176,20718,1,0,0:0:0:0:
224,176,20861,1,8,0:0:0:0:
240,176,21147,1,0,0:0:0:0:
240,176,21290,1,8,0:0:0:0:
240,176,21432,1,0,0:0:0:0:
240,176,21504,1,0,0:0:0:0:
240,176,21575,1,0,0:0:0:0:
224,192,21647,1,0,0:0:0:0:
224,192,21718,1,8,0:0:0:0:
224,192,21790,1,8,0:0:0:0:
224,192,21861,1,8,0:0:0:0:
192,192,22004,1,0,0:0:0:0:
144,176,22075,1,0,0:0:0:0:
144,176,22147,1,0,0:0:0:0:
144,176,22218,1,0,0:0:0:0:
144,176,22290,1,0,0:0:0:0:
144,176,22432,1,0,0:0:0:0:
176,240,22575,1,8,0:0:0:0:
144,256,22718,1,0,0:0:0:0:
144,256,22790,1,8,0:0:0:0:
144,256,22932,1,0,0:0:0:0:
144,256,23004,1,8,0:0:0:0:
192,240,23147,1,4,0:0:0:0:
288,160,23432,1,0,0:0:0:0:
304,208,23718,1,0,0:0:0:0:
304,208,24004,1,0,0:0:0:0:
304,208,24290,1,0,0:0:0:0:
304,208,24575,1,0,0:0:0:0:
304,208,24861,1,0,0:0:0:0:
288,208,25147,1,0,0:0:0:0:
272,224,25432,1,4,0:0:0:0:
256,224,25647,1,4,0:0:0:0:
256,224,25861,1,4,0:0:0:0:
288,208,26004,1,0,0:0:0:0:
288,208,26290,1,0,0:0:0:0:
304,224,26575,1,0,0:0:0:0:
256,224,26647,1,0,0:0:0:0:
256,224,26718,1,0,0:0:0:0:
256,224,26790,1,0,0:0:0:0:
304,224,26861,1,0,0:0:0:0:
256,224,27004,1,0,0:0:0:0:
304,224,27147,1,0,0:0:0:0:
256,224,27290,1,4,0:0:0:0:
192,208,27718,1,4,0:0:0:0:
192,208,28004,1,4,0:0:0:0:
192,208,28290,1,0,0:0:0:0:
192,208,28575,1,0,0:0:0:0:
192,208,28861,1,0,0:0:0:0:
240,208,29147,1,0,0:0:0:0:
224,208,29432,1,0,0:0:0:0:
160,192,29504,1,0,0:0:0:0:
160,192,29575,1,8,0:0:0:0:
160,192,29718,1,8,0:0:0:0:
160,192,29861,1,0,0:0:0:0:
160,192,30004,1,4,0:0:0:0:
160,192,30218,1,4,0:0:0:0:
160,192,30432,1,4,0:0:0:0:
160,192,30575,1,0,0:0:0:0:
160,192,30861,1,0,0:0:0:0:
160,192,31004,1,4,0:0:0:0:
160,192,31218,1,4,0:0:0:0:
160,192,31432,1,4,0:0:0:0:
160,192,31647,1,4,0:0:0:0:
160,192,31861,1,4,0:0:0:0:
160,192,32290,1,4,0:0:0:0:
160,192,32575,1,8,0:0:0:0:
160,192,32718,1,0,0:0:0:0:
160,192,32861,1,4,0:0:0:0:
144,208,33147,1,8,0:0:0:0:
144,208,33290,1,0,0:0:0:0:
144,208,33432,1,4,0:0:0:0:
144,208,33718,1,8,0:0:0:0:
144,208,33861,1,0,0:0:0:0:
144,208,34004,1,0,0:0:0:0:
192,208,34147,1,4,0:0:0:0:
176,192,34575,1,4,0:0:0:0:
176,192,34861,1,8,0:0:0:0:
176,192,35004,1,0,0:0:0:0:
176,192,35147,1,4,0:0:0:0:
176,192,35432,1,8,0:0:0:0:
176,208,35575,1,0,0:0:0:0:
160,192,35718,1,4,0:0:0:0:
160,192,36004,1,8,0:0:0:0:
160,192,36147,1,0,0:0:0:0:
160,192,36290,1,0,0:0:0:0:
160,192,36432,1,4,0:0:0:0:
160,192,36861,1,4,0:0:0:0:
160,192,37004,1,0,0:0:0:0:
160,192,37075,1,0,0:0:0:0:
160,192,37218,1,8,0:0:0:0:
160,192,37290,1,0,0:0:0:0:
160,192,37361,1,0,0:0:0:0:
160,192,37432,1,8,0:0:0:0:
144,192,37575,1,0,0:0:0:0:
144,192,37647,1,8,0:0:0:0:
144,192,37790,1,8,0:0:0:0:
144,192,37861,1,8,0:0:0:0:
144,192,37932,1,0,0:0:0:0:
144,192,38004,1,8,0:0:0:0:
144,192,38147,1,0,0:0:0:0:
144,192,38218,1,0,0:0:0:0:
144,192,38361,1,8,0:0:0:0:
144,208,38432,1,0,0:0:0:0:
144,208,38504,1,0,0:0:0:0:
144,208,38575,1,8,0:0:0:0:
144,208,38718,1,0,0:0:0:0:
144,208,38790,1,8,0:0:0:0:
144,208,38932,1,8,0:0:0:0:
144,208,39004,1,8,0:0:0:0:
144,208,39075,1,0,0:0:0:0:
144,208,39147,1,8,0:0:0:0:
208,224,39242,1,0,0:0:0:0:
208,224,39337,1,0,0:0:0:0:
208,224,39432,1,8,0:0:0:0:
208,224,39528,1,0,0:0:0:0:
208,224,39623,1,0,0:0:0:0:
208,224,39718,1,8,0:0:0:0:
208,224,39813,1,0,0:0:0:0:
208,224,39909,1,0,0:0:0:0:
256,288,40004,1,8,0:0:0:0:
256,304,40075,1,8,0:0:0:0:
256,304,40147,1,0,0:0:0:0:
256,304,40218,1,0,0:0:0:0:
256,288,40290,1,8,0:0:0:0:
256,304,40718,1,8,0:0:0:0:
256,304,40861,1,8,0:0:0:0:
256,304,41004,1,0,0:0:0:0:
256,304,41075,1,0,0:0:0:0:
256,304,41147,1,8,0:0:0:0:
192,352,41432,1,4,0:0:0:0:
208,256,41575,1,0,0:0:0:0:
208,256,41647,1,0,0:0:0:0:
208,256,41718,1,8,0:0:0:0:
208,256,41861,1,8,0:0:0:0:
208,256,42004,1,0,0:0:0:0:
208,272,42147,1,8,0:0:0:0:
208,272,42218,1,8,0:0:0:0:
208,272,42290,1,0,0:0:0:0:
208,272,42361,1,0,0:0:0:0:
208,272,42432,1,8,0:0:0:0:
208,272,42575,1,0,0:0:0:0:
208,288,42647,1,0,0:0:0:0:
208,288,42718,1,8,0:0:0:0:
208,288,42790,1,0,0:0:0:0:
208,288,42861,1,8,0:0:0:0:
208,288,43004,1,0,0:0:0:0:
208,288,43147,1,8,0:0:0:0:
176,256,43218,1,0,0:0:0:0:
176,256,43290,1,0,0:0:0:0:
176,256,43361,1,0,0:0:0:0:
160,256,43432,1,8,0:0:0:0:
160,256,43575,1,0,0:0:0:0:
160,256,43718,1,8,0:0:0:0:
160,256,43861,1,0,0:0:0:0:
160,256,43932,1,0,0:0:0:0:
160,256,44004,1,8,0:0:0:0:
160,272,44147,1,0,0:0:0:0:
160,272,44290,1,8,0:0:0:0:
160,272,44361,1,8,0:0:0:0:
160,272,44432,1,0,0:0:0:0:
160,272,44504,1,0,0:0:0:0:
160,272,44575,1,8,0:0:0:0:
160,272,44718,1,0,0:0:0:0:
160,272,44790,1,0,0:0:0:0:
160,272,44861,1,8,0:0:0:0:
144,288,45004,1,0,0:0:0:0:
144,288,45147,1,8,0:0:0:0:
144,288,45290,1,8,0:0:0:0:
144,288,45432,1,0,0:0:0:0:
144,288,45504,1,0,0:0:0:0:
144,288,45575,1,8,0:0:0:0:
160,224,45647,1,0,0:0:0:0:
160,224,45718,1,8,0:0:0:0:
160,224,45790,1,8,0:0:0:0:
160,224,45861,1,0,0:0:0:0:
144,288,46004,1,0,0:0:0:0:
144,288,46147,1,0,0:0:0:0:
144,288,46218,1,0,0:0:0:0:
144,288,46290,1,8,0:0:0:0:
144,288,46432,1,8,0:0:0:0:
144,304,46575,1,0,0:0:0:0:
144,304,46647,1,0,0:0:0:0:
144,304,46718,1,8,0:0:0:0:
144,304,46790,1,8,0:0:0:0:
144,304,46861,1,0,0:0:0:0:
160,256,47004,1,8,0:0:0:0:
176,272,47147,1,0,0:0:0:0:
176,272,47218,1,0,0:0:0:0:
176,272,47290,1,8,0:0:0:0:
176,272,47361,1,0,0:0:0:0:
176,272,47432,1,8,0:0:0:0:
176,272,47575,1,0,0:0:0:0:
176,272,47718,1,8,0:0:0:0:
176,272,47790,1,0,0:0:0:0:
176,288,47861,1,0,0:0:0:0:
192,288,47932,1,0,0:0:0:0:
192,288,48004,1,8,0:0:0:0:
192,288,48075,1,8,0:0:0:0:
192,304,48147,1,0,0:0:0:0:
176,288,48290,1,0,0:0:0:0:
176,288,48432,1,0,0:0:0:0:
176,288,48575,1,0,0:0:0:0:
176,304,48718,1,0,0:0:0:0:
176,304,48790,1,0,0:0:0:0:
176,304,48861,1,8,0:0:0:0:
176,304,49004,1,0,0:0:0:0:
176,304,49147,1,8,0:0:0:0:
176,320,49218,1,0,0:0:0:0:
160,320,49290,1,0,0:0:0:0:
160,320,49361,1,0,0:0:0:0:
160,320,49432,1,8,0:0:0:0:
96,240,49575,1,0,0:0:0:0:
112,256,49647,1,0,0:0:0:0:
112,256,49718,1,8,0:0:0:0:
112,256,49790,1,8,0:0:0:0:
112,272,49861,1,0,0:0:0:0:
112,272,49932,1,0,0:0:0:0:
80,288,50004,1,8,0:0:0:0:
80,288,50075,1,0,0:0:0:0:
80,288,50147,1,8,0:0:0:0:
80,288,50218,1,8,0:0:0:0:
80,288,50290,1,0,0:0:0:0:
192,256,50575,1,4,0:0:0:0:
208,192,50718,1,0,0:0:0:0:
208,192,50790,1,0,0:0:0:0:
208,192,50861,1,8,0:0:0:0:
208,192,51004,1,0,0:0:0:0:
208,192,51147,1,8,0:0:0:0:
208,192,51218,1,8,0:0:0:0:
208,208,51290,1,0,0:0:0:0:
208,208,51361,1,0,0:0:0:0:
208,208,51432,1,8,0:0:0:0:
208,208,51575,1,8,0:0:0:0:
160,208,51718,1,0,0:0:0:0:
160,208,51790,1,0,0:0:0:0:
160,208,51861,1,8,0:0:0:0:
160,224,51932,1,0,0:0:0:0:
160,224,52004,1,8,0:0:0:0:
160,224,52147,1,0,0:0:0:0:
160,224,52290,1,8,0:0:0:0:
160,224,52361,1,0,0:0:0:0:
160,224,52432,1,0,0:0:0:0:
160,224,52504,1,0,0:0:0:0:
160,240,52575,1,8,0:0:0:0:
144,256,52647,1,8,0:0:0:0:
160,256,52718,1,8,0:0:0:0:
160,256,52790,1,8,0:0:0:0:
160,256,52861,1,8,0:0:0:0:
144,240,53147,1,4,0:0:0:0:
144,240,53290,1,8,0:0:0:0:
144,240,53432,1,0,0:0:0:0:
144,240,53504,1,0,0:0:0:0:
144,240,53575,1,8,0:0:0:0:
144,240,53718,1,8,0:0:0:0:
144,240,53861,1,0,0:0:0:0:
208,224,54004,1,8,0:0:0:0:
208,224,54075,1,0,0:0:0:0:
208,240,54147,1,0,0:0:0:0:
208,240,54218,1,0,0:0:0:0:
208,240,54290,1,8,0:0:0:0:
208,240,54432,1,0,0:0:0:0:
208,240,54575,1,8,0:0:0:0:
208,240,54647,1,8,0:0:0:0:
192,256,54718,1,8,0:0:0:0:
208,256,54790,1,0,0:0:0:0:
208,256,54861,1,8,0:0:0:0:
208,256,55004,1,0,0:0:0:0:
224,240,55147,1,4,0:0:0:0:
224,240,55361,1,4,0:0:0:0:
208,144,55575,1,12,0:0:0:0:
176,304,55861,1,12,0:0:0:0:
176,304,56075,1,12,0:0:0:0:
176,288,56290,1,4,0:0:0:0:
176,288,56504,1,4,0:0:0:0:
176,288,56718,1,12,0:0:0:0:
176,304,57004,1,12,0:0:0:0:
176,304,57218,1,12,0:0:0:0:
160,304,57432,1,4,0:0:0:0:
160,304,57575,1,8,0:0:0:0:
160,304,57647,1,8,0:0:0:0:
160,304,57718,1,0,0:0:0:0:
160,304,57861,1,8,0:0:0:0:
160,304,57932,1,0,0:0:0:0:
160,304,58004,1,8,0:0:0:0:
160,304,58075,1,0,0:0:0:0:
160,320,58147,1,0,0:0:0:0:
160,320,58290,1,0,0:0:0:0:
160,320,58361,1,0,0:0:0:0:
160,320,58432,1,0,0:0:0:0:
160,320,58575,1,4,0:0:0:0:
160,320,58718,1,8,0:0:0:0:
160,320,58790,1,0,0:0:0:0:
160,320,58932,1,8,0:0:0:0:
160,320,59004,1,0,0:0:0:0:
144,320,59075,1,0,0:0:0:0:
144,320,59147,1,8,0:0:0:0:
144,320,59218,1,8,0:0:0:0:
144,320,59290,1,0,0:0:0:0:
144,320,59361,1,8,0:0:0:0:
144,320,59432,1,8,0:0:0:0:
144,320,59575,1,8,0:0:0:0:
144,320,59718,1,4,0:0:0:0:
144,320,59861,1,0,0:0:0:0:
144,320,59932,1,0,0:0:0:0:
144,320,60004,1,8,0:0:0:0:
144,320,60075,1,8,0:0:0:0:
144,320,60147,1,0,0:0:0:0:
144,336,60218,1,8,0:0:0:0:
144,336,60290,1,0,0:0:0:0:
128,336,60432,1,8,0:0:0:0:
128,336,60504,1,0,0:0:0:0:
128,336,60647,1,0,0:0:0:0:
128,336,60718,1,8,0:0:0:0:
128,336,60790,1,8,0:0:0:0:
128,336,60861,1,0,0:0:0:0:
128,336,61004,1,8,0:0:0:0:
128,336,61075,1,8,0:0:0:0:
128,336,61147,1,0,0:0:0:0:
224,240,61218,1,0,0:0:0:0:
224,240,61290,1,8,0:0:0:0:
224,240,61361,1,0,0:0:0:0:
224,240,61432,1,8,0:0:0:0:
192,240,61575,1,0,0:0:0:0:
176,224,61647,1,8,0:0:0:0:
112,192,61718,1,0,0:0:0:0:
176,240,61790,1,0,0:0:0:0:
176,240,61861,1,8,0:0:0:0:
176,240,61932,1,8,0:0:0:0:
176,240,62004,1,0,0:0:0:0:
176,240,62147,1,0,0:0:0:0:
176,240,62290,1,8,0:0:0:0:
176,240,62361,1,8,0:0:0:0:
160,256,62432,1,0,0:0:0:0:
160,256,62504,1,0,0:0:0:0:
160,256,62575,1,8,0:0:0:0:
160,256,62718,1,0,0:0:0:0:
160,256,62790,1,8,0:0:0:0:
160,256,62932,1,0,0:0:0:0:
160,256,63004,1,8,0:0:0:0:
160,256,63075,1,8,0:0:0:0:
160,256,63147,1,0,0:0:0:0:
160,256,63290,1,0,0:0:0:0:
160,256,63361,1,0,0:0:0:0:
160,272,63432,1,8,0:0:0:0:
160,272,63504,1,8,0:0:0:0:
160,272,63575,1,0,0:0:0:0:
160,272,63647,1,8,0:0:0:0:
160,272,63718,1,0,0:0:0:0:
160,272,63861,1,0,0:0:0:0:
160,272,63932,1,0,0:0:0:0:
160,288,64004,1,8,0:0:0:0:
160,288,64075,1,0,0:0:0:0:
144,288,64147,1,8,0:0:0:0:
112,192,64290,1,0,0:0:0:0:
144,208,64432,1,8,0:0:0:0:
144,208,64504,1,0,0:0:0:0:
144,208,64575,1,8,0:0:0:0:
144,208,64647,1,8,0:0:0:0:
144,208,64718,1,0,0:0:0:0:
144,208,64790,1,8,0:0:0:0:
144,224,64861,1,0,0:0:0:0:
144,224,65004,1,8,0:0:0:0:
144,224,65075,1,0,0:0:0:0:
144,224,65218,1,0,0:0:0:0:
144,224,65290,1,8,0:0:0:0:
144,224,65361,1,8,0:0:0:0:
144,224,65432,1,0,0:0:0:0:
128,240,65575,1,0,0:0:0:0:
128,240,65647,1,0,0:0:0:0:
128,240,65718,1,8,0:0:0:0:
128,240,65790,1,8,0:0:0:0:
128,240,65861,1,0,0:0:0:0:
128,240,65932,1,8,0:0:0:0:
128,240,66004,1,0,0:0:0:0:
128,240,66147,1,8,0:0:0:0:
128,240,66218,1,0,0:0:0:0:
128,256,66290,1,8,0:0:0:0:
128,256,66361,1,8,0:0:0:0:
128,256,66432,1,0,0:0:0:0:
144,256,66504,1,0,0:0:0:0:
144,256,66575,1,8,0:0:0:0:
144,256,66718,1,0,0:0:0:0:
144,256,66861,1,8,0:0:0:0:
144,256,66932,1,8,0:0:0:0:
144,256,67004,1,0,0:0:0:0:
144,256,67075,1,0,0:0:0:0:
144,256,67147,1,8,0:0:0:0:
144,272,67290,1,0,0:0:0:0:
144,272,67361,1,8,0:0:0:0:
144,272,67504,1,0,0:0:0:0:
144,272,67575,1,8,0:0:0:0:
144,272,67647,1,8,0:0:0:0:
144,272,67718,1,0,0:0:0:0:
144,272,67861,1,8,0:0:0:0:
160,224,68004,1,8,0:0:0:0:
160,224,68075,1,0,0:0:0:0:
160,224,68147,1,8,0:0:0:0:
160,224,68218,1,0,0:0:0:0:
160,224,68290,1,8,0:0:0:0:
160,224,68361,1,0,0:0:0:0:
160,240,68432,1,0,0:0:0:0:
144,240,68504,1,8,0:0:0:0:
144,240,68575,1,0,0:0:0:0:
144,240,68647,1,0,0:0:0:0:
144,240,68718,1,8,0:0:0:0:
80,160,69004,1,0,0:0:0:0:
96,160,69075,1,0,0:0:0:0:
96,176,69147,1,8,0:0:0:0:
96,240,69218,1,8,0:0:0:0:
96,240,69290,1,0,0:0:0:0:
96,240,69361,1,8,0:0:0:0:
96,240,69432,1,0,0:0:0:0:
96,240,69575,1,8,0:0:0:0:
96,240,69647,1,0,0:0:0:0:
96,256,69790,1,8,0:0:0:0:
96,256,69861,1,0,0:0:0:0:
96,256,69932,1,0,0:0:0:0:
96,256,70004,1,8,0:0:0:0:
96,256,70147,1,0,0:0:0:0:
96,256,70218,1,0,0:0:0:0:
96,256,70290,1,8,0:0:0:0:
96,256,70361,1,8,0:0:0:0:
96,256,70432,1,0,0:0:0:0:
112,256,70504,1,8,0:0:0:0:
112,256,70575,1,0,0:0:0:0:
112,256,70718,1,8,0:0:0:0:
112,256,70790,1,0,0:0:0:0:
160,192,70861,1,8,0:0:0:0:
160,192,70932,1,8,0:0:0:0:
96,272,71004,1,0,0:0:0:0:
144,256,71290,1,0,0:0:0:0:
144,256,71432,1,8,0:0:0:0:
144,272,71504,1,0,0:0:0:0:
144,272,71575,1,8,0:0:0:0:
144,272,71647,1,8,0:0:0:0:
128,272,71718,1,0,0:0:0:0:
128,272,71861,1,0,0:0:0:0:
128,272,71932,1,8,0:0:0:0:
96,192,72004,1,0,0:0:0:0:
128,272,72075,1,0,0:0:0:0:
128,288,72147,1,8,0:0:0:0:
128,288,72218,1,8,0:0:0:0:
128,288,72290,1,0,0:0:0:0:
96,288,72432,1,8,0:0:0:0:
96,304,72575,1,8,0:0:0:0:
96,304,72647,1,8,0:0:0:0:
96,304,72718,1,0,0:0:0:0:
96,304,72790,1,8,0:0:0:0:
96,304,72861,1,0,0:0:0:0:
96,320,73004,1,8,0:0:0:0:
96,320,73147,1,0,0:0:0:0:
96,304,73432,1,8,0:0:0:0:
96,304,73575,1,0,0:0:0:0:
96,304,73647,1,8,0:0:0:0:
96,320,73790,1,8,0:0:0:0:
96,320,73861,1,0,0:0:0:0:
96,320,73932,1,0,0:0:0:0:
96,320,74004,1,8,0:0:0:0:
80,320,74147,1,0,0:0:0:0:
80,320,74218,1,8,0:0:0:0:
96,320,74361,1,0,0:0:0:0:
96,320,74432,1,8,0:0:0:0:
96,336,74504,1,8,0:0:0:0:
96,336,74575,1,0,0:0:0:0:
80,320,74718,1,8,0:0:0:0:
80,320,74790,1,0,0:0:0:0:
80,336,74932,1,8,0:0:0:0:
80,336,75004,1,0,0:0:0:0:
80,352,75075,1,8,0:0:0:0:
80,352,75147,1,0,0:0:0:0:
64,384,75218,1,0,0:0:0:0:
64,384,75290,1,8,0:0:0:0:
64,384,75361,1,0,0:0:0:0:
64,384,75432,1,8,0:0:0:0:
208,208,75504,1,8,0:0:0:0:
144,304,75575,1,0,0:0:0:0:
96,352,75718,1,8,0:0:0:0:
96,352,75861,1,0,0:0:0:0:
96,352,75932,1,0,0:0:0:0:
96,352,76004,1,8,0:0:0:0:
96,352,76075,1,8,0:0:0:0:
96,352,76147,1,0,0:0:0:0:
96,368,76218,1,8,0:0:0:0:
96,368,76290,1,0,0:0:0:0:
96,368,76361,1,0,0:0:0:0:
96,368,76432,1,8,0:0:0:0:
144,304,76504,1,0,0:0:0:0:
144,304,76575,1,8,0:0:0:0:
144,320,76647,1,8,0:0:0:0:
144,320,76718,1,8,0:0:0:0:
256,256,76790,1,0,0:0:0:0:
256,256,76861,1,8,0:0:0:0:
240,256,77004,1,8,0:0:0:0:
192,224,77147,1,8,0:0:0:0:
192,224,77218,1,8,0:0:0:0:
192,224,77290,1,8,0:0:0:0:
192,224,77361,1,8,0:0:0:0:
176,240,77432,1,0,0:0:0:0:
176,240,77504,1,0,0:0:0:0:
176,240,77575,1,0,0:0:0:0:
176,240,77647,1,0,0:0:0:0:
176,240,77718,1,8,0:0:0:0:
160,256,77790,1,8,0:0:0:0:
160,256,77861,1,0,0:0:0:0:
160,256,78004,1,4,0:0:0:0:
160,256,78218,1,4,0:0:0:0:
144,272,78432,1,12,0:0:0:0:
144,272,78647,1,12,0:0:0:0:
144,272,78861,1,12,0:0:0:0:
144,272,79147,1,12,0:0:0:0:
160,288,79361,1,12,0:0:0:0:
160,288,79575,1,12,0:0:0:0:
176,192,79790,1,12,0:0:0:0:
176,208,80004,1,4,0:0:0:0:
176,208,80147,1,12,0:0:0:0:
160,208,80361,1,12,0:0:0:0:
160,208,80575,1,12,0:0:0:0:
160,208,80790,1,4,0:0:0:0:
144,192,81004,1,4,0:0:0:0:
240,208,81147,1,12,0:0:0:0:
240,208,81361,1,12,0:0:0:0:
240,208,81575,1,12,0:0:0:0:
176,192,81790,1,12,0:0:0:0:
176,192,82004,1,12,0:0:0:0:
144,192,82147,1,8,0:0:0:0:
144,192,82218,1,8,0:0:0:0:
144,192,82290,1,8,0:0:0:0:
144,192,82361,1,8,0:0:0:0:
144,192,82432,1,8,0:0:0:0:
208,192,82575,1,4,0:0:0:0:
208,192,82790,1,4,0:0:0:0:
208,208,83004,1,12,0:0:0:0:
208,208,83218,1,12,0:0:0:0:
208,208,83432,1,12,0:0:0:0:
192,224,83718,1,12,0:0:0:0:
192,224,83932,1,12,0:0:0:0:
192,224,84147,1,12,0:0:0:0:
192,224,84361,1,4,0:0:0:0:
176,176,84575,1,4,0:0:0:0:
160,176,84718,1,12,0:0:0:0:
160,176,84932,1,12,0:0:0:0:
144,208,85147,1,12,0:0:0:0:
144,208,85361,1,4,0:0:0:0:
144,208,85575,1,4,0:0:0:0:
144,208,85718,1,8,0:0:0:0:
144,208,85790,1,8,0:0:0:0:
144,208,85861,1,8,0:0:0:0:
144,208,85932,1,0,0:0:0:0:
144,208,86004,1,8,0:0:0:0:
240,256,86194,1,12,0:0:0:0:
240,256,86385,1,4,0:0:0:0:
240,256,86575,1,4,0:0:0:0:
240,256,86766,1,4,0:0:0:0:
240,256,86956,1,4,0:0:0:0:
128,240,87147,1,4,0:0:0:0:
192,272,87432,1,0,0:0:0:0:
192,272,87575,1,8,0:0:0:0:
192,288,88004,1,0,0:0:0:0:
192,288,88147,1,0,0:0:0:0:
192,304,88290,1,8,0:0:0:0:
192,304,88575,1,0,0:0:0:0:
176,224,88718,1,8,0:0:0:0:
176,240,89147,1,0,0:0:0:0:
176,240,89290,1,0,0:0:0:0:
176,240,89432,1,8,0:0:0:0:
176,240,89718,1,0,0:0:0:0:
224,240,89861,1,8,0:0:0:0:
224,256,90290,1,0,0:0:0:0:
224,256,90432,1,0,0:0:0:0:
224,256,90575,1,8,0:0:0:0:
224,256,90861,1,0,0:0:0:0:
224,272,91004,1,8,0:0:0:0:
224,224,91290,1,4,0:0:0:0:
224,224,91718,1,4,0:0:0:0:
160,240,91861,1,0,0:0:0:0:
160,240,91932,1,0,0:0:0:0:
160,240,92004,1,8,0:0:0:0:
160,240,92147,1,8,0:0:0:0:
160,240,92290,1,0,0:0:0:0:
160,240,92432,1,8,0:0:0:0:
160,256,92504,1,8,0:0:0:0:
160,256,92575,1,0,0:0:0:0:
160,256,92718,1,8,0:0:0:0:
160,256,92861,1,0,0:0:0:0:
160,256,92932,1,0,0:0:0:0:
160,256,93004,1,8,0:0:0:0:
160,272,93075,1,8,0:0:0:0:
160,272,93147,1,0,0:0:0:0:
160,272,93290,1,8,0:0:0:0:
160,272,93361,1,8,0:0:0:0:
160,288,93432,1,0,0:0:0:0:
160,288,93504,1,8,0:0:0:0:
160,288,93575,1,8,0:0:0:0:
160,288,93647,1,8,0:0:0:0:
160,288,93718,1,0,0:0:0:0:
160,288,93790,1,0,0:0:0:0:
160,288,93861,1,8,0:0:0:0:
144,304,94004,1,0,0:0:0:0:
144,320,94075,1,0,0:0:0:0:
144,304,94147,1,8,0:0:0:0:
144,320,94218,1,8,0:0:0:0:
144,320,94290,1,0,0:0:0:0:
144,320,94432,1,8,0:0:0:0:
144,320,94504,1,8,0:0:0:0:
144,320,94575,1,0,0:0:0:0:
144,320,94718,1,0,0:0:0:0:
144,320,94790,1,0,0:0:0:0:
144,320,94861,1,8,0:0:0:0:
208,320,95004,1,0,0:0:0:0:
240,256,95147,1,0,0:0:0:0:
240,272,95218,1,0,0:0:0:0:
240,272,95290,1,8,0:0:0:0:
240,272,95432,1,0,0:0:0:0:
240,272,95504,1,0,0:0:0:0:
240,272,95575,1,8,0:0:0:0:
240,288,95647,1,0,0:0:0:0:
240,288,95718,1,8,0:0:0:0:
208,272,95861,1,8,0:0:0:0:
208,272,96004,1,8,0:0:0:0:
208,288,96147,1,0,0:0:0:0:
256,256,96290,1,4,0:0:0:0:
240,256,96432,1,0,0:0:0:0:
240,272,96504,1,0,0:0:0:0:
240,272,96575,1,8,0:0:0:0:
240,272,96718,1,8,0:0:0:0:
240,272,96861,1,0,0:0:0:0:
240,288,97004,1,8,0:0:0:0:
240,288,97075,1,8,0:0:0:0:
240,288,97147,1,0,0:0:0:0:
240,288,97290,1,8,0:0:0:0:
240,288,97432,1,0,0:0:0:0:
240,288,97504,1,0,0:0:0:0:
240,288,97575,1,8,0:0:0:0:
240,288,97647,1,0,0:0:0:0:
240,304,97718,1,8,0:0:0:0:
224,304,97861,1,8,0:0:0:0:
224,304,97932,1,8,0:0:0:0:
224,304,98004,1,0,0:0:0:0:
224,304,98075,1,8,0:0:0:0:
224,304,98147,1,8,0:0:0:0:
224,320,98218,1,8,0:0:0:0:
224,320,98290,1,0,0:0:0:0:
224,320,98361,1,0,0:0:0:0:
224,320,98432,1,8,0:0:0:0:
224,320,98504,1,8,0:0:0:0:
224,320,98575,1,0,0:0:0:0:
240,288,98718,1,8,0:0:0:0:
240,288,98790,1,8,0:0:0:0:
240,288,98861,1,0,0:0:0:0:
240,288,98932,1,0,0:0:0:0:
240,288,99004,1,8,0:0:0:0:
224,304,99147,1,0,0:0:0:0:
224,304,99218,1,8,0:0:0:0:
224,304,99290,1,8,0:0:0:0:
240,304,99361,1,8,0:0:0:0:
240,304,99432,1,0,0:0:0:0:
240,320,99575,1,8,0:0:0:0:
208,320,99718,1,0,0:0:0:0:
208,320,99861,1,0,0:0:0:0:
208,320,99932,1,0,0:0:0:0:
208,320,100004,1,8,0:0:0:0:
208,336,100147,1,0,0:0:0:0:
208,336,100218,1,8,0:0:0:0:
208,336,100290,1,0,0:0:0:0:
208,336,100361,1,0,0:0:0:0:
208,336,100432,1,8,0:0:0:0:
208,336,100504,1,0,0:0:0:0:
208,336,100575,1,8,0:0:0:0:
208,352,100861,1,4,0:0:0:0:
192,352,101147,1,8,0:0:0:0:
192,240,101290,1,0,0:0:0:0:
192,240,101575,1,0,0:0:0:0:
192,240,101718,1,8,0:0:0:0:
176,256,102004,1,0,0:0:0:0:
176,256,102147,1,0,0:0:0:0:
176,256,102290,1,8,0:0:0:0:
176,256,102432,1,0,0:0:0:0:
176,256,102718,1,0,0:0:0:0:
176,256,102861,1,8,0:0:0:0:
192,208,103004,1,8,0:0:0:0:
192,208,103075,1,8,0:0:0:0:
192,208,103147,1,0,0:0:0:0:
192,208,103432,1,8,0:0:0:0:
192,208,103575,1,0,0:0:0:0:
192,208,103861,1,0,0:0:0:0:
208,144,104004,1,8,0:0:0:0:
176,192,104290,1,0,0:0:0:0:
176,192,104432,1,8,0:0:0:0:
176,192,104575,1,0,0:0:0:0:
176,208,104718,1,8,0:0:0:0:
176,208,104861,1,0,0:0:0:0:
176,224,105004,1,8,0:0:0:0:
176,224,105147,1,8,0:0:0:0:
176,224,105290,1,0,0:0:0:0:
176,240,105432,1,4,0:0:0:0:
176,240,105575,1,0,0:0:0:0:
176,240,105718,1,8,0:0:0:0:
176,240,105861,1,0,0:0:0:0:
176,240,106004,1,0,0:0:0:0:
176,240,106147,1,0,0:0:0:0:
176,256,106290,1,8,0:0:0:0:
176,256,106432,1,0,0:0:0:0:
160,256,106575,1,0,0:0:0:0:
160,256,106718,1,0,0:0:0:0:
144,272,106861,1,8,0:0:0:0:
144,240,107004,1,0,0:0:0:0:
144,240,107075,1,0,0:0:0:0:
144,240,107147,1,0,0:0:0:0:
128,256,107290,1,0,0:0:0:0:
112,288,107361,1,0,0:0:0:0:
128,256,107432,1,8,0:0:0:0:
112,288,107504,1,0,0:0:0:0:
128,256,107575,1,0,0:0:0:0:
112,288,107718,1,8,0:0:0:0:
112,288,107790,1,0,0:0:0:0:
112,288,107861,1,0,0:0:0:0:
112,288,107932,1,0,0:0:0:0:
112,304,108004,1,8,0:0:0:0:
112,304,108075,1,0,0:0:0:0:
112,304,108147,1,0,0:0:0:0:
112,304,108218,1,0,0:0:0:0:
112,304,108290,1,8,0:0:0:0:
112,304,108361,1,8,0:0:0:0:
112,304,108432,1,0,0:0:0:0:
128,320,108504,1,0,0:0:0:0:
128,320,108575,1,8,0:0:0:0:
128,320,108647,1,8,0:0:0:0:
128,320,108718,1,8,0:0:0:0:
128,320,108790,1,8,0:0:0:0:
128,320,108861,1,0,0:0:0:0:
176,256,109147,1,8,0:0:0:0:
176,256,109218,1,8,0:0:0:0:
176,256,109290,1,8,0:0:0:0:
176,256,109361,1,8,0:0:0:0:
176,256,109432,1,0,0:0:0:0:
176,272,109504,1,8,0:0:0:0:
176,272,109575,1,8,0:0:0:0:
176,272,109647,1,8,0:0:0:0:
176,272,109718,1,0,0:0:0:0:
176,288,110004,1,4,0:0:0:0:
160,288,110290,1,0,0:0:0:0:
160,288,110432,1,8,0:0:0:0:
160,288,110575,1,0,0:0:0:0:
144,304,110861,1,4,0:0:0:0:
128,304,111147,1,0,0:0:0:0:
128,304,111290,1,0,0:0:0:0:
128,304,111361,1,0,0:0:0:0:
144,304,111432,1,8,0:0:0:0:
128,304,111575,1,0,0:0:0:0:
128,304,111718,1,8,0:0:0:0:
128,304,111790,1,8,0:0:0:0:
128,304,111861,1,8,0:0:0:0:
128,304,112004,1,0,0:0:0:0:
144,176,112147,1,8,0:0:0:0:
144,176,112290,1,0,0:0:0:0:
208,176,112575,1,0,0:0:0:0:
192,176,112718,1,0,0:0:0:0:
192,176,112861,1,8,0:0:0:0:
160,192,112932,1,8,0:0:0:0:
192,176,113004,1,8,0:0:0:0:
160,192,113075,1,8,0:0:0:0:
192,192,113147,1,0,0:0:0:0:
160,192,113290,1,8,0:0:0:0:
176,176,113432,1,0,0:0:0:0:
176,176,113575,1,8,0:0:0:0:
176,192,113647,1,8,0:0:0:0:
176,192,113718,1,8,0:0:0:0:
176,192,113861,1,0,0:0:0:0:
176,192,114004,1,8,0:0:0:0:
176,192,114147,1,8,0:0:0:0:
176,192,114290,1,8,0:0:0:0:
176,192,114432,1,8,0:0:0:0:
160,160,114575,1,4,0:0:0:0:
160,160,114861,1,0,0:0:0:0:
160,160,115004,1,8,0:0:0:0:
144,144,115147,1,0,0:0:0:0:
144,144,115432,1,4,0:0:0:0:
144,144,115718,1,0,0:0:0:0:
144,144,115861,1,0,0:0:0:0:
144,144,115932,1,0,0:0:0:0:
144,144,116004,1,8,0:0:0:0:
144,144,116147,1,8,0:0:0:0:
144,144,116290,1,0,0:0:0:0:
144,144,116361,1,0,0:0:0:0:
144,160,116432,1,8,0:0:0:0:
144,160,116504,1,8,0:0:0:0:
144,160,116575,1,0,0:0:0:0:
144,160,116718,1,8,0:0:0:0:
144,160,116861,1,0,0:0:0:0:
144,160,117147,1,0,0:0:0:0:
144,160,117290,1,0,0:0:0:0:
144,160,117432,1,8,0:0:0:0:
144,160,117575,1,0,0:0:0:0:
144,160,117647,1,0,0:0:0:0:
176,192,117718,1,0,0:0:0:0:
144,160,117861,1,0,0:0:0:0:
192,176,118147,1,0,0:0:0:0:
192,176,118290,1,8,0:0:0:0:
144,160,118432,1,0,0:0:0:0:
144,160,118504,1,0,0:0:0:0:
144,160,118575,1,8,0:0:0:0:
160,192,118718,1,0,0:0:0:0:
160,192,118861,1,8,0:0:0:0:
192,160,119004,1,0,0:0:0:0:
224,192,119147,1,4,0:0:0:0:
224,192,119432,1,0,0:0:0:0:
224,192,119575,1,8,0:0:0:0:
224,192,119718,1,0,0:0:0:0:
224,192,120004,1,4,0:0:0:0:
208,192,120290,1,0,0:0:0:0:
208,192,120361,1,0,0:0:0:0:
208,192,120432,1,8,0:0:0:0:
208,192,120504,1,8,0:0:0:0:
208,192,120575,1,0,0:0:0:0:
208,192,120718,1,8,0:0:0:0:
208,192,120861,1,0,0:0:0:0:
208,192,121004,1,8,0:0:0:0:
208,192,121075,1,8,0:0:0:0:
208,192,121147,1,8,0:0:0:0:
208,192,121290,1,0,0:0:0:0:
160,160,121432,1,0,0:0:0:0:
160,176,121718,1,0,0:0:0:0:
160,176,121861,1,0,0:0:0:0:
144,128,121932,1,0,0:0:0:0:
144,144,122004,1,8,0:0:0:0:
144,144,122147,1,0,0:0:0:0:
144,144,122290,1,8,0:0:0:0:
192,176,122432,1,0,0:0:0:0:
192,176,122575,1,8,0:0:0:0:
192,176,122718,1,8,0:0:0:0:
192,176,122861,1,0,0:0:0:0:
192,176,123004,1,8,0:0:0:0:
192,176,123075,1,8,0:0:0:0:
192,192,123147,1,0,0:0:0:0:
176,192,123290,1,8,0:0:0:0:
176,192,123432,1,8,0:0:0:0:
176,208,123575,1,8,0:0:0:0:
176,192,123718,1,4,0:0:0:0:
128,224,123932,1,4,0:0:0:0:
128,224,124147,1,4,0:0:0:0:
128,240,124361,1,4,0:0:0:0:
128,240,124575,1,4,0:0:0:0:
112,240,124861,1,4,0:0:0:0:
112,240,125075,1,4,0:0:0:0:
112,240,125290,1,4,0:0:0:0:
112,240,125504,1,4,0:0:0:0:
112,240,125718,1,4,0:0:0:0:
112,256,126004,1,4,0:0:0:0:
112,256,126218,1,4,0:0:0:0:
112,256,126432,1,0,0:0:0:0:
112,256,126504,1,0,0:0:0:0:
112,256,126575,1,8,0:0:0:0:
112,256,126647,1,0,0:0:0:0:
112,256,126718,1,0,0:0:0:0:
112,256,126790,1,0,0:0:0:0:
112,256,126861,1,8,0:0:0:0:
112,256,126932,1,8,0:0:0:0:
112,256,127004,1,0,0:0:0:0:
80,256,127075,1,0,0:0:0:0:
80,256,127147,1,8,0:0:0:0:
80,272,128004,1,0,0:0:0:0:
144,256,128147,1,0,0:0:0:0:
144,256,128290,1,4,0:0:0:0:
192,192,137432,5,8,0:0:0:0:
192,192,137861,1,8,0:0:0:0:
192,192,138290,1,0,0:0:0:0:
192,192,138861,1,0,0:0:0:0:
192,192,139718,1,8,0:0:0:0:
192,192,140147,1,8,0:0:0:0:
192,192,140575,1,0,0:0:0:0:
192,192,141147,1,0,0:0:0:0:
160,192,141718,1,0,0:0:0:0:
160,192,141790,1,0,0:0:0:0:
160,192,141861,1,0,0:0:0:0:
160,192,141932,1,0,0:0:0:0:
160,192,142004,1,8,0:0:0:0:
128,176,142290,1,0,0:0:0:0:
144,176,142432,1,8,0:0:0:0:
144,176,142718,1,0,0:0:0:0:
144,192,142861,1,0,0:0:0:0:
144,192,143004,1,0,0:0:0:0:
144,192,143147,1,8,0:0:0:0:
144,192,143432,1,0,0:0:0:0:
144,192,143575,1,8,0:0:0:0:
128,208,143861,1,0,0:0:0:0:
128,208,144004,1,0,0:0:0:0:
128,208,144147,1,0,0:0:0:0:
128,176,144290,1,0,0:0:0:0:
128,176,144361,1,0,0:0:0:0:
128,176,144432,1,0,0:0:0:0:
128,176,144504,1,0,0:0:0:0:
128,176,144575,1,0,0:0:0:0:
128,176,144718,1,0,0:0:0:0:
128,176,144861,1,8,0:0:0:0:
128,176,145004,1,0,0:0:0:0:
128,192,145075,1,8,0:0:0:0:
128,192,145218,1,0,0:0:0:0:
128,192,145290,1,8,0:0:0:0:
128,192,145432,1,0,0:0:0:0:
128,192,145504,1,0,0:0:0:0:
128,192,145575,1,0,0:0:0:0:
128,192,145647,1,0,0:0:0:0:
128,192,145718,1,0,0:0:0:0:
112,208,145861,1,8,0:0:0:0:
112,208,146004,1,8,0:0:0:0:
112,208,146075,1,8,0:0:0:0:
112,208,146147,1,8,0:0:0:0:
112,208,146218,1,8,0:0:0:0:
112,208,146290,1,8,0:0:0:0:
112,208,146432,1,8,0:0:0:0:
208,176,146575,1,4,0:0:0:0:
208,176,146861,1,0,0:0:0:0:
208,176,147147,1,0,0:0:0:0:
192,176,147432,1,0,0:0:0:0:
192,192,147718,1,0,0:0:0:0:
192,176,148004,1,0,0:0:0:0:
192,176,148290,1,0,0:0:0:0:
144,128,148575,1,0,0:0:0:0:
144,128,148861,1,0,0:0:0:0:
144,128,149147,1,0,0:0:0:0:
160,176,149432,1,0,0:0:0:0:
160,176,149718,1,0,0:0:0:0:
160,176,150004,1,0,0:0:0:0:
160,192,150290,1,0,0:0:0:0:
192,176,150575,1,0,0:0:0:0:
160,240,150718,1,0,0:0:0:0:
160,240,150790,1,0,0:0:0:0:
160,240,150861,1,0,0:0:0:0:
160,240,150932,1,0,0:0:0:0:
160,240,151004,1,0,0:0:0:0:
160,240,151075,1,0,0:0:0:0:
160,240,151147,1,0,0:0:0:0:
160,240,151432,1,0,0:0:0:0:
160,240,151718,1,0,0:0:0:0:
160,240,152004,1,0,0:0:0:0:
160,240,152290,1,0,0:0:0:0:
224,208,152575,1,0,0:0:0:0:
208,208,152861,1,0,0:0:0:0:
208,208,153147,1,0,0:0:0:0:
208,208,153432,1,0,0:0:0:0:
208,208,153718,1,0,0:0:0:0:
208,208,154004,1,0,0:0:0:0:
208,208,154290,1,0,0:0:0:0:
208,208,154575,1,0,0:0:0:0:
208,208,154861,1,0,0:0:0:0:
256,224,155147,1,0,0:0:0:0:
256,224,155290,1,0,0:0:0:0:
256,224,155432,1,0,0:0:0:0:
224,192,155575,1,0,0:0:0:0:
224,208,155718,1,4,0:0:0:0:
224,208,155861,1,0,0:0:0:0:
224,208,156004,1,0,0:0:0:0:
224,208,156147,1,0,0:0:0:0:
224,208,156290,1,8,0:0:0:0:
224,208,156432,1,0,0:0:0:0:
224,208,156575,1,0,0:0:0:0:
224,224,156718,1,0,0:0:0:0:
208,224,156861,1,8,0:0:0:0:
208,224,157004,1,0,0:0:0:0:
208,224,157147,1,0,0:0:0:0:
208,224,157290,1,0,0:0:0:0:
208,224,157432,1,8,0:0:0:0:
192,208,157504,1,0,0:0:0:0:
192,208,157575,1,0,0:0:0:0:
192,208,157647,1,0,0:0:0:0:
192,208,157718,1,8,0:0:0:0:
192,160,158004,1,4,0:0:0:0:
208,192,158147,1,0,0:0:0:0:
208,208,158290,1,0,0:0:0:0:
208,208,158432,1,0,0:0:0:0:
208,208,158575,1,8,0:0:0:0:
208,208,158718,1,0,0:0:0:0:
144,176,158861,1,0,0:0:0:0:
144,192,159004,1,0,0:0:0:0:
176,192,159147,1,8,0:0:0:0:
176,192,159290,1,0,0:0:0:0:
176,192,159432,1,0,0:0:0:0:
176,192,159575,1,0,0:0:0:0:
144,160,159718,1,0,0:0:0:0:
160,176,159790,1,0,0:0:0:0:
160,176,159861,1,0,0:0:0:0:
160,176,159932,1,0,0:0:0:0:
160,176,160004,1,8,0:0:0:0:
128,160,160290,1,0,0:0:0:0:
144,160,160361,1,0,0:0:0:0:
144,160,160432,1,8,0:0:0:0:
144,176,160575,1,0,0:0:0:0:
144,176,160647,1,0,0:0:0:0:
144,176,160718,1,8,0:0:0:0:
144,176,160861,1,0,0:0:0:0:
144,192,160932,1,0,0:0:0:0:
144,192,161004,1,8,0:0:0:0:
144,192,161147,1,0,0:0:0:0:
144,192,161218,1,0,0:0:0:0:
144,208,161290,1,8,0:0:0:0:
144,208,161432,1,0,0:0:0:0:
144,208,161504,1,0,0:0:0:0:
144,208,161575,1,8,0:0:0:0:
144,208,161718,1,0,0:0:0:0:
128,208,161790,1,0,0:0:0:0:
128,208,161861,1,8,0:0:0:0:
128,208,162004,1,0,0:0:0:0:
128,208,162075,1,0,0:0:0:0:
128,224,162147,1,8,0:0:0:0:
128,224,162218,1,8,0:0:0:0:
128,224,162290,1,0,0:0:0:0:
128,224,162361,1,0,0:0:0:0:
128,224,162432,1,8,0:0:0:0:
224,208,162575,1,0,0:0:0:0:
224,208,162647,1,0,0:0:0:0:
224,208,162718,1,8,0:0:0:0:
224,208,162790,1,0,0:0:0:0:
224,208,162861,1,8,0:0:0:0:
224,208,162932,1,8,0:0:0:0:
224,208,163004,1,0,0:0:0:0:
224,224,163075,1,0,0:0:0:0:
224,224,163147,1,8,0:0:0:0:
208,224,163218,1,0,0:0:0:0:
208,224,163290,1,0,0:0:0:0:
224,224,163361,1,0,0:0:0:0:
224,224,163432,1,8,0:0:0:0:
224,224,163504,1,8,0:0:0:0:
224,224,163575,1,8,0:0:0:0:
224,224,163647,1,8,0:0:0:0:
224,224,163718,1,0,0:0:0:0:
224,224,164004,1,0,0:0:0:0:
224,240,164075,1,0,0:0:0:0:
224,240,164147,1,0,0:0:0:0:
224,240,164218,1,0,0:0:0:0:
224,224,164290,1,8,0:0:0:0:
224,240,164432,1,8,0:0:0:0:
224,240,164575,1,0,0:0:0:0:
224,240,164861,1,4,0:0:0:0:
256,208,165004,1,8,0:0:0:0:
256,208,165075,1,8,0:0:0:0:
256,208,165147,1,0,0:0:0:0:
256,208,165218,1,0,0:0:0:0:
256,208,165290,1,8,0:0:0:0:
256,208,165361,1,0,0:0:0:0:
256,208,165432,1,8,0:0:0:0:
256,208,165575,1,0,0:0:0:0:
256,208,165647,1,8,0:0:0:0:
256,208,165718,1,0,0:0:0:0:
256,208,165790,1,0,0:0:0:0:
256,208,165861,1,8,0:0:0:0:
256,208,166004,1,0,0:0:0:0:
256,208,166147,1,8,0:0:0:0:
256,224,166218,1,8,0:0:0:0:
256,224,166290,1,0,0:0:0:0:
256,224,166361,1,8,0:0:0:0:
256,224,166432,1,0,0:0:0:0:
256,224,166504,1,0,0:0:0:0:
256,224,166575,1,8,0:0:0:0:
256,224,166718,1,0,0:0:0:0:
256,240,166790,1,0,0:0:0:0:
256,240,166861,1,8,0:0:0:0:
256,240,167004,1,0,0:0:0:0:
256,240,167147,1,8,0:0:0:0:
256,240,167290,1,0,0:0:0:0:
256,240,167361,1,0,0:0:0:0:
256,240,167432,1,8,0:0:0:0:
256,240,167575,1,0,0:0:0:0:
256,240,167718,1,8,0:0:0:0:
256,240,167790,1,0,0:0:0:0:
256,240,167861,1,0,0:0:0:0:
256,240,167932,1,0,0:0:0:0:
256,240,168004,1,8,0:0:0:0:
256,240,168075,1,8,0:0:0:0:
256,240,168147,1,0,0:0:0:0:
256,240,168218,1,0,0:0:0:0:
256,240,168290,1,8,0:0:0:0:
256,240,168432,1,8,0:0:0:0:
256,240,168504,1,8,0:0:0:0:
256,240,168575,1,0,0:0:0:0:
256,240,168647,1,0,0:0:0:0:
256,240,168718,1,8,0:0:0:0:
256,256,168861,1,0,0:0:0:0:
256,256,169004,1,8,0:0:0:0:
256,256,169075,1,0,0:0:0:0:
256,256,169147,1,8,0:0:0:0:
256,256,169218,1,8,0:0:0:0:
256,272,169290,1,0,0:0:0:0:
256,272,169361,1,0,0:0:0:0:
256,272,169432,1,8,0:0:0:0:
112,240,169575,1,0,0:0:0:0:
176,224,169647,1,0,0:0:0:0:
176,224,169718,1,8,0:0:0:0:
176,224,169790,1,0,0:0:0:0:
176,224,169861,1,8,0:0:0:0:
176,240,170004,1,8,0:0:0:0:
176,240,170075,1,8,0:0:0:0:
176,240,170147,1,0,0:0:0:0:
176,240,170218,1,8,0:0:0:0:
176,240,170290,1,0,0:0:0:0:
176,240,170361,1,0,0:0:0:0:
176,240,170432,1,8,0:0:0:0:
192,256,170504,1,8,0:0:0:0:
192,256,170575,1,0,0:0:0:0:
160,192,170718,1,0,0:0:0:0:
160,192,170790,1,0,0:0:0:0:
160,192,170861,1,8,0:0:0:0:
160,192,170932,1,8,0:0:0:0:
160,192,171004,1,0,0:0:0:0:
160,192,171075,1,8,0:0:0:0:
176,192,171147,1,0,0:0:0:0:
176,192,171290,1,8,0:0:0:0:
176,192,171361,1,0,0:0:0:0:
176,192,171432,1,0,0:0:0:0:
176,192,171504,1,0,0:0:0:0:
176,192,171575,1,8,0:0:0:0:
160,192,171718,1,0,0:0:0:0:
160,192,171861,1,8,0:0:0:0:
192,208,171932,1,0,0:0:0:0:
192,208,172004,1,8,0:0:0:0:
192,208,172075,1,8,0:0:0:0:
192,208,172147,1,0,0:0:0:0:
192,208,172218,1,8,0:0:0:0:
192,208,172290,1,0,0:0:0:0:
192,208,172361,1,0,0:0:0:0:
192,208,172432,1,8,0:0:0:0:
192,224,172504,1,0,0:0:0:0:
192,224,172575,1,8,0:0:0:0:
192,224,172647,1,8,0:0:0:0:
192,224,172718,1,0,0:0:0:0:
192,224,172861,1,12,0:0:0:0:
224,192,173004,1,0,0:0:0:0:
224,192,173075,1,0,0:0:0:0:
224,192,173147,1,0,0:0:0:0:
224,208,173290,1,12,0:0:0:0:
224,208,173432,1,0,0:0:0:0:
224,208,173504,1,0,0:0:0:0:
224,208,173575,1,8,0:0:0:0:
224,208,173718,1,0,0:0:0:0:
224,208,173790,1,0,0:0:0:0:
224,208,173861,1,0,0:0:0:0:
224,208,173932,1,0,0:0:0:0:
224,208,174004,1,8,0:0:0:0:
208,224,174147,1,0,0:0:0:0:
208,224,174218,1,8,0:0:0:0:
208,224,174290,1,0,0:0:0:0:
208,224,174361,1,0,0:0:0:0:
208,224,174432,1,8,0:0:0:0:
208,224,174504,1,8,0:0:0:0:
208,224,174575,1,0,0:0:0:0:
208,224,174718,1,8,0:0:0:0:
208,224,174790,1,0,0:0:0:0:
208,224,174861,1,8,0:0:0:0:
208,224,174932,1,8,0:0:0:0:
208,224,175004,1,0,0:0:0:0:
208,224,175075,1,8,0:0:0:0:
208,224,175147,1,0,0:0:0:0:
208,224,175290,1,8,0:0:0:0:
208,224,175361,1,8,0:0:0:0:
208,224,175432,1,0,0:0:0:0:
208,240,175504,1,0,0:0:0:0:
208,240,175575,1,8,0:0:0:0:
208,240,175647,1,0,0:0:0:0:
208,240,175718,1,8,0:0:0:0:
128,208,175861,1,0,0:0:0:0:
160,224,175932,1,0,0:0:0:0:
160,224,176004,1,8,0:0:0:0:
160,224,176147,1,4,0:0:0:0:
160,224,176432,1,0,0:0:0:0:
160,224,176575,1,4,0:0:0:0:
160,224,176718,1,0,0:0:0:0:
160,224,176790,1,0,0:0:0:0:
160,224,176861,1,8,0:0:0:0:
160,224,176932,1,8,0:0:0:0:
160,224,177004,1,0,0:0:0:0:
160,240,177075,1,8,0:0:0:0:
160,240,177147,1,0,0:0:0:0:
160,224,177290,1,8,0:0:0:0:
160,176,177361,1,8,0:0:0:0:
160,176,177432,1,0,0:0:0:0:
160,176,177575,1,8,0:0:0:0:
160,176,177647,1,0,0:0:0:0:
160,176,177718,1,0,0:0:0:0:
160,192,177790,1,0,0:0:0:0:
160,192,177861,1,8,0:0:0:0:
144,256,178004,1,8,0:0:0:0:
144,256,178075,1,8,0:0:0:0:
144,256,178147,1,0,0:0:0:0:
144,256,178218,1,8,0:0:0:0:
144,256,178290,1,0,0:0:0:0:
160,256,178361,1,0,0:0:0:0:
160,256,178432,1,8,0:0:0:0:
144,272,178575,1,4,0:0:0:0:
144,272,178790,1,4,0:0:0:0:
144,272,179004,1,4,0:0:0:0:
144,272,179147,1,8,0:0:0:0:
144,272,179218,1,8,0:0:0:0:
144,272,179290,1,0,0:0:0:0:
144,272,179361,1,8,0:0:0:0:
144,272,179432,1,0,0:0:0:0:
128,288,179504,1,0,0:0:0:0:
128,288,179575,1,8,0:0:0:0:
128,288,179718,1,4,0:0:0:0:
128,288,179932,1,4,0:0:0:0:
128,288,180147,1,4,0:0:0:0:
176,176,180290,1,8,0:0:0:0:
176,176,180361,1,0,0:0:0:0:
176,176,180432,1,8,0:0:0:0:
160,192,180504,1,8,0:0:0:0:
160,176,180575,1,0,0:0:0:0:
128,192,180861,1,4,0:0:0:0:
128,192,181004,1,8,0:0:0:0:
128,192,181075,1,8,0:0:0:0:
128,192,181147,1,8,0:0:0:0:
128,192,181290,1,4,0:0:0:0:
128,192,181432,1,8,0:0:0:0:
128,192,181575,1,4,0:0:0:0:
128,208,181718,1,8,0:0:0:0:
112,208,181861,1,4,0:0:0:0:
112,208,182004,1,8,0:0:0:0:
96,240,182218,1,8,0:0:0:0:
96,224,182432,1,0,0:0:0:0:
176,192,182647,1,0,0:0:0:0:
160,208,182861,1,0,0:0:0:0:
160,208,182932,1,0,0:0:0:0:
160,208,183004,1,8,0:0:0:0:
160,208,183075,1,8,0:0:0:0:
160,208,183147,1,0,0:0:0:0:
160,208,183290,1,0,0:0:0:0:
160,208,183361,1,0,0:0:0:0:
160,208,183432,1,8,0:0:0:0:
160,208,183504,1,0,0:0:0:0:
160,208,183575,1,8,0:0:0:0:
160,208,183647,1,8,0:0:0:0:
160,208,183718,1,0,0:0:0:0:
160,224,183861,1,8,0:0:0:0:
160,224,183932,1,0,0:0:0:0:
160,224,184004,1,8,0:0:0:0:
160,224,184075,1,8,0:0:0:0:
160,224,184147,1,0,0:0:0:0:
176,240,184218,1,8,0:0:0:0:
176,240,184290,1,0,0:0:0:0:
160,256,184432,1,0,0:0:0:0:
160,256,184504,1,0,0:0:0:0:
160,256,184575,1,0,0:0:0:0:
192,288,184647,1,8,0:0:0:0:
160,256,184718,1,8,0:0:0:0:
208,240,184861,1,0,0:0:0:0:
208,240,184932,1,0,0:0:0:0:
208,256,185004,1,8,0:0:0:0:
208,256,185075,1,0,0:0:0:0:
208,256,185147,1,8,0:0:0:0:
208,256,185218,1,8,0:0:0:0:
208,256,185290,1,0,0:0:0:0:
192,272,185361,1,0,0:0:0:0:
192,272,185432,1,8,0:0:0:0:
192,272,185575,1,0,0:0:0:0:
192,272,185647,1,0,0:0:0:0:
192,272,185718,1,8,0:0:0:0:
192,272,185861,1,0,0:0:0:0:
192,272,186004,1,8,0:0:0:0:
208,256,186075,1,8,0:0:0:0:
208,256,186147,1,0,0:0:0:0:
208,256,186218,1,8,0:0:0:0:
192,272,186289,1,0,0:0:0:0:
208,256,186361,1,0,0:0:0:0:
208,256,186432,1,8,0:0:0:0:
208,256,186504,1,8,0:0:0:0:
208,224,186575,1,0,0:0:0:0:
208,224,186718,1,0,0:0:0:0:
208,224,186790,1,0,0:0:0:0:
208,224,186861,1,8,0:0:0:0:
208,224,187004,1,8,0:0:0:0:
224,192,187147,1,0,0:0:0:0:
224,192,187290,1,8,0:0:0:0:
272,208,187361,1,8,0:0:0:0:
272,208,187432,1,0,0:0:0:0:
272,208,187504,1,8,0:0:0:0:
272,208,187575,1,0,0:0:0:0:
176,272,187647,1,0,0:0:0:0:
176,272,187718,1,8,0:0:0:0:
176,272,187861,1,0,0:0:0:0:
176,272,187932,1,0,0:0:0:0:
176,272,188004,1,8,0:0:0:0:
176,272,188075,1,0,0:0:0:0:
176,272,188147,1,8,0:0:0:0:
176,272,188290,1,8,0:0:0:0:
176,272,188361,1,8,0:0:0:0:
176,288,188432,1,0,0:0:0:0:
176,288,188504,1,8,0:0:0:0:
176,288,188575,1,0,0:0:0:0:
176,288,188647,1,0,0:0:0:0:
176,288,188718,1,8,0:0:0:0:
176,288,188861,1,0,0:0:0:0:
176,288,189004,1,8,0:0:0:0:
176,304,189075,1,0,0:0:0:0:
176,304,189147,1,8,0:0:0:0:
176,304,189218,1,8,0:0:0:0:
176,304,189290,1,0,0:0:0:0:
176,304,189361,1,0,0:0:0:0:
176,304,189432,1,8,0:0:0:0:
176,304,189575,1,0,0:0:0:0:
176,304,189647,1,0,0:0:0:0:
176,304,189718,1,8,0:0:0:0:
176,304,189790,1,0,0:0:0:0:
176,320,189861,1,8,0:0:0:0:
176,320,190004,1,0,0:0:0:0:
192,304,190075,1,0,0:0:0:0:
192,304,190147,1,8,0:0:0:0:
192,304,190290,1,8,0:0:0:0:
192,304,190432,1,0,0:0:0:0:
176,240,190575,1,8,0:0:0:0:
192,240,190647,1,8,0:0:0:0:
192,240,190718,1,0,0:0:0:0:
192,256,190790,1,8,0:0:0:0:
192,256,190861,1,0,0:0:0:0:
192,256,190932,1,0,0:0:0:0:
192,256,191004,1,8,0:0:0:0:
160,256,191147,1,8,0:0:0:0:
160,256,191218,1,0,0:0:0:0:
160,256,191290,1,8,0:0:0:0:
160,256,191361,1,8,0:0:0:0:
160,272,191432,1,0,0:0:0:0:
112,224,191575,1,8,0:0:0:0:
112,224,191647,1,0,0:0:0:0:
112,224,191718,1,8,0:0:0:0:
112,224,191790,1,8,0:0:0:0:
112,240,191861,1,0,0:0:0:0:
128,240,191932,1,8,0:0:0:0:
128,240,192004,1,0,0:0:0:0:
128,240,192075,1,0,0:0:0:0:
128,240,192147,1,8,0:0:0:0:
128,240,192218,1,8,0:0:0:0:
128,240,192290,1,0,0:0:0:0:
128,240,192432,1,0,0:0:0:0:
128,240,192504,1,0,0:0:0:0:
128,240,192575,1,8,0:0:0:0:
128,240,192647,1,0,0:0:0:0:
128,240,192718,1,8,0:0:0:0:
128,240,192790,1,8,0:0:0:0:
128,240,192861,1,0,0:0:0:0:
128,240,193004,1,8,0:0:0:0:
144,240,193075,1,0,0:0:0:0:
128,240,193147,1,8,0:0:0:0:
128,240,193218,1,8,0:0:0:0:
128,240,193290,1,0,0:0:0:0:
128,240,193432,1,8,0:0:0:0:
128,240,193575,1,0,0:0:0:0:
128,240,193647,1,0,0:0:0:0:
128,240,193718,1,8,0:0:0:0:
128,240,193790,1,8,0:0:0:0:
128,240,193861,1,0,0:0:0:0:
128,256,194004,1,8,0:0:0:0:
128,256,194075,1,0,0:0:0:0:
128,256,194147,1,8,0:0:0:0:
128,256,194218,1,8,0:0:0:0:
128,256,194290,1,0,0:0:0:0:
128,256,194432,1,0,0:0:0:0:
128,256,194504,1,0,0:0:0:0:
128,256,194575,1,8,0:0:0:0:
192,224,194718,1,0,0:0:0:0:
192,224,194861,1,8,0:0:0:0:
192,224,195004,1,8,0:0:0:0:
192,224,195075,1,8,0:0:0:0:
192,224,195147,1,0,0:0:0:0:
176,224,195218,1,0,0:0:0:0:
176,224,195290,1,8,0:0:0:0:
176,224,195361,1,0,0:0:0:0:
176,224,195432,1,8,0:0:0:0:
176,224,195504,1,8,0:0:0:0:
176,224,195575,1,0,0:0:0:0:
160,208,195647,1,0,0:0:0:0:
160,208,195718,1,8,0:0:0:0:
160,208,195861,1,0,0:0:0:0:
160,208,195932,1,0,0:0:0:0:
160,208,196004,1,8,0:0:0:0:
160,208,196147,1,8,0:0:0:0:
160,208,196290,1,0,0:0:0:0:
160,208,196432,1,8,0:0:0:0:
160,224,196504,1,8,0:0:0:0:
160,224,196575,1,0,0:0:0:0:
160,224,196647,1,8,0:0:0:0:
160,224,196718,1,0,0:0:0:0:
176,224,196790,1,0,0:0:0:0:
176,224,196861,1,8,0:0:0:0:
192,224,197004,1,0,0:0:0:0:
192,224,197075,1,0,0:0:0:0:
192,224,197147,1,8,0:0:0:0:
192,224,197218,1,0,0:0:0:0:
192,224,197290,1,8,0:0:0:0:
192,224,197432,1,8,0:0:0:0:
192,224,197504,1,8,0:0:0:0:
192,224,197575,1,0,0:0:0:0:
192,224,197647,1,8,0:0:0:0:
192,224,197718,1,0,0:0:0:0:
192,224,197790,1,0,0:0:0:0:
192,224,197861,1,8,0:0:0:0:
192,240,197932,1,8,0:0:0:0:
192,240,198004,1,0,0:0:0:0:
192,240,198147,1,8,0:0:0:0:
192,240,198218,1,0,0:0:0:0:
192,240,198290,1,8,0:0:0:0:
192,240,198361,1,8,0:0:0:0:
192,240,198432,1,0,0:0:0:0:
192,240,198504,1,8,0:0:0:0:
192,240,198575,1,0,0:0:0:0:
192,240,198718,1,0,0:0:0:0:
192,240,198790,1,0,0:0:0:0:
192,240,198861,1,8,0:0:0:0:
192,240,198932,1,8,0:0:0:0:
192,240,199004,1,8,0:0:0:0:
192,240,199147,1,4,0:0:0:0:
144,224,199361,1,4,0:0:0:0:
144,224,199575,1,4,0:0:0:0:
144,224,199718,1,4,0:0:0:0:
144,224,199932,1,4,0:0:0:0:
144,224,200147,1,4,0:0:0:0:
144,224,200290,1,8,0:0:0:0:
176,192,200361,1,8,0:0:0:0:
176,192,200432,1,0,0:0:0:0:
176,192,200504,1,8,0:0:0:0:
176,192,200647,1,8,0:0:0:0:
176,192,200790,1,8,0:0:0:0:
176,192,200861,1,0,0:0:0:0:
192,208,200932,1,0,0:0:0:0:
192,208,201004,1,0,0:0:0:0:
192,208,201075,1,0,0:0:0:0:
192,224,201147,1,8,0:0:0:0:
192,224,201218,1,8,0:0:0:0:
192,224,201290,1,0,0:0:0:0:
176,192,201432,1,4,0:0:0:0:
176,192,201718,1,8,0:0:0:0:
176,192,201861,1,4,0:0:0:0:
176,192,202147,1,8,0:0:0:0:
176,144,202290,1,4,0:0:0:0:
176,144,202575,1,8,0:0:0:0:
176,144,202718,1,4,0:0:0:0:
176,144,203004,1,0,0:0:0:0:
176,144,203075,1,0,0:0:0:0:
176,144,203147,1,8,0:0:0:0:
176,144,203218,1,0,0:0:0:0:
176,144,203290,1,8,0:0:0:0:
176,144,203361,1,8,0:0:0:0:
176,144,203432,1,0,0:0:0:0:
176,144,203575,1,8,0:0:0:0:
176,144,203718,1,4,0:0:0:0:
176,144,204004,1,8,0:0:0:0:
176,144,204147,1,4,0:0:0:0:
176,144,204432,1,8,0:0:0:0:
176,144,204575,1,4,0:0:0:0:
176,144,204861,1,8,0:0:0:0:
176,128,205004,1,4,0:0:0:0:
176,144,205290,1,0,0:0:0:0:
176,144,205361,1,8,0:0:0:0:
176,144,205432,1,0,0:0:0:0:
176,144,205504,1,0,0:0:0:0:
176,144,205575,1,8,0:0:0:0:
176,144,205647,1,8,0:0:0:0:
176,144,205718,1,0,0:0:0:0:
176,144,205861,1,8,0:0:0:0:
176,144,206004,1,4,0:0:0:0:
176,144,206290,1,8,0:0:0:0:
176,144,206432,1,4,0:0:0:0:
176,144,206718,1,8,0:0:0:0:
176,144,206861,1,4,0:0:0:0:
160,160,207147,1,8,0:0:0:0:
160,160,207290,1,4,0:0:0:0:
160,160,207575,1,0,0:0:0:0:
160,160,207647,1,0,0:0:0:0:
160,160,207718,1,8,0:0:0:0:
160,160,207790,1,0,0:0:0:0:
160,160,207861,1,8,0:0:0:0:
160,160,207932,1,8,0:0:0:0:
160,160,208004,1,0,0:0:0:0:
192,128,208147,1,8,0:0:0:0:
176,144,208290,1,4,0:0:0:0:
176,144,208575,1,8,0:0:0:0:
176,144,208718,1,4,0:0:0:0:
176,144,209004,1,8,0:0:0:0:
176,144,209147,1,4,0:0:0:0:
176,144,209432,1,8,0:0:0:0:
176,144,209504,1,8,0:0:0:0:
176,144,209575,1,0,0:0:0:0:
176,144,209718,1,0,0:0:0:0:
176,144,209861,1,8,0:0:0:0:
224,176,210147,1,0,0:0:0:0:
224,224,210575,1,4,0:0:0:0:
224,224,210861,1,0,0:0:0:0:
224,224,211147,1,0,0:0:0:0:
192,208,211432,1,0,0:0:0:0:
192,208,211575,1,0,0:0:0:0:
192,224,211718,1,8,0:0:0:0:
176,224,212004,1,0,0:0:0:0:
176,224,212147,1,8,0:0:0:0:
224,240,212290,1,0,0:0:0:0:
176,224,212575,1,0,0:0:0:0:
176,224,212861,1,0,0:0:0:0:
176,224,213147,1,0,0:0:0:0:
176,224,213432,1,0,0:0:0:0:
176,224,213718,1,0,0:0:0:0:
192,208,213861,1,0,0:0:0:0:
192,208,214004,1,8,0:0:0:0:
192,208,214290,1,8,0:0:0:0:
192,208,214432,1,0,0:0:0:0:
192,208,214575,1,0,0:0:0:0:
192,208,214718,1,4,0:0:0:0:
192,208,214861,1,8,0:0:0:0:
192,208,214932,1,8,0:0:0:0:
192,208,215004,1,8,0:0:0:0:
192,208,215147,1,4,0:0:0:0:
192,208,215432,1,4,0:0:0:0:
192,208,215718,1,0,0:0:0:0:
192,208,216004,1,0,0:0:0:0:
192,208,216290,1,0,0:0:0:0:
208,256,216575,1,0,0:0:0:0:
208,256,216861,1,0,0:0:0:0:
208,256,217147,1,0,0:0:0:0:
208,256,217432,1,0,0:0:0:0:
208,256,217718,1,0,0:0:0:0:
208,256,218004,1,0,0:0:0:0:
208,256,218290,1,0,0:0:0:0:
208,256,218432,1,4,0:0:0:0:
208,256,218647,1,4,0:0:0:0:
176,272,218861,1,4,0:0:0:0:
176,272,219075,1,4,0:0:0:0:
176,272,219290,1,4,0:0:0:0:
128,304,219718,1,4,0:0:0:0:
192,288,220004,1,0,0:0:0:0:
192,288,220290,1,0,0:0:0:0:
176,272,220575,1,8,0:0:0:0:
176,272,220718,1,0,0:0:0:0:
176,272,220861,1,4,0:0:0:0:
192,288,221147,1,0,0:0:0:0:
192,288,221290,1,8,0:0:0:0:
192,288,221432,1,0,0:0:0:0:
176,272,221575,1,4,0:0:0:0:
144,256,222004,1,4,0:0:0:0:
144,256,222290,1,0,0:0:0:0:
144,256,222575,1,0,0:0:0:0:
144,256,222861,1,8,0:0:0:0:
144,256,223147,1,4,0:0:0:0:
144,256,223432,1,0,0:0:0:0:
144,256,223718,1,0,0:0:0:0:
144,256,223861,1,4,0:0:0:0:
144,256,224290,1,4,0:0:0:0:
176,224,224432,1,0,0:0:0:0:
176,224,224504,1,8,0:0:0:0:
208,208,224647,1,8,0:0:0:0:
208,208,224718,1,0,0:0:0:0:
208,208,224790,1,0,0:0:0:0:
208,208,224861,1,8,0:0:0:0:
208,208,225004,1,0,0:0:0:0:
208,208,225075,1,8,0:0:0:0:
208,208,225218,1,8,0:0:0:0:
208,208,225290,1,8,0:0:0:0:
208,208,225361,1,0,0:0:0:0:
208,208,225432,1,8,0:0:0:0:
208,224,225575,1,0,0:0:0:0:
208,224,225647,1,0,0:0:0:0:
208,224,225790,1,8,0:0:0:0:
208,224,225861,1,0,0:0:0:0:
208,224,225932,1,0,0:0:0:0:
208,224,226004,1,8,0:0:0:0:
208,224,226147,1,0,0:0:0:0:
208,224,226218,1,8,0:0:0:0:
208,224,226361,1,8,0:0:0:0:
208,224,226432,1,8,0:0:0:0:
208,224,226504,1,0,0:0:0:0:
208,224,226575,1,8,0:0:0:0:
336,224,226670,1,0,0:0:0:0:
336,224,226766,1,0,0:0:0:0:
336,224,226861,1,8,0:0:0:0:
336,224,226956,1,0,0:0:0:0:
336,240,227051,1,0,0:0:0:0:
336,240,227147,1,8,0:0:0:0:
336,240,227242,1,0,0:0:0:0:
336,240,227337,1,0,0:0:0:0:
160,288,227432,1,8,0:0:0:0:
160,288,227504,1,8,0:0:0:0:
160,288,227575,1,0,0:0:0:0:
160,288,227647,1,0,0:0:0:0:
160,288,227718,1,8,0:0:0:0:
160,288,228147,1,8,0:0:0:0:
160,288,228290,1,8,0:0:0:0:
160,288,228432,1,0,0:0:0:0:
160,288,228504,1,0,0:0:0:0:
160,288,228575,1,8,0:0:0:0:
160,208,228861,1,4,0:0:0:0:
160,272,229004,1,0,0:0:0:0:
160,272,229075,1,0,0:0:0:0:
160,272,229147,1,8,0:0:0:0:
176,272,229218,1,0,0:0:0:0:
176,272,229290,1,8,0:0:0:0:
176,272,229361,1,8,0:0:0:0:
176,272,229432,1,0,0:0:0:0:
176,272,229504,1,8,0:0:0:0:
176,272,229647,1,8,0:0:0:0:
176,272,229718,1,0,0:0:0:0:
176,272,229790,1,0,0:0:0:0:
176,272,229861,1,8,0:0:0:0:
176,272,230004,1,8,0:0:0:0:
176,272,230075,1,8,0:0:0:0:
176,272,230147,1,0,0:0:0:0:
192,272,230290,1,8,0:0:0:0:
192,272,230361,1,0,0:0:0:0:
192,272,230504,1,0,0:0:0:0:
192,272,230575,1,8,0:0:0:0:
192,272,230647,1,8,0:0:0:0:
192,272,230718,1,0,0:0:0:0:
208,288,230790,1,0,0:0:0:0:
208,288,230861,1,8,0:0:0:0:
208,288,230932,1,0,0:0:0:0:
192,288,231004,1,0,0:0:0:0:
192,320,231147,1,0,0:0:0:0:
192,320,231290,1,0,0:0:0:0:
192,320,231361,1,0,0:0:0:0:
208,320,231432,1,8,0:0:0:0:
208,320,231504,1,0,0:0:0:0:
208,320,231575,1,8,0:0:0:0:
208,320,231647,1,8,0:0:0:0:
208,320,231718,1,0,0:0:0:0:
208,320,231790,1,8,0:0:0:0:
192,320,231932,1,0,0:0:0:0:
192,320,232004,1,8,0:0:0:0:
192,320,232075,1,8,0:0:0:0:
192,336,232147,1,0,0:0:0:0:
224,256,232290,1,8,0:0:0:0:
224,256,232432,1,0,0:0:0:0:
224,256,232504,1,0,0:0:0:0:
224,256,232575,1,0,0:0:0:0:
224,256,232647,1,0,0:0:0:0:
208,272,232718,1,8,0:0:0:0:
208,272,232790,1,8,0:0:0:0:
224,272,232861,1,0,0:0:0:0:
224,272,232932,1,0,0:0:0:0:
224,272,233004,1,0,0:0:0:0:
224,272,233075,1,0,0:0:0:0:
224,272,233147,1,8,0:0:0:0:
208,272,233218,1,8,0:0:0:0:
208,272,233290,1,0,0:0:0:0:
224,272,233432,1,0,0:0:0:0:
176,240,233575,1,0,0:0:0:0:
176,240,233647,1,0,0:0:0:0:
224,272,233718,1,8,0:0:0:0:
224,272,233790,1,0,0:0:0:0:
224,272,233861,1,8,0:0:0:0:
224,272,233932,1,8,0:0:0:0:
224,272,234004,1,0,0:0:0:0:
224,288,234075,1,8,0:0:0:0:
224,256,234218,1,0,0:0:0:0:
224,256,234290,1,8,0:0:0:0:
224,272,234361,1,8,0:0:0:0:
224,272,234432,1,0,0:0:0:0:
224,272,234575,1,8,0:0:0:0:
224,272,234647,1,0,0:0:0:0:
224,272,234718,1,8,0:0:0:0:
224,288,234790,1,8,0:0:0:0:
224,288,234861,1,0,0:0:0:0:
224,288,234932,1,0,0:0:0:0:
224,288,235004,1,8,0:0:0:0:
208,304,235147,1,0,0:0:0:0:
208,304,235218,1,8,0:0:0:0:
208,304,235290,1,0,0:0:0:0:
208,304,235361,1,0,0:0:0:0:
208,304,235432,1,8,0:0:0:0:
208,304,235504,1,0,0:0:0:0:
208,304,235575,1,0,0:0:0:0:
192,320,235718,1,0,0:0:0:0:
192,320,235790,1,0,0:0:0:0:
192,320,235861,1,8,0:0:0:0:
192,320,235932,1,0,0:0:0:0:
192,320,236004,1,8,0:0:0:0:
192,320,236075,1,0,0:0:0:0:
192,320,236147,1,8,0:0:0:0:
192,320,236218,1,8,0:0:0:0:
192,336,236290,1,0,0:0:0:0:
192,336,236361,1,8,0:0:0:0:
192,336,236504,1,8,0:0:0:0:
192,336,236575,1,0,0:0:0:0:
192,336,236647,1,0,0:0:0:0:
192,336,236718,1,8,0:0:0:0:
160,160,236861,1,8,0:0:0:0:
160,160,236932,1,8,0:0:0:0:
160,160,237004,1,0,0:0:0:0:
160,160,237075,1,0,0:0:0:0:
160,160,237147,1,8,0:0:0:0:
160,160,237218,1,0,0:0:0:0:
160,160,237290,1,8,0:0:0:0:
160,176,237432,1,8,0:0:0:0:
176,192,237504,1,8,0:0:0:0:
176,192,237575,1,0,0:0:0:0:
176,192,237647,1,0,0:0:0:0:
176,192,237718,1,8,0:0:0:0:
160,224,237790,1,8,0:0:0:0:
160,224,237861,1,0,0:0:0:0:
144,208,238004,1,0,0:0:0:0:
144,224,238075,1,0,0:0:0:0:
144,224,238147,1,8,0:0:0:0:
144,224,238218,1,0,0:0:0:0:
144,224,238290,1,8,0:0:0:0:
144,224,238361,1,8,0:0:0:0:
144,224,238432,1,0,0:0:0:0:
160,224,238504,1,8,0:0:0:0:
160,224,238575,1,0,0:0:0:0:
160,224,238647,1,0,0:0:0:0:
160,224,238718,1,8,0:0:0:0:
160,224,238790,1,0,0:0:0:0:
160,224,238861,1,8,0:0:0:0:
144,224,238932,1,8,0:0:0:0:
144,224,239004,1,0,0:0:0:0:
160,240,239075,1,0,0:0:0:0:
160,240,239147,1,8,0:0:0:0:
160,240,239218,1,0,0:0:0:0:
160,240,239290,1,8,0:0:0:0:
160,240,239361,1,8,0:0:0:0:
160,240,239432,1,0,0:0:0:0:
160,240,239504,1,0,0:0:0:0:
160,256,239575,1,8,0:0:0:0:
160,240,239647,1,8,0:0:0:0:
160,256,239718,1,0,0:0:0:0:
160,240,240004,1,8,0:0:0:0:
160,240,240290,1,0,0:0:0:0:
160,240,240361,1,0,0:0:0:0:
160,240,240432,1,8,0:0:0:0:
160,240,240504,1,8,0:0:0:0:
160,240,240575,1,0,0:0:0:0:
160,240,240647,1,8,0:0:0:0:
160,240,240718,1,0,0:0:0:0:
160,256,240790,1,0,0:0:0:0:
160,256,240861,1,8,0:0:0:0:
160,256,240932,1,8,0:0:0:0:
160,272,241004,1,0,0:0:0:0:
160,272,241075,1,0,0:0:0:0:
160,272,241147,1,8,0:0:0:0:
160,272,241218,1,0,0:0:0:0:
160,272,241290,1,0,0:0:0:0:
160,272,241361,1,0,0:0:0:0:
160,272,241432,1,8,0:0:0:0:
160,272,241504,1,0,0:0:0:0:
112,240,241575,1,0,0:0:0:0:
128,256,241647,1,8,0:0:0:0:
128,256,241718,1,0,0:0:0:0:
128,256,241790,1,0,0:0:0:0:
144,256,241861,1,8,0:0:0:0:
144,256,241932,1,0,0:0:0:0:
144,256,242004,1,0,0:0:0:0:
144,256,242075,1,8,0:0:0:0:
144,256,242147,1,0,0:0:0:0:
144,256,242218,1,0,0:0:0:0:
128,256,242290,1,8,0:0:0:0:
128,256,242575,1,0,0:0:0:0:
128,256,242647,1,0,0:0:0:0:
128,272,242718,1,8,0:0:0:0:
128,272,242790,1,8,0:0:0:0:
128,272,242861,1,0,0:0:0:0:
128,272,242932,1,8,0:0:0:0:
128,272,243004,1,0,0:0:0:0:
128,272,243075,1,0,0:0:0:0:
128,288,243147,1,8,0:0:0:0:
144,288,243218,1,8,0:0:0:0:
144,288,243290,1,0,0:0:0:0:
144,288,243361,1,8,0:0:0:0:
144,288,243432,1,0,0:0:0:0:
144,304,243504,1,0,0:0:0:0:
144,304,243575,1,8,0:0:0:0:
144,304,243647,1,8,0:0:0:0:
144,304,243718,1,0,0:0:0:0:
144,304,243790,1,0,0:0:0:0:
144,320,243861,1,8,0:0:0:0:
144,320,243932,1,0,0:0:0:0:
144,320,244004,1,8,0:0:0:0:
144,320,244075,1,8,0:0:0:0:
144,320,244147,1,8,0:0:0:0:
144,320,244218,1,0,0:0:0:0:
144,320,244290,1,8,0:0:0:0:
144,320,244575,1,0,0:0:0:0:
144,320,244861,1,0,0:0:0:0:
144,320,244932,1,0,0:0:0:0:
144,320,245004,1,0,0:0:0:0:
144,320,245075,1,0,0:0:0:0:
144,320,245147,1,8,0:0:0:0:
144,320,245218,1,8,0:0:0:0:
144,336,245290,1,0,0:0:0:0:
144,336,245361,1,0,0:0:0:0:
144,336,245432,1,8,0:0:0:0:
144,336,245504,1,0,0:0:0:0:
144,336,245575,1,8,0:0:0:0:
144,336,245647,1,8,0:0:0:0:
144,352,245718,1,0,0:0:0:0:
144,352,245790,1,0,0:0:0:0:
144,352,245861,1,0,0:0:0:0:
144,352,245932,1,0,0:0:0:0:
144,352,246004,1,8,0:0:0:0:
144,32,246147,1,0,0:0:0:0:
144,32,246218,1,0,0:0:0:0:
144,32,246290,1,0,0:0:0:0:
160,80,246361,1,0,0:0:0:0:
160,80,246432,1,8,0:0:0:0:
160,80,246504,1,8,0:0:0:0:
160,80,246575,1,0,0:0:0:0:
160,96,246647,1,0,0:0:0:0:
160,96,246718,1,0,0:0:0:0:
160,96,246790,1,0,0:0:0:0:
160,96,246861,1,8,0:0:0:0:
224,160,246932,1,8,0:0:0:0:
224,160,247004,1,8,0:0:0:0:
224,160,247147,1,4,0:0:0:0:
224,160,247361,1,4,0:0:0:0:
224,160,247575,1,12,0:0:0:0:
224,160,247790,1,12,0:0:0:0:
224,160,248004,1,12,0:0:0:0:
208,176,248290,1,4,0:0:0:0:
208,176,248504,1,4,0:0:0:0:
208,176,248718,1,12,0:0:0:0:
208,176,248932,1,4,0:0:0:0:
208,176,249147,1,12,0:0:0:0:
208,176,249290,1,12,0:0:0:0:
208,176,249504,1,12,0:0:0:0:
208,176,249718,1,4,0:0:0:0:
208,176,249932,1,4,0:0:0:0:
192,208,250147,1,4,0:0:0:0:
192,208,250290,1,12,0:0:0:0:
192,224,250504,1,12,0:0:0:0:
192,224,250718,1,12,0:0:0:0:
176,224,250932,1,4,0:0:0:0:
176,224,251147,1,4,0:0:0:0:
144,224,251290,1,8,0:0:0:0:
144,224,251362,1,8,0:0:0:0:
144,224,251433,1,8,0:0:0:0:
144,224,251505,1,8,0:0:0:0:
176,224,251577,1,8,0:0:0:0:
224,208,251718,1,4,0:0:0:0:
224,208,251932,1,4,0:0:0:0:
224,208,252147,1,12,0:0:0:0:
224,208,252361,1,12,0:0:0:0:
224,224,252575,1,12,0:0:0:0:
208,224,252861,1,4,0:0:0:0:
208,224,253075,1,4,0:0:0:0:
208,224,253290,1,12,0:0:0:0:
208,224,253504,1,4,0:0:0:0:
208,224,253718,1,4,0:0:0:0:
208,224,253861,1,12,0:0:0:0:
208,224,254075,1,12,0:0:0:0:
208,224,254290,1,4,0:0:0:0:
208,224,254504,1,4,0:0:0:0:
208,224,254718,1,12,0:0:0:0:
208,208,254861,1,8,0:0:0:0:
208,208,254932,1,8,0:0:0:0:
208,208,255004,1,8,0:0:0:0:
208,224,255147,1,12,0:0:0:0:
160,192,255337,1,4,0:0:0:0:
160,208,255528,1,4,0:0:0:0:
160,208,255718,1,4,0:0:0:0:
128,192,255909,1,4,0:0:0:0:
128,192,256099,1,4,0:0:0:0:
112,224,256290,1,4,0:0:0:0:
192,176,256575,1,0,0:0:0:0:
192,176,256718,1,8,0:0:0:0:
192,176,257147,1,0,0:0:0:0:
192,176,257290,1,0,0:0:0:0:
192,176,257432,1,8,0:0:0:0:
192,192,257718,1,0,0:0:0:0:
192,192,257861,1,8,0:0:0:0:
192,192,258290,1,0,0:0:0:0:
192,192,258432,1,0,0:0:0:0:
192,192,258575,1,8,0:0:0:0:
192,192,258861,1,0,0:0:0:0:
192,192,259004,1,8,0:0:0:0:
192,192,259147,1,0,0:0:0:0:
192,192,259290,1,0,0:0:0:0:
192,192,259432,1,8,0:0:0:0:
192,192,259718,1,0,0:0:0:0:
160,192,260004,1,8,0:0:0:0:
160,192,260147,1,0,0:0:0:0:
160,192,260290,1,0,0:0:0:0:
160,192,260432,1,4,0:0:0:0:
160,192,260861,1,4,0:0:0:0:
