osu file format v14

[General]
AudioFilename: audio.mp3
AudioLeadIn: 0
PreviewTime: 187457
Countdown: 0
SampleSet: None
StackLeniency: 0.3
Mode: 0
LetterboxInBreaks: 0
WidescreenStoryboard: 1

[Editor]
Bookmarks: 89275,115457,161639,214003,252185
DistanceSpacing: 0.4
BeatDivisor: 6
GridSize: 4
TimelineZoom: 3.300002

[Metadata]
Title:ANOMALY (Camellia's "MUTATION" Schranz Remix)
TitleUnicode:∀NOMALY (かめりあ's "MUT∀TION" Schranz Remix)
Artist:Camellia
ArtistUnicode:かめりあ
Creator:thzz
Version:toybot x thzz's Extra
Source:osu!
Tags:Guest Track Summary & VIPs 02 toybot Mir Nanashima Asami featured artist fa
BeatmapID:2077854
BeatmapSetID:932446

[Difficulty]
HPDrainRate:5
CircleSize:4.5
OverallDifficulty:8.5
ApproachRate:9.5
SliderMultiplier:2
SliderTickRate:1

[Events]
//Background and Video events
0,0,"back.jpg",0,0
//Break Periods
2,86203,88205
2,118203,126205
//Storyboard Layer 0 (Background)
//Storyboard Layer 1 (Fail)
//Storyboard Layer 2 (Pass)
//Storyboard Layer 3 (Foreground)
//Storyboard Sound Samples

[TimingPoints]
185,363.636363636364,4,3,1,10,1,0
1639,-200,4,3,1,45,0,0
1912,-200,4,3,1,5,0,0
4366,-200,4,3,1,45,0,0
12548,-100,4,3,1,45,0,0
16003,-200,4,3,1,45,0,0
19094,-200,4,3,1,52,0,0
23457,-200,4,3,1,30,0,0
24185,-100,4,3,1,30,0,0
24912,-100,4,2,2,60,0,0
35821,-333.333333333333,4,2,2,60,0,0
36366,-333.333333333333,4,3,1,5,0,0
36548,-100,4,3,1,70,0,1
38912,-500,4,3,1,70,0,0
39094,-40,4,3,1,70,0,0
39366,-40,4,3,1,5,0,0
39457,-100,4,3,1,70,0,1
42003,-100,4,3,1,70,0,0
42275,-100,4,3,1,5,0,0
42366,-100,4,3,1,70,0,0
42730,-100,4,3,1,70,0,1
43094,-100,4,3,1,70,0,0
43457,-100,4,3,1,70,0,1
43821,-200,4,3,1,70,0,0
44185,-200,4,3,1,70,0,1
44548,-200,4,3,1,70,0,0
44912,-200,4,3,1,70,0,1
45275,-100,4,3,1,70,0,1
48185,-100,4,3,1,70,0,0
48275,-100,4,3,1,20,0,0
49912,-100,4,3,1,5,0,0
50003,-100,4,3,1,60,0,0
50912,-50,4,3,1,60,0,0
51094,-50,4,3,1,60,0,1
51457,-66.6666666666667,4,3,1,60,0,1
54366,-66.6666666666667,4,3,1,60,0,1
56457,-40,4,3,1,60,0,1
56685,-40,4,3,1,5,0,1
56730,-40,4,3,1,60,0,1
56775,-40,4,3,1,5,0,1
56821,-40,4,3,1,60,0,1
56866,-40,4,3,1,5,0,1
56912,-50,4,3,1,60,0,1
57048,-50,4,3,1,5,0,1
57094,-50,4,3,1,60,0,1
57139,-50,4,3,1,5,0,1
57185,-50,4,3,1,60,0,1
57230,-50,4,3,1,5,0,1
57275,-50,4,3,1,60,0,1
57321,-50,4,3,1,5,0,1
57366,-50,4,3,1,60,0,1
57412,-50,4,3,1,5,0,1
57458,-50,4,3,1,60,0,1
57639,-66.6666666666667,4,3,1,60,0,1
59594,-66.6666666666667,4,3,1,5,0,1
59639,-66.6666666666667,4,3,1,60,0,1
60912,-200,4,3,1,60,0,1
61275,-40,4,3,1,60,0,1
61821,-100,4,3,1,60,0,1
62003,-40,4,3,1,60,0,1
62548,-100,4,3,1,60,0,1
62821,-100,4,3,1,5,0,1
62912,-100,4,3,1,70,0,1
63094,-66.6666666666667,4,1,2,70,0,1
63154,-66.6666666666667,4,3,1,70,0,1
64912,-50,4,3,1,70,0,1
66003,-66.6666666666667,4,3,1,70,0,1
68185,-133.333333333333,4,3,1,70,0,1
68457,-133.333333333333,4,3,1,5,0,1
68549,-133.333333333333,4,3,1,70,0,1
69275,-100,4,3,1,70,0,1
71457,-66.6666666666667,4,3,1,70,0,1
72185,-62.5,4,3,1,70,0,1
72912,-62.5,4,3,1,70,0,1
73094,-66.6666666666667,4,3,1,70,0,0
74003,-71.4285714285714,4,3,1,70,0,0
74275,-71.4285714285714,4,3,1,5,0,0
74366,-50,4,3,1,80,0,1
79548,-125,4,3,1,80,0,0
80185,-50,4,3,1,80,0,1
85639,-100,4,3,1,80,0,1
86003,-100,4,3,1,80,0,0
86094,-100,4,3,1,60,0,0
91094,-100,4,3,1,5,0,0
91185,-66.6666666666667,4,3,1,60,0,0
91821,-76.9230769230769,4,3,3,70,0,1
94366,-66.6666666666667,4,3,3,70,0,1
94639,-66.6666666666667,4,3,3,5,0,1
94730,-76.9230769230769,4,3,3,70,0,1
96912,-66.6666666666667,4,3,4,70,0,1
97457,-66.6666666666667,4,3,3,70,0,1
97639,-76.9230769230769,4,3,3,70,0,1
100185,-62.5,4,3,3,70,0,1
100457,-62.5,4,3,3,5,0,1
100548,-142.857142857143,4,2,2,40,0,0
102003,-50,4,3,3,70,0,1
103457,-76.9230769230769,4,3,3,70,0,1
104912,-142.857142857143,4,3,4,80,0,0
106366,-76.9230769230769,4,3,3,80,0,1
107821,-111.111111111111,4,3,4,80,0,0
109094,-83.3333333333333,4,3,4,80,0,0
109275,-76.9230769230769,4,3,3,80,0,1
110730,-142.857142857143,4,3,4,80,0,0
111821,-58.8235294117647,4,3,4,80,0,0
112185,-100,4,3,3,80,0,1
113275,-76.9230769230769,4,3,3,80,0,1
113639,-66.6666666666667,4,3,3,80,0,1
114821,-58.8235294117647,4,3,3,80,0,1
115094,-58.8235294117647,4,1,4,80,0,0
115185,-58.8235294117647,4,3,1,20,0,0
118003,-58.8235294117647,4,3,1,5,0,0
126730,-133.333333333333,4,3,5,60,0,0
152912,-133.333333333333,4,3,1,20,0,0
157185,-133.333333333333,4,3,1,5,0,0
157275,-133.333333333333,4,2,2,40,0,0
158730,-100,4,3,1,50,0,0
159457,-100,4,3,1,60,0,0
160185,-100,4,3,4,70,0,0
160912,-80,4,3,4,70,0,0
161639,-66.6666666666667,4,3,1,70,0,0
161730,-66.6666666666667,4,3,1,60,0,0
161912,-66.6666666666667,4,3,1,60,0,0
163094,-76.9230769230769,4,3,1,60,0,0
164548,-83.3333333333333,4,3,1,60,0,0
165275,-90.9090909090909,4,3,1,55,0,0
166003,-111.111111111111,4,3,1,50,0,0
166730,-111.111111111111,4,3,1,45,0,0
167457,-125,4,3,1,40,0,0
168185,-125,4,3,1,50,0,0
168912,-100,4,3,1,50,0,0
169094,-100,4,3,1,60,0,0
169639,-100,4,3,1,70,0,0
170366,-83.3333333333333,4,3,1,75,0,0
171094,-83.3333333333333,4,3,1,80,0,0
171821,-71.4285714285714,4,3,1,80,0,0
172094,-71.4285714285714,4,3,1,80,0,0
172548,-200,4,3,1,60,0,0
173275,-80,4,3,1,70,0,1
175639,-133.333333333333,4,3,1,70,0,0
176094,-133.333333333333,4,3,1,5,0,0
176185,-80,4,3,1,70,0,1
178548,-181.818181818181,4,3,1,70,0,0
179003,-181.818181818181,4,3,1,5,0,0
179094,-200,4,3,1,70,0,0
179457,-200,4,3,1,70,0,1
179821,-100,4,3,1,70,0,0
180185,-100,4,3,1,70,0,1
180548,-200,4,3,1,70,0,0
180912,-200,4,3,1,70,0,1
181275,-125,4,3,1,70,0,0
181639,-200,4,3,1,70,0,1
182003,-100,4,3,1,70,0,1
183366,-100,4,3,1,5,0,1
183457,-83.3333333333333,4,3,1,70,0,1
184912,-83.3333333333333,4,1,4,70,0,1
185003,-83.3333333333333,4,3,1,20,0,0
186275,-83.3333333333333,4,3,1,5,0,0
186366,-83.3333333333333,4,3,1,70,0,0
186912,-71.4285714285714,4,3,1,70,0,0
187366,-142.857142857143,4,3,1,70,0,0
187821,-71.4285714285714,4,3,6,70,0,1
193275,-250,4,3,6,70,0,1
193548,-250,4,3,6,5,0,1
193639,-71.4285714285714,4,3,6,70,0,1
196548,-66.6666666666667,4,3,6,70,0,1
198003,-58.8235294117647,4,3,6,70,0,1
198821,-58.8235294117647,4,3,6,70,0,0
199094,-125,4,3,6,70,0,0
199275,-100,4,3,6,70,0,0
199457,-100,4,3,6,70,0,0
199821,-71.4285714285714,4,3,6,70,0,1
202003,-100,4,3,6,70,0,1
202275,-100,4,3,6,5,0,1
202366,-71.4285714285714,4,3,6,70,0,1
204185,-166.666666666667,4,3,6,70,0,1
204457,-166.666666666667,4,3,6,5,0,1
204548,-71.4285714285714,4,3,6,70,0,1
206003,-62.5,4,3,4,70,0,1
206730,-71.4285714285714,4,3,6,70,0,1
207457,-90.9090909090909,4,3,6,70,0,1
208185,-66.6666666666667,4,3,6,70,0,1
209639,-100,4,3,6,70,0,1
210730,-83.3333333333333,4,3,6,70,0,1
211094,-83.3333333333333,4,3,4,70,0,0
212366,-83.3333333333333,4,3,4,5,0,0
212548,-83.3333333333333,4,3,6,40,0,0
213275,-83.3333333333333,4,3,6,50,0,0
214003,-71.4285714285714,4,3,6,70,0,1
220003,-58.8235294117647,4,3,6,70,0,1
220548,-71.4285714285714,4,3,6,70,0,1
223275,-50,4,3,6,70,0,1
223366,-50,4,3,6,5,0,1
223639,-50,4,3,6,70,0,1
223730,-50,4,3,6,5,0,1
224003,-62.5,4,3,6,70,0,0
224275,-62.5,4,3,6,5,0,0
224366,-62.5,4,3,6,70,0,0
224548,-71.4285714285714,4,3,6,70,0,1
229094,-50,4,3,6,70,0,1
229185,-50,4,3,6,5,0,1
229457,-50,4,3,6,70,0,1
229548,-50,4,3,6,5,0,1
229821,-62.5,4,3,6,70,0,0
230366,-62.5,4,3,6,70,0,1
230548,-71.4285714285714,4,3,6,70,0,1
233912,-62.5,4,3,6,70,0,1
234366,-40,4,3,6,70,0,1
235185,-50,4,3,6,70,0,1
236185,-50,4,3,4,70,0,0
236912,-50,4,3,6,70,0,0
237094,-200,4,3,6,70,0,0
237275,-50,4,3,6,70,0,1
239094,-100,4,3,4,70,0,0
239821,-100,4,3,6,70,0,0
240185,-50,4,3,6,70,0,1
242003,-50,4,3,4,70,0,0
242094,-100,4,3,4,70,0,0
242730,-100,4,3,6,70,0,0
243094,-50,4,3,6,70,0,1
244185,-50,4,3,4,70,0,1
244548,-50,4,3,4,70,0,0
244639,-50,4,3,1,20,0,0
244912,-50,4,3,1,30,0,0
245275,-50,4,3,1,40,0,0
245639,-50,4,3,1,50,0,0
245912,-50,4,3,1,5,0,0
246003,-50,4,3,1,70,0,0
246366,-50,4,3,1,70,0,1
246730,-250,4,3,1,70,0,0
247094,-200,4,3,1,70,0,1
247457,-200,4,3,1,70,0,0
247821,-200,4,3,1,70,0,1
248185,-200,4,3,1,70,0,0
248548,-200,4,3,1,70,0,1
248912,-100,4,3,1,70,0,0
249275,-66.6666666666667,4,3,1,70,0,1
250366,-66.6666666666667,4,3,1,40,0,0
250639,-66.6666666666667,4,3,1,50,0,0
250912,-100,4,3,1,60,0,0
251457,-100,4,3,1,80,0,0
251821,-50,4,3,6,80,0,0
251912,-50,4,3,6,5,0,0
252003,-50,4,3,6,70,0,0
252094,-50,4,3,6,5,0,0
252185,-66.6666666666667,4,3,6,75,0,1
254548,-50,4,3,6,75,0,1
254639,-50,4,3,6,5,0,1
254730,-66.6666666666667,4,3,6,75,0,1
256185,-50,4,3,6,75,0,1
256275,-50,4,3,6,5,0,1
256321,-50,4,3,6,75,0,1
256412,-50,4,3,6,5,0,1
256457,-50,4,3,6,75,0,1
256548,-50,4,3,6,5,0,1
256594,-50,4,3,6,75,0,1
256685,-50,4,3,6,5,0,1
256730,-50,4,3,6,75,0,1
256821,-50,4,3,6,5,0,1
256912,-100,4,3,6,75,0,1
257048,-100,4,3,6,5,0,1
257094,-100,4,3,4,75,0,1
257230,-100,4,3,4,5,0,1
257275,-100,4,3,4,75,0,1
257412,-100,4,3,4,5,0,1
257457,-100,4,3,6,75,0,1
257639,-66.6666666666667,4,3,6,75,0,1
259094,-50,4,3,6,75,0,1
259185,-50,4,3,6,5,0,1
259230,-50,4,3,6,75,0,1
259321,-50,4,3,6,5,0,1
259366,-25,4,3,6,75,0,1
259412,-25,4,3,6,5,0,1
259457,-50,4,3,6,75,0,1
259548,-50,4,3,6,5,0,1
259594,-50,4,3,6,75,0,1
259685,-50,4,3,6,5,0,1
259730,-25,4,3,6,75,0,1
259775,-25,4,3,6,5,0,1
259821,-55.5555555555556,4,3,6,75,0,1
259912,-55.5555555555556,4,3,6,5,0,1
259957,-55.5555555555556,4,3,6,75,0,1
260048,-55.5555555555556,4,3,6,5,0,1
260094,-55.5555555555556,4,3,6,75,0,1
260457,-55.5555555555556,4,3,6,5,0,1
260548,-66.6666666666667,4,3,6,75,0,1
261639,-55.5555555555556,4,3,6,75,0,1
263003,-45.4545454545455,4,3,6,75,0,1
263275,-100,4,3,1,75,0,1
263730,-100,4,3,6,5,0,1
263821,-66.6666666666667,4,3,6,75,0,1
265639,-50,4,3,6,75,0,1
266366,-166.666666666667,4,3,6,75,0,1
266730,-66.6666666666667,4,3,6,75,0,1
267457,-500,4,3,1,70,0,0
268457,-500,4,3,1,5,0,0
268548,-50,4,3,1,70,0,1
268821,-50,4,3,1,5,0,1
268912,-333.333333333333,4,3,1,70,0,0
269185,-333.333333333333,4,3,1,5,0,0
269275,-100,4,3,1,70,0,1
272185,-66.6666666666667,4,3,1,70,0,1
272912,-50,4,3,1,70,0,1
273457,-40,4,3,1,70,0,1
273639,-66.6666666666667,4,3,1,70,0,0
274730,-71.4285714285714,4,3,1,70,0,0
275003,-66.6666666666667,4,3,1,5,0,0
275094,-50,4,3,1,70,0,1
280275,-125,4,3,1,70,0,0
280912,-50,4,3,1,70,0,1
286366,-100,4,3,1,70,0,1
286730,-100,4,3,1,60,0,0
291821,-100,4,3,1,5,0,0
291912,-200,4,3,1,60,0,0

[Colours]
Combo1 : 223,242,49
Combo2 : 221,0,0
Combo3 : 98,98,176
Combo4 : 255,149,98

[HitObjects]
429,360,1639,6,0,L|515:353,1,75,12|0,0:0|3:0,0:0:0:0:
496,363,4366,5,12,0:0:0:0:
301,340,4548,1,12,0:0:0:0:
260,148,4730,1,12,0:0:0:0:
252,161,6821,6,0,L|323:155,1,50,14|0,0:1|0:0,0:0:0:0:
367,179,7094,1,14,0:0:0:0:
461,73,7275,2,0,L|464:53,2,16.6666666666667,14|8|8,0:0|0:0|0:0,0:0:0:0:
454,79,7457,5,14,0:0:0:0:
447,85,10185,5,14,0:0:0:0:
220,43,10366,1,14,0:0:0:0:
145,263,10548,1,14,0:0:0:0:
217,248,10821,5,14,0:0:0:0:
224,174,11094,1,14,0:0:0:0:
107,199,11366,1,14,0:0:0:0:
157,145,11639,2,0,L|160:109,1,25,10|8,0:0|0:0,0:0:0:0:
109,69,11821,5,14,0:0:0:0:
302,103,12003,2,0,L|305:67,1,25,10|8,0:0|0:0,0:0:0:0:
254,27,12185,1,14,0:0:0:0:
82,205,12366,2,0,L|107:199,1,25,8|8,0:0|0:0,0:0:0:0:
212,175,12548,6,0,L|116:202,1,100,14|0,0:0|0:0,0:0:0:0:
293,243,12821,2,0,L|390:217,1,100,14|0,0:0|0:0,0:0:0:0:
219,179,13094,1,14,0:0:0:0:
30,351,13275,5,14,0:1:0:0:
42,366,16003,5,12,0:0:0:0:
72,174,16185,1,12,0:0:0:0:
263,146,16366,1,12,0:0:0:0:
253,141,18457,6,0,L|259:201,1,50,14|0,0:1|0:0,0:0:0:0:
217,249,18730,1,14,0:0:0:0:
335,323,18912,2,0,L|331:344,2,16.6666666666667,14|8|8,0:0|0:0|0:0,0:0:0:0:
340,319,19094,5,14,0:0:0:0:
329,305,21821,5,14,0:0:0:0:
133,103,22003,1,14,0:0:0:0:
405,34,22185,1,14,0:0:0:0:
374,113,22457,5,14,0:0:0:0:
216,90,22730,1,14,0:0:0:0:
276,238,23003,1,14,0:0:0:0:
271,153,23275,5,14,0:0:0:0:
266,159,23366,1,10,0:0:0:0:
316,170,23457,6,0,L|375:181,1,50,2|2,0:2|0:2,0:0:0:0:
199,188,23730,2,0,L|149:178,1,50,0|0,0:0|0:0,0:0:0:0:
314,95,24003,2,0,L|326:60,1,25,2|2,0:2|0:2,0:0:0:0:
205,197,24185,6,0,L|172:291,1,100,0|0,0:0|0:0,0:0:0:0:
325,336,24457,2,0,L|259:260,1,100,2|0,0:2|0:0,0:0:0:0:
144,370,24730,2,0,L|193:360,1,50,2|0,0:2|0:0,0:0:0:0:
332,329,24912,5,12,0:0:0:0:
22,198,25185,1,2,1:2:0:0:
22,198,25275,1,0,0:0:0:0:
81,149,25457,2,0,L|72:90,2,50,2|0|2,1:2|0:0|0:2,0:0:0:0:
154,176,25821,1,0,1:0:0:0:
154,176,25912,2,0,P|206:173|267:268,1,150,2|2,0:2|1:2,0:0:0:0:
463,207,26366,5,2,0:2:0:0:
391,232,26639,1,2,1:2:0:0:
328,187,26912,2,0,B|244:176|192:240|254:324|175:349|78:330|118:248,1,300,2|2,1:2|0:2,0:0:0:0:
120,285,27548,2,0,L|106:158,1,100,2|0,1:0|1:0,0:0:0:0:
102,181,27821,5,2,0:2:0:0:
329,37,28094,1,2,1:2:0:0:
329,37,28185,1,0,0:0:0:0:
260,73,28366,2,0,L|253:130,2,50,2|0|2,1:2|0:0|0:2,0:0:0:0:
202,21,28730,1,0,1:0:0:0:
202,21,28821,2,0,P|133:20|86:105,1,150,2|2,0:2|1:2,0:0:0:0:
338,251,29275,6,0,P|407:252|454:167,1,150,2|2,1:2|1:2,0:0:0:0:
335,258,29821,2,0,P|367:207|323:63,1,200,0|2,1:0|1:2,0:0:0:0:
329,258,30366,2,0,P|319:215|245:179,1,100,0|2,0:0|1:2,0:0:0:0:
271,186,30609,2,0,L|266:225,2,33.3333333333333,2|2|10,0:0|0:0|0:0,0:0:0:0:
54,325,30912,5,0,1:0:0:0:
54,325,31003,1,0,1:0:0:0:
54,325,31094,1,10,0:0:0:0:
123,274,31275,2,0,L|115:209,1,50,0|0,1:0|1:0,0:0:0:0:
116,215,31457,1,8,0:0:0:0:
210,309,31639,1,0,1:0:0:0:
210,309,31730,1,0,1:0:0:0:
210,309,31821,2,0,P|264:319|330:237,1,150,8|0,0:0|1:0,0:0:0:0:
398,237,32185,6,0,L|404:112,1,100,8|0,0:0|1:0,0:0:0:0:
398,132,32457,1,0,1:0:0:0:
322,180,32548,2,0,L|328:55,1,100,8|0,0:0|1:0,0:0:0:0:
322,75,32821,2,0,B|238:53|271:145|151:98,1,150,0|0,1:0|1:0,0:0:0:0:
43,55,33275,5,0,0:0:0:0:
48,83,33366,1,2,0:0:0:0:
69,231,33548,1,0,1:0:0:0:
74,259,33639,1,8,0:0:0:0:
58,159,33821,5,0,1:0:0:0:
58,159,33912,1,0,1:0:0:0:
58,159,34003,1,8,0:0:0:0:
167,211,34185,2,0,L|159:268,1,50,0|0,1:0|1:0,0:0:0:0:
159,271,34366,1,8,0:0:0:0:
285,194,34548,1,0,1:0:0:0:
285,194,34639,1,0,1:0:0:0:
285,194,34730,2,0,L|362:180,1,50,8|0,0:0|0:0,0:0:0:0:
58,159,34912,2,0,L|-2:130,1,50,0|0,1:0|1:0,0:0:0:0:
88,87,35094,6,0,L|212:142,1,100,10|0,0:0|0:0,0:0:0:0:
174,134,35366,1,10,0:0:0:0:
167,45,35457,2,0,L|291:100,1,100,0|10,0:0|0:0,0:0:0:0:
253,92,35730,1,0,0:0:0:0:
246,170,35821,6,0,P|251:212|291:227,1,89.9999972534181,8|0,0:0|0:0,0:0:0:0:
506,329,36548,5,14,0:1:0:0:
362,367,36730,1,10,0:0:0:0:
220,294,36912,1,10,0:0:0:0:
42,297,37094,6,0,L|32:228,1,50,10|0,0:0|0:0,0:0:0:0:
35,302,37275,1,10,0:0:0:0:
259,368,37457,1,10,0:0:0:0:
410,223,37639,1,10,0:0:0:0:
494,289,37821,6,0,L|504:220,1,50,10|0,0:0|0:0,0:0:0:0:
487,297,38003,1,10,0:0:0:0:
334,248,38185,6,0,L|319:174,1,50,10|0,0:0|0:0,0:0:0:0:
479,305,38366,1,10,0:0:0:0:
176,266,38548,2,0,L|138:206,1,50,10|0,0:0|0:0,0:0:0:0:
472,312,38730,1,10,0:0:0:0:
247,165,38912,6,0,L|250:180,1,10,2|0,0:2|0:0,0:0:0:0:
318,204,39094,6,2,P|229:88|211:237,1,375,0|0,0:0|2:0,1:0:0:0:
15,46,39457,5,14,0:1:0:0:
150,137,39639,1,10,0:0:0:0:
305,61,39821,1,10,0:0:0:0:
457,137,40003,6,0,L|469:189,1,50,10|0,0:0|0:0,0:0:0:0:
459,128,40185,1,10,0:0:0:0:
272,275,40366,1,10,0:0:0:0:
60,168,40548,1,10,0:0:0:0:
207,75,40730,6,0,L|214:9,1,50,10|0,0:0|0:0,0:0:0:0:
215,82,40912,1,10,0:0:0:0:
141,178,41094,6,0,L|123:111,1,50,10|0,0:0|0:0,0:0:0:0:
224,88,41275,1,10,0:0:0:0:
138,307,41457,2,0,L|85:249,1,50,10|0,0:0|0:0,0:0:0:0:
233,94,41639,1,10,0:0:0:0:
11,212,41821,6,0,B|36:219|36:219|57:202,1,50,14|0,0:0|0:0,0:0:0:0:
198,256,42003,2,0,B|223:263|223:263|244:246,1,50,2|0,0:2|0:0,0:0:0:0:
244,240,42185,6,2,P|330:191|307:288,1,250,0|0,0:0|0:0,1:0:0:0:
426,203,42730,5,14,0:1:0:0:
436,169,42821,1,8,0:0:0:0:
436,133,42912,1,8,0:0:0:0:
422,100,43003,1,8,0:0:0:0:
339,49,43094,6,0,P|364:92|368:25,1,150,2|0,0:2|0:0,0:0:0:0:
427,106,43457,5,14,0:1:0:0:
441,139,43548,1,8,0:0:0:0:
441,175,43639,1,8,0:0:0:0:
431,209,43730,1,8,0:0:0:0:
368,262,43821,6,0,L|377:323,1,50,2|2,0:2|0:2,0:0:0:0:
437,213,44185,5,14,0:1:0:0:
447,179,44275,1,8,0:0:0:0:
447,143,44366,1,8,0:0:0:0:
433,110,44457,1,8,0:0:0:0:
372,59,44548,5,0,1:0:0:0:
341,65,44639,1,0,1:0:0:0:
379,67,44730,5,0,1:0:0:0:
348,73,44821,1,0,1:0:0:0:
299,121,44912,5,14,0:1:0:0:
256,136,45003,1,8,0:0:0:0:
211,129,45094,1,8,0:0:0:0:
174,103,45185,1,8,0:0:0:0:
152,63,45275,6,0,L|130:39,1,25,10|8,1:2|1:0,0:0:0:0:
125,62,45366,2,0,L|92:60,1,25,10|8,1:2|1:0,0:0:0:0:
105,80,45457,2,0,L|81:101,1,25,10|8,1:2|1:0,0:0:0:0:
103,106,45548,2,0,L|101:138,1,25,10|8,1:2|1:0,0:0:0:0:
256,192,45639,12,12,48185,2:1:0:0:
28,342,48730,5,2,0:2:0:0:
18,272,48912,1,2,0:2:0:0:
152,311,49094,5,2,0:2:0:0:
154,286,49185,1,2,0:2:0:0:
125,306,49275,5,2,0:2:0:0:
125,286,49366,1,2,0:2:0:0:
99,303,49457,5,2,0:2:0:0:
98,292,49548,1,2,0:2:0:0:
72,307,49639,5,2,0:2:0:0:
18,261,49730,2,0,L|6:188,1,50,2|0,0:2|0:0,0:0:0:0:
106,145,49912,1,0,2:0:0:0:
111,150,50003,6,0,L|116:104,2,33.3333333333333,2|0|0,1:0|0:0|0:0,0:0:0:0:
87,216,50185,1,8,0:0:0:0:
113,219,50245,1,0,0:0:0:0:
139,213,50306,1,0,0:0:0:0:
160,198,50366,5,10,1:0:0:0:
309,344,50548,1,2,1:0:0:0:
417,163,50730,1,8,0:0:0:0:
346,146,50821,1,10,1:0:0:0:
300,200,50912,2,0,P|330:237|372:210,1,100,8|0,0:0|0:0,0:0:0:0:
378,221,51094,6,0,L|352:-4,1,200,12|0,0:1|0:0,0:0:0:0:
512,309,51457,5,12,0:2:0:0:
493,316,51518,1,4,0:2:0:0:
473,316,51578,1,4,0:2:0:0:
451,311,51639,2,0,P|429:301|412:283,2,50.0000019073487,4|4|4,1:2|0:2|0:2,0:0:0:0:
384,306,51821,5,8,0:0:0:0:
325,343,51912,2,0,L|239:351,1,75.0000028610231,0|0,0:0|1:0,0:0:0:0:
242,345,52094,2,0,L|316:338,1,75.0000028610231,8|8,1:0|0:0,0:0:0:0:
400,216,52275,1,0,0:0:0:0:
338,249,52366,2,0,B|321:215|321:215|348:159,1,75.0000028610231,0|8,1:0|1:0,0:0:0:0:
408,219,52548,5,8,0:0:0:0:
58,233,52730,1,0,1:0:0:0:
414,221,52912,5,12,0:2:0:0:
423,203,52972,1,4,0:2:0:0:
428,183,53033,1,4,0:2:0:0:
427,162,53094,2,0,P|421:135|401:109,2,50.0000019073487,4|4|4,1:2|0:2|0:2,0:0:0:0:
392,100,53275,5,8,0:0:0:0:
320,81,53366,2,0,L|309:2,1,75.0000028610231,0|0,0:0|1:0,0:0:0:0:
254,118,53548,2,0,P|156:141|142:42,1,225.000008583069,8|12,0:0|2:1,0:0:0:0:
265,132,54003,6,0,L|293:341,1,200,12|0,0:1|0:0,0:0:0:0:
41,331,54366,5,12,0:2:0:0:
60,335,54427,1,4,0:2:0:0:
80,334,54488,1,4,0:2:0:0:
98,327,54548,2,0,P|120:316|136:297,2,50.0000019073487,4|4|4,1:2|0:2|0:2,0:0:0:0:
157,311,54730,5,8,0:0:0:0:
224,275,54821,2,0,L|230:200,1,75.0000028610231,0|0,0:0|1:0,0:0:0:0:
237,195,55003,2,0,L|230:269,1,75.0000028610231,8|8,1:0|0:0,0:0:0:0:
349,354,55185,1,0,0:0:0:0:
372,285,55275,2,0,B|335:278|335:278|301:298,1,75.0000028610231,0|8,1:0|1:0,0:0:0:0:
345,362,55457,5,8,0:0:0:0:
307,64,55639,1,0,1:0:0:0:
341,370,55821,5,12,0:2:0:0:
335,351,55881,1,4,0:2:0:0:
335,330,55942,1,4,0:2:0:0:
343,309,56003,2,0,P|360:292|384:288,2,50.0000019073487,4|4|4,1:2|0:2|0:2,0:0:0:0:
405,297,56185,5,8,0:0:0:0:
464,253,56275,2,0,L|450:147,1,75.0000028610231,0|0,0:0|1:0,0:0:0:0:
386,143,56457,6,2,B|277:155|277:155|262:159|254:169|254:169|226:222|226:222|217:234|202:236|202:236|92:248,1,312.5,0|0,0:0|2:0,1:0:0:0:
104,245,56730,2,0,P|101:217|118:238,2,62.5,12|4|8,1:3|2:0|1:0,0:0:0:0:
88,313,56912,6,0,P|33:193|161:168,1,300,12|10,0:1|1:2,0:0:0:0:
255,192,57275,2,0,P|202:188|174:148,1,100,10|2,0:2|0:2,0:0:0:0:
236,358,57457,2,0,P|253:312|229:269,1,100,0|0,1:2|0:0,0:0:0:0:
317,241,57639,5,10,0:2:0:0:
309,251,57730,2,0,L|390:242,1,75.0000028610231,0|0,0:0|1:0,0:0:0:0:
396,245,57912,2,0,B|431:256|431:256|450:129,1,150.000005722046,8|0,1:0|0:0,0:0:0:0:
391,100,58185,2,0,P|375:67|380:31,1,75.0000028610231,0|8,1:0|1:0,0:0:0:0:
203,17,58366,5,8,0:0:0:0:
448,55,58548,1,0,1:0:0:0:
195,26,58730,5,12,0:2:0:0:
206,42,58791,1,4,0:2:0:0:
214,60,58851,1,4,0:2:0:0:
221,78,58912,2,0,P|224:102|219:127,2,50.0000019073487,4|4|4,1:2|0:2|0:2,0:0:0:0:
189,136,59094,5,8,0:0:0:0:
131,87,59185,2,0,L|39:103,1,75.0000028610231,0|0,0:0|1:0,0:0:0:0:
24,168,59366,2,0,P|114:132|40:94,1,225.000008583069,8|12,0:0|1:3,0:0:0:0:
204,278,59821,6,0,P|192:215|140:251,1,150.000005722046,12|0,0:0|1:0,0:0:0:0:
404,255,60185,2,0,L|454:247,5,50.0000019073487,12|4|4|12|4|4,0:2|0:2|0:2|1:2|0:2|0:2,0:0:0:0:
329,220,60548,5,12,0:0:0:0:
367,195,60639,1,0,0:0:0:0:
380,147,60730,1,0,1:0:0:0:
367,99,60821,1,8,1:0:0:0:
313,53,60912,6,0,P|317:17|349:0,1,75,12|0,0:1|1:0,0:0:0:0:
358,6,61275,6,0,P|306:112|187:111,1,250,14|8,0:0|1:0,0:0:0:0:
84,262,61548,2,0,P|136:156|255:157,1,250,14|8,0:0|1:0,0:0:0:0:
309,204,61821,2,0,L|300:272,1,50,6|8,0:0|0:0,0:0:0:0:
339,332,62003,6,0,B|379:300|379:300|403:99,1,250,14|0,0:0|1:0,0:0:0:0:
373,33,62275,2,0,B|333:65|333:65|309:266,1,250,14|0,0:0|1:0,0:0:0:0:
463,351,62548,6,0,P|383:366|420:294,1,200,12|8,1:1|1:0,0:0:0:0:
488,233,63094,5,14,3:1:0:0:
468,228,63154,1,4,0:2:0:0:
448,224,63215,1,4,0:2:0:0:
428,220,63275,2,0,L|379:209,2,50.0000019073487,12|4|4,1:2|0:2|0:2,0:0:0:0:
439,97,63457,5,8,0:0:0:0:
484,154,63548,2,0,P|507:125|512:88,1,75.0000028610231,0|0,0:0|1:0,0:0:0:0:
372,218,63730,2,0,L|383:314,1,75.0000028610231,8|8,1:0|0:0,0:0:0:0:
433,88,63912,1,0,0:0:0:0:
374,51,64003,2,0,P|337:53|310:78,1,75.0000028610231,0|8,1:0|1:0,0:0:0:0:
295,148,64185,5,8,0:0:0:0:
36,281,64366,1,0,1:0:0:0:
305,160,64548,5,12,0:2:0:0:
285,163,64609,1,4,0:2:0:0:
265,160,64669,1,4,0:2:0:0:
246,152,64730,1,4,1:2:0:0:
230,138,64791,1,4,0:2:0:0:
221,120,64851,1,4,0:2:0:0:
237,88,64912,6,0,P|318:118|285:45,1,200,2|0,3:2|0:0,0:0:0:0:
219,188,65185,2,0,P|315:200|387:136,1,200,2|2,3:2|3:2,0:0:0:0:
192,26,65457,2,0,P|166:68|169:116,1,100,2|0,0:2|2:0,0:0:0:0:
175,128,65639,6,0,P|131:47|35:76,1,200,12|0,0:1|1:0,0:0:0:0:
91,224,66003,1,12,0:2:0:0:
96,205,66063,1,4,0:2:0:0:
101,185,66124,1,4,0:2:0:0:
107,165,66185,2,0,L|99:103,2,50.0000019073487,4|4|4,1:2|0:2|0:2,0:0:0:0:
163,262,66366,5,8,0:0:0:0:
232,288,66457,2,0,L|341:270,1,75.0000028610231,0|0,0:0|1:0,0:0:0:0:
141,358,66639,2,0,B|178:337|178:337|73:314,1,150.000005722046,8|0,1:0|0:0,0:0:0:0:
60,313,66912,2,0,L|133:300,1,75.0000028610231,0|8,1:0|1:0,0:0:0:0:
313,268,67094,5,8,0:0:0:0:
159,54,67275,1,0,1:0:0:0:
300,173,67457,6,0,L|309:110,2,50.0000019073487,14|4|4,2:2|0:2|0:2,0:0:0:0:
212,173,67639,2,0,L|203:110,2,50.0000019073487,14|4|4,2:0|0:2|0:2,0:0:0:0:
353,54,67821,5,12,1:3:0:0:
199,268,68003,1,12,1:3:0:0:
485,322,68185,6,0,B|509:294|509:294|457:274|457:274|467:293,1,112.500004291535,8|0,1:0|2:0,0:0:0:0:
485,322,68548,5,12,0:1:0:0:
444,301,68639,1,0,1:0:0:0:
398,300,68730,1,0,1:0:0:0:
355,315,68821,1,0,1:0:0:0:
323,345,68912,5,10,0:2:0:0:
269,361,69003,1,0,1:0:0:0:
222,329,69094,1,0,1:2:0:0:
219,272,69185,1,0,1:0:0:0:
261,236,69275,6,0,L|269:165,1,50,10|0,0:2|1:0,0:0:0:0:
195,204,69457,2,0,L|203:133,1,50,0|0,1:0|1:0,0:0:0:0:
401,106,69639,1,10,0:2:0:0:
417,89,69730,2,0,L|341:106,1,50,0|0,1:0|1:0,0:0:0:0:
268,100,69912,1,0,1:0:0:0:
287,115,70003,5,10,0:2:0:0:
242,123,70094,1,0,1:0:0:0:
198,110,70185,1,0,1:0:0:0:
167,77,70275,5,0,1:0:0:0:
147,25,70366,1,10,0:2:0:0:
95,5,70457,1,0,1:0:0:0:
41,18,70548,1,0,1:0:0:0:
3,58,70639,1,0,1:0:0:0:
5,112,70730,6,0,L|16:173,1,50,10|0,0:2|1:0,0:0:0:0:
0,218,70912,2,0,L|8:168,1,50,0|0,1:0|1:0,0:0:0:0:
88,158,71094,1,10,0:2:0:0:
127,153,71185,1,0,1:0:0:0:
165,148,71275,1,0,1:0:0:0:
204,143,71366,1,0,1:0:0:0:
269,163,71457,6,0,L|305:173,14,37.5000014305115,10|8|10|8|10|8|10|8|10|8|10|8|10|8|10,1:2|1:2|1:2|1:2|1:2|1:2|1:2|1:2|1:2|1:2|1:2|1:2|1:2|1:2|1:2,0:0:0:0:
187,78,72185,6,0,L|175:35,6,40,10|10|10|10|10|10|10,1:2|1:2|1:2|1:2|1:2|1:2|1:2,0:0:0:0:
156,192,72548,6,0,L|124:223,6,40,10|10|10|10|10|10|10,1:2|1:2|1:2|1:2|1:2|1:2|1:2,0:0:0:0:
204,143,72912,5,8,0:0:0:0:
388,299,73094,2,0,P|345:305|321:277,1,75.0000028610231,2|0,0:2|0:0,0:0:0:0:
257,262,73275,1,2,0:2:0:0:
259,267,73366,1,2,0:2:0:0:
260,272,73457,2,0,P|289:293|324:283,1,75.0000028610231,2|0,0:2|0:0,0:0:0:0:
455,320,73639,1,2,0:2:0:0:
453,315,73730,1,2,0:2:0:0:
452,310,73821,2,0,P|422:288|387:298,1,75.0000028610231,2|0,0:2|0:0,0:0:0:0:
258,272,74003,6,0,P|310:350|388:297,1,209.999993591309,2|0,1:2|2:0,0:0:0:0:
394,113,74366,6,0,P|328:185|323:282,1,200,12|0,1:3|0:0,0:0:0:0:
246,77,74639,2,0,P|289:102|315:145,1,100,12|0,1:3|0:0,0:0:0:0:
450,208,74821,1,8,0:0:0:0:
460,194,74912,2,0,P|416:186|389:234,1,100,10|0,1:3|0:0,0:0:0:0:
123,156,75094,6,0,P|216:124|309:154,1,200,12|0,1:3|0:0,0:0:0:0:
125,236,75366,2,0,P|141:189|182:162,1,100,14|0,1:3|0:0,0:0:0:0:
314,229,75548,1,8,1:3:0:0:
316,278,75639,1,10,1:3:0:0:
289,319,75730,1,10,1:3:0:0:
250,257,75821,6,0,P|319:251|429:351,1,200,12|0,1:3|0:0,0:0:0:0:
471,218,76094,2,0,P|423:257|376:256,1,100,14|0,1:3|0:0,0:0:0:0:
304,122,76275,1,0,0:0:0:0:
316,139,76366,6,0,P|258:142|178:28,1,200,12|0,1:3|0:0,0:0:0:0:
92,177,76639,2,0,P|141:175|178:143,1,100,14|0,1:3|0:0,0:0:0:0:
35,73,76821,1,0,0:0:0:0:
15,84,76912,6,0,P|64:89|111:107,1,100,14|0,1:3|0:0,0:0:0:0:
295,219,77094,2,0,P|245:224|198:242,1,100,14|0,1:3|0:0,0:0:0:0:
58,299,77275,6,0,B|157:262|144:351|249:308,1,200,12|0,1:3|0:0,0:0:0:0:
53,195,77548,2,0,P|99:209|118:253,1,100,14|0,0:3|0:0,0:0:0:0:
227,103,77730,1,8,0:0:0:0:
248,116,77821,2,0,P|215:157|153:143,1,100,10|0,1:3|0:0,0:0:0:0:
158,229,78003,6,0,P|254:218|316:143,1,200,12|0,1:3|0:0,0:0:0:0:
366,270,78275,2,0,P|342:227|294:218,1,100,14|0,1:3|0:0,0:0:0:0:
222,304,78457,1,8,1:3:0:0:
239,349,78548,1,10,1:3:0:0:
284,366,78639,1,10,1:3:0:0:
293,295,78730,6,0,L|268:84,1,200,12|0,1:3|0:0,0:0:0:0:
110,46,79003,2,0,L|135:257,1,200,14|0,1:3|0:0,0:0:0:0:
366,270,79275,2,0,L|341:59,1,200,14|0,1:3|0:0,0:0:0:0:
183,21,79548,6,0,L|208:232,1,200,12|0,0:1|0:0,0:0:0:0:
211,225,80094,1,0,0:0:0:0:
216,231,80185,6,0,P|301:236|378:126,1,200,12|0,1:3|0:0,0:0:0:0:
289,332,80457,2,0,P|301:284|339:253,1,100,14|0,1:3|0:0,0:0:0:0:
466,172,80639,1,8,0:0:0:0:
449,194,80730,2,0,P|396:193|381:127,1,100,10|0,1:3|0:0,0:0:0:0:
288,70,80912,6,0,P|339:154|339:253,1,200,12|0,1:3|0:0,0:0:0:0:
180,102,81185,2,0,P|227:113|261:150,1,100,14|0,1:3|0:0,0:0:0:0:
217,308,81366,1,8,1:3:0:0:
203,260,81457,1,10,1:3:0:0:
218,213,81548,1,10,1:3:0:0:
292,220,81639,6,0,P|180:258|130:164,1,200,12|0,1:3|0:0,0:0:0:0:
69,51,81912,2,0,P|100:88|104:137,1,100,14|0,0:0|0:0,0:0:0:0:
62,299,82094,1,8,0:0:0:0:
4,253,82185,6,0,P|94:232|132:316,1,200,12|0,1:1|0:0,0:0:0:0:
62,299,82457,2,0,L|285:267,1,200,14|0,1:3|0:0,0:0:0:0:
451,224,82730,6,0,P|360:244|322:160,1,200,12|0,1:1|0:0,0:0:0:0:
393,178,83003,2,0,L|170:210,1,200,14|8,1:3|0:0,0:0:0:0:
2,105,83275,6,0,P|92:84|130:168,1,200,12|0,1:0|0:0,0:0:0:0:
60,151,83548,2,0,L|283:119,1,200,14|0,1:3|0:0,0:0:0:0:
465,73,83821,6,0,P|374:93|336:9,1,200,12|0,1:0|0:0,0:0:0:0:
407,27,84094,2,0,L|184:59,1,200,14|8,0:0|0:0,0:0:0:0:
114,35,84366,2,0,P|160:25|196:57,1,100,14|0,1:0|0:0,0:0:0:0:
225,164,84548,5,12,1:3:0:0:
193,243,84669,1,10,1:3:0:0:
119,287,84791,1,8,1:3:0:0:
33,282,84912,5,14,1:3:0:0:
120,252,85033,1,8,1:3:0:0:
223,265,85154,1,10,1:3:0:0:
310,337,85275,5,12,1:3:0:0:
206,295,85397,1,10,1:3:0:0:
153,181,85518,1,8,1:3:0:0:
178,42,85639,6,0,L|183:9,5,33.3333333333333,14|8|8|8|8|8,1:0|0:0|0:0|0:0|0:0|0:0,0:0:0:0:
166,110,86003,5,12,0:0:0:0:
158,123,88730,5,12,0:0:0:0:
276,307,88912,1,12,0:0:0:0:
465,226,89094,1,12,0:0:0:0:
256,192,89457,12,0,91094,2:0:0:0:
212,282,91185,6,0,P|283:295|340:249,1,150.000005722046,12|0,0:0|0:0,0:0:0:0:
416,237,91457,2,0,P|379:241|344:228,1,75.0000028610231,12|0,0:0|0:0,0:0:0:0:
252,142,91639,1,10,0:0:0:0:
245,133,91700,1,8,0:0:0:0:
242,122,91760,1,8,0:0:0:0:
242,109,91821,6,0,L|248:44,1,64.9999970245363,12|0,0:1|0:0,0:0:0:0:
448,51,92003,1,0,1:0:0:0:
427,34,92094,2,0,B|393:28|393:28|365:40,1,64.9999970245363,12|8,1:2|0:0,0:0:0:0:
159,119,92275,1,4,0:2:0:0:
180,102,92366,2,0,B|214:96|214:96|241:108,1,64.9999970245363,0|8,1:0|1:0,0:0:0:0:
374,244,92548,6,0,P|434:257|480:215,1,129.999994049073,8|0,0:0|1:0,0:0:0:0:
449,144,92821,6,0,L|379:138,1,64.9999970245363,12|8,1:2|0:0,0:0:0:0:
225,191,93003,2,0,L|160:196,1,64.9999970245363,4|0,0:2|1:0,0:0:0:0:
335,301,93185,5,8,1:0:0:0:
315,283,93275,2,0,P|301:253|302:221,1,64.9999970245363,8|0,0:0|0:0,0:0:0:0:
193,123,93457,1,0,1:0:0:0:
218,114,93548,2,0,P|250:117|277:134,1,64.9999970245363,12|8,1:2|0:0,0:0:0:0:
419,91,93730,1,4,0:2:0:0:
413,117,93821,2,0,P|394:143|365:158,1,64.9999970245363,0|8,1:0|1:0,0:0:0:0:
487,225,94003,6,0,P|500:254|500:286,1,64.9999970245363,8|0,0:0|0:0,0:0:0:0:
416,303,94185,2,0,P|402:273|402:241,1,64.9999970245363,0|12,1:0|1:2,0:0:0:0:
336,177,94366,6,0,P|402:129|387:225,1,225.000008583069,2|0,1:2|0:0,0:0:0:0:
303,340,94730,6,0,L|309:275,1,64.9999970245363,8|0,0:0|0:0,0:0:0:0:
245,70,94912,1,0,1:0:0:0:
221,81,95003,2,0,B|192:106|190:136,1,64.9999970245363,12|8,1:2|0:3,0:0:0:0:
92,178,95185,1,4,0:2:0:0:
64,175,95275,2,0,B|26:164|17:133,1,64.9999970245363,0|8,1:0|1:0,0:0:0:0:
128,271,95457,6,0,L|257:263,1,129.999994049073,8|0,0:0|1:0,0:0:0:0:
368,296,95730,6,0,L|374:226,1,64.9999970245363,12|8,1:2|0:0,0:0:0:0:
429,94,95912,2,0,L|424:29,1,64.9999970245363,4|0,0:2|1:0,0:0:0:0:
322,130,96094,5,8,1:0:0:0:
304,150,96185,2,0,L|235:160,1,64.9999970245363,8|0,0:0|0:0,0:0:0:0:
147,238,96366,1,0,1:0:0:0:
165,258,96457,2,0,L|234:268,1,64.9999970245363,12|8,1:2|0:0,0:0:0:0:
341,151,96639,1,4,0:2:0:0:
323,171,96730,2,0,L|258:180,1,64.9999970245363,0|8,1:0|1:0,0:0:0:0:
35,257,96912,6,0,P|26:195|84:219,2,150.000005722046,8|2|2,1:3|1:3|1:3,0:0:0:0:
230,322,97457,1,8,0:0:0:0:
249,319,97518,1,8,0:0:0:0:
264,307,97578,1,8,0:0:0:0:
272,292,97639,6,0,L|337:298,1,64.9999970245363,12|0,0:1|0:0,0:0:0:0:
484,245,97821,1,0,1:0:0:0:
501,224,97912,2,0,B|507:190|507:190|495:162,1,64.9999970245363,12|8,1:2|0:0,0:0:0:0:
406,91,98094,1,4,0:2:0:0:
389,70,98185,2,0,B|383:36|383:36|395:9,1,64.9999970245363,0|8,1:0|1:0,0:0:0:0:
419,200,98366,6,0,B|345:213|365:170|295:179,1,129.999994049073,8|0,0:0|1:0,0:0:0:0:
309,317,98639,6,0,L|315:247,1,64.9999970245363,12|8,1:2|0:0,0:0:0:0:
231,123,98821,2,0,L|226:58,1,64.9999970245363,4|0,0:2|1:0,0:0:0:0:
60,61,99003,5,8,1:0:0:0:
77,80,99094,2,0,P|107:93|139:92,1,64.9999970245363,8|0,0:0|0:0,0:0:0:0:
299,70,99275,1,0,1:0:0:0:
272,75,99366,2,0,P|246:94|230:122,1,64.9999970245363,12|8,1:2|0:0,0:0:0:0:
179,265,99548,1,4,0:2:0:0:
188,239,99639,2,0,P|184:206|167:179,1,64.9999970245363,0|8,1:0|1:0,0:0:0:0:
34,285,99821,6,0,P|61:303|93:305,1,64.9999970245363,8|0,0:0|0:0,0:0:0:0:
116,231,100003,2,0,P|89:213|57:211,1,64.9999970245363,0|12,1:0|1:2,0:0:0:0:
282,155,100185,6,2,P|171:144|132:248,1,240,0|0,0:0|2:0,1:0:0:0:
218,220,100548,6,0,L|222:150,1,69.9999978637696,2|2,1:2|0:0,0:0:0:0:
238,134,100821,2,0,L|233:203,1,69.9999978637696,2|2,1:0|0:0,0:0:0:0:
233,203,101094,1,2,1:0:0:0:
297,260,101275,5,2,1:2:0:0:
317,264,101366,1,2,0:0:0:0:
337,268,101457,1,2,0:0:0:0:
357,272,101548,1,2,0:0:0:0:
392,280,101639,6,0,L|427:285,1,34.9999989318848,2|2,0:0|0:0,0:0:0:0:
259,323,101821,2,0,L|224:328,1,34.9999989318848,2|2,0:0|0:0,0:0:0:0:
97,292,102003,6,0,B|144:316|144:316|289:294,1,200,12|0,0:0|0:0,0:0:0:0:
426,176,102275,2,0,P|336:209|325:304,1,200,12|0,0:0|0:0,0:0:0:0:
411,267,102548,1,10,0:0:0:0:
427,265,102639,1,10,0:0:0:0:
495,216,102730,6,0,B|507:148|507:148|477:109|477:109|494:70|487:28,1,200,12|0,0:0|0:0,0:0:0:0:
256,3,103003,2,0,P|349:-17|410:55,1,200,12|0,0:0|0:0,0:0:0:0:
318,71,103275,1,10,0:0:0:0:
322,110,103366,1,2,0:0:0:0:
326,149,103457,6,0,L|314:214,1,64.9999970245363,12|0,0:1|0:0,0:0:0:0:
164,287,103639,1,0,1:0:0:0:
183,270,103730,2,0,P|213:260|246:262,1,64.9999970245363,12|8,1:2|0:0,0:0:0:0:
414,351,103912,1,4,0:2:0:0:
406,326,104003,2,0,P|384:302|354:288,1,64.9999970245363,0|8,1:0|1:0,0:0:0:0:
171,257,104185,5,8,0:0:0:0:
179,231,104275,2,0,P|228:191|291:193,1,129.999994049073,0|12,0:0|1:2,0:0:0:0:
393,229,104548,1,8,0:0:0:0:
448,176,104639,1,4,0:2:0:0:
451,157,104730,1,2,1:0:0:0:
454,138,104821,1,10,1:0:0:0:
512,86,104912,6,0,B|462:103|462:103|418:74,1,104.999996795654,6|8,0:0|0:0,0:0:0:0:
364,17,105275,2,0,B|407:-11|407:-11|457:5,1,104.999996795654,8|2,0:0|0:0,0:0:0:0:
345,89,105639,2,0,L|240:80,1,104.999996795654,8|8,0:0|0:0,0:0:0:0:
152,114,106003,5,2,0:0:0:0:
159,125,106094,1,2,0:0:0:0:
163,138,106185,1,8,0:0:0:0:
163,151,106275,1,8,0:0:0:0:
139,185,106366,6,0,P|139:217|150:247,1,64.9999970245363,12|0,0:1|0:0,0:0:0:0:
280,86,106548,1,0,1:0:0:0:
263,106,106639,2,0,P|236:124|205:132,1,64.9999970245363,12|8,1:2|0:0,0:0:0:0:
22,60,106821,1,4,0:2:0:0:
34,83,106912,2,0,P|55:106|84:121,1,64.9999970245363,0|8,1:0|1:0,0:0:0:0:
217,217,107094,5,8,0:0:0:0:
204,239,107185,2,0,P|150:273|88:260,1,129.999994049073,0|12,0:0|1:2,0:0:0:0:
127,127,107457,1,8,0:0:0:0:
140,149,107548,1,4,0:2:0:0:
144,174,107639,1,2,1:0:0:0:
137,199,107730,1,10,1:0:0:0:
75,250,107821,6,0,B|55:294|55:294|74:330,1,89.9999972534181,6|8,0:0|0:0,0:0:0:0:
218,215,108185,2,0,B|238:171|238:171|218:134,1,89.9999972534181,2|8,0:0|0:0,0:0:0:0:
118,168,108548,1,8,0:0:0:0:
135,170,108639,1,2,0:0:0:0:
152,172,108730,1,2,0:0:0:0:
322,185,108912,1,8,0:0:0:0:
332,182,109094,6,0,P|311:162|281:161,1,59.9999981689454,2|8,0:0|0:0,0:0:0:0:
392,227,109275,6,0,L|456:218,1,64.9999970245363,12|0,0:1|0:0,0:0:0:0:
256,150,109457,1,0,1:0:0:0:
237,131,109548,2,0,L|172:122,1,64.9999970245363,12|8,1:2|0:0,0:0:0:0:
285,272,109730,1,4,0:2:0:0:
304,253,109821,2,0,L|368:244,1,64.9999970245363,0|8,1:0|1:0,0:0:0:0:
218,320,110003,5,8,0:0:0:0:
152,362,110094,1,0,0:0:0:0:
120,370,110185,1,0,1:0:0:0:
89,360,110275,1,12,1:2:0:0:
59,330,110366,6,0,L|48:265,1,64.9999970245363,8|4,0:0|0:2,0:0:0:0:
94,142,110548,1,2,1:0:0:0:
98,128,110639,1,10,1:0:0:0:
102,112,110730,6,0,P|135:76|184:89,1,104.999996795654,6|8,0:0|0:0,0:0:0:0:
257,145,111094,1,2,0:0:0:0:
269,145,111185,1,2,0:0:0:0:
281,145,111275,1,8,0:0:0:0:
426,51,111457,6,0,P|378:48|364:94,1,104.999996795654,8|2,0:0|0:0,0:0:0:0:
423,170,111821,6,0,P|317:102|191:105,1,255.000004863739,8|0,0:0|0:0,0:0:0:0:
56,56,112185,5,12,0:0:0:0:
88,86,112275,1,2,0:0:0:0:
96,130,112366,1,2,1:0:0:0:
81,172,112457,1,2,1:0:0:0:
54,214,112548,5,12,0:0:0:0:
54,264,112639,1,2,0:0:0:0:
89,299,112730,1,2,1:0:0:0:
138,305,112821,1,2,1:0:0:0:
190,288,112912,5,12,0:0:0:0:
244,278,113003,1,2,0:0:0:0:
296,293,113094,1,2,1:0:0:0:
330,336,113185,1,2,1:0:0:0:
353,329,113275,6,0,L|417:324,1,64.9999970245363,12|2,0:0|0:0,0:0:0:0:
512,258,113457,2,0,L|447:253,1,64.9999970245363,2|2,1:0|1:0,0:0:0:0:
332,184,113639,6,0,P|311:153|313:116,1,75.0000028610231,12|2,0:1|1:0,0:0:0:0:
461,91,113821,2,0,P|481:121|479:158,1,75.0000028610231,2|2,1:0|1:0,0:0:0:0:
379,244,114003,6,0,L|377:282,1,37.5000014305115,12|0,1:0|1:0,0:0:0:0:
348,263,114094,2,0,L|319:290,1,37.5000014305115,2|0,1:0|1:0,0:0:0:0:
312,264,114185,2,0,L|274:263,1,37.5000014305115,2|0,1:0|1:0,0:0:0:0:
283,243,114275,2,0,L|256:215,1,37.5000014305115,2|0,1:0|1:0,0:0:0:0:
229,155,114366,6,0,B|169:141|169:141|141:156|141:156|85:145,1,150.000005722046,10|2,0:0|1:0,0:0:0:0:
179,229,114639,1,8,0:0:0:0:
264,273,114730,5,2,1:0:0:0:
296,261,114821,2,0,P|349:198|431:204,1,170.000003242493,2|0,1:0|0:0,0:0:0:0:
497,285,115094,5,12,1:0:0:0:
256,192,115185,12,0,118003,0:0:0:0:
292,287,126730,6,0,P|276:233|280:177,1,112.500004291535,12|2,0:1|0:0,0:0:0:0:
283,166,127094,1,2,0:0:0:0:
276,93,127275,1,8,0:0:0:0:
471,74,127457,2,0,P|402:96|343:53,1,150.000005722046,0|12,1:0|0:1,0:0:0:0:
207,138,128003,1,2,0:0:0:0:
284,166,128185,6,0,P|284:128|275:92,1,75.0000028610231,12|0,0:1|0:0,0:0:0:0:
258,243,128548,1,2,0:0:0:0:
52,240,128730,2,0,P|120:262|179:219,1,150.000005722046,8|0,0:0|0:0,0:0:0:0:
110,187,129275,1,2,0:0:0:0:
107,178,129366,1,0,0:0:0:0:
0,345,129639,6,0,P|74:338|147:356,1,150.000005722046,12|2,0:1|0:0,0:0:0:0:
217,311,130185,1,8,0:0:0:0:
386,330,130366,2,0,P|318:335|301:268,1,150.000005722046,0|12,1:0|0:1,0:0:0:0:
124,251,130912,1,2,0:0:0:0:
217,311,131094,6,0,P|179:315|145:330,1,75.0000028610231,12|0,0:1|0:0,0:0:0:0:
290,182,131457,2,0,P|274:148|270:110,1,75.0000028610231,2|8,0:0|0:0,0:0:0:0:
197,215,131821,2,0,B|158:146|123:198|77:118,1,150.000005722046,4|0,1:1|0:0,0:0:0:0:
82,125,132548,6,0,P|138:125|191:110,1,112.500004291535,12|2,0:1|0:0,0:0:0:0:
202,103,132912,1,2,0:0:0:0:
149,44,133094,1,8,0:0:0:0:
325,87,133275,2,0,P|257:98|236:32,1,150.000005722046,0|12,1:0|0:1,0:0:0:0:
241,174,133821,1,2,0:0:0:0:
425,128,134003,6,0,P|389:117|351:115,1,75.0000028610231,12|0,0:1|0:0,0:0:0:0:
217,252,134366,2,0,P|254:249|290:239,1,75.0000028610231,2|8,0:0|0:0,0:0:0:0:
373,264,134730,2,0,B|317:256|317:256|295:348,1,150.000005722046,0|2,1:0|0:0,0:0:0:0:
303,352,135185,1,0,0:0:0:0:
458,263,135457,6,0,B|450:220|450:220|410:175|410:175|403:124,1,150.000005722046,12|2,0:1|0:0,0:0:0:0:
259,68,136003,1,8,0:0:0:0:
333,63,136185,2,0,P|324:104|232:138,1,150.000005722046,0|12,1:0|0:1,0:0:0:0:
336,251,136730,1,2,0:0:0:0:
237,166,136912,6,0,P|200:156|163:155,1,75.0000028610231,12|0,0:1|0:0,0:0:0:0:
43,83,137275,2,0,P|75:116|85:143,1,75.0000028610231,2|8,0:0|0:0,0:0:0:0:
82,293,137639,1,4,1:1:0:0:
82,293,138003,2,0,P|66:262|117:217,1,112.500004291535,2|0,0:0|0:0,0:0:0:0:
100,248,138366,6,0,P|182:247|249:234,1,150.000005722046,12|2,0:1|0:0,0:0:0:0:
434,74,138912,1,8,0:0:0:0:
490,130,139094,2,0,P|416:117|341:116,1,150.000005722046,0|12,1:0|0:1,0:0:0:0:
123,62,139639,1,2,0:0:0:0:
58,113,139821,6,0,P|89:133|125:143,1,75.0000028610231,12|0,0:1|0:0,0:0:0:0:
276,56,140185,2,0,P|261:90|234:116,1,75.0000028610231,2|8,0:0|0:0,0:0:0:0:
52,235,140548,2,0,P|126:237|192:204,1,150.000005722046,0|2,1:0|0:0,0:0:0:0:
198,210,141003,2,0,L|183:283,1,75.0000028610231,0|0,0:0|0:0,0:0:0:0:
242,325,141275,6,0,P|316:323|382:356,1,150.000005722046,12|2,0:1|0:0,0:0:0:0:
340,169,141821,1,8,0:0:0:0:
408,275,142003,2,0,L|426:153,2,112.500004291535,0|2|2,1:0|0:0|0:0,0:0:0:0:
509,186,142730,6,0,L|498:104,1,75.0000028610231,12|0,0:1|0:0,0:0:0:0:
340,169,143094,2,0,L|321:16,1,150.000005722046,2|4,0:0|1:1,0:0:0:0:
419,87,143639,1,0,0:0:0:0:
429,8,143821,1,2,0:0:0:0:
251,84,144003,1,0,0:0:0:0:
241,163,144185,6,0,B|165:142|165:142|152:178|115:194,1,150.000005722046,12|2,0:1|0:0,0:0:0:0:
314,134,144730,1,8,0:0:0:0:
201,235,144912,2,0,P|236:265|270:372,1,150.000005722046,0|12,1:0|0:1,0:0:0:0:
177,313,145457,1,2,0:0:0:0:
350,346,145639,6,0,P|368:315|374:264,1,75.0000028610231,12|0,0:1|0:0,0:0:0:0:
251,171,146003,1,2,0:0:0:0:
201,235,146185,2,0,P|177:188|178:91,1,150.000005722046,8|0,0:0|0:0,0:0:0:0:
381,111,146730,1,2,0:0:0:0:
386,100,146821,2,0,P|386:62|368:30,1,75.0000028610231,0|0,0:0|0:0,0:0:0:0:
338,47,147094,6,0,L|218:34,1,112.500004291535,12|2,0:1|0:0,0:0:0:0:
177,92,147457,2,0,L|260:79,1,75.0000028610231,2|8,0:0|0:0,0:0:0:0:
74,194,147821,2,0,L|0:205,1,75.0000028610231,0|0,1:0|0:0,0:0:0:0:
99,224,148094,1,2,0:0:0:0:
113,216,148185,2,0,L|126:142,1,75.0000028610231,12|2,0:1|0:0,0:0:0:0:
156,280,148548,6,0,P|180:306|217:308,1,75.0000028610231,12|0,0:1|0:0,0:0:0:0:
122,355,148912,2,0,P|190:383|262:367,2,150.000005722046,2|4|2,0:0|1:1|0:0,0:0:0:0:
320,320,150003,1,12,0:1:0:0:
256,192,150094,12,0,157185,0:0:0:0:
52,172,157275,6,0,L|40:88,1,75.0000028610231,2|0,1:2|0:0,0:0:0:0:
68,184,157548,2,0,L|78:258,1,75.0000028610231,2|0,1:2|0:0,0:0:0:0:
104,343,157821,2,0,L|93:268,1,75.0000028610231,2|2,1:2|1:2,0:0:0:0:
154,229,158094,2,0,B|173:241|173:241|252:225,1,75.0000028610231,0|2,0:0|1:2,0:0:0:0:
239,241,158366,2,0,L|281:247,1,37.5000014305115,0|0,0:0|0:0,0:0:0:0:
383,260,158548,2,0,L|345:254,1,37.5000014305115,2|0,1:2|0:0,0:0:0:0:
452,228,158730,6,0,L|462:198,10,25,8|8|8|8|8|8|8|8|8|8|8,1:0|1:0|1:0|1:0|1:0|1:0|1:0|1:0|1:0|1:0|1:0,0:0:0:0:
412,331,159275,6,0,P|419:341|429:348,4,25,8|8|8|0|8,1:0|1:0|1:0|0:0|1:0,0:0:0:0:
387,185,159548,2,0,L|381:161,4,25,8|8|8|8|8,1:0|1:0|1:0|1:0|1:0,0:0:0:0:
480,295,159821,6,0,L|506:301,2,25,8|8|8,1:0|1:0|1:0,0:0:0:0:
368,269,160003,2,0,P|356:274|349:284,2,25,8|8|8,1:0|1:0|1:0,0:0:0:0:
377,264,160185,6,0,L|265:234,1,100,2|8,0:0|0:0,0:0:0:0:
198,88,160457,2,0,L|223:184,1,100,2|8,0:0|0:0,0:0:0:0:
172,294,160730,2,0,L|208:259,1,50,2|0,0:0|0:0,0:0:0:0:
264,32,160912,5,8,0:0:0:0:
260,49,161003,2,0,L|240:123,1,62.5,2|0,0:0|0:0,0:0:0:0:
337,294,161185,1,8,0:0:0:0:
324,282,161275,2,0,L|269:227,1,62.5,2|2,0:0|0:0,0:0:0:0:
90,220,161457,2,0,L|164:200,1,62.5,8|8,0:0|0:0,0:0:0:0:
364,218,161639,6,0,L|292:239,1,75.0000028610231,12|0,1:0|0:0,0:0:0:0:
154,349,161821,1,0,1:0:0:0:
131,346,161912,1,8,0:0:0:0:
108,343,162003,1,8,0:0:0:0:
85,340,162094,1,0,0:0:0:0:
62,337,162185,2,0,L|56:262,1,75.0000028610231,0|8,1:0|0:0,0:0:0:0:
226,144,162366,5,8,0:0:0:0:
231,166,162457,2,0,P|199:192|162:197,1,75.0000028610231,0|0,0:0|1:0,0:0:0:0:
31,80,162639,1,8,0:0:0:0:
53,75,162730,2,0,P|81:97|87:133,1,75.0000028610231,8|0,0:2|0:0,0:0:0:0:
40,270,162912,2,0,P|12:247|6:211,1,75.0000028610231,0|8,1:0|0:0,0:0:0:0:
218,331,163094,6,0,B|185:299|185:299|103:321,1,129.999994049073,8|0,0:0|1:0,0:0:0:0:
234,335,163366,1,8,0:0:0:0:
261,317,163457,1,8,0:0:0:0:
295,317,163548,1,0,0:0:0:0:
325,329,163639,1,0,1:0:0:0:
344,354,163730,1,0,0:0:0:0:
357,383,163821,6,0,L|369:253,1,129.999994049073,8|0,0:0|1:0,0:0:0:0:
458,170,164094,1,8,0:0:0:0:
462,162,164366,5,8,1:0:0:0:
439,174,164457,1,8,1:0:0:0:
412,169,164548,2,0,L|352:162,1,59.9999981689454,8|0,0:0|0:0,0:0:0:0:
200,76,164730,1,0,1:0:0:0:
216,58,164821,1,0,0:0:0:0:
239,53,164912,1,8,0:0:0:0:
262,54,165003,1,0,0:0:0:0:
282,64,165094,2,0,P|290:92|280:120,1,59.9999981689454,0|0,1:0|0:0,0:0:0:0:
152,251,165275,5,8,0:0:0:0:
141,231,165366,2,0,P|156:180|208:170,1,110.000003356934,0|0,0:0|0:0,0:0:0:0:
359,205,165639,2,0,P|383:192|398:169,1,55.0000016784668,8|0,0:0|0:0,0:0:0:0:
328,97,165821,2,0,P|301:95|277:108,1,55.0000016784668,0|8,1:0|0:0,0:0:0:0:
335,83,166003,6,0,L|424:76,1,89.9999972534181,8|0,0:0|1:0,0:0:0:0:
251,149,166275,2,0,L|161:155,1,89.9999972534181,2|2,0:2|0:2,0:0:0:0:
368,174,166548,2,0,L|412:171,1,44.999998626709,0|0,1:0|0:0,0:0:0:0:
317,246,166730,6,0,P|325:289|296:321,1,89.9999972534181,8|2,0:0|1:2,0:0:0:0:
307,238,167003,1,8,0:0:0:0:
294,232,167275,6,0,L|259:227,3,22.4999993133545,8|8|8|8,0:0|0:0|0:0|0:0,0:0:0:0:
205,197,167457,6,0,L|124:207,1,80,8|0,0:0|1:0,0:0:0:0:
78,297,167730,1,0,0:0:0:0:
91,306,167821,2,0,L|170:296,1,80,8|0,0:0|1:0,0:0:0:0:
267,344,168094,5,0,0:0:0:0:
281,336,168185,2,0,P|306:307|304:268,1,80,8|0,0:0|1:0,0:0:0:0:
219,119,168457,1,0,0:0:0:0:
212,132,168548,2,0,P|211:171|238:199,1,80,8|0,0:0|1:0,0:0:0:0:
363,213,168821,5,0,0:0:0:0:
377,198,168912,2,0,P|421:177|469:186,1,100,8|0,0:0|1:0,0:0:0:0:
347,285,169185,1,0,0:0:0:0:
326,271,169275,1,8,0:0:0:0:
301,268,169366,1,0,0:0:0:0:
276,273,169457,1,0,1:0:0:0:
258,290,169548,1,0,0:0:0:0:
248,313,169639,6,0,B|262:248|262:248|246:218,1,100,8|0,0:0|1:0,0:0:0:0:
172,156,169912,1,8,0:0:0:0:
182,162,170185,5,8,1:0:0:0:
202,148,170275,1,8,1:0:0:0:
213,120,170366,2,0,L|193:64,1,59.9999981689454,8|0,0:0|0:0,0:0:0:0:
138,220,170548,2,0,L|118:275,1,59.9999981689454,0|8,1:0|1:0,0:0:0:0:
225,315,170730,5,8,0:0:0:0:
246,325,170821,2,0,P|275:326|302:313,1,59.9999981689454,0|0,0:0|1:0,0:0:0:0:
398,212,171003,2,0,P|369:219|347:239,1,59.9999981689454,8|8,1:0|0:0,0:0:0:0:
458,366,171185,5,0,0:0:0:0:
439,351,171275,2,0,P|430:322|437:293,1,59.9999981689454,0|8,1:0|1:0,0:0:0:0:
462,162,171457,2,0,P|478:186|480:216,1,59.9999981689454,8|0,0:0|0:0,0:0:0:0:
338,324,171639,5,0,1:0:0:0:
309,334,171730,1,8,1:0:0:0:
280,327,171821,2,0,P|228:282|161:292,1,139.999995727539,12|0,1:0|0:0,0:0:0:0:
28,151,172094,2,0,P|79:195|146:185,1,139.999995727539,12|0,0:0|0:0,0:0:0:0:
346,119,172366,2,0,L|273:109,1,69.9999978637696,12|0,1:0|0:0,0:0:0:0:
99,55,172548,5,0,0:0:0:0:
99,69,172639,2,0,L|100:129,1,50,2|0,0:2|0:0,0:0:0:0:
129,191,172912,5,2,0:2:0:0:
104,260,173094,1,2,0:2:0:0:
226,338,173275,5,14,0:1:0:0:
338,238,173457,1,10,1:0:0:0:
483,275,173639,1,10,1:0:0:0:
316,95,173821,6,0,L|328:19,1,62.5,10|0,1:0|0:0,0:0:0:0:
323,100,174003,1,10,1:0:0:0:
364,244,174185,1,10,1:0:0:0:
249,341,174366,1,10,1:0:0:0:
101,251,174548,6,0,L|39:259,1,62.5,10|0,1:0|0:0,0:0:0:0:
109,244,174730,1,10,1:0:0:0:
228,170,174912,2,0,L|289:178,1,62.5,10|2,1:0|0:2,0:0:0:0:
163,78,175094,1,10,1:2:0:0:
135,63,175185,1,2,0:2:0:0:
104,63,175275,1,10,1:2:0:0:
76,78,175366,1,2,0:2:0:0:
60,105,175457,1,10,1:0:0:0:
303,171,175639,6,0,P|362:125|358:200,1,187.500007152558,10|0,0:0|2:0,0:0:0:0:
318,278,176185,5,14,0:1:0:0:
163,202,176366,1,10,1:0:0:0:
28,297,176548,1,10,1:0:0:0:
118,61,176730,6,0,L|131:0,1,62.5,10|0,1:0|0:0,0:0:0:0:
120,70,176912,1,10,1:0:0:0:
179,220,177094,1,10,1:0:0:0:
105,358,177275,1,10,1:0:0:0:
341,295,177457,6,0,L|403:288,1,62.5,10|0,1:0|0:0,0:0:0:0:
334,287,177639,1,10,1:0:0:0:
165,213,177821,2,0,L|102:206,1,62.5,10|0,1:0|0:0,0:0:0:0:
360,140,178003,2,0,L|366:92,5,41.6666666666667,2|2|2|2|2|2,1:0|1:0|1:0|1:0|1:0|1:0,0:0:0:0:
359,154,178366,1,8,0:0:0:0:
162,357,178548,6,2,L|145:221,1,137.500004196167,2|0,1:0|0:0,1:0:0:0:
87,102,179094,6,0,L|30:96,1,50,2|0,1:2|0:0,0:0:0:0:
146,44,179457,5,12,1:3:0:0:
180,34,179548,1,2,1:0:0:0:
216,34,179639,1,2,1:0:0:0:
249,48,179730,1,2,1:0:0:0:
316,149,179821,6,0,P|273:124|340:120,1,150,2|0,1:2|0:0,0:0:0:0:
259,61,180185,5,12,1:3:0:0:
226,47,180275,1,2,1:0:0:0:
190,47,180366,1,2,1:0:0:0:
158,59,180457,1,2,1:0:0:0:
87,102,180548,6,0,L|37:96,1,50,2|0,1:2|0:0,0:0:0:0:
170,74,180912,5,12,1:3:0:0:
174,116,181003,1,2,1:3:0:0:
178,158,181094,1,2,1:3:0:0:
182,200,181185,1,2,1:3:0:0:
230,272,181275,6,0,P|249:270|269:265,1,40,2|0,1:2|0:0,0:0:0:0:
146,322,181457,2,0,P|126:320|106:315,1,40,2|0,1:2|0:0,0:0:0:0:
250,356,181639,5,12,1:3:0:0:
290,376,181730,1,10,1:3:0:0:
334,378,181821,1,10,1:3:0:0:
377,365,181912,1,10,1:3:0:0:
405,373,182003,6,0,L|437:377,1,25,8|8,1:0|1:0,0:0:0:0:
431,361,182094,2,0,L|457:341,1,25,8|8,1:0|1:0,0:0:0:0:
438,333,182185,2,0,L|442:301,1,25,8|8,1:0|1:0,0:0:0:0:
429,306,182275,2,0,L|409:280,1,25,8|8,1:0|1:0,0:0:0:0:
256,192,182366,12,8,183366,2:0:0:0:
382,137,183457,5,8,1:0:0:0:
340,133,183548,1,8,1:0:0:0:
298,129,183639,1,8,1:0:0:0:
256,125,183730,1,8,1:0:0:0:
227,100,183821,6,0,L|136:105,2,79.9999975585938,8|8|8,1:0|1:0|1:0,0:0:0:0:
356,52,184185,5,8,1:0:0:0:
448,197,184366,1,8,1:0:0:0:
332,384,184548,1,8,1:0:0:0:
55,328,184730,1,8,1:0:0:0:
256,192,184912,5,8,3:2:0:0:
256,192,185003,12,0,186275,2:0:0:0:
199,311,186366,6,0,L|80:326,1,119.999996337891,10|8,0:2|0:0,0:0:0:0:
337,254,186639,1,10,0:2:0:0:
343,248,186730,2,0,P|353:210|344:170,1,59.9999981689454,2|0,0:0|0:0,0:0:0:0:
272,213,186912,6,0,L|182:224,1,69.9999978637696,10|0,0:2|0:0,0:0:0:0:
46,147,187094,1,8,0:0:0:0:
85,86,187185,2,0,P|114:66|148:63,1,69.9999978637696,10|2,0:2|0:0,0:0:0:0:
140,171,187366,6,0,L|138:136,4,34.9999989318848,2|2|2|2|2,2:0|2:0|2:0|2:0|2:0,0:0:0:0:
375,106,187821,6,0,L|305:117,1,69.9999978637696,12|0,1:0|0:0,0:0:0:0:
193,222,188003,1,4,1:2:0:0:
226,232,188094,1,8,1:0:0:0:
260,227,188185,1,8,0:0:0:0:
290,210,188275,1,0,0:0:0:0:
306,179,188366,2,0,P|308:138|295:109,1,69.9999978637696,4|8,1:2|1:0,0:0:0:0:
188,6,188548,5,8,0:0:0:0:
118,53,188639,2,0,P|175:88|242:72,1,139.999995727539,0|8,0:0|1:0,0:0:0:0:
345,167,188912,2,0,L|414:163,1,69.9999978637696,8|0,0:0|0:0,0:0:0:0:
271,261,189094,2,0,L|201:264,1,69.9999978637696,4|8,1:2|1:0,0:0:0:0:
43,198,189275,6,0,P|109:193|130:131,1,139.999995727539,8|4,0:0|1:2,0:0:0:0:
313,45,189548,1,8,1:0:0:0:
240,12,189639,1,8,0:0:0:0:
170,27,189730,1,0,0:0:0:0:
132,63,189821,1,4,1:2:0:0:
122,99,189912,1,8,1:0:0:0:
120,116,190003,6,0,P|123:154|139:187,1,69.9999978637696,8|0,0:0|0:0,0:0:0:0:
327,159,190185,1,4,1:2:0:0:
391,116,190275,2,0,L|252:137,1,139.999995727539,8|0,1:0|0:0,0:0:0:0:
49,223,190548,5,4,1:2:0:0:
73,225,190639,1,8,1:0:0:0:
147,200,190730,6,0,P|150:234|138:267,1,69.9999978637696,8|0,0:0|0:0,0:0:0:0:
269,306,190912,1,4,1:2:0:0:
292,279,191003,1,8,1:0:0:0:
325,267,191094,1,8,0:0:0:0:
361,265,191185,1,0,0:0:0:0:
392,282,191275,2,0,P|412:310|417:345,1,69.9999978637696,4|8,1:2|1:0,0:0:0:0:
212,237,191457,5,8,0:0:0:0:
138,199,191548,2,0,P|204:207|250:157,1,139.999995727539,0|8,0:0|1:0,0:0:0:0:
171,66,191821,6,0,B|176:135,1,69.9999978637696,8|0,0:0|0:0,0:0:0:0:
211,319,192003,2,0,B|216:249,1,69.9999978637696,4|8,1:2|1:0,0:0:0:0:
309,179,192185,6,0,P|339:161|374:158,1,69.9999978637696,8|0,0:0|0:0,0:0:0:0:
425,288,192366,1,4,1:2:0:0:
371,357,192457,2,0,P|338:296|361:232,1,139.999995727539,8|0,1:0|0:0,0:0:0:0:
504,107,192730,2,0,L|421:87,1,69.9999978637696,4|8,1:2|1:0,0:0:0:0:
299,193,192912,6,0,P|265:214|175:178,1,139.999995727539,8|4,0:0|1:2,0:0:0:0:
89,81,193185,1,8,1:0:0:0:
96,71,193275,6,2,P|125:71|141:95,1,60,2|0,0:0|2:0,1:0:0:0:
85,94,193639,6,0,L|96:164,1,69.9999978637696,8|0,0:0|0:0,0:0:0:0:
320,250,193821,1,4,1:2:0:0:
324,215,193912,1,8,1:0:0:0:
313,183,194003,1,8,0:0:0:0:
291,156,194094,1,0,0:0:0:0:
258,146,194185,2,0,P|217:151|190:168,1,69.9999978637696,4|8,1:2|1:0,0:0:0:0:
88,261,194366,5,8,0:0:0:0:
32,326,194457,2,0,P|98:342|157:307,1,139.999995727539,0|8,0:0|1:0,0:0:0:0:
249,218,194730,2,0,L|318:214,1,69.9999978637696,8|0,0:0|0:0,0:0:0:0:
122,172,194912,2,0,L|52:175,1,69.9999978637696,4|8,1:2|1:0,0:0:0:0:
96,92,195094,6,0,P|164:98|204:153,1,139.999995727539,8|4,0:0|1:2,0:0:0:0:
242,300,195366,1,8,1:0:0:0:
315,333,195457,1,8,0:0:0:0:
385,318,195548,1,0,0:0:0:0:
423,282,195639,1,4,1:2:0:0:
433,246,195730,1,8,1:0:0:0:
430,227,195821,6,0,P|427:192|413:160,1,69.9999978637696,8|0,0:0|0:0,0:0:0:0:
285,106,196003,1,4,1:2:0:0:
210,84,196094,2,0,L|349:63,1,139.999995727539,8|0,1:0|0:3,0:0:0:0:
441,40,196366,5,4,1:2:0:0:
439,64,196457,1,8,1:0:0:0:
487,121,196548,6,0,P|453:137|416:136,1,75.0000028610231,12|0,0:1|0:0,0:0:0:0:
258,29,196730,2,0,P|224:13|187:13,1,75.0000028610231,4|8,1:2|1:0,0:0:0:0:
79,113,196912,5,12,0:2:0:0:
135,176,197003,2,0,P|65:196|6:155,1,150.000005722046,0|12,1:0|0:0,0:0:0:0:
130,187,197366,5,8,1:2:0:0:
183,247,197457,2,0,P|215:264|252:260,1,75.0000028610231,8|8,1:2|0:0,0:0:0:0:
127,50,197639,2,0,P|94:32|57:36,1,75.0000028610231,12|0,0:0|1:0,0:0:0:0:
231,97,197821,1,10,1:0:0:0:
305,91,197912,1,10,1:0:0:0:
383,83,198003,6,0,P|354:158|274:166,1,170.000003242493,12|0,0:1|1:0,0:0:0:0:
170,32,198275,2,0,P|249:18|296:84,1,170.000003242493,12|0,0:0|1:0,0:0:0:0:
249,257,198548,2,0,L|221:89,1,170.000003242493,12|0,0:1|1:0,0:0:0:0:
236,272,198821,5,12,0:0:0:0:
151,249,199003,1,2,0:2:0:0:
151,249,199094,2,0,P|131:248|112:254,1,40,2|0,0:2|0:0,0:0:0:0:
46,311,199275,2,0,P|30:330|23:354,1,50,2|0,0:2|0:0,0:0:0:0:
241,303,199457,6,0,P|257:244|202:270,1,150
242,325,199821,5,14,0:1:0:0:
259,355,199912,1,0,0:0:0:0:
290,371,200003,2,0,P|331:373|360:360,1,69.9999978637696,4|8,1:2|1:0,0:0:0:0:
493,243,200185,5,8,0:0:0:0:
458,165,200275,2,0,P|413:215|417:283,1,139.999995727539,2|8,0:2|1:0,0:0:0:0:
357,361,200548,2,0,P|322:366|291:351,1,69.9999978637696,8|0,0:0|0:0,0:0:0:0:
177,251,200730,2,0,P|211:247|242:263,1,69.9999978637696,4|8,1:2|1:0,0:0:0:0:
428,297,200912,6,0,L|438:153,1,139.999995727539,8|4,0:0|1:2,0:0:0:0:
246,76,201185,1,8,1:0:0:0:
319,43,201275,1,8,0:0:0:0:
389,58,201366,1,0,0:0:0:0:
427,94,201457,1,4,1:2:0:0:
437,130,201548,1,8,1:0:0:0:
437,148,201639,6,0,P|434:186|418:219,1,69.9999978637696,8|0,0:0|0:0,0:0:0:0:
183,127,201821,2,0,P|169:95|166:60,1,69.9999978637696,6|8,1:2|1:0,0:0:0:0:
296,172,202003,6,0,P|299:113|336:158,1,150,6|0,0:0|2:0,0:0:0:0:
290,180,202366,6,0,P|256:183|223:171,1,69.9999978637696,8|0,0:0|0:0,0:0:0:0:
148,80,202548,1,4,1:2:0:0:
125,53,202639,1,8,1:0:0:0:
92,41,202730,1,8,0:0:0:0:
56,39,202821,1,0,0:0:0:0:
25,56,202912,2,0,P|5:84|0:119,1,69.9999978637696,4|8,1:2|1:0,0:0:0:0:
79,227,203094,5,8,0:0:0:0:
117,153,203185,2,0,P|109:219|159:265,1,139.999995727539,0|8,0:0|1:0,0:0:0:0:
255,188,203457,6,0,B|186:193,1,69.9999978637696,8|0,0:0|0:0,0:0:0:0:
0,323,203639,2,0,B|70:328,1,69.9999978637696,4|8,1:2|1:0,0:0:0:0:
259,367,203821,6,0,P|310:322|376:335,1,139.999995727539,8|4,0:0|1:2,0:0:0:0:
372,344,204094,1,8,1:0:0:0:
449,363,204185,6,0,B|455:332|455:332|448:311|448:311|452:275,1,89.9999972534181,6|0,0:0|2:0,0:0:0:0:
502,98,204548,6,0,P|462:152|396:147,1,139.999995727539,12|0,0:0|1:0,0:0:0:0:
329,11,204821,2,0,P|395:17|425:77,1,139.999995727539,14|0,1:0|1:0,0:0:0:0:
345,91,205094,2,0,P|310:91|277:78,1,69.9999978637696,12|0,0:0|1:0,0:0:0:0:
56,85,205275,5,12,1:0:0:0:
51,94,205457,5,10,1:0:0:0:
98,123,205548,1,10,1:0:0:0:
153,117,205639,1,10,1:0:0:0:
196,82,205730,1,10,1:0:0:0:
199,26,205821,1,10,1:0:0:0:
190,31,206003,6,0,P|159:56|150:95,1,80,8|8,0:0|0:0,0:0:0:0:
47,279,206185,2,0,P|84:265|105:232,1,80,2|2,0:0|0:0,0:0:0:0:
139,112,206366,2,0,B|250:80|232:211|356:170,1,240,8|0,3:0|0:0,0:0:0:0:
451,104,206730,5,12,1:0:0:0:
460,96,206912,6,0,L|465:52,3,34.9999989318848,8|8|8|8,1:0|1:0|1:0|1:0,0:0:0:0:
382,166,207094,1,10,1:0:0:0:
389,221,207185,1,10,1:0:0:0:
396,275,207275,1,10,1:0:0:0:
274,79,207457,5,2,0:0:0:0:
268,87,207639,2,0,L|234:82,3,27.5000008392334,8|8|8|8,0:0|0:0|0:0|0:0,0:0:0:0:
145,52,207821,2,0,P|78:72|119:130,1,165.000005035401,2|2,0:0|0:0,0:0:0:0:
233,198,208185,6,0,P|249:232|248:269,1,75.0000028610231,12|0,1:0|0:0,0:0:0:0:
189,342,208366,1,10,1:0:0:0:
152,351,208457,1,8,1:0:0:0:
79,365,208548,5,10,1:0:0:0:
44,347,208639,2,0,P|0:289|11:217,1,150.000005722046,14|12,0:0|1:0,0:0:0:0:
192,113,209003,5,8,1:0:0:0:
245,173,209094,2,0,P|277:190|314:186,1,75.0000028610231,14|0,1:3|0:0,0:0:0:0:
417,87,209275,2,0,P|391:60|354:53,1,75.0000028610231,14|0,1:0|0:0,0:0:0:0:
126,169,209457,5,8,1:0:0:0:
123,184,209548,1,8,1:0:0:0:
157,251,209639,6,0,P|181:311|117:320,3,150,12|0|0|0,1:0|1:0|1:0|1:0,0:0:0:0:
107,319,210730,6,0,P|125:295|149:276,1,59.9999981689454,0|0,1:0|1:0,0:0:0:0:
238,238,210912,2,0,P|266:230|296:229,1,59.9999981689454,0|0,1:0|1:0,0:0:0:0:
400,248,211094,5,8,1:2:0:0:
256,192,211185,12,0,212366,2:0:0:0:
135,143,212548,6,0,L|129:74,1,59.9999981689454,2|2,0:2|0:2,0:0:0:0:
195,48,212730,2,0,B|226:104|226:104|206:156,1,119.999996337891,2|2,0:2|0:2,0:0:0:0:
130,149,213003,2,0,L|124:80,1,59.9999981689454,2|2,0:2|0:2,0:0:0:0:
339,22,213275,5,2,1:2:0:0:
228,242,213457,1,2,1:2:0:0:
256,231,213548,1,0,0:0:0:0:
285,233,213639,1,0,1:0:0:0:
311,247,213730,1,0,1:0:0:0:
336,262,213821,1,0,1:0:0:0:
365,265,213912,1,0,0:0:0:0:
405,241,214003,6,0,L|251:265,2,139.999995727539,12|4|8,0:1|1:2|0:0,0:0:0:0:
245,334,214548,2,0,P|212:321|195:292,1,69.9999978637696,4|8,1:2|1:0,0:0:0:0:
243,126,214730,6,0,P|265:191|266:261,1,139.999995727539,8|4,0:0|1:2,0:0:0:0:
121,290,215003,1,8,1:0:0:0:
121,275,215094,2,0,P|133:242|162:225,1,69.9999978637696,8|0,0:0|0:0,0:0:0:0:
193,85,215275,2,0,P|226:97|243:126,1,69.9999978637696,4|8,1:2|1:0,0:0:0:0:
179,154,215457,6,0,B|107:137|126:204|25:172,1,139.999995727539,8|4,0:0|1:2,0:0:0:0:
80,30,215730,1,8,1:0:0:0:
88,44,215821,1,8,0:0:0:0:
159,68,215912,1,0,0:0:0:0:
215,20,216003,2,0,P|262:10|337:89,1,139.999995727539,4|8,1:2|0:0,0:0:0:0:
312,262,216366,1,4,1:2:0:0:
280,228,216457,1,8,1:0:0:0:
272,182,216548,1,8,0:0:0:0:
290,140,216639,5,0,0:0:0:0:
345,195,216730,1,4,1:2:0:0:
319,265,216821,1,8,1:0:0:0:
246,287,216912,2,0,P|177:272|107:266,1,139.999995727539,8|4,0:0|1:2,0:0:0:0:
17,309,217185,1,8,1:0:0:0:
30,318,217275,2,0,P|70:319|105:278,1,69.9999978637696,8|0,0:0|0:0,0:0:0:0:
141,184,217457,6,0,L|121:37,1,139.999995727539,4|8,1:2|0:0,0:0:0:0:
336,215,217821,2,0,L|323:123,1,69.9999978637696,4|8,1:2|1:0,0:0:0:0:
316,65,218003,1,8,0:0:0:0:
164,170,218185,6,0,B|214:165|214:165|248:181|248:181|322:173,1,139.999995727539,4|8,1:2|0:0,0:0:0:0:
420,125,218457,1,0,0:0:0:0:
432,138,218548,2,0,L|350:129,1,69.9999978637696,4|8,1:2|1:0,0:0:0:0:
481,285,218730,2,0,L|399:276,1,69.9999978637696,8|0,0:0|0:0,0:0:0:0:
352,331,218912,6,0,B|386:299|386:299|365:197,1,139.999995727539,4|8,1:2|0:0,0:0:0:0:
395,40,219185,1,0,0:0:0:0:
462,61,219275,2,0,L|479:158,1,69.9999978637696,4|8,1:2|1:0,0:0:0:0:
342,196,219457,6,0,L|354:127,1,69.9999978637696,8|0,0:0|0:0,0:0:0:0:
503,146,219639,2,0,P|489:214|478:283,1,139.999995727539,4|8,1:2|0:0,0:0:0:0:
394,321,219912,1,0,0:0:0:0:
411,312,220003,6,0,P|383:280|342:272,1,85.0000016212464,12|0,1:2|1:0,0:0:0:0:
92,341,220185,2,0,B|126:339|153:365|153:365|170:310|221:294,1,170.000003242493,8|0,0:0|0:0,0:0:0:0:
291,332,220457,1,0,1:0:0:0:
230,372,220548,6,0,P|170:356|146:273,1,139.999995727539,8|4,0:0|1:2,0:0:0:0:
249,177,220821,2,0,P|265:236|205:299,1,139.999995727539,8|0,1:0|0:0,0:0:0:0:
186,225,221094,2,0,P|179:190|167:157,1,69.9999978637696,6|0,1:2|1:0,0:0:0:0:
52,66,221275,5,12,1:3:0:0:
83,81,221366,1,12,1:3:0:0:
117,73,221457,1,0,0:0:0:0:
139,46,221548,1,0,0:0:0:0:
209,184,221821,5,12,1:3:0:0:
240,199,221912,1,12,1:3:0:0:
274,191,222003,1,0,0:0:0:0:
296,164,222094,1,0,0:0:0:0:
397,300,222366,5,12,1:3:0:0:
467,308,222457,1,12,1:3:0:0:
496,243,222548,1,2,1:3:0:0:
444,196,222639,1,2,1:3:0:0:
382,230,222730,6,0,P|322:230|282:141,1,139.999995727539,12|4,0:1|1:2,0:0:0:0:
322,73,223003,1,8,1:0:0:0:
356,110,223094,1,8,0:0:0:0:
353,161,223185,1,0,0:0:0:0:
295,239,223275,6,0,L|195:228,1,100,14|0,1:3|2:0,0:0:0:0:
203,237,223639,6,0,L|302:247,1,100,14|0,1:3|2:0,0:0:0:0:
306,255,224003,6,0,B|214:245|214:245|156:180|209:99,1,240,12|0,0:0|2:0,0:0:0:0:
337,64,224366,1,8,0:0:0:0:
352,69,224427,1,8,0:0:0:0:
367,74,224488,1,8,0:0:0:0:
381,79,224548,6,0,L|285:94,1,69.9999978637696,12|0,0:1|0:0,0:0:0:0:
195,123,224730,2,0,B|244:130|244:130|272:158|272:158|339:167,1,139.999995727539,4|8,1:2|0:0,0:0:0:0:
226,216,225003,1,0,0:0:0:0:
205,202,225094,2,0,L|35:225,1,139.999995727539,4|8,1:2|0:0,0:0:0:0:
270,323,225457,2,0,L|172:340,1,69.9999978637696,12|0,1:2|1:0,0:0:0:0:
120,351,225639,5,8,0:0:0:0:
322,254,225821,1,4,1:2:0:0:
97,128,226003,2,0,P|118:44|176:108,1,209.999993591309,8|8,0:0|1:0,0:0:0:0:
106,133,226366,6,0,P|136:116|173:118,1,69.9999978637696,8|0,0:0|0:0,0:0:0:0:
337,203,226548,1,4,1:2:0:0:
303,171,226639,1,8,1:0:0:0:
257,163,226730,1,8,0:0:0:0:
215,181,226821,5,0,0:0:0:0:
270,236,226912,1,4,1:2:0:0:
340,210,227003,1,8,1:0:0:0:
368,137,227094,2,0,P|362:70|343:-8,1,139.999995727539,8|6,0:0|1:2,0:0:0:0:
328,30,227366,1,8,1:2:0:0:
295,44,227457,1,8,0:0:0:0:
260,38,227548,1,8,0:0:0:0:
194,60,227639,6,0,L|93:40,1,69.9999978637696,14|0,1:3|1:0,0:0:0:0:
251,133,227821,2,0,L|266:201,1,69.9999978637696,8|8,0:0|0:0,0:0:0:0:
70,254,228003,1,14,1:1:0:0:
85,183,228094,1,8,1:0:0:0:
156,172,228185,1,14,1:1:0:0:
196,234,228275,5,8,1:0:0:0:
181,267,228366,1,8,1:2:0:0:
196,301,228457,1,10,1:1:0:0:
231,310,228548,2,0,B|282:309|344:289|344:289|327:307,1,139.999995727539,12|4,0:1|1:2,0:0:0:0:
195,373,228821,1,8,1:0:0:0:
132,340,228912,2,0,L|63:329,1,69.9999978637696,8|0,0:0|0:0,0:0:0:0:
277,227,229094,6,0,L|290:111,1,100,12|0,1:3|0:0,0:0:0:0:
281,121,229457,6,0,L|269:220,1,100,12|0,1:3|0:0,0:0:0:0:
261,213,229821,6,0,B|274:109|274:109|225:36|132:91,1,240,12|0,1:3|0:0,0:0:0:0:
93,119,230185,1,8,0:0:0:0:
103,142,230245,1,8,0:0:0:0:
126,155,230306,1,8,0:0:0:0:
152,155,230366,2,0,L|244:139,1,80,12|0,0:1|0:0,0:0:0:0:
52,199,230548,6,0,L|189:178,1,139.999995727539,4|8,1:2|0:0,0:0:0:0:
257,209,230821,1,0,0:0:0:0:
273,235,230912,2,0,P|273:269|175:320,1,139.999995727539,4|8,1:2|0:0,0:0:0:0:
161,78,231275,1,4,1:2:0:0:
320,163,231457,6,0,P|346:184|355:217,1,69.9999978637696,8|0,0:0|0:0,0:0:0:0:
409,282,231639,2,0,P|433:257|438:223,1,69.9999978637696,4|8,1:2|1:0,0:0:0:0:
273,235,231821,2,0,B|188:217|225:286|108:256,1,139.999995727539,8|0,0:0|0:0,0:0:0:0:
24,183,232094,1,8,1:0:0:0:
57,117,232185,6,0,B|105:100|105:100|141:233,1,139.999995727539,8|4,0:0|1:2,0:0:0:0:
194,239,232457,2,0,B|146:222|146:222|110:355,1,139.999995727539,8|0,1:0|0:0,0:0:0:0:
108,324,232730,2,0,L|125:256,1,69.9999978637696,4|8,1:2|1:0,0:0:0:0:
208,135,232912,5,2,0:2:0:0:
208,135,233003,1,0,0:0:0:0:
208,135,233094,2,0,L|192:52,1,69.9999978637696,14|0,0:0|1:0,0:0:0:0:
326,231,233275,1,0,1:0:0:0:
400,217,233366,2,0,L|412:148,1,69.9999978637696,14|0,0:0|1:0,0:0:0:0:
230,283,233548,1,0,1:0:0:0:
305,308,233639,6,0,B|300:259|300:259|278:222|278:222|271:138,1,139.999995727539,14|0,0:0|1:1,0:0:0:0:
419,30,233912,1,14,0:0:0:0:
350,11,234003,2,0,B|404:48|404:48|370:205,1,160,14|2,1:0|1:0,0:0:0:0:
373,146,234245,1,8,0:0:0:0:
362,151,234306,1,8,0:0:0:0:
350,156,234366,6,0,P|231:133|181:24,1,250,14|2,0:0|1:0,0:0:0:0:
184,15,234639,2,0,P|223:128|154:226,1,250,12|0,0:1|0:0,0:0:0:0:
143,228,234912,2,0,P|166:180|255:142,1,125,14|0,0:0|0:0,0:0:0:0:
350,156,235094,5,8,0:0:0:0:
415,196,235185,2,0,B|431:220|422:250|422:250|370:204|431:86,1,200,14|8,0:0|0:0,0:0:0:0:
416,115,235457,6,0,P|407:208|315:227,1,200,14|8,0:0|0:0,0:0:0:0:
356,377,235730,2,0,P|279:322|309:233,1,200,12|0,0:1|0:0,0:0:0:0:
269,112,236003,2,0,P|317:118|349:155,1,100,14|0,0:0|0:0,0:0:0:0:
354,298,236185,5,8,0:0:0:0:
334,324,236275,1,0,0:0:0:0:
297,339,236366,1,2,0:0:0:0:
247,333,236457,1,8,0:0:0:0:
209,289,236548,1,2,0:0:0:0:
174,257,236639,1,2,0:0:0:0:
137,248,236730,1,8,0:0:0:0:
110,252,236821,1,2,0:0:0:0:
96,260,236912,1,10,0:0:0:0:
86,272,237003,1,2,0:0:0:0:
82,284,237094,2,0,L|119:274,1,25,0|2,0:0|0:0,0:0:0:0:
148,346,237275,6,0,B|192:302|192:302|144:130,1,200,14|8,0:0|0:0,0:0:0:0:
237,2,237548,2,0,B|281:46|281:46|233:218,1,200,12|0,0:1|0:0,0:0:0:0:
160,159,237821,2,0,B|127:165|127:165|109:193|109:193|68:203,1,100,14|0,0:0|0:0,0:0:0:0:
1,298,238003,5,8,0:0:0:0:
65,344,238094,2,0,P|133:344|168:217,1,200,14|8,0:0|0:0,0:0:0:0:
262,206,238366,2,0,P|194:206|159:79,1,200,14|8,0:0|0:0,0:0:0:0:
302,90,238639,2,0,B|361:101|361:101|224:132,1,200,12|0,0:1|0:0,0:0:0:0:
108,163,238912,2,0,L|-10:188,1,100,14|0,0:0|0:0,0:0:0:0:
142,54,239094,6,0,L|153:102,1,50,2|8,0:0|0:0,0:0:0:0:
181,199,239275,2,0,L|192:247,2,50,2|0|8,0:0|0:0|0:0,0:0:0:0:
214,154,239548,1,8,0:0:0:0:
259,142,239639,1,2,0:0:0:0:
296,148,239730,1,8,0:0:0:0:
323,163,239821,1,10,0:0:0:0:
335,178,239912,1,2,0:0:0:0:
340,188,240003,1,0,0:0:0:0:
342,199,240094,1,2,0:0:0:0:
318,233,240185,6,0,P|280:146|333:66,1,200,14|8,0:0|0:0,0:0:0:0:
343,62,240457,2,0,P|438:72|481:158,1,200,12|0,0:1|0:0,0:0:0:0:
479,168,240730,2,0,P|422:245|326:239,1,200,14|8,0:0|0:0,0:0:0:0:
389,125,241003,6,0,P|407:166|364:179,1,100,14|0,0:0|0:0,0:0:0:0:
250,96,241185,1,8,0:0:0:0:
317,129,241275,6,0,B|248:140|248:140|209:185|209:185|139:197,1,200,14|8,0:0|0:0,0:0:0:0:
143,120,241548,2,0,B|210:136|210:136|245:185|245:185|313:203,1,200,12|0,0:1|0:0,0:0:0:0:
225,262,241821,2,0,L|236:62,1,200,14|2,0:0|0:0,0:0:0:0:
224,273,242185,6,0,L|221:322,1,50,8|2,0:0|0:0,0:0:0:0:
289,351,242366,1,8,0:0:0:0:
327,343,242457,1,2,0:0:0:0:
341,314,242548,5,8,0:0:0:0:
371,320,242639,1,8,0:0:0:0:
378,349,242730,5,10,0:0:0:0:
402,345,242821,1,2,0:0:0:0:
424,323,242912,5,0,0:0:0:0:
440,327,243003,1,2,0:0:0:0:
468,331,243094,6,0,P|426:246|331:239,1,200,14|8,0:0|0:0,0:0:0:0:
290,173,243366,2,0,P|194:166|140:245,1,200,12|0,0:1|0:0,0:0:0:0:
68,230,243639,2,0,P|43:272|47:321,1,100,14|0,0:0|0:0,0:0:0:0:
116,305,243821,5,8,0:0:0:0:
113,287,243912,2,0,L|83:76,1,200,14|8,0:0|0:0,0:0:0:0:
427,88,244185,2,0,L|399:287,1,200,12|0,0:0|0:0,0:0:0:0:
256,228,244457,1,8,0:0:0:0:
256,156,244548,5,8,0:2:0:0:
256,192,244639,12,2,246003,2:0:0:0:
283,112,246185,5,2,0:2:0:0:
378,261,246366,5,14,0:0:0:0:
338,293,246457,1,2,0:0:0:0:
288,301,246548,1,2,0:0:0:0:
241,281,246639,1,2,0:0:0:0:
196,221,246730,6,0,L|204:159,1,60,2|0,0:2|0:0,0:0:0:0:
236,292,247094,5,14,0:0:0:0:
283,312,247185,1,2,0:0:0:0:
333,304,247275,1,2,0:0:0:0:
373,272,247366,1,2,0:0:0:0:
402,209,247457,6,0,L|439:198,1,25,2|0,0:2|0:0,0:0:0:0:
405,132,247639,2,0,L|381:139,1,25,2|0,0:2|0:0,0:0:0:0:
368,286,247821,5,14,0:0:0:0:
328,318,247912,1,2,0:0:0:0:
278,326,248003,1,2,0:0:0:0:
231,306,248094,1,2,0:0:0:0:
187,242,248185,5,0,1:0:0:0:
182,214,248275,1,0,1:0:0:0:
194,231,248366,5,0,1:0:0:0:
189,203,248457,1,0,1:0:0:0:
193,129,248548,5,14,0:0:0:0:
157,93,248639,1,2,0:0:0:0:
107,104,248730,1,2,0:0:0:0:
90,153,248821,1,2,0:0:0:0:
109,200,248912,6,0,L|137:216,1,25,8|8,1:0|1:0,0:0:0:0:
115,226,249003,2,0,L|123:257,1,25,8|8,1:0|1:0,0:0:0:0:
102,249,249094,2,0,L|86:276,1,25,8|8,1:0|1:0,0:0:0:0:
77,256,249185,2,0,L|46:264,1,25,8|8,1:0|1:0,0:0:0:0:
30,237,249275,6,0,L|25:190,6,37.5000014305115,8|8|8|8|8|8|8,1:0|1:0|1:0|1:0|1:0|1:0|1:0,0:0:0:0:
187,295,249639,2,0,L|183:332,6,37.5000014305115,8|8|8|8|8|8|8,1:0|1:0|1:0|1:0|1:0|1:0|1:0,0:0:0:0:
340,215,250003,2,0,L|336:177,6,37.5000014305115,8|8|8|8|8|8|8,1:0|1:0|1:0|1:0|1:0|1:0|1:0,0:0:0:0:
512,325,250366,6,0,B|449:365|449:365|378:339,1,150.000005722046,2|0,1:2|0:0,0:0:0:0:
365,246,250639,2,0,B|428:206|428:206|498:231,1,150.000005722046,2|0,1:2|0:0,0:0:0:0:
438,285,250912,6,0,L|374:281,1,50,2|0,1:2|0:0,0:0:0:0:
183,272,251094,6,0,L|72:265,1,100,0|0,1:0|0:0,0:0:0:0:
288,278,251457,5,10,0:2:0:0:
327,195,251578,5,10,0:2:0:0:
292,126,251700,5,10,0:2:0:0:
307,94,251821,6,0,L|406:84,1,100,8|0,1:0|2:0,0:0:0:0:
500,47,252003,6,0,L|400:56,1,100,2|0,0:2|2:0,0:0:0:0:
198,199,252185,5,12,0:1:0:0:
292,192,252366,2,0,L|218:198,1,75.0000028610231,10|8,1:0|0:0,0:0:0:0:
79,276,252548,1,8,0:0:0:0:
121,262,252639,1,2,1:0:0:0:
164,274,252730,1,8,0:0:0:0:
191,310,252821,1,10,1:0:0:0:
164,346,252912,6,0,P|144:314|149:268,1,75.0000028610231,8|0,1:0|0:0,0:0:0:0:
205,202,253094,1,10,1:1:0:0:
197,189,253154,1,8,0:0:0:0:
186,178,253215,1,8,0:0:0:0:
173,170,253275,6,0,P|103:174|64:250,1,150.000005722046,8|0,0:0|1:0,0:0:0:0:
178,295,253548,1,10,1:0:0:0:
193,312,253639,1,8,0:0:0:0:
233,293,253730,1,8,0:0:0:0:
277,301,253821,1,2,1:0:0:0:
306,335,253912,1,10,1:0:0:0:
376,293,254003,6,0,P|444:318|500:274,1,150.000005722046,8|10,0:0|1:1,0:0:0:0:
369,274,254275,6,2,P|364:209|305:233,1,150.000005722046,8|0,0:0|0:0,1:0:0:0:
254,145,254548,6,2,P|230:102|183:92,1,100,0|0,0:0|2:0,1:0:0:0:
59,239,254730,5,8,0:0:0:0:
105,294,254821,2,0,L|95:214,1,75.0000028610231,10|0,1:0|1:2,0:0:0:0:
193,276,255003,5,8,0:0:0:0:
239,331,255094,2,0,L|229:251,1,75.0000028610231,10|0,1:0|0:0,0:0:0:0:
332,297,255275,5,8,1:2:0:0:
378,352,255366,1,10,1:0:0:0:
450,330,255457,6,0,B|470:220|470:220|435:253,1,150.000005722046,0|10,0:0|1:0,0:0:0:0:
388,178,255730,2,0,B|415:130|418:85|418:85|418:113|428:136,1,150.000005722046,8|8,1:0|0:0,0:0:0:0:
259,274,256003,2,0,P|236:285|212:290,2,50.0000019073487,2|2|2,1:0|1:1|1:0,0:0:0:0:
317,212,256185,6,0,B|347:256|347:256|328:350,1,150,14|0,1:3|0:0,0:0:0:0:
193,147,256457,2,0,B|139:150|139:150|67:87,1,150,14|0,1:3|0:0,0:0:0:0:
306,79,256730,2,0,B|326:37|326:37|377:23,1,100,14|0,1:0|0:0,0:0:0:0:
479,5,256912,5,10,0:0:0:0:
315,152,257094,2,0,P|291:152|268:142,1,50,8|0,1:3|0:0,0:0:0:0:
192,98,257275,2,0,P|167:97|144:107,1,50,2|0,1:3|0:0,0:0:0:0:
278,51,257457,5,8,1:0:0:0:
296,57,257518,1,0,0:0:0:0:
307,73,257578,1,0,0:0:0:0:
312,91,257639,6,0,L|303:165,1,75.0000028610231,12|0,0:1|0:0,0:0:0:0:
242,232,257821,1,0,1:0:0:0:
198,203,257912,1,10,1:0:0:0:
145,209,258003,1,8,0:0:0:0:
113,250,258094,1,0,1:0:0:0:
119,302,258185,1,2,1:0:0:0:
153,341,258275,1,8,0:0:0:0:
229,331,258366,6,0,L|314:342,1,75.0000028610231,8|0,0:0|1:0,0:0:0:0:
144,362,258548,1,10,0:0:0:0:
53,344,258639,2,2,B|4:318|4:318|-4:223,1,150.000005722046,8|0,1:0|0:0,1:0:0:0:
59,83,258912,2,0,P|58:58|47:35,2,50.0000019073487,10|0|0,1:0|0:0|0:0,0:0:0:0:
22,150,259094,6,0,B|68:123|68:123|113:131,1,100,14|0,0:0|2:0,0:0:0:0:
141,109,259230,6,0,B|192:122|192:122|218:161,1,100,10|0,1:0|2:0,0:0:0:0:
253,153,259366,6,0,B|280:199|280:199|271:244,1,100,10|0,1:0|2:0,0:0:0:0:
117,384,259457,6,0,P|120:335|157:304,1,100,14|0,0:1|2:0,0:0:0:0:
150,269,259594,6,0,P|186:237|235:241,1,100,10|0,1:0|2:0,0:0:0:0:
251,210,259730,6,0,P|299:213|330:250,1,100,10|0,1:0|2:0,0:0:0:0:
389,323,259821,5,14,0:0:0:0:
441,248,259957,5,10,1:0:0:0:
401,163,260094,6,2,P|352:35|469:106,1,359.999989013672,12|0,0:1|2:0,1:0:0:0:
325,233,260548,6,0,P|297:256|260:259,1,75.0000028610231,12|0,0:1|0:0,0:0:0:0:
225,101,260730,1,0,1:0:0:0:
264,136,260821,1,10,1:0:0:0:
267,188,260912,1,8,0:0:0:0:
193,172,261003,2,0,B|151:204|151:204|39:173,1,150.000005722046,2|8,1:0|0:0,0:0:0:0:
4,245,261275,5,12,0:1:0:0:
42,172,261366,1,2,1:0:0:0:
17,93,261457,2,0,L|29:19,1,75.0000028610231,0|8,1:0|0:0,0:0:0:0:
42,183,261639,6,0,B|66:47|66:47|139:29|178:91,1,269.999991760254,14|10,0:1|1:0,0:0:0:0:
437,200,262003,6,0,P|369:255|284:237,1,179.999994506836,12|2,0:0|1:0,0:0:0:0:
293,272,262275,6,0,P|206:263|158:190,1,179.999994506836,12|2,1:0|0:0,0:0:0:0:
131,215,262548,6,0,P|110:175|110:130,1,89.9999972534181,12|8,1:0|1:0,0:0:0:0:
206,73,262730,5,10,0:1:0:0:
242,104,262821,2,0,P|262:143|262:188,1,89.9999972534181,2|2,1:0|1:2,0:0:0:0:
400,183,263003,6,0,B|360:164|360:164|238:178|238:178|189:159,1,220.000006713867,12|0,0:1|0:0,0:0:0:0:
16,279,263275,6,2,P|108:238|86:337,1,250,10|0,0:0|2:0,1:0:0:0:
22,202,263821,6,0,B|0:171|0:171|2:134,1,75.0000028610231,8|8,0:0|0:0,0:0:0:0:
234,18,264003,5,12,0:1:0:0:
145,102,264185,1,2,1:0:0:0:
31,64,264366,1,10,1:0:0:0:
161,122,264548,6,0,B|227:114|227:114|251:126|251:126|307:119,1,150.000005722046,12|0,0:0|1:0,0:0:0:0:
404,75,264821,1,10,1:0:0:0:
414,52,264912,6,0,L|420:126,1,75.0000028610231,12|0,0:1|0:0,0:0:0:0:
461,227,265094,1,8,1:2:0:0:
446,244,265185,1,2,1:0:0:0:
431,261,265275,5,8,0:0:0:0:
391,242,265366,1,2,0:0:0:0:
347,250,265457,1,8,1:3:0:0:
318,284,265548,1,8,1:0:0:0:
384,320,265639,6,0,L|391:120,1,200,12|10,0:0|1:0,0:0:0:0:
142,38,265912,2,0,L|149:237,1,200,12|10,0:0|1:0,0:0:0:0:
278,128,266185,1,14,0:0:0:0:
390,120,266366,6,0,L|292:126,1,89.9999972534181,8|8,0:0|0:0,0:0:0:0:
199,58,266730,5,12,0:1:0:0:
242,73,266821,1,10,0:0:0:0:
266,108,266912,2,0,P|275:143|268:180,1,75.0000028610231,10|0,1:0|1:0,0:0:0:0:
183,314,267094,5,8,0:0:0:0:
230,244,267185,2,0,P|319:223|360:296,1,150.000005722046,14|8,0:0|1:3,0:0:0:0:
485,346,267457,6,0,B|451:353|451:353|426:348|426:348|409:358|409:358|378:358,1,110,0|0,0:0|2:0,0:0:0:0:
383,363,268548,6,2,P|321:229|441:157,1,300,0|0,0:0|2:0,1:0:0:0:
407,245,268912,6,0,P|396:263|408:280,1,44.999998626709,8|0,0:0|2:0,0:0:0:0:
485,322,269275,5,12,0:1:0:0:
444,301,269366,1,0,1:0:0:0:
398,300,269457,1,0,1:0:0:0:
355,315,269548,1,0,1:0:0:0:
323,345,269639,5,8,0:0:0:0:
275,360,269730,1,0,1:0:0:0:
226,346,269821,1,0,1:0:0:0:
207,299,269912,1,0,1:0:0:0:
170,266,270003,5,8,0:0:0:0:
143,272,270094,2,0,L|89:259,1,50,0|0,1:0|1:0,0:0:0:0:
284,198,270275,1,0,1:0:0:0:
257,204,270366,6,0,L|203:191,1,50,8|0,0:0|1:0,0:0:0:0:
119,278,270548,2,0,L|65:265,1,50,0|0,1:0|1:0,0:0:0:0:
311,192,270730,5,8,0:0:0:0:
332,157,270821,1,0,1:0:0:0:
319,119,270912,1,0,1:0:0:0:
285,82,271003,5,0,1:0:0:0:
246,121,271094,1,8,0:0:0:0:
246,176,271185,1,0,1:0:0:0:
280,219,271275,1,0,1:0:0:0:
334,225,271366,1,0,1:0:0:0:
399,203,271457,6,0,L|460:192,1,50,8|0,0:0|1:0,0:0:0:0:
319,245,271639,2,0,L|311:295,1,50,0|0,1:0|1:0,0:0:0:0:
345,126,271821,1,8,0:0:0:0:
370,89,271912,1,0,1:0:0:0:
360,45,272003,1,0,1:0:0:0:
319,24,272094,1,0,1:0:0:0:
271,36,272185,6,0,L|235:26,14,37.5000014305115,8|8|8|8|8|8|8|8|8|8|8|8|8|8|8,1:3|1:3|1:3|1:3|1:3|1:3|1:3|1:3|1:3|1:3|1:3|1:3|1:3|1:3|1:3,0:0:0:0:
108,52,272912,6,0,P|203:50|263:127,1,200,8|8,1:3|1:3,0:0:0:0:
495,145,273185,2,0,P|398:144|331:214,1,200,8|8,1:3|1:3,0:0:0:0:
209,358,273457,6,0,P|173:309|177:248,1,125,8|8,1:3|1:3,0:0:0:0:
237,146,273639,5,0,0:0:0:0:
119,316,273821,2,0,P|162:322|186:294,1,75.0000028610231,2|0,0:2|0:0,0:0:0:0:
250,279,274003,1,2,0:2:0:0:
248,284,274094,1,2,0:2:0:0:
247,289,274185,2,0,P|218:310|183:300,1,75.0000028610231,2|0,0:2|0:0,0:0:0:0:
52,337,274366,1,2,0:2:0:0:
54,332,274457,1,2,0:2:0:0:
55,327,274548,2,0,P|85:305|120:315,1,75.0000028610231,2|0,0:2|0:0,0:0:0:0:
249,289,274730,6,0,P|197:367|119:314,1,209.999993591309,2|0,1:2|0:0,0:0:0:0:
114,129,275094,6,0,P|180:201|185:298,1,200,12|0,1:3|0:0,0:0:0:0:
88,204,275366,2,0,P|137:203|181:179,1,100,12|0,1:3|0:0,0:0:0:0:
336,82,275548,1,8,0:0:0:0:
346,68,275639,2,0,P|302:60|275:108,1,100,10|0,1:3|0:0,0:0:0:0:
373,173,275821,6,0,P|280:141|187:171,1,200,12|0,1:3|0:0,0:0:0:0:
118,265,276094,2,0,P|90:224|44:208,1,100,12|0,1:3|0:0,0:0:0:0:
222,308,276275,1,8,1:3:0:0:
271,306,276366,1,10,1:3:0:0:
312,333,276457,1,10,1:3:0:0:
250,372,276548,6,0,P|244:303|344:193,1,200,12|0,1:3|0:0,0:0:0:0:
482,96,276821,2,0,P|446:61|397:55,1,100,14|0,1:3|0:0,0:0:0:0:
287,97,277003,1,0,0:0:0:0:
299,114,277094,6,0,P|241:117|161:3,1,200,12|0,1:3|0:0,0:0:0:0:
374,168,277366,2,0,P|337:200|288:203,1,100,14|0,1:3|0:0,0:0:0:0:
21,50,277548,1,0,0:0:0:0:
1,61,277639,6,0,P|50:66|97:84,1,100,14|0,0:0|0:0,0:0:0:0:
255,199,277821,2,0,P|205:204|158:222,1,100,14|0,0:0|0:0,0:0:0:0:
12,294,278003,6,0,B|111:257|98:346|203:303,1,200,12|0,1:3|0:0,0:0:0:0:
19,207,278275,2,0,P|65:221|84:265,1,100,12|0,1:3|0:0,0:0:0:0:
293,310,278457,1,8,0:0:0:0:
314,323,278548,2,0,P|281:364|219:350,1,100,10|0,1:3|0:0,0:0:0:0:
141,365,278730,6,0,P|237:354|299:279,1,200,12|0,1:3|0:0,0:0:0:0:
266,140,279003,2,0,P|242:97|194:88,1,100,14|0,1:3|0:0,0:0:0:0:
281,212,279185,1,8,1:3:0:0:
326,195,279275,1,10,1:3:0:0:
343,150,279366,1,10,1:3:0:0:
342,71,279457,6,0,L|367:282,1,200,12|0,1:3|0:0,0:0:0:0:
148,328,279730,2,0,L|125:130,1,200,14|0,1:3|0:0,0:0:0:0:
413,36,280003,2,0,L|437:235,1,200,12|0,1:3|0:0,0:0:0:0:
227,291,280275,6,0,L|203:92,1,200,12|0,0:1|0:0,0:0:0:0:
207,82,280821,1,0,0:0:0:0:
212,76,280912,6,0,P|297:71|374:181,1,200,12|0,1:3|0:0,0:0:0:0:
426,15,281185,2,0,P|378:27|347:65,1,100,12|0,1:3|0:0,0:0:0:0:
205,174,281366,1,8,0:0:0:0:
188,196,281457,2,0,P|135:195|120:129,1,100,10|0,1:3|0:0,0:0:0:0:
87,64,281639,6,0,P|87:162|36:247,1,200,12|0,1:3|0:0,0:0:0:0:
179,25,281912,2,0,P|226:36|260:73,1,100,12|0,1:3|0:0,0:0:0:0:
359,244,282094,1,8,0:0:0:0:
345,196,282185,1,10,0:0:0:0:
360,149,282275,1,10,0:0:0:0:
422,198,282366,6,0,P|308:196|257:121,1,200,12|0,1:3|0:0,0:0:0:0:
327,25,282639,2,0,P|358:62|362:111,1,100,14|0,1:3|0:0,0:0:0:0:
241,234,282821,1,0,0:0:0:0:
178,169,282912,6,0,P|86:148|37:228,1,200,12|0,1:0|0:0,0:0:0:0:
118,222,283185,2,0,L|89:24,1,200,14|0,1:3|0:0,0:0:0:0:
235,219,283457,6,0,P|326:239|375:159,1,200,12|0,1:0|0:0,0:0:0:0:
295,166,283730,2,0,L|323:363,1,200,14|8,1:3|0:0,0:0:0:0:
372,132,284003,6,0,P|420:51|512:72,1,200,12|0,1:0|0:0,0:0:0:0:
452,123,284275,2,0,L|254:94,1,200,14|0,1:3|0:0,0:0:0:0:
154,305,284548,6,0,P|105:224|13:245,1,200,12|0,1:0|0:0,0:0:0:0:
74,296,284821,2,0,L|271:267,1,200,14|8,1:3|0:0,0:0:0:0:
443,224,285094,2,0,P|408:191|361:201,1,100,12|0,1:0|0:0,0:0:0:0:
389,275,285275,5,12,1:3:0:0:
294,241,285397,1,10,1:1:0:0:
207,294,285518,1,8,1:1:0:0:
93,337,285639,5,14,1:3:0:0:
211,315,285760,1,8,1:1:0:0:
286,221,285881,1,10,1:1:0:0:
246,37,286003,5,12,1:3:0:0:
210,141,286124,1,10,1:1:0:0:
265,237,286245,1,8,1:1:0:0:
351,271,286366,6,0,L|384:266,5,33.3333333333333,14|8|8|8|8|8,1:0|0:0|0:0|0:0|0:0|0:0,0:0:0:0:
480,215,286730,5,12,0:0:0:0:
480,215,289457,5,12,0:0:0:0:
362,57,289639,1,12,0:0:0:0:
175,118,289821,1,12,0:0:0:0:
256,192,290003,12,0,291821,2:0:0:0:
256,192,291912,6,0,L|206:196,1,50,12|0,0:0|0:0,0:0:0:0:
132,226,292185,5,12,0:0:0:0:
88,140,292366,2,0,L|85:123,2,16.6666666666667,10|8|8,1:0|1:0|1:0,0:0:0:0:
135,306,292548,6,0,L|123:361,1,50,12|0,0:0|0:0,0:0:0:0:
