osu file format v14

[General]
AudioFilename: audio.mp3
AudioLeadIn: 0
PreviewTime: 187457
Countdown: 0
SampleSet: None
StackLeniency: 0.3
Mode: 0
LetterboxInBreaks: 0
WidescreenStoryboard: 1

[Editor]
Bookmarks: 13275,24912,36549,51094,74367,83003,91821,115094,126730,138367,150003,161640,168457,173276,187821,199458,211094,222730,234367,246003,251821,269276,275094,286730,292548
DistanceSpacing: 0.5
BeatDivisor: 4
GridSize: 32
TimelineZoom: 2.499999

[Metadata]
Title:ANOMALY (Camellia's "MUTATION" Schranz Remix)
TitleUnicode:∀NOMALY (かめりあ's "MUT∀TION" Schranz Remix)
Artist:Camellia
ArtistUnicode:かめりあ
Creator:thzz
Version:Mir's Irregularity
Source:osu!
Tags:Guest Track Summary & VIPs 02 toybot Mir Nanashima Asami featured artist fa
BeatmapID:1984258
BeatmapSetID:932446

[Difficulty]
HPDrainRate:4
CircleSize:3.8
OverallDifficulty:8.7
ApproachRate:9.7
SliderMultiplier:2.2
SliderTickRate:1

[Events]
//Background and Video events
0,0,"back.jpg",0,0
//Break Periods
2,25112,30008
2,122566,126190
//Storyboard Layer 0 (Background)
//Storyboard Layer 1 (Fail)
//Storyboard Layer 2 (Pass)
//Storyboard Layer 3 (Foreground)
//Storyboard Sound Samples

[TimingPoints]
185,363.636363636364,4,3,1,5,1,0
730,-100,4,3,1,20,0,0
912,-100,4,3,1,30,0,0
1094,-100,4,3,1,40,0,0
1275,-100,4,3,1,50,0,0
1457,-100,4,3,1,60,0,0
1548,-100,4,3,1,5,0,0
1639,-100,4,3,1,45,0,0
3094,-133.333333333333,4,3,1,45,0,0
3366,-100,4,3,1,45,0,0
3639,-133.333333333333,4,3,1,45,0,0
4366,-66.6666666666667,4,3,1,45,0,0
4912,-100,4,3,1,45,0,0
6821,-66.6666666666667,4,3,1,45,0,0
7457,-100,4,3,1,45,0,0
10185,-66.6666666666667,4,3,1,45,0,0
13275,-100,4,3,1,45,0,0
14730,-133.333333333333,4,3,1,45,0,0
15003,-100,4,3,1,45,0,0
15275,-133.333333333333,4,3,1,45,0,0
15639,-100,4,3,1,45,0,0
16003,-66.6666666666667,4,3,1,45,0,0
16548,-100,4,3,1,45,0,0
18457,-66.6666666666667,4,3,1,45,0,0
19094,-100,4,3,1,52,0,0
21821,-66.6666666666667,4,3,1,52,0,0
23457,-66.6666666666667,4,3,1,30,0,0
24912,-66.6666666666667,4,2,2,60,0,0
30548,-125,4,2,2,60,0,0
36548,-66.6666666666667,4,3,1,70,0,0
39094,-125,4,3,1,70,0,0
39366,-125,4,3,1,5,0,0
39457,-66.6666666666667,4,3,1,70,0,0
42003,-125,4,3,1,70,0,0
45275,-50,4,3,1,70,0,0
48275,-50,4,3,1,20,0,0
49275,-50,4,3,1,30,0,0
49639,-50,4,3,1,40,0,0
50003,-100,4,3,1,60,0,0
51094,-66.6666666666667,4,3,1,60,0,1
53548,-200,4,3,1,60,0,1
53912,-200,4,3,1,5,0,1
54003,-66.6666666666667,4,3,1,60,0,1
56685,-66.6666666666667,4,3,1,5,0,1
56730,-66.6666666666667,4,3,1,60,0,1
56775,-66.6666666666667,4,3,1,5,0,1
56821,-66.6666666666667,4,3,1,60,0,1
56866,-66.6666666666667,4,3,1,5,0,1
56912,-66.6666666666667,4,3,1,60,0,1
57048,-66.6666666666667,4,3,1,5,0,1
57094,-200,4,3,1,60,0,1
57139,-200,4,3,1,5,0,1
57185,-200,4,3,1,60,0,1
57230,-200,4,3,1,5,0,1
57275,-200,4,3,1,60,0,1
57321,-200,4,3,1,5,0,1
57366,-200,4,3,1,60,0,1
57412,-200,4,3,1,5,0,1
57457,-66.6666666666667,4,3,1,5,0,1
57458,-66.6666666666667,4,3,1,60,0,1
59366,-200,4,3,1,60,0,1
59594,-200,4,3,1,5,0,1
59640,-200,4,3,1,60,0,1
59821,-66.6666666666667,4,3,1,60,0,1
62548,-100,4,3,1,60,0,0
62821,-100,4,3,1,5,0,0
62912,-100,4,3,1,70,0,0
63094,-66.6666666666667,4,1,2,70,0,1
63154,-66.6666666666667,4,3,1,70,0,1
64912,-133.333333333333,4,3,1,70,0,1
65639,-66.6666666666667,4,3,1,70,0,1
67821,-100,4,3,1,70,0,1
68457,-100,4,3,1,5,0,1
68549,-100,4,3,1,70,0,1
72185,-66.6666666666667,4,3,1,70,0,1
72912,-100,4,3,1,70,0,1
74003,-66.6666666666667,4,3,1,70,0,1
74275,-66.6666666666667,4,3,1,5,0,0
74366,-142.857142857143,4,3,1,80,0,0
75094,-125,4,3,1,80,0,0
75821,-111.111111111111,4,3,1,80,0,0
76366,-100,4,3,1,80,0,0
77094,-111.111111111111,4,3,1,80,0,0
77275,-125,4,3,1,80,0,0
78003,-142.857142857143,4,3,1,80,0,0
78730,-125,4,3,1,80,0,0
79275,-111.111111111111,4,3,1,80,0,0
80094,-111.111111111111,4,3,1,5,0,0
80185,-142.857142857143,4,3,1,80,0,0
80912,-125,4,3,1,80,0,0
81639,-111.111111111111,4,3,1,80,0,0
82185,-100,4,3,1,80,0,0
82730,-83.3333333333333,4,3,1,80,0,0
83275,-71.4285714285714,4,3,1,80,0,0
83821,-62.5,4,3,1,80,0,0
84366,-55.5555555555556,4,3,1,80,0,0
86003,-55.5555555555556,4,3,1,70,0,0
89275,-55.5555555555556,4,3,1,20,0,0
91094,-55.5555555555556,4,3,1,5,0,0
91185,-55.5555555555556,4,3,1,60,0,0
91821,-55.5555555555556,4,3,3,70,0,1
94275,-100,4,3,3,70,0,1
94639,-100,4,3,3,5,0,1
94730,-55.5555555555556,4,3,3,70,0,1
96912,-100,4,3,4,70,0,1
97457,-55.5555555555556,4,3,4,70,0,1
97458,-55.5555555555556,4,3,3,70,0,1
100185,-100,4,3,3,70,0,0
100457,-100,4,3,3,5,0,0
100549,-100,4,2,2,40,0,0
102003,-50,4,3,3,70,0,1
103457,-55.5555555555556,4,3,3,70,0,1
104912,-133.333333333333,4,3,4,80,0,0
106366,-55.5555555555556,4,3,3,80,0,1
107821,-133.333333333333,4,3,4,80,0,0
108730,-66.6666666666667,4,3,4,80,0,0
109275,-55.5555555555556,4,3,3,80,0,1
110730,-100,4,3,4,80,0,0
111821,-66.6666666666667,4,3,4,80,0,0
112185,-66.6666666666667,4,3,3,80,0,1
114730,-100,4,3,3,80,0,0
115094,-100,4,1,4,80,0,0
115185,-100,4,1,4,20,0,0
122366,-100,4,3,1,5,0,0
126730,-125,4,3,5,60,0,0
149275,-166.666666666667,4,3,5,60,0,0
150003,-166.666666666667,4,1,4,60,0,0
150094,-166.666666666667,4,1,4,20,0,0
152912,-166.666666666667,4,3,1,40,0,0
157094,-166.666666666667,4,3,1,5,0,0
157275,-166.666666666667,4,2,2,40,0,0
158730,-125,4,3,1,50,0,0
159457,-100,4,3,1,60,0,0
160185,-100,4,3,4,70,0,0
161639,-66.6666666666667,4,3,1,70,0,0
161912,-66.6666666666667,4,3,1,60,0,0
164548,-83.3333333333333,4,3,1,60,0,0
165275,-83.3333333333333,4,3,1,55,0,0
166003,-100,4,3,1,50,0,0
166730,-100,4,3,1,45,0,0
167457,-100,4,3,1,40,0,0
168185,-100,4,3,1,50,0,0
169094,-100,4,3,1,60,0,0
169639,-100,4,3,1,70,0,0
170366,-100,4,3,1,75,0,0
171094,-100,4,3,1,80,0,0
171821,-66.6666666666667,4,3,1,80,0,0
172094,-66.6666666666667,4,3,1,80,0,0
172548,-66.6666666666667,4,3,1,60,0,0
173275,-66.6666666666667,4,3,1,70,0,0
175821,-133.333333333333,4,3,1,70,0,0
176094,-133.333333333333,4,3,1,5,0,0
176185,-66.6666666666667,4,3,1,70,0,0
178366,-100,4,3,1,70,0,0
178730,-200,4,3,1,70,0,0
179003,-200,4,3,1,5,0,0
179094,-200,4,3,1,70,0,0
179275,-100,4,3,1,70,0,0
179457,-200,4,3,1,70,0,0
181639,-66.6666666666667,4,3,1,70,0,0
184912,-66.6666666666667,4,1,4,70,0,0
185003,-66.6666666666667,4,3,1,20,0,0
186366,-66.6666666666667,4,3,1,70,0,0
186730,-100,4,3,1,70,0,0
187821,-50,4,3,6,70,0,1
192912,-66.6666666666667,4,3,6,70,0,1
193185,-100,4,3,6,70,0,1
193548,-100,4,3,6,5,0,1
193639,-50,4,3,6,70,0,1
198821,-200,4,3,6,70,0,0
199457,-66.6666666666667,4,3,6,70,0,0
199821,-50,4,3,6,70,0,1
202003,-100,4,3,6,70,0,1
202275,-100,4,3,6,5,0,1
202366,-50,4,3,6,70,0,1
204185,-100,4,3,6,70,0,1
204457,-100,4,3,6,5,0,1
204548,-100,4,3,6,70,0,1
205275,-50,4,3,6,70,0,1
205821,-200,4,3,6,70,0,0
206003,-200,4,3,4,70,0,0
206366,-66.6666666666667,4,3,4,70,0,0
206730,-50,4,3,6,70,0,1
207275,-200,4,3,6,70,0,0
208185,-50,4,3,6,70,0,1
209639,-100,4,3,6,70,0,0
210730,-66.6666666666667,4,3,6,70,0,0
210912,-50,4,3,6,70,0,0
211094,-200,4,3,4,70,0,0
211639,-200,4,3,4,5,0,0
211821,-200,4,3,6,40,0,0
213275,-200,4,3,6,50,0,0
214003,-66.6666666666667,4,3,6,70,0,1
221275,-133.333333333333,4,3,6,70,0,1
221730,-133.333333333333,4,3,6,5,0,1
221821,-100,4,3,6,70,0,1
222730,-50,4,3,6,70,0,1
223275,-50,4,3,6,70,0,0
223321,-50,4,3,6,5,0,0
223457,-50,4,3,6,70,0,0
223685,-50,4,3,6,5,0,0
223821,-50,4,3,6,70,0,0
224003,-133.333333333333,4,3,6,70,0,0
224275,-133.333333333333,4,3,6,5,0,0
224366,-133.333333333333,4,3,6,70,0,0
224548,-50,4,3,6,70,0,1
229094,-50,4,3,6,70,0,0
229139,-50,4,3,6,5,0,0
229275,-50,4,3,6,70,0,0
229503,-50,4,3,6,5,0,0
229639,-50,4,3,6,70,0,0
229821,-133.333333333333,4,3,6,70,0,0
230185,-50,4,3,6,70,0,1
234185,-50,4,3,6,70,0,0
234366,-50,4,3,6,70,0,1
236185,-50,4,3,4,70,0,1
236912,-50,4,3,6,70,0,1
239094,-50,4,3,4,70,0,1
239821,-50,4,3,6,70,0,1
242003,-50,4,3,4,70,0,1
242730,-50,4,3,6,70,0,1
244185,-100,4,3,4,70,0,1
244548,-66.6666666666667,4,3,4,70,0,0
244639,-66.6666666666667,4,3,4,20,0,0
244730,-100,4,3,1,20,0,0
244912,-133.333333333333,4,3,1,30,0,0
245094,-200,4,3,1,30,0,0
245275,-200,4,3,1,40,0,0
245639,-200,4,3,1,50,0,0
245912,-200,4,3,1,5,0,0
246003,-200,4,3,1,70,0,0
246366,-66.6666666666667,4,3,1,70,0,0
246639,-200,4,3,1,70,0,0
247730,-66.6666666666667,4,3,1,70,0,0
248185,-200,4,3,1,70,0,0
248548,-66.6666666666667,4,3,1,70,0,0
249639,-50,4,3,1,70,0,0
250366,-100,4,3,1,40,0,0
250639,-100,4,3,1,50,0,0
250912,-100,4,3,1,60,0,0
251185,-100,4,3,1,80,0,0
251821,-50,4,3,6,80,0,0
251866,-50,4,3,6,5,0,0
252003,-50,4,3,6,70,0,0
252094,-50,4,3,6,5,0,0
252185,-50,4,3,6,75,0,1
254275,-100,4,3,6,75,0,1
254639,-100,4,3,6,5,0,1
254730,-50,4,3,6,75,0,1
256275,-50,4,3,6,5,0,1
256321,-50,4,3,6,75,0,1
256412,-50,4,3,6,5,0,1
256457,-50,4,3,6,75,0,1
256548,-50,4,3,6,5,0,1
256594,-50,4,3,6,75,0,1
256685,-50,4,3,6,5,0,1
256730,-50,4,3,6,75,0,1
256821,-50,4,3,6,5,0,1
256912,-200,4,3,6,75,0,0
257048,-200,4,3,6,5,0,0
257094,-200,4,3,4,75,0,0
257230,-200,4,3,4,5,0,0
257275,-200,4,3,4,75,0,0
257412,-200,4,3,4,5,0,0
257457,-66.6666666666667,4,3,6,75,0,0
257639,-50,4,3,6,75,0,1
259821,-50,4,3,6,75,0,1
259912,-50,4,3,6,5,0,1
259957,-50,4,3,6,75,0,1
260048,-50,4,3,6,5,0,1
260094,-200,4,3,6,75,0,0
260457,-200,4,3,6,5,0,0
260548,-33.3333333333333,4,3,6,75,0,0
260594,-33.3333333333333,4,3,6,5,0,0
260730,-50,4,3,6,75,0,1
262730,-33.3333333333333,4,3,6,75,0,1
263275,-200,4,3,6,75,0,0
263912,-200,4,3,6,5,0,0
264003,-50,4,3,6,75,0,1
266366,-200,4,3,6,75,0,0
266730,-50,4,3,6,75,0,1
267457,-333.333333333333,4,3,1,70,0,0
268185,-333.333333333333,4,3,1,5,0,0
268548,-50,4,3,1,70,0,0
268821,-50,4,3,1,5,0,0
268912,-200,4,3,1,70,0,0
269185,-200,4,3,1,5,0,0
269275,-200,4,3,1,70,0,0
272185,-100,4,3,1,70,0,0
272912,-66.6666666666667,4,3,1,70,0,0
273185,-50,4,3,1,70,0,0
273457,-40,4,3,1,70,0,0
274730,-100,4,3,1,70,0,0
275003,-100,4,3,1,5,0,0
275094,-100,4,3,1,70,0,0
275821,-83.3333333333333,4,3,1,70,0,0
276548,-71.4285714285714,4,3,1,70,0,0
277094,-62.5,4,3,1,70,0,0
277821,-71.4285714285714,4,3,1,70,0,0
278003,-100,4,3,1,70,0,0
278730,-83.3333333333333,4,3,1,70,0,0
279457,-71.4285714285714,4,3,1,70,0,0
280003,-62.5,4,3,1,70,0,0
280366,-133.333333333333,4,3,1,70,0,0
280821,-133.333333333333,4,3,1,5,0,0
280912,-100,4,3,1,70,0,0
281639,-83.3333333333333,4,3,1,70,0,0
282366,-71.4285714285714,4,3,1,70,0,0
282912,-62.5,4,3,1,70,0,0
283457,-55.5555555555556,4,3,1,70,0,0
284003,-50,4,3,1,70,0,0
284548,-45.4545454545455,4,3,1,70,0,0
285094,-40,4,3,1,70,0,0
286730,-40,4,3,1,60,0,0
289912,-40,4,3,1,20,0,0
291730,-40,4,3,1,5,0,0
291912,-66.6666666666667,4,3,1,60,0,0
292548,-200,4,3,1,60,0,0

[Colours]
Combo1 : 186,224,213
Combo2 : 255,147,147
Combo3 : 172,172,213
Combo4 : 255,181,145

[HitObjects]
256,192,548,12,0,1548,2:0:0:0:
188,105,1639,6,0,L|96:92,1,55,12|0,0:0|0:0,0:0:0:0:
40,210,1821,1,0,0:0:0:0:
53,192,1912,2,0,L|145:179,1,55,2|0,0:2|0:0,0:0:0:0:
186,224,2094,1,0,0:0:0:0:
180,251,2185,1,2,0:2:0:0:
175,277,2275,1,2,0:2:0:0:
171,304,2366,6,0,L|160:366,1,55,0|0,0:0|0:0,0:0:0:0:
268,270,2548,1,2,0:2:0:0:
266,293,2639,2,0,L|255:355,1,55,0|0,0:0|0:0,0:0:0:0:
346,360,2821,1,2,0:2:0:0:
352,333,2912,1,2,0:2:0:0:
357,307,3002,1,2,0:2:0:0:
361,280,3093,6,0,P|410:259|481:270,1,110,2|0,0:2|0:2,0:0:0:0:
475,277,3366,2,0,L|491:184,1,55,2|0,0:2|0:2,0:0:0:0:
474,117,3548,1,0,0:0:0:0:
462,134,3639,2,0,P|395:151|320:130,1,123.750004720688,2|0,0:2|0:0,0:0:0:0:
331,123,4003,2,0,L|321:44,1,41.2500015735627,2|0,0:2|0:0,0:0:0:0:
312,0,4185,1,0,0:0:0:0:
312,0,4275,1,0,0:0:0:0:
238,62,4366,6,0,L|139:42,1,82.5000031471254,12|0,0:0|0:0,0:0:0:0:
331,123,4548,2,0,L|430:103,1,82.5000031471254,12|0,0:0|0:0,0:0:0:0:
250,180,4730,2,0,L|151:160,1,82.5000031471254,12|0,0:0|0:0,0:0:0:0:
348,235,4912,6,0,P|365:302|377:369,2,110,2|0|2,0:2|0:0|0:2,0:0:0:0:
169,319,5457,1,2,0:2:0:0:
143,328,5548,1,0,0:0:0:0:
117,337,5639,2,0,L|46:322,1,55,0|0,0:0|0:0,0:0:0:0:
0,245,5821,2,0,L|71:230,1,55,2|0,0:2|0:0,0:0:0:0:
168,129,6003,6,0,L|139:265,1,110,2|0,0:2|0:0,0:0:0:0:
61,91,6275,2,0,L|82:190,1,55,2|0,0:2|0:2,0:0:0:0:
143,38,6457,1,0,0:2:0:0:
168,27,6548,2,0,P|230:55|264:110,1,110,2|2,0:2|0:2,0:0:0:0:
360,196,6821,6,0,P|434:168|451:91,1,165.000006294251,14|0,0:1|0:0,0:0:0:0:
151,196,7094,2,0,P|77:168|61:91,1,165.000006294251,14|14,0:0|0:0,0:0:0:0:
82,91,7336,1,8,0:0:0:0:
90,111,7397,1,8,0:0:0:0:
84,130,7457,6,0,P|62:201|71:269,1,110,14|0,0:0|0:0,0:0:0:0:
31,324,7730,2,0,P|105:325|140:283,1,110,2|0,0:2|0:0,0:0:0:0:
264,237,8003,1,2,0:2:0:0:
242,220,8094,1,2,0:2:0:0:
216,210,8185,6,0,P|179:215|131:231,1,55,0|0,0:0|0:0,0:0:0:0:
211,332,8366,1,2,0:2:0:0:
237,342,8457,2,0,P|274:337|368:330,1,110,0|0,0:0|0:0,0:0:0:0:
455,374,8730,1,2,0:2:0:0:
458,346,8821,1,2,0:2:0:0:
461,318,8912,6,0,L|445:194,1,110,2|0,0:2|0:0,0:0:0:0:
361,180,9185,2,0,L|348:277,1,55,2|0,0:2|0:2,0:0:0:0:
433,123,9366,1,2,0:2:0:0:
416,100,9457,2,0,P|335:83|297:100,1,110,2|0,0:2|0:0,0:0:0:0:
269,170,9730,1,0,0:0:0:0:
248,187,9821,2,0,P|201:185|165:176,1,55,2|0,0:2|0:0,0:0:0:0:
104,173,10003,5,0,0:0:0:0:
104,173,10094,1,0,0:0:0:0:
77,256,10185,6,0,L|56:357,1,82.5000031471254,14|0,0:0|2:0,0:0:0:0:
82,86,10366,2,0,L|61:-15,1,82.5000031471254,14|0,0:0|2:0,0:0:0:0:
193,183,10548,6,0,L|315:169,1,82.5000031471254,14|0,0:0|2:0,0:0:0:0:
512,290,10821,2,0,L|390:276,1,82.5000031471254,14|0,0:0|2:0,0:0:0:0:
292,0,11094,6,0,L|306:122,1,82.5000031471254,14|0,0:0|2:0,0:0:0:0:
335,384,11367,2,0,L|349:262,1,82.5000031471254,14|0,0:0|2:0,0:0:0:0:
422,128,11639,5,10,0:0:0:0:
422,86,11730,1,8,0:0:0:0:
457,107,11821,1,14,0:0:0:0:
296,211,12003,5,10,0:0:0:0:
325,181,12094,1,8,0:0:0:0:
335,220,12185,1,14,0:0:0:0:
160,118,12366,5,8,0:0:0:0:
201,117,12457,1,8,0:0:0:0:
181,151,12548,6,0,P|140:164|70:177,1,82.5000031471254,14|0,0:0|0:0,0:0:0:0:
377,85,12821,2,0,P|417:93|456:106,1,82.5000031471254,14|0,0:0|0:0,0:0:0:0:
274,384,13094,2,0,L|284:275,1,82.5000031471254,14|0,0:0|0:0,0:0:0:0:
272,103,13275,6,0,P|285:152|296:211,1,110,14|0,0:1|0:0,0:0:0:0:
371,324,13548,2,0,P|450:323|472:278,1,110,2|0,0:2|0:0,0:0:0:0:
497,219,13821,1,2,0:2:0:0:
470,212,13912,1,2,0:2:0:0:
443,205,14003,6,0,L|380:193,1,55,0|0,0:0|0:0,0:0:0:0:
295,210,14185,1,2,0:2:0:0:
268,217,14276,2,0,L|205:229,1,55,0|0,0:0|0:0,0:0:0:0:
46,270,14457,1,2,0:2:0:0:
52,243,14548,1,2,0:2:0:0:
75,229,14639,1,2,0:2:0:0:
102,226,14730,6,0,P|124:324|119:340,1,82.5000031471254,2|0,0:2|0:0,0:0:0:0:
113,327,15003,2,0,L|27:353,1,55,2|0,0:2|0:2,0:0:0:0:
210,293,15185,1,2,0:2:0:0:
222,313,15275,2,0,P|290:338|346:339,1,123.750004720688,2|0,0:2|0:0,0:0:0:0:
363,334,15639,2,0,L|378:270,1,55,2|0,0:2|0:0,0:0:0:0:
392,197,15821,1,0,0:0:0:0:
392,197,15912,1,0,0:0:0:0:
299,217,16003,6,0,P|261:218|203:199,1,82.5000031471254,12|0,0:0|0:0,0:0:0:0:
466,258,16185,2,0,P|485:290|498:350,1,82.5000031471254,12|0,0:0|0:0,0:0:0:0:
414,111,16366,2,0,P|432:77|477:36,1,82.5000031471254,12|0,0:0|0:0,0:0:0:0:
300,104,16548,6,0,P|230:83|162:45,2,110,2|0|0,0:2|0:0|0:0,0:0:0:0:
392,197,17094,1,2,0:2:0:0:
404,221,17185,1,0,0:0:0:0:
414,246,17275,2,0,P|421:286|421:331,1,55,0|0,0:0|0:0,0:0:0:0:
326,384,17457,2,0,P|328:356|333:329,1,55,2|0,0:2|0:0,0:0:0:0:
316,242,17639,6,0,P|260:250|171:248,1,110,2|0,0:2|0:0,0:0:0:0:
193,241,17912,2,0,P|185:211|180:161,1,55,2|0,0:2|0:0,0:0:0:0:
24,126,18094,1,0,0:0:0:0:
32,99,18185,2,0,P|87:78|160:113,1,110,2|0,0:2|0:0,0:0:0:0:
289,54,18457,6,0,B|272:2|272:2|241:128,1,165.000006294251,14|0,0:1|0:0,0:0:0:0:
135,336,18730,2,0,B|118:388|118:388|91:280,1,165.000006294251,14|14,0:0|0:0,0:0:0:0:
86,260,18972,1,8,0:0:0:0:
81,240,19033,1,8,0:0:0:0:
77,220,19094,6,0,L|233:239,1,110,14|0,0:0|0:0,0:0:0:0:
345,309,19366,2,0,L|189:328,1,110,2|0,0:2|0:0,0:0:0:0:
289,219,19639,1,2,0:2:0:0:
316,215,19730,1,2,0:2:0:0:
343,211,19821,6,0,P|423:206|475:207,1,110,2|0,0:2|0:2,0:0:0:0:
306,123,20094,2,0,P|251:122|196:118,1,110,2|0,0:2|0:0,0:0:0:0:
68,88,20366,1,2,0:2:0:0:
61,61,20457,1,2,0:2:0:0:
76,41,20548,6,0,P|84:130|76:150,1,110,2|0,0:2|0:0,0:0:0:0:
32,223,20821,2,0,P|18:276|29:317,1,55,2|0,0:2|0:2,0:0:0:0:
59,353,21003,1,0,0:2:0:0:
79,335,21094,2,0,P|157:334|206:359,1,110,2|0,0:2|0:0,0:0:0:0:
275,381,21366,1,0,0:0:0:0:
297,364,21457,2,0,L|317:271,1,55,2|0,0:2|0:0,0:0:0:0:
212,205,21639,2,0,L|223:258,1,55,0|0,0:0|0:0,0:0:0:0:
478,288,21821,6,0,L|337:264,1,82.5000031471254,14|0,0:0|0:0,0:0:0:0:
111,209,22003,2,0,L|29:222,1,82.5000031471254,14|0,0:0|0:0,0:0:0:0:
414,0,22185,6,0,P|439:92|427:119,1,82.5000031471254,14|0,0:0|0:0,0:0:0:0:
339,352,22457,2,0,P|314:319|305:279,1,82.5000031471254,14|0,0:0|0:0,0:0:0:0:
98,0,22730,6,0,P|73:92|85:119,1,82.5000031471254,14|0,0:0|0:0,0:0:0:0:
173,352,23003,2,0,P|197:319|206:279,1,82.5000031471254,14|0,0:0|0:0,0:0:0:0:
256,32,23275,5,14,0:0:0:0:
255,156,23366,1,10,0:0:0:0:
256,192,23457,12,12,24912,0:0:0:0:
9,161,30548,5,2,1:2:0:0:
23,164,30609,1,2,0:0:0:0:
36,168,30669,1,2,0:0:0:0:
50,171,30730,6,0,L|147:158,1,88,10|0,0:0|1:0,0:0:0:0:
195,67,31003,1,0,1:0:0:0:
181,77,31094,2,0,L|268:88,1,88,10|0,0:0|1:0,0:0:0:0:
214,233,31366,1,0,1:0:0:0:
200,223,31457,2,0,L|287:211,1,88,8|0,0:0|1:0,0:0:0:0:
439,111,31730,1,0,1:0:0:0:
453,121,31821,2,0,L|365:132,1,88,8|0,0:0|1:0,0:0:0:0:
285,294,32094,1,0,1:0:0:0:
353,354,32185,6,0,P|376:293|361:239,1,88,8|0,0:0|1:0,0:0:0:0:
218,250,32457,1,0,1:0:0:0:
214,233,32548,2,0,P|194:271|192:315,1,88,8|0,0:0|1:0,0:0:0:0:
461,269,32821,1,0,1:0:0:0:
467,289,32912,2,0,P|465:245|446:207,1,88,8|0,0:0|1:0,0:0:0:0:
96,287,33185,2,0,P|97:330|117:369,1,88,8|0,0:0|0:0,0:0:0:0:
130,209,33457,1,0,1:0:0:0:
130,209,33548,1,0,1:0:0:0:
79,139,33639,6,0,L|-19:127,1,88,8|0,0:0|1:0,0:0:0:0:
207,183,33912,1,0,1:0:0:0:
217,198,34003,2,0,L|119:210,1,88,8|0,0:0|1:0,0:0:0:0:
364,275,34275,1,0,1:0:0:0:
374,260,34366,2,0,L|276:248,1,88,8|0,0:0|1:0,0:0:0:0:
495,327,34639,1,0,1:0:0:0:
505,342,34730,2,0,L|407:354,1,88,8|0,0:0|1:0,0:0:0:0:
435,193,35003,1,0,1:0:0:0:
508,146,35094,6,0,B|515:117|515:117|491:63,1,88,10|0,0:0|0:0,0:0:0:0:
338,89,35366,2,0,B|330:117|330:117|354:171,1,88,10|0,0:0|0:0,0:0:0:0:
435,193,35639,1,10,0:0:0:0:
435,193,35730,1,0,0:0:0:0:
380,254,35821,6,0,L|372:310,1,44,8|0,0:0|0:0,0:0:0:0:
512,293,36003,2,0,L|504:237,1,44,4|0,0:1|0:0,0:0:0:0:
446,365,36185,5,2,3:2:0:0:
436,375,36275,1,2,3:2:0:0:
446,384,36366,1,2,3:2:0:0:
455,375,36457,1,2,3:2:0:0:
373,297,36548,6,0,P|336:281|291:288,1,82.5000031471254,14|0,0:1|0:0,0:0:0:0:
280,186,36730,2,0,P|242:200|215:237,1,82.5000031471254,10|0,0:0|0:0,0:0:0:0:
0,367,36912,6,0,P|37:351|82:358,1,82.5000031471254,10|0,0:0|0:0,0:0:0:0:
93,256,37094,2,0,P|130:270|157:307,1,82.5000031471254,10|0,0:0|0:0,0:0:0:0:
373,297,37275,6,0,P|425:211|423:186,1,82.5000031471254,10|0,0:0|0:0,0:0:0:0:
507,209,37457,2,0,P|482:111|463:95,1,82.5000031471254,10|0,0:0|0:0,0:0:0:0:
217,233,37639,6,0,P|165:147|167:122,1,82.5000031471254,10|0,0:0|0:0,0:0:0:0:
83,145,37821,2,0,P|107:47|126:31,1,82.5000031471254,10|0,0:0|0:0,0:0:0:0:
417,114,38003,6,0,P|454:130|495:129,1,82.5000031471254,10|0,0:0|0:0,0:0:0:0:
512,37,38185,2,0,P|474:20|433:21,1,82.5000031471254,10|0,0:0|0:0,0:0:0:0:
295,217,38366,6,0,P|257:233|216:232,1,82.5000031471254,10|0,0:0|0:0,0:0:0:0:
200,140,38548,2,0,P|237:123|278:124,1,82.5000031471254,10|0,0:0|0:0,0:0:0:0:
404,342,38730,6,0,P|441:358|482:357,1,82.5000031471254,10|0,0:0|0:0,0:0:0:0:
499,265,38912,2,0,P|461:248|420:249,1,82.5000031471254,2|0,1:2|0:0,0:0:0:0:
290,335,39094,6,0,B|246:338|246:338|241:340|241:340|222:339|222:339|216:342|216:342|186:340|186:340|182:343|182:343|143:351,1,132,0|0,0:0|2:0,0:0:0:0:
34,261,39457,6,0,P|75:253|129:310,1,82.5000031471254,14|0,0:1|0:0,0:0:0:0:
121,145,39639,2,0,P|155:168|153:246,1,82.5000031471254,10|0,0:0|0:0,0:0:0:0:
478,261,39821,6,0,P|437:253|383:310,1,82.5000031471254,10|0,0:0|0:0,0:0:0:0:
391,145,40003,2,0,P|356:168|358:246,1,82.5000031471254,10|0,0:0|0:0,0:0:0:0:
26,156,40185,6,0,P|33:116|77:65,1,82.5000031471254,10|0,0:0|0:0,0:0:0:0:
141,0,40366,2,0,P|163:34|170:74,1,82.5000031471254,10|0,0:0|0:0,0:0:0:0:
486,156,40548,6,0,P|479:116|435:65,1,82.5000031471254,10|0,0:0|0:0,0:0:0:0:
371,0,40730,2,0,P|348:34|341:74,1,82.5000031471254,10|0,0:0|0:0,0:0:0:0:
88,350,40912,6,0,L|120:231,1,82.5000031471254,10|0,0:0|0:0,0:0:0:0:
178,341,41094,2,0,L|210:222,1,82.5000031471254,10|0,0:0|0:0,0:0:0:0:
445,283,41275,6,0,L|413:164,1,82.5000031471254,10|0,0:0|0:0,0:0:0:0:
355,274,41457,2,0,L|323:155,1,82.5000031471254,10|0,0:0|0:0,0:0:0:0:
87,140,41639,6,0,L|119:21,1,82.5000031471254,10|0,0:0|0:0,0:0:0:0:
177,131,41821,2,0,L|209:12,1,82.5000031471254,14|0,0:0|0:0,0:0:0:0:
336,94,42003,6,0,B|383:89|383:89|407:70|407:70|460:61,2,132,2|0|2,0:2|0:0|0:2,0:0:0:0:
94,202,42730,5,14,0:1:0:0:
123,192,42821,1,8,0:0:0:0:
152,201,42912,1,8,0:0:0:0:
166,228,43003,2,0,P|172:288|133:377,1,132,8|2,0:0|0:2,0:0:0:0:
447,101,43457,5,14,0:1:0:0:
403,96,43548,1,8,0:0:0:0:
367,121,43639,1,8,0:0:0:0:
354,163,43730,2,0,P|348:223|387:312,1,132,8|2,0:0|0:2,0:0:0:0:
56,64,44185,5,14,0:1:0:0:
106,76,44275,1,8,0:0:0:0:
157,88,44366,1,8,0:0:0:0:
208,101,44457,1,8,0:0:0:0:
259,115,44548,6,0,L|247:53,1,44,0|0,1:0|1:0,0:0:0:0:
183,171,44730,2,0,L|171:233,1,44,0|0,1:0|1:0,0:0:0:0:
505,248,44913,5,14,0:1:0:0:
434,258,45004,1,8,0:0:0:0:
362,269,45095,1,8,0:0:0:0:
292,280,45185,1,8,0:0:0:0:
219,292,45275,6,0,B|211:319|211:319|212:333|212:333|207:368,6,55,10|8|10|8|10|8|10,1:2|1:0|1:2|1:0|1:2|1:0|1:2,0:0:0:0:
302,82,45639,2,0,B|300:69|300:69|300:55|300:55|293:28,6,55,10|8|10|8|10|8|10,1:2|1:0|1:2|1:0|1:2|1:0|1:2,0:0:0:0:
133,290,46003,6,0,B|125:317|125:317|126:331|126:331|121:366,6,55,10|8|10|8|10|8|10,1:2|1:0|1:2|1:0|1:2|1:0|1:2,0:0:0:0:
380,69,46367,2,0,B|378:56|378:56|378:42|378:42|371:15,6,55,10|8|10|8|10|8|10,1:2|1:0|1:2|1:0|1:2|1:0|1:2,0:0:0:0:
112,167,46730,5,8,1:0:0:0:
188,176,46821,1,8,1:0:0:0:
264,185,46912,1,8,1:0:0:0:
340,195,47003,1,8,1:0:0:0:
416,206,47094,5,8,1:0:0:0:
314,123,47215,1,8,1:0:0:0:
217,249,47336,1,8,1:0:0:0:
112,167,47457,5,8,1:0:0:0:
92,162,47639,1,8,1:0:0:0:
72,156,47821,1,8,1:0:0:0:
54,152,48003,1,8,1:0:0:0:
256,348,48185,5,12,2:1:0:0:
255,210,48912,5,2,0:2:0:0:
239,194,49003,1,2,0:2:0:0:
255,178,49094,1,2,0:2:0:0:
270,194,49185,1,2,0:2:0:0:
256,224,49275,5,2,0:2:0:0:
224,192,49366,1,2,0:2:0:0:
256,160,49457,1,2,0:2:0:0:
286,192,49548,1,2,0:2:0:0:
256,240,49639,5,2,0:2:0:0:
208,192,49730,1,2,0:2:0:0:
256,144,49821,1,2,0:2:0:0:
301,192,49912,1,2,0:2:0:0:
258,258,50003,6,0,L|254:322,2,36.6666666666667,2|0|0,1:0|0:0|0:0,0:0:0:0:
258,127,50185,2,0,L|262:63,2,36.6666666666667,8|0|0,0:0|0:0|0:0,0:0:0:0:
185,194,50366,6,0,L|120:199,1,55,10|0,1:0|0:0,0:0:0:0:
319,196,50548,2,0,L|384:191,1,55,2|0,1:0|0:0,0:0:0:0:
254,380,50730,5,8,0:0:0:0:
254,380,50821,1,10,1:0:0:0:
254,380,50912,1,8,0:0:0:0:
38,51,51094,6,0,B|83:78|127:52|127:52|178:98|178:98|226:75|259:90,1,247.500009441376,12|8,0:1|1:0,0:0:0:0:
415,0,51457,5,12,0:2:0:0:
402,18,51517,1,4,0:2:0:0:
393,38,51578,1,4,0:2:0:0:
386,59,51638,1,4,1:2:0:0:
382,80,51699,1,4,0:2:0:0:
382,102,51760,1,4,0:2:0:0:
418,177,51821,6,0,L|528:194,2,82.5000031471254,8|0|0,0:0|0:0|1:0,0:0:0:0:
329,220,52094,2,0,P|307:309|306:339,1,82.5000031471254,8|8,1:0|0:0,0:0:0:0:
84,343,52275,1,0,0:0:0:0:
178,364,52366,6,0,P|170:323|156:284,1,82.5000031471254,0|8,1:0|1:0,0:0:0:0:
272,147,52548,2,0,P|240:173|213:204,1,82.5000031471254,8|0,0:0|0:0,0:0:0:0:
30,179,52730,2,0,P|68:192|109:200,1,82.5000031471254,0|8,1:0|1:0,0:0:0:0:
173,43,52912,5,12,0:2:0:0:
171,59,52972,1,4,0:2:0:0:
169,77,53033,1,4,0:2:0:0:
168,94,53094,1,4,1:2:0:0:
167,111,53154,1,4,0:2:0:0:
166,129,53215,1,4,0:2:0:0:
109,200,53275,6,0,P|56:220|-7:237,2,82.5000031471254,8|0|0,0:0|0:0|1:0,0:0:0:0:
476,60,53548,6,0,P|415:59|382:109,1,110,8|0,0:0|2:0,0:0:0:0:
471,263,54003,6,0,P|495:164|331:120,1,247.500009441376,12|8,0:1|1:0,0:0:0:0:
329,208,54366,5,12,0:2:0:0:
326,225,54427,1,6,0:2:0:0:
325,243,54488,1,6,0:2:0:0:
323,260,54548,1,6,1:2:0:0:
321,277,54609,1,6,0:2:0:0:
320,294,54669,1,6,0:2:0:0:
370,361,54730,6,0,B|397:370|397:370|485:348,2,82.5000031471254,8|0|0,0:0|0:0|1:0,0:0:0:0:
237,241,55003,2,0,B|210:232|210:232|122:254,1,82.5000031471254,8|8,1:0|0:0,0:0:0:0:
71,263,55185,1,0,0:0:0:0:
104,172,55275,6,0,L|204:146,1,82.5000031471254,0|8,1:0|1:0,0:0:0:0:
283,345,55457,2,0,L|183:319,1,82.5000031471254,8|0,0:0|0:0,0:0:0:0:
82,93,55639,2,0,L|182:67,1,82.5000031471254,0|8,1:0|1:0,0:0:0:0:
442,58,55821,5,12,0:2:0:0:
442,75,55881,1,6,0:2:0:0:
442,93,55942,1,6,0:2:0:0:
442,112,56003,1,6,1:2:0:0:
442,130,56063,1,6,0:2:0:0:
442,148,56124,1,6,0:2:0:0:
351,124,56185,6,0,P|310:107|256:93,2,82.5000031471254,8|0|0,0:0|0:0|1:0,0:0:0:0:
437,241,56457,1,0,0:0:0:0:
342,216,56548,2,0,P|327:303|313:406,1,165.000006294251,0|12,0:0|1:3,0:0:0:0:
230,315,56791,1,8,0:0:0:0:
209,309,56851,1,8,0:0:0:0:
187,302,56912,6,0,P|131:309|72:323,1,82.5000031471254,12|0,0:1|0:0,0:0:0:0:
29,340,57094,6,0,L|25:386,1,27.5,2|10,1:2|1:2,0:0:0:0:
37,231,57275,2,0,L|33:277,1,27.5,10|2,0:2|0:2,0:0:0:0:
187,302,57457,5,4,1:2:0:0:
204,299,57518,1,4,0:2:0:0:
221,298,57578,1,4,0:2:0:0:
282,241,57639,6,0,P|289:200|290:131,2,82.5000031471254,10|0|0,0:2|0:0|1:0,0:0:0:0:
66,149,57912,2,0,P|59:108|56:67,1,82.5000031471254,8|8,1:0|0:0,0:0:0:0:
306,39,58094,1,0,0:0:0:0:
231,89,58185,6,0,L|121:63,1,82.5000031471254,0|8,1:0|1:0,0:0:0:0:
371,191,58366,2,0,L|481:165,1,82.5000031471254,8|0,0:0|0:0,0:0:0:0:
230,297,58548,2,0,L|120:271,1,82.5000031471254,0|8,1:0|1:0,0:0:0:0:
119,169,58730,5,12,0:2:0:0:
135,174,58791,1,4,0:2:0:0:
151,180,58851,1,4,0:2:0:0:
167,185,58912,1,4,1:2:0:0:
183,191,58972,1,4,0:2:0:0:
199,197,59033,1,4,0:2:0:0:
281,206,59094,6,0,P|321:201|399:182,2,82.5000031471254,8|0|0,0:0|0:0|1:0,0:0:0:0:
149,278,59366,6,0,B|99:278|100:316|21:310,1,110,8|0,0:0|2:0,0:0:0:0:
45,310,59821,6,0,P|148:298|263:385,1,247.500009441376,12|8,0:0|1:0,0:0:0:0:
327,320,60185,5,12,0:2:0:0:
329,309,60245,1,4,0:2:0:0:
331,298,60306,1,4,0:2:0:0:
333,287,60366,1,12,1:2:0:0:
336,276,60427,1,4,0:2:0:0:
339,265,60488,1,4,0:2:0:0:
269,208,60548,6,0,P|226:204|154:212,2,82.5000031471254,12|0|0,0:0|0:0|1:0,0:0:0:0:
424,301,60821,1,8,1:0:0:0:
461,216,60912,1,12,0:1:0:0:
461,216,61275,6,0,L|447:96,1,82.5000031471254,14|0,0:0|0:0,0:0:0:0:
364,23,61457,1,8,1:0:0:0:
292,75,61548,2,0,L|502:38,1,165.000006294251,14|8,0:0|1:0,0:0:0:0:
336,168,61821,1,6,0:0:0:0:
336,168,61912,1,8,0:0:0:0:
258,224,62003,6,0,P|211:218|152:193,1,82.5000031471254,14|0,0:0|0:0,0:0:0:0:
39,112,62185,1,0,1:0:0:0:
48,21,62275,2,0,P|77:102|71:238,1,165.000006294251,14|0,0:0|1:0,0:0:0:0:
0,368,62548,6,0,P|78:300|207:326,1,220,12|8,1:1|0:0,0:0:0:0:
412,339,63094,5,14,3:1:0:0:
395,334,63154,1,4,0:2:0:0:
377,329,63215,1,4,0:2:0:0:
360,324,63275,1,12,1:2:0:0:
343,319,63336,1,4,0:2:0:0:
325,314,63397,1,4,0:2:0:0:
266,253,63457,6,0,L|260:137,2,82.5000031471254,8|0|0,0:0|0:0|1:0,0:0:0:0:
460,258,63730,2,0,L|466:142,1,82.5000031471254,8|8,1:0|0:0,0:0:0:0:
323,41,63912,1,0,0:0:0:0:
386,102,64003,6,0,P|486:51|514:20,1,82.5000031471254,0|8,1:0|1:0,0:0:0:0:
261,170,64185,2,0,P|361:221|389:252,1,82.5000031471254,8|0,0:0|0:0,0:0:0:0:
119,114,64366,2,0,P|219:63|247:32,1,82.5000031471254,0|8,1:0|1:0,0:0:0:0:
86,356,64548,5,12,0:2:0:0:
83,338,64609,1,4,0:2:0:0:
81,320,64669,1,4,0:2:0:0:
78,303,64730,1,4,1:2:0:0:
76,284,64791,1,4,0:2:0:0:
74,267,64851,1,4,0:2:0:0:
153,234,64912,6,0,P|203:259|217:274,2,41.2500015735627,2|2|0,3:2|3:2|0:0,0:0:0:0:
37,188,65185,2,0,P|-13:213|-27:228,1,41.2500015735627,2|0,3:2|0:0,0:0:0:0:
119,133,65366,1,2,3:2:0:0:
119,114,65457,2,0,L|109:58,1,41.2500015735627,2|0,0:2|2:0,0:0:0:0:
312,205,65639,6,0,B|249:207|249:207|219:226|219:226|115:238,1,165.000006294251,12|0,0:1|1:0,0:0:0:0:
274,26,66003,5,12,0:2:0:0:
290,27,66063,1,4,0:2:0:0:
307,30,66124,1,4,0:2:0:0:
324,32,66185,1,4,1:2:0:0:
341,34,66245,1,4,0:2:0:0:
358,36,66306,1,4,0:2:0:0:
433,86,66366,6,0,P|453:52|456:0,2,82.5000031471254,8|0|0,0:0|0:0|1:0,0:0:0:0:
336,128,66639,2,0,P|316:162|313:214,1,82.5000031471254,8|8,1:0|0:0,0:0:0:0:
316,320,66821,1,0,0:0:0:0:
431,251,66912,6,0,P|469:256|539:274,1,82.5000031471254,0|8,1:0|1:0,0:0:0:0:
230,218,67094,2,0,P|268:213|338:195,1,82.5000031471254,8|0,0:0|0:0,0:0:0:0:
57,265,67275,2,0,P|95:270|165:288,1,82.5000031471254,0|8,1:0|1:0,0:0:0:0:
316,320,67457,5,14,2:0:0:0:
297,332,67518,1,4,0:2:0:0:
276,340,67578,1,4,0:2:0:0:
233,366,67639,1,14,2:0:0:0:
211,362,67700,1,4,0:2:0:0:
191,352,67760,1,4,0:2:0:0:
138,279,67821,6,0,P|126:237|120:189,1,55,12|0,1:3|0:0,0:0:0:0:
58,168,68003,2,0,P|63:141|72:114,1,55,12|0,1:3|0:0,0:0:0:0:
323,108,68185,6,2,B|230:88|262:170|122:140,1,165,8|0,1:0|2:0,1:0:0:0:
311,194,68548,5,12,0:1:0:0:
349,197,68639,1,0,1:0:0:0:
384,182,68730,1,0,1:0:0:0:
409,153,68821,1,0,1:0:0:0:
403,62,68912,5,10,0:2:0:0:
378,33,69003,1,0,1:0:0:0:
343,18,69094,1,0,1:2:0:0:
305,21,69185,1,0,1:0:0:0:
250,82,69275,5,10,0:2:0:0:
242,92,69366,2,0,P|233:132|235:172,1,55,2|0,1:2|1:0,0:0:0:0:
145,135,69548,2,0,P|147:162|154:188,1,55,2|8,1:2|0:2,0:0:0:0:
70,200,69730,1,2,1:2:0:0:
67,213,69821,2,0,P|76:238|90:262,1,55,2|0,1:2|1:0,0:0:0:0:
165,343,70003,5,10,0:2:0:0:
192,355,70094,1,0,1:0:0:0:
226,356,70185,1,0,1:0:0:0:
256,340,70275,1,0,1:0:0:0:
288,298,70366,1,10,0:2:0:0:
295,240,70457,1,0,1:0:0:0:
336,194,70548,1,0,1:0:0:0:
405,183,70639,1,0,1:0:0:0:
475,217,70730,5,10,0:2:0:0:
501,299,70821,1,0,1:0:0:0:
456,372,70912,1,0,1:0:0:0:
375,384,71003,1,0,1:0:0:0:
310,332,71094,1,10,0:2:0:0:
300,250,71185,1,0,1:0:0:0:
258,174,71275,1,0,1:0:0:0:
178,140,71366,1,0,1:0:0:0:
95,166,71457,6,0,L|56:181,14,27.5,10|8|10|8|10|8|10|8|10|8|10|8|10|8|10,1:2|1:2|1:2|1:2|1:2|1:2|1:2|1:2|1:2|1:2|1:2|1:2|1:2|1:2|1:2,0:0:0:0:
252,86,72185,6,0,L|293:96,6,41.2500015735627,10|10|10|10|10|10|10,1:2|1:2|1:2|1:2|1:2|1:2|1:2,0:0:0:0:
90,15,72548,2,0,L|49:5,6,41.2500015735627,10|10|10|10|10|10|10,1:2|1:2|1:2|1:2|1:2|1:2|1:2,0:0:0:0:
236,248,72912,6,0,L|291:240,1,55,8|0,0:0|0:0,0:0:0:0:
294,339,73094,2,0,L|348:347,1,55,0|8,0:0|0:0,0:0:0:0:
412,281,73275,1,0,0:0:0:0:
412,281,73366,1,0,0:0:0:0:
412,281,73457,1,0,0:0:0:0:
470,356,73639,1,0,0:0:0:0:
470,356,73730,1,0,0:0:0:0:
470,356,73821,1,0,0:0:0:0:
291,240,74003,6,0,B|236:253|201:232|201:232|185:261|149:271|149:271|105:244|32:249,1,247.500009441376,2|0,0:2|2:0,0:0:0:0:
90,98,74366,6,0,P|118:163|123:191,1,76.9999976501466,12|0,1:3|0:0,0:0:0:0:
12,366,74639,2,0,P|29:333|42:301,1,38.4999988250733,12|0,1:3|0:0,0:0:0:0:
64,248,74821,1,8,0:0:0:0:
64,248,74912,1,10,1:3:0:0:
299,101,75094,6,0,P|221:102|190:117,1,88,12|0,1:3|0:0,0:0:0:0:
228,271,75366,2,0,P|258:273|283:267,1,44,14|0,1:3|0:0,0:0:0:0:
351,197,75548,1,8,1:3:0:0:
351,197,75639,1,10,1:3:0:0:
351,197,75730,1,10,1:3:0:0:
422,127,75821,6,0,P|469:71|500:43,1,98.9999969787599,12|0,1:3|0:0,0:0:0:0:
422,257,76094,2,0,P|469:313|500:341,1,98.9999969787599,14|0,1:3|0:0,0:0:0:0:
296,107,76366,6,0,L|279:-13,1,110,12|0,1:3|0:0,0:0:0:0:
296,277,76639,2,0,L|279:397,1,110,14|0,1:3|0:0,0:0:0:0:
87,47,76912,6,0,P|146:92|159:118,1,55,14|0,1:3|0:0,0:0:0:0:
98,152,77094,2,0,P|105:172|108:203,1,49.4999984893799,14|0,1:3|0:0,0:0:0:0:
31,240,77275,6,0,P|25:273|3:334,1,88,12|0,1:3|0:0,0:0:0:0:
216,230,77548,2,0,P|210:197|192:160,1,44,14|0,0:3|0:0,0:0:0:0:
178,104,77730,1,8,0:0:0:0:
178,104,77821,1,10,1:3:0:0:
165,304,78003,6,0,P|219:318|261:306,1,76.9999976501466,12|0,1:3|0:0,0:0:0:0:
299,377,78275,2,0,P|348:348|357:336,1,38.4999988250733,14|0,1:3|0:0,0:0:0:0:
378,245,78457,1,8,1:3:0:0:
378,245,78548,1,10,1:3:0:0:
378,245,78639,1,10,1:3:0:0:
447,307,78730,6,0,L|543:293,1,88,12|0,1:3|0:0,0:0:0:0:
425,168,79003,2,0,L|521:154,1,88,14|0,1:3|0:0,0:0:0:0:
114,220,79275,6,0,L|-1:203,1,98.9999969787599,14|0,1:3|0:0,0:0:0:0:
140,52,79548,2,0,L|24:35,1,98.9999969787599,12|0,0:1|0:0,0:0:0:0:
81,127,79821,1,2,0:2:0:0:
81,127,80003,1,2,0:2:0:0:
257,358,80185,6,0,P|310:315|340:305,1,76.9999976501466,12|0,1:3|0:0,0:0:0:0:
353,226,80457,2,0,P|391:226|420:235,1,38.4999988250733,14|0,1:3|0:0,0:0:0:0:
461,290,80639,1,8,0:0:0:0:
461,290,80730,1,10,1:3:0:0:
264,236,80912,6,0,L|251:123,1,88,12|0,1:3|0:0,0:0:0:0:
377,52,81185,2,0,L|365:135,1,44,14|0,1:3|0:0,0:0:0:0:
353,227,81366,1,8,1:3:0:0:
353,227,81457,1,10,1:3:0:0:
353,227,81548,1,10,1:3:0:0:
445,193,81639,6,0,L|502:92,1,98.9999969787599,12|0,1:3|0:0,0:0:0:0:
264,236,81912,2,0,L|220:156,1,49.4999984893799,14|0,0:0|0:0,0:0:0:0:
31,333,82094,1,8,0:0:0:0:
32,250,82185,6,0,P|137:228|167:230,1,110,12|0,1:1|0:0,0:0:0:0:
422,350,82457,2,0,P|317:328|287:330,1,110,14|0,1:3|0:0,0:0:0:0:
37,147,82730,6,0,P|103:138|165:116,1,131.99999597168,12|0,1:1|0:0,0:0:0:0:
480,257,83003,2,0,P|417:235|363:224,1,65.9999979858399,14|0,1:3|0:0,0:0:0:0:
77,281,83185,1,8,0:0:0:0:
64,361,83275,6,0,P|115:286|145:203,1,153.999995300293,12|0,1:0|0:0,0:0:0:0:
442,0,83548,2,0,P|391:75|361:158,1,153.999995300293,14|0,1:3|0:0,0:0:0:0:
23,56,83821,6,0,P|107:81|239:151,1,176,12|0,1:0|0:0,0:0:0:0:
480,257,84094,2,0,P|400:294|326:316,1,88,14|0,0:0|0:0,0:0:0:0:
46,284,84275,1,8,0:0:0:0:
64,361,84366,6,0,P|82:310|121:258,1,98.9999969787599,14|0,1:0|0:0,0:0:0:0:
387,208,84548,5,12,1:3:0:0:
296,223,84669,1,10,1:3:0:0:
204,242,84791,1,8,1:3:0:0:
107,149,84912,5,14,1:3:0:0:
198,164,85033,1,8,1:3:0:0:
290,183,85155,1,10,1:3:0:0:
386,109,85275,5,12,1:3:0:0:
295,124,85396,1,10,1:3:0:0:
203,143,85518,1,8,1:3:0:0:
122,32,85639,5,14,1:0:0:0:
141,37,85700,1,8,0:0:0:0:
159,42,85760,1,8,0:0:0:0:
178,47,85821,1,8,0:0:0:0:
196,52,85881,1,8,0:0:0:0:
214,58,85942,1,8,0:0:0:0:
232,64,86003,1,12,0:0:0:0:
96,320,88730,5,12,0:0:0:0:
256,64,88912,1,12,0:0:0:0:
416,320,89094,1,12,0:0:0:0:
256,192,89275,12,2,91094,2:0:0:0:
66,183,91185,5,12,0:0:0:0:
163,191,91457,5,12,0:0:0:0:
262,199,91639,5,10,0:0:0:0:
279,195,91700,1,8,0:0:0:0:
298,191,91760,1,0,0:0:0:0:
317,187,91821,6,0,L|449:206,2,98.9999969787599,12|0|0,0:1|0:0|1:0,0:0:0:0:
78,145,92094,1,12,1:2:0:0:
120,76,92185,2,0,L|260:68,1,98.9999969787599,8|4,0:0|0:2,0:0:0:0:
424,108,92366,2,0,L|289:95,1,98.9999969787599,0|8,1:0|1:0,0:0:0:0:
163,191,92548,2,0,P|162:254|178:330,1,98.9999969787599,8|0,0:0|0:0,0:0:0:0:
217,375,92730,5,0,1:0:0:0:
302,369,92821,1,12,2:0:0:0:
354,312,92912,1,8,0:0:0:0:
432,330,93003,2,0,P|485:338|545:339,1,98.9999969787599,4|0,0:2|1:0,0:0:0:0:
417,234,93185,1,8,1:0:0:0:
349,294,93275,6,0,B|270:278|270:278|237:290|237:290|135:266,1,197.99999395752,8|0,0:0|1:0,0:0:0:0:
31,178,93548,1,12,1:2:0:0:
51,273,93639,2,0,P|57:335|57:371,1,98.9999969787599,8|4,0:0|0:2,0:0:0:0:
229,186,93821,2,0,P|235:124|235:88,1,98.9999969787599,0|8,1:0|1:0,0:0:0:0:
34,75,94003,2,0,P|127:138|138:170,1,98.9999969787599,8|0,0:0|0:0,0:0:0:0:
326,350,94185,1,0,1:0:0:0:
376,279,94275,6,2,B|327:245|265:256|290:304|221:301|167:266,1,220,12|0,1:2|2:0,1:0:0:0:
216,87,94730,6,0,L|234:226,1,98.9999969787599,8|0,0:0|0:0,0:0:0:0:
376,279,94912,1,0,1:0:0:0:
453,240,95003,2,0,L|465:141,1,98.9999969787599,12|8,1:2|0:3,0:0:0:0:
432,23,95185,1,4,0:2:0:0:
355,62,95276,2,0,L|342:160,1,98.9999969787599,0|8,1:0|1:0,0:0:0:0:
326,350,95457,2,0,P|274:347|198:306,1,98.9999969787599,8|0,0:0|0:0,0:0:0:0:
90,54,95639,5,0,1:0:0:0:
127,124,95730,1,12,1:2:0:0:
79,185,95821,1,8,0:0:0:0:
132,248,95912,2,0,P|121:303|105:356,1,98.9999969787599,4|0,0:2|1:0,0:0:0:0:
347,187,96094,1,8,1:0:0:0:
269,156,96185,6,0,B|214:143|214:143|79:185,1,197.99999395752,8|0,0:0|1:0,0:0:0:0:
282,247,96457,1,12,1:2:0:0:
347,187,96548,2,0,P|393:169|442:167,1,98.9999969787599,8|4,0:0|0:2,0:0:0:0:
308,339,96730,2,0,P|258:336|212:319,1,98.9999969787599,0|8,1:0|1:0,0:0:0:0:
322,79,96912,6,2,P|365:39|340:93,1,165,2|8,1:3|0:0,0:1:0:0:
322,79,97275,1,2,1:3:0:0:
72,201,97457,5,8,1:0:0:0:
65,168,97518,1,8,1:0:0:0:
59,135,97578,1,0,0:0:0:0:
53,102,97639,6,0,B|128:110|128:110|167:135|167:135|271:144,1,197.99999395752,12|0,0:1|1:0,0:0:0:0:
476,261,97912,1,12,1:2:0:0:
480,350,98003,2,0,P|386:285|385:262,1,98.9999969787599,8|4,0:0|0:2,0:0:0:0:
334,242,98185,2,0,P|285:248|249:281,1,98.9999969787599,0|8,1:0|1:0,0:0:0:0:
112,349,98366,6,0,P|203:371|259:317,1,98.9999969787599,8|0,0:0|0:0,0:0:0:0:
104,123,98548,1,0,1:0:0:0:
25,165,98639,1,12,1:2:0:0:
67,243,98730,1,8,0:0:0:0:
146,202,98821,2,0,B|197:188|197:188|324:237,1,98.9999969787599,4|0,0:2|1:0,0:0:0:0:
396,367,99003,1,8,1:0:0:0:
480,350,99094,6,0,B|500:303|500:303|445:144,1,197.99999395752,8|0,0:0|1:0,0:0:0:0:
319,36,99366,1,12,1:2:0:0:
399,82,99457,2,0,L|528:55,1,98.9999969787599,8|4,0:0|0:2,0:0:0:0:
400,283,99639,2,0,L|271:256,1,98.9999969787599,0|8,1:0|1:0,0:0:0:0:
177,135,99821,6,0,B|222:143|257:135|257:135|295:171|295:171|334:161|359:172,1,197.99999395752,8|0,0:0|1:0,0:0:0:0:
99,196,100094,1,12,1:2:0:0:
62,105,100185,6,2,P|149:4|177:135,1,330,0|2,0:0|0:0,1:0:0:0:
99,196,100821,5,2,0:0:0:0:
40,258,101003,1,2,0:0:0:0:
40,258,101094,1,2,0:0:0:0:
122,283,101275,1,2,0:2:0:0:
122,283,101366,1,2,0:0:0:0:
60,340,101548,1,2,0:0:0:0:
40,258,101730,1,2,0:0:0:0:
40,258,101821,1,2,0:0:0:0:
140,366,102003,6,0,B|195:346|243:374|243:374|278:319|336:319,1,220,12|0,0:0|0:0,0:0:0:0:
303,159,102275,2,0,B|248:179|200:151|200:151|165:206|107:205,1,220,12|0,0:0|0:0,0:0:0:0:
222,267,102548,1,10,0:0:0:0:
222,267,102639,1,10,0:0:0:0:
303,159,102730,6,0,B|341:21|341:21|259:109,1,220,12|0,0:0|0:0,0:0:0:0:
45,312,103003,2,0,B|-7:368|-7:368|30:230,1,220,12|0,0:0|0:0,0:0:0:0:
102,144,103275,1,10,0:0:0:0:
193,102,103366,1,2,0:0:0:0:
181,209,103457,6,0,B|224:268|224:268|398:257,1,197.99999395752,12|0,0:1|1:0,0:0:0:0:
502,50,103730,2,0,P|391:91|367:123,1,98.9999969787599,12|8,1:2|0:0,0:0:0:0:
313,159,103912,1,4,0:2:0:0:
438,188,104003,2,0,B|484:228|484:228|459:367,1,197.99999395752,2|8,1:2|0:0,0:0:0:0:
202,383,104275,2,0,B|156:343|156:343|181:204,1,197.99999395752,2|12,0:2|1:2,0:0:0:0:
348,260,104548,5,8,0:0:0:0:
348,339,104639,1,4,0:2:0:0:
280,299,104730,1,2,1:0:0:0:
86,4,104912,6,0,P|131:75|138:134,1,123.750004720688,6|2,0:0|0:0,0:0:0:0:
232,99,105275,2,0,P|216:158|179:207,1,123.750004720688,8|8,0:0|0:0,0:0:0:0:
100,251,105639,6,0,L|-4:228,1,82.5000031471254,8|0,0:0|0:0,0:0:0:0:
108,347,105912,1,8,0:0:0:0:
108,347,106003,2,0,L|32:332,2,41.2500015735627,2|2|8,0:0|0:0|0:0,0:0:0:0:
422,352,106366,6,0,B|456:257|356:244|446:123,1,197.99999395752,12|0,0:1|1:0,0:0:0:0:
483,16,106639,2,0,P|440:51|347:52,1,98.9999969787599,12|8,1:2|0:0,0:0:0:0:
216,76,106821,1,4,0:2:0:0:
277,8,106912,6,0,P|312:118|296:257,1,197.99999395752,0|8,1:0|0:0,0:0:0:0:
329,314,107185,2,0,P|281:300|244:268,1,98.9999969787599,0|0,0:0|1:0,0:0:0:0:
55,154,107366,1,12,1:2:0:0:
33,240,107457,2,0,P|162:209|264:161,1,197.99999395752,8|2,0:0|1:0,0:0:0:0:
212,98,107730,1,10,1:0:0:0:
310,199,107821,6,0,P|347:214|383:218,1,41.2500015735627,6|0,0:0|0:0,0:0:0:0:
422,314,108003,2,0,P|416:274|401:241,1,41.2500015735627,8|2,0:0|0:0,0:0:0:0:
467,168,108185,2,0,P|435:192|414:221,1,41.2500015735627,0|2,0:0|0:0,0:0:0:0:
305,305,108366,6,0,P|251:336|195:380,1,123.750004720688,8|8,0:0|0:0,0:0:0:0:
10,290,108730,2,0,P|64:321|79:113,1,412.500015735627,2|8,0:0|2:3,0:0:0:0:
89,222,109275,6,0,B|126:235|126:235|231:211,1,98.9999969787599,12|0,0:1|0:0,0:0:0:0:
446,97,109457,1,0,1:0:0:0:
378,45,109548,2,0,B|341:32|341:32|236:56,1,98.9999969787599,12|8,1:2|0:0,0:0:0:0:
257,294,109730,1,4,0:2:0:0:
325,359,109821,6,0,B|363:316|363:316|342:112,1,197.99999395752,0|8,1:0|0:0,0:0:0:0:
265,136,110094,1,0,0:0:0:0:
172,132,110185,1,0,1:0:0:0:
118,62,110275,1,12,1:2:0:0:
39,123,110366,5,8,0:0:0:0:
39,113,110457,1,4,0:2:0:0:
47,118,110548,1,2,1:0:0:0:
94,384,110730,6,0,P|122:349|109:270,1,110,6|0,0:0|0:0,0:0:0:0:
35,249,111003,1,8,0:0:0:0:
25,266,111094,2,0,P|28:300|49:327,1,55,2|2,0:0|0:0,0:0:0:0:
213,319,111275,2,0,P|210:285|189:258,1,55,8|0,0:0|0:0,0:0:0:0:
112,198,111457,6,0,L|188:183,1,55,2|8,0:0|0:0,0:0:0:0:
252,205,111639,2,0,L|328:190,1,55,0|2,0:0|0:0,0:0:0:0:
480,362,111821,6,2,P|494:253|411:91,1,247.500009441376,8|0,0:0|0:0,0:1:0:0:
399,22,112185,5,12,0:0:0:0:
327,3,112275,1,2,0:0:0:0:
261,38,112366,1,2,1:0:0:0:
244,110,112457,1,2,1:0:0:0:
292,166,112548,1,12,0:0:0:0:
362,188,112639,1,2,0:0:0:0:
387,257,112730,1,2,1:0:0:0:
357,325,112821,1,2,1:0:0:0:
283,337,112912,1,12,0:0:0:0:
215,305,113003,1,2,0:0:0:0:
202,228,113094,1,2,1:0:0:0:
143,182,113185,1,2,1:0:0:0:
69,190,113275,1,12,0:0:0:0:
23,249,113366,1,2,0:0:0:0:
31,322,113457,1,2,1:0:0:0:
90,369,113548,1,2,1:0:0:0:
163,359,113639,6,0,P|201:347|277:328,1,82.5000031471254,12|2,0:1|1:0,0:0:0:0:
434,175,113821,2,0,L|504:194,4,41.2500015735627,2|0|2|0|12,1:0|0:0|1:0|0:0|1:0,0:0:0:0:
110,27,114185,2,0,L|40:46,3,41.2500015735627,2|0|2|0,1:0|1:0|1:0|1:0,0:0:0:0:
59,65,114366,5,10,0:0:0:0:
267,47,114548,1,2,1:0:0:0:
263,88,114639,1,8,0:0:0:0:
259,129,114730,6,0,L|186:141,1,55,2|2,1:0|1:0,0:0:0:0:
165,225,114912,2,0,L|92:237,1,55,0|0,1:0|1:0,0:0:0:0:
46,310,115094,5,12,1:0:0:0:
256,192,115185,12,0,122366,2:0:0:0:
52,165,126730,6,0,P|114:191|235:177,1,176,12|2,0:1|0:0,0:0:0:0:
288,52,127275,2,0,L|298:135,1,44,8|0,0:0|0:0,0:0:0:0:
359,175,127457,2,0,L|333:363,1,176,0|12,1:0|0:1,0:0:0:0:
334,349,128003,1,2,0:0:0:0:
440,245,128185,5,12,0:1:0:0:
440,245,128366,1,0,0:0:0:0:
440,245,128548,1,2,0:0:0:0:
263,175,128730,2,0,L|194:187,1,44,8|0,0:0|0:0,0:0:0:0:
53,365,128912,2,0,P|69:305|101:171,1,176,0|2,1:0|0:0,2:0:0:0:
95,194,129639,6,0,P|61:154|141:63,1,176,12|2,0:1|0:0,0:0:0:0:
230,161,130185,2,0,L|292:172,1,44,8|0,0:0|0:0,0:0:0:0:
417,194,130366,2,0,P|451:154|371:63,1,176,0|12,1:0|0:1,0:0:0:0:
394,62,130912,1,2,0:0:0:0:
273,168,131094,6,0,P|299:251|312:283,1,88,12|0,0:1|0:0,0:0:0:0:
348,377,131457,1,2,0:0:0:0:
394,294,131639,1,8,0:0:0:0:
244,330,131821,2,12,P|181:333|43:354,1,176,4|0,1:1|0:0,2:0:0:0:
511,96,132548,6,0,P|438:144|352:151,1,176,12|2,0:1|0:0,0:0:0:0:
298,68,133094,2,0,L|246:79,1,44,8|0,0:0|0:0,0:0:0:0:
158,113,133275,2,0,L|142:188,2,44,0|0|0,1:0|0:0|0:0,0:0:0:0:
85,41,133639,1,12,0:1:0:0:
85,41,133730,1,0,0:0:0:0:
85,41,133821,1,2,0:0:0:0:
224,202,134003,5,12,0:1:0:0:
57,151,134185,1,0,0:0:0:0:
125,240,134366,1,2,0:0:0:0:
158,113,134548,1,8,0:0:0:0:
224,201,134730,2,0,P|279:190|418:178,1,176,0|2,1:0|0:0,2:0:0:0:
398,178,135457,6,0,P|430:129|397:4,1,176,12|2,0:1|0:0,0:0:0:0:
296,77,136003,2,0,P|328:88|357:103,1,44,8|0,0:0|0:0,0:0:0:0:
512,232,136185,2,0,P|464:255|328:312,1,176,0|12,1:0|0:1,0:0:0:0:
258,330,136730,1,2,0:0:0:0:
101,298,136912,6,0,P|146:325|179:378,1,88,12|0,0:1|0:0,0:0:0:0:
271,191,137185,1,2,0:0:0:0:
271,191,137275,2,0,P|226:218|193:271,1,88,2|8,0:0|0:0,0:0:0:0:
36,202,137639,6,0,P|105:187|155:60,1,176,4|2,0:1|0:0,2:0:0:0:
158,102,138366,6,0,L|352:82,1,176,12|2,0:1|0:0,0:0:0:0:
481,134,138912,1,8,0:0:0:0:
481,134,139003,1,0,0:0:0:0:
481,134,139094,2,0,P|457:212|451:332,1,176,0|12,1:0|0:1,0:0:0:0:
449,305,139548,1,0,0:0:0:0:
449,305,139639,1,2,0:0:0:0:
363,248,139821,5,12,0:1:0:0:
363,248,140003,1,0,0:0:0:0:
363,248,140185,1,2,0:0:0:0:
279,371,140366,1,8,0:0:0:0:
73,310,140548,2,0,P|138:304|254:274,1,176,0|2,1:0|0:0,2:0:0:0:
361,36,141275,6,0,P|241:55|227:132,1,176,12|2,0:1|0:0,0:0:0:0:
224,92,141730,1,0,0:0:0:0:
224,92,141821,1,8,0:0:0:0:
318,195,142003,2,0,P|381:205|493:254,1,176,0|12,1:0|0:1,0:0:0:0:
454,131,142548,1,2,0:0:0:0:
356,306,142730,6,0,P|314:330|261:352,1,88,12|0,0:1|0:0,0:0:0:0:
42,312,143094,1,2,0:0:0:0:
148,373,143275,1,8,0:0:0:0:
202,272,143457,2,0,P|210:201|215:165,1,88,0|0,1:2|0:0,2:0:0:0:
94,123,143821,2,0,P|99:166|104:210,1,88,2|0,1:3|0:0,2:0:0:0:
362,48,144185,6,0,P|247:36|211:106,1,176,12|2,0:1|0:0,0:0:0:0:
212,184,144730,1,8,0:0:0:0:
212,184,144821,1,0,0:0:0:0:
212,184,144912,2,0,L|288:196,1,44,0|0,1:0|0:0,0:0:0:0:
344,208,145094,1,0,0:0:0:0:
434,336,145275,1,12,0:1:0:0:
434,336,145366,1,0,0:0:0:0:
434,336,145457,1,2,0:0:0:0:
324,313,145639,5,12,0:1:0:0:
446,224,145821,1,0,0:0:0:0:
334,105,146003,1,2,0:0:0:0:
465,25,146185,2,0,P|453:76|439:129,1,88,8|2,0:0|1:0,0:0:0:0:
344,208,146548,1,0,0:0:0:0:
211,133,146730,2,0,P|146:117|55:140,1,132,2|0,0:0|0:0,2:0:0:0:
78,148,147094,6,0,P|92:195|109:287,1,132,12|2,0:1|0:0,0:0:0:0:
102,297,147457,1,2,0:0:0:0:
0,253,147639,1,8,0:0:0:0:
205,226,147821,2,0,L|271:236,3,44,0|0|0|2,1:0|0:0|0:0|0:0,0:0:0:0:
183,336,148185,2,0,L|249:326,3,44,12|0|2|0,0:1|0:0|0:0|0:0,0:0:0:0:
325,289,148548,6,0,P|376:296|420:311,1,88,12|0,0:1|0:0,0:0:0:0:
277,136,148912,2,0,P|328:129|372:114,1,88,2|8,0:0|0:0,0:0:0:0:
248,232,149275,6,0,P|190:230|111:56,1,263.99999194336,4|8,1:1|2:1,2:0:0:0:
256,192,150094,12,0,157094,2:0:0:0:
256,32,157275,6,0,L|256:12,30,16.49999949646,2|0|0|0|0|0|2|0|0|0|0|0|2|0|0|0|2|0|0|0|0|0|2|0|0|0|0|0|2|0|0,0:2|0:0|0:0|0:0|0:0|0:0|0:2|0:0|0:0|0:0|0:0|0:0|0:2|0:0|0:0|0:0|0:2|0:0|0:0|0:0|0:0|0:0|0:2|0:0|0:0|0:0|0:0|0:0|0:2|0:0|0:0,0:0:0:0:
330,112,158730,6,0,L|324:84,6,22,8|8|8|8|8|8|8,1:0|1:0|1:0|1:0|1:0|1:0|1:0,0:0:0:0:
162,112,159094,2,0,L|168:84,6,22,8|8|8|8|8|8|8,1:0|1:0|1:0|1:0|1:0|1:0|1:0,0:0:0:0:
369,197,159457,6,0,L|402:200,6,27.5,8|8|8|8|8|8|8,1:0|1:0|1:0|1:0|1:0|1:0|1:0,0:0:0:0:
123,197,159821,2,0,L|90:200,6,27.5,8|8|8|8|8|8|8,1:0|1:0|1:0|1:0|1:0|1:0|1:0,0:0:0:0:
256,288,160185,6,0,L|256:215,1,55,2|0,0:0|0:0,0:0:0:0:
171,339,160366,1,8,0:0:0:0:
158,344,160457,2,0,L|106:292,1,55,2|0,0:0|0:0,0:0:0:0:
341,339,160639,1,8,0:0:0:0:
354,344,160730,2,0,L|405:292,1,55,2|0,0:0|0:0,0:0:0:0:
119,305,160912,1,8,0:0:0:0:
106,310,161003,2,0,L|54:258,1,55,2|0,0:0|0:0,0:0:0:0:
392,305,161185,1,8,0:0:0:0:
405,310,161276,2,0,L|456:258,1,55,2|2,0:0|0:0,0:0:0:0:
256,233,161457,2,0,L|256:288,1,55,8|8,0:0|0:0,0:0:0:0:
87,176,161639,6,0,B|120:187|120:187|225:165,1,82.5000031471254,12|0,1:0|0:0,0:0:0:0:
382,198,161821,1,0,1:0:0:0:
399,182,161912,1,0,0:0:0:0:
421,139,162003,1,8,0:0:0:0:
428,75,162094,1,0,0:0:0:0:
393,29,162185,2,0,P|349:8|259:90,1,165.000006294251,0|8,1:0|0:0,0:0:0:0:
382,198,162457,6,0,B|431:176|431:176|484:194|484:194|546:147,1,165.000006294251,0|8,0:0|1:0,0:0:0:0:
292,164,162730,2,0,P|287:215|312:264,1,82.5000031471254,8|0,0:2|0:0,0:0:0:0:
387,373,162912,2,0,P|393:332|381:293,1,82.5000031471254,0|8,1:0|0:0,0:0:0:0:
131,327,163094,6,0,P|218:354|324:308,1,165.000006294251,8|0,0:0|1:0,0:0:0:0:
156,237,163366,1,0,0:0:0:0:
132,228,163457,2,0,P|82:236|41:254,1,82.5000031471254,8|0,0:0|0:0,0:0:0:0:
225,145,163639,2,0,P|275:153|316:171,1,82.5000031471254,0|0,1:0|0:0,0:0:0:0:
123,117,163821,6,0,L|107:10,1,82.5000031471254,8|0,0:0|0:0,0:0:0:0:
156,237,164003,1,0,1:0:0:0:
181,238,164094,2,0,B|231:217|297:225|282:273|359:298|435:261,1,247.500009441376,8|8,0:0|1:0,0:0:0:0:
470,188,164457,1,8,1:0:0:0:
492,169,164548,6,0,P|491:87|478:57,1,65.9999979858399,8|0,0:0|0:0,0:0:0:0:
188,109,164730,1,0,1:0:0:0:
202,122,164821,1,0,0:0:0:0:
238,137,164912,1,8,0:0:0:0:
285,145,165003,1,0,0:0:0:0:
336,146,165094,2,0,L|440:134,1,65.9999979858399,0|0,1:0|0:0,0:0:0:0:
426,45,165275,5,8,0:0:0:0:
407,46,165366,2,0,L|303:34,1,65.9999979858399,0|0,0:0|1:0,0:0:0:0:
252,53,165548,1,0,0:0:0:0:
251,72,165639,2,0,L|263:176,1,65.9999979858399,8|0,0:0|0:0,0:0:0:0:
150,84,165821,2,0,L|157:18,1,65.9999979858399,0|8,1:0|0:0,0:0:0:0:
19,107,166003,6,0,P|86:151|131:214,1,110,8|0,0:0|1:0,0:0:0:0:
130,259,166275,2,0,P|127:290|121:322,1,55,8|8,0:2|0:0,0:0:0:0:
204,206,166457,1,0,0:2:0:0:
222,220,166548,2,0,P|226:247|229:274,1,55,0|8,1:0|0:0,0:0:0:0:
309,371,166730,2,0,P|220:371|181:340,1,110,8|0,0:0|1:0,0:0:0:0:
229,274,167003,2,0,B|288:262|288:262|336:274|336:274|423:252,1,165,8|8,0:0|1:0,0:0:0:0:
398,267,167336,1,8,0:0:0:0:
406,273,167397,1,8,0:0:0:0:
414,279,167457,6,0,L|431:167,1,110,8|0,0:0|1:0,0:0:0:0:
401,88,167730,1,0,0:0:0:0:
401,88,167821,2,0,P|465:86|515:140,1,110,8|0,0:0|1:0,0:0:0:0:
240,180,168094,1,0,0:0:0:0:
240,180,168185,2,0,P|304:182|354:128,1,110,8|0,0:0|1:0,0:0:0:0:
86,71,168457,1,0,0:0:0:0:
86,71,168548,2,0,P|150:69|200:123,1,110,8|0,0:0|1:0,0:0:0:0:
123,271,168821,1,0,0:0:0:0:
123,271,168912,6,0,L|111:131,1,110,8|0,0:0|1:0,0:0:0:0:
329,265,169185,1,0,0:0:0:0:
329,265,169276,2,0,L|341:125,1,110,8|0,0:0|1:0,0:0:0:0:
30,354,169548,1,0,0:0:0:0:
30,354,169639,2,0,L|18:214,1,110,8|0,0:0|1:0,0:0:0:0:
423,354,169912,5,8,0:0:0:0:
430,361,170185,1,8,1:0:0:0:
430,361,170275,1,8,1:0:0:0:
430,361,170366,6,0,B|399:381|399:381|295:367,1,110,8|0,0:0|1:0,0:0:0:0:
312,193,170639,1,8,1:0:0:0:
312,193,170730,2,0,B|343:173|343:173|447:187,1,110,8|0,0:0|1:0,0:0:0:0:
133,374,171003,1,8,1:0:0:0:
133,374,171094,2,0,B|113:343|113:343|127:239,1,110,8|0,0:0|1:0,0:0:0:0:
185,91,171366,1,8,1:0:0:0:
185,91,171457,2,0,B|205:122|205:122|191:226,1,110,8|0,0:0|1:0,0:0:0:0:
97,184,171730,1,8,1:0:0:0:
97,184,171821,6,0,B|31:142|31:142|90:43,1,165.000006294251,12|0,1:0|0:0,0:0:0:0:
436,67,172094,2,0,B|481:142|481:142|415:184,1,165.000006294251,12|0,0:0|0:0,0:0:0:0:
256,146,172366,2,0,L|256:64,1,82.5000031471254,12|0,1:0|0:0,0:0:0:0:
256,288,172548,5,0,0:0:0:0:
256,288,172639,1,2,0:2:0:0:
256,288,172730,1,0,0:0:0:0:
352,288,172912,1,2,0:2:0:0:
160,288,173094,1,2,0:2:0:0:
399,363,173275,6,0,P|429:335|437:295,1,82.5000031471254,14|0,0:1|0:0,0:0:0:0:
386,210,173457,2,0,P|388:169|365:134,1,82.5000031471254,10|0,1:0|0:0,0:0:0:0:
113,363,173639,6,0,P|82:335|74:295,1,82.5000031471254,10|0,1:0|0:0,0:0:0:0:
126,210,173821,2,0,P|123:169|146:134,1,82.5000031471254,10|0,1:0|0:0,0:0:0:0:
415,55,174003,6,0,P|318:54|288:74,1,82.5000031471254,10|0,1:0|0:0,0:0:0:0:
264,0,174185,2,0,P|194:67|187:103,1,82.5000031471254,10|0,1:0|0:0,0:0:0:0:
248,308,174366,6,0,P|345:309|375:289,1,82.5000031471254,10|0,1:0|0:0,0:0:0:0:
399,363,174548,2,0,P|468:295|475:259,1,82.5000031471254,10|0,1:0|0:0,0:0:0:0:
142,241,174730,6,0,L|-5:264,1,82.5000031471254,10|0,1:0|0:0,0:0:0:0:
68,139,174912,2,0,L|150:152,1,82.5000031471254,10|0,1:0|0:2,0:0:0:0:
370,241,175094,6,0,L|517:264,1,82.5000031471254,10|0,1:0|0:2,0:0:0:0:
443,139,175276,2,0,L|362:152,1,82.5000031471254,10|0,1:0|0:2,0:0:0:0:
233,369,175457,6,0,P|255:257|255:251,1,82.5000031471254,10|0,1:0|0:0,0:0:0:0:
279,15,175639,2,0,P|257:127|257:133,1,82.5000031471254,10|0,0:0|0:0,0:0:0:0:
157,187,175821,6,2,B|206:188|206:188|227:200|227:200|302:201,1,123.750004720688,2|0,0:2|2:0,0:1:0:0:
447,369,176185,6,0,P|411:348|370:344,1,82.5000031471254,14|0,0:1|0:0,0:0:0:0:
430,217,176366,2,0,P|390:227|358:253,1,82.5000031471254,10|0,1:0|0:0,0:0:0:0:
68,302,176548,6,0,P|103:281|144:277,1,82.5000031471254,10|0,1:0|0:0,0:0:0:0:
85,150,176730,2,0,P|124:160|156:186,1,82.5000031471254,10|0,1:0|0:0,0:0:0:0:
370,344,176912,6,0,L|231:328,1,82.5000031471254,10|0,1:0|0:0,0:0:0:0:
144,277,177094,2,0,L|283:261,1,82.5000031471254,10|0,1:0|0:0,0:0:0:0:
386,15,177275,6,0,L|247:31,1,82.5000031471254,10|0,1:0|0:0,0:0:0:0:
160,82,177457,2,0,L|299:98,1,82.5000031471254,10|0,1:0|0:0,0:0:0:0:
458,230,177639,6,0,P|469:193|444:132,1,82.5000031471254,10|0,1:0|0:0,0:0:0:0:
52,151,177821,2,0,P|42:190|54:230,1,82.5000031471254,10|0,1:0|0:0,0:0:0:0:
367,170,178003,5,2,1:0:0:0:
350,172,178063,1,2,1:0:0:0:
333,174,178124,1,2,1:0:0:0:
316,177,178185,1,2,1:0:0:0:
299,180,178245,1,2,1:0:0:0:
282,183,178306,1,2,1:0:0:0:
266,186,178366,6,0,L|172:170,1,55,8|0,0:0|3:3,0:0:0:0:
144,277,178548,2,0,L|198:267,1,55,2|0,1:0|0:0,0:0:0:0:
297,286,178730,6,0,L|279:387,1,82.5,0|0,0:0|0:0,0:0:0:0:
266,378,179094,1,2,1:2:0:0:
144,277,179275,2,0,L|209:268,1,55,0|0,0:0|0:0,0:0:0:0:
469,160,179457,5,12,1:3:0:0:
392,142,179548,1,2,1:0:0:0:
315,124,179639,1,2,1:0:0:0:
315,124,179821,6,0,L|328:224,1,82.5,2|0,1:2|0:0,0:0:0:0:
29,174,180185,5,12,1:3:0:0:
108,212,180275,1,2,1:0:0:0:
183,179,180366,1,2,1:0:0:0:
201,97,180457,1,2,1:0:0:0:
158,27,180548,6,0,P|123:19|65:18,1,82.5,2|2,1:2|1:2,0:0:0:0:
183,179,180912,5,12,1:3:0:0:
266,156,181003,1,2,1:3:0:0:
349,133,181094,1,2,1:3:0:0:
349,133,181275,6,0,L|363:183,1,27.5,2|0,1:2|0:0,0:0:0:0:
441,138,181457,2,0,L|433:111,1,27.5,2|0,1:2|0:0,0:0:0:0:
128,336,181639,5,12,1:3:0:0:
192,296,181730,1,10,1:3:0:0:
256,256,181821,1,10,1:3:0:0:
320,296,181912,1,10,1:3:0:0:
384,336,182003,6,0,L|448:328,14,41.2500015735627,8|8|8|8|8|8|8|8|8|8|8|8|8|8|8,1:0|1:0|1:0|1:0|1:0|1:0|1:0|1:0|1:0|1:0|1:0|1:0|1:0|1:0|1:0,0:0:0:0:
128,336,182730,2,0,L|64:328,14,41.2500015735627,8|8|8|8|8|8|8|8|8|8|8|8|8|8|8,1:0|1:0|1:0|1:0|1:0|1:0|1:0|1:0|1:0|1:0|1:0|1:0|1:0|1:0|1:0,0:0:0:0:
256,336,183457,5,8,1:0:0:0:
256,256,183548,1,8,1:0:0:0:
256,176,183639,1,8,1:0:0:0:
256,96,183730,1,8,1:0:0:0:
256,16,183821,5,8,1:0:0:0:
328,136,183942,1,8,1:0:0:0:
184,216,184063,1,8,1:0:0:0:
256,336,184185,5,8,1:0:0:0:
256,344,184366,1,8,1:0:0:0:
256,352,184548,1,8,1:0:0:0:
256,360,184730,1,8,1:0:0:0:
256,64,184912,5,8,3:2:0:0:
256,192,185003,12,10,186366,2:0:0:0:
256,192,186548,5,8,0:0:0:0:
191,125,186730,2,0,L|74:142,1,110,2|10,0:0|0:2,0:0:0:0:
70,159,187003,1,0,0:0:0:0:
32,298,187094,5,8,0:0:0:0:
86,239,187185,2,0,P|147:244|203:301,1,110,10|2,0:2|2:0,0:0:0:0:
214,344,187457,5,2,2:0:0:0:
226,356,187548,1,2,2:0:0:0:
214,368,187639,1,2,2:0:0:0:
203,356,187730,1,2,2:0:0:0:
299,291,187821,6,0,B|343:287|343:287|441:328,1,110,12|0,1:0|0:0,0:0:0:0:
512,180,188003,1,4,1:2:0:0:
472,202,188093,1,8,1:0:0:0:
390,217,188184,1,8,0:0:0:0:
305,198,188275,1,0,0:0:0:0:
242,138,188366,2,0,P|226:28|232:-3,1,110,4|8,1:2|1:0,0:0:0:0:
371,132,188548,1,8,0:0:0:0:
299,291,188639,6,0,B|172:322|221:207|37:271,1,220,0|8,0:2|1:2,0:0:0:0:
365,370,188912,2,0,P|392:337|394:258,1,110,8|0,0:0|0:0,0:0:0:0:
33,183,189094,2,0,P|6:216|4:295,1,110,4|8,1:2|1:0,0:0:0:0:
305,198,189275,2,0,P|297:151|259:104,1,110,8|0,0:0|0:0,0:0:0:0:
0,51,189457,5,4,1:2:0:0:
77,103,189548,1,8,1:0:0:0:
168,90,189639,1,8,0:0:0:0:
218,21,189730,1,0,0:0:0:0:
255,8,189821,1,4,1:2:0:0:
302,19,189912,1,8,1:0:0:0:
336,61,190003,6,0,P|388:76|457:82,1,110,8|0,0:0|0:0,0:0:0:0:
362,306,190185,1,4,1:2:0:0:
402,235,190275,2,0,P|454:219|498:366,1,220,8|0,1:0|0:0,0:0:0:0:
362,306,190548,2,0,P|314:302|224:288,1,110,4|8,1:2|1:0,0:0:0:0:
55,363,190730,6,0,P|109:355|164:350,1,110,8|0,0:0|0:0,0:0:0:0:
309,209,190912,1,4,1:2:0:0:
317,154,191003,1,8,1:0:0:0:
279,89,191094,1,8,0:0:0:0:
196,64,191185,1,0,0:0:0:0:
118,91,191275,6,0,P|61:104|0:108,1,110,4|8,1:2|1:0,0:0:0:0:
156,262,191457,1,8,0:0:0:0:
200,191,191548,2,0,P|254:195|417:261,1,220,0|8,0:0|1:0,0:0:0:0:
478,377,191821,2,0,P|495:311|496:241,1,110,8|0,0:0|0:0,0:0:0:0:
403,53,192003,2,0,P|407:107|422:160,1,110,4|8,1:2|1:0,0:0:0:0:
351,324,192185,6,0,P|293:328|218:313,1,110,8|0,0:0|0:0,0:0:0:0:
10,200,192366,1,4,1:2:0:0:
90,142,192457,2,0,P|129:270|125:375,1,220,8|0,1:0|0:0,0:0:0:0:
13,87,192730,2,0,P|62:51|117:50,1,110,4|8,1:2|1:0,0:0:0:0:
280,179,192912,6,0,P|399:208|468:137,1,165.000006294251,8|4,0:0|1:2,0:0:0:0:
455,42,193185,2,0,P|441:81|446:119,1,55,10|0,1:2|0:0,0:0:0:0:
355,121,193366,1,2,0:2:0:0:
345,114,193457,2,2,P|327:92|318:67,1,55,2|2,0:2|0:2,0:2:0:0:
460,346,193639,6,0,P|336:295|258:281,1,110,8|0,0:0|0:0,0:0:0:0:
14,241,193821,1,4,1:2:0:0:
41,283,193912,1,8,1:0:0:0:
107,321,194003,1,8,0:0:0:0:
192,301,194094,1,0,0:0:0:0:
232,216,194185,6,0,P|240:161|243:78,1,110,4|8,1:2|1:0,0:0:0:0:
111,1,194366,1,8,0:0:0:0:
65,69,194457,2,0,P|68:172|87:305,1,220,0|8,0:0|1:0,0:0:0:0:
309,36,194730,2,0,P|257:16|182:33,1,110,8|0,0:0|0:0,0:0:0:0:
192,301,194912,2,0,P|246:306|296:287,1,110,4|8,1:2|1:0,0:0:0:0:
482,239,195094,6,0,B|421:218|433:270|316:217,1,110,8|0,0:0|0:0,0:0:0:0:
130,238,195275,1,4,1:2:0:0:
162,159,195366,1,8,1:0:0:0:
242,119,195457,1,8,0:0:0:0:
321,132,195548,1,0,0:0:0:0:
368,135,195639,1,4,1:2:0:0:
398,119,195730,1,8,1:0:0:0:
409,108,195821,6,0,P|422:51|427:-7,1,110,8|0,0:0|0:0,0:0:0:0:
80,125,196003,1,4,1:2:0:0:
162,159,196094,2,0,P|201:304|200:391,1,220,8|0,1:0|0:3,0:0:0:0:
115,288,196366,1,4,1:2:0:0:
115,288,196457,1,8,1:0:0:0:
294,284,196548,6,0,P|351:290|441:312,1,110,12|0,0:1|0:0,0:0:0:0:
377,130,196730,1,4,1:2:0:0:
424,56,196821,1,8,1:0:0:0:
473,130,196912,6,0,P|486:195|491:265,1,110,10|0,0:1|1:0,0:0:0:0:
240,174,197094,1,0,1:2:0:0:
294,115,197185,2,0,P|307:49|312:-20,1,110,12|0,0:0|0:0,0:0:0:0:
68,54,197366,1,12,1:2:0:0:
31,131,197457,2,0,P|36:185|48:239,1,110,10|8,1:1|0:0,0:0:0:0:
305,305,197639,6,0,P|317:251|322:196,1,110,12|0,0:0|1:0,0:0:0:0:
204,65,197821,1,10,1:0:0:0:
294,115,197912,1,10,1:0:0:0:
389,68,198003,6,0,P|503:109|484:232,1,220,12|0,0:1|1:0,0:0:0:0:
1,194,198275,2,0,P|21:92|123:68,1,220,12|0,0:0|1:0,0:0:0:0:
347,312,198548,2,0,P|260:370|171:315,1,220,12|0,0:1|1:0,0:0:0:0:
164,211,198821,6,0,P|208:226|226:246,1,55,12|2,0:0|0:2,0:0:0:0:
348,211,199094,2,0,P|304:226|286:246,1,55,2|2,0:2|0:2,0:0:0:0:
228,130,199457,6,0,P|207:102|273:133,1,247.500009441376,0|0,0:0|0:0,0:0:0:0:
123,148,199821,5,14,0:1:0:0:
81,74,199912,1,0,0:0:0:0:
12,122,200003,2,0,P|1:176|6:280,1,110,4|8,1:2|1:0,0:0:0:0:
113,352,200185,1,8,0:0:0:0:
147,271,200275,2,0,P|199:253|378:251,1,220,0|8,1:0|1:0,0:0:0:0:
493,365,200548,2,0,P|434:364|363:335,1,110,8|0,0:0|0:0,0:0:0:0:
401,163,200730,2,0,P|455:163|508:179,1,110,4|8,1:2|1:0,0:0:0:0:
318,267,200912,6,0,P|302:217|298:119,1,110,8|0,0:0|0:0,0:0:0:0:
436,26,201094,1,4,1:2:0:0:
351,72,201185,1,8,1:0:0:0:
258,67,201275,1,8,0:0:0:0:
200,40,201366,1,0,0:0:0:0:
169,24,201457,1,4,1:2:0:0:
138,22,201548,1,8,1:0:0:0:
108,31,201639,6,0,P|85:90|70:167,1,110,8|0,0:0|0:0,0:0:0:0:
85,222,201821,1,12,1:2:0:0:
85,222,201912,1,8,1:0:0:0:
161,174,202003,6,0,P|232:212|232:327,1,165,6|0,0:0|0:0,0:0:0:0:
190,360,202366,6,0,P|139:349|76:331,1,110,8|0,0:0|0:0,0:0:0:0:
249,289,202548,1,4,1:2:0:0:
283,303,202639,1,8,1:0:0:0:
353,350,202730,1,8,0:0:0:0:
447,337,202821,1,0,0:0:0:0:
497,242,202912,6,0,L|511:113,1,110,4|8,1:2|1:0,0:0:0:0:
374,39,203094,1,8,0:0:0:0:
306,100,203185,2,0,P|179:86|71:36,1,220,0|8,1:0|1:0,0:0:0:0:
11,197,203457,2,0,P|118:167|153:162,1,110,8|0,0:0|0:0,0:0:0:0:
396,179,203639,2,0,P|342:191|290:208,1,110,4|8,1:2|1:0,0:0:0:0:
150,361,203821,6,0,P|174:311|191:259,1,110,8|0,0:0|0:0,0:0:0:0:
247,9,204003,1,4,1:2:0:0:
178,61,204094,1,8,1:0:0:0:
222,133,204185,2,0,P|257:123|304:102,1,55,14|0,0:3|0:0,0:0:0:0:
178,61,204366,2,0,P|152:51|125:44,1,55,14|0,0:3|0:0,0:0:0:0:
396,179,204548,6,0,P|391:118|372:43,1,110,12|0,0:0|1:0,0:0:0:0:
310,200,204821,2,0,P|315:261|334:336,1,110,14|0,1:0|1:0,0:0:0:0:
386,366,205094,1,12,0:0:0:0:
27,221,205275,6,0,P|78:207|166:203,1,110,12|0,1:0|0:0,0:0:0:0:
400,259,205457,5,10,1:0:0:0:
310,200,205548,1,10,1:0:0:0:
406,166,205639,1,10,1:0:0:0:
316,109,205730,1,10,1:0:0:0:
412,75,205821,6,0,P|463:91|495:148,1,110,10|2,1:0|0:0,0:0:0:0:
492,136,206366,6,0,B|366:76|394:197|207:99,1,247.500009441376,8|0,3:0|0:0,0:0:0:0:
64,23,206730,6,0,P|98:75|116:140,1,110,12|0,1:0|0:0,0:0:0:0:
70,237,206912,2,0,P|82:275|94:306,1,55,10|8,1:0|0:0,0:0:0:0:
114,320,207003,2,0,P|123:294|131:267,1,55,8|0,1:0|0:0,0:0:0:0:
162,245,207094,1,10,1:0:0:0:
201,320,207185,1,10,1:0:0:0:
256,248,207275,6,0,P|341:284|370:301,1,110,10|8,1:0|0:0,0:0:0:0:
393,329,207685,2,0,L|398:352,3,13.75,8|8|8|2,0:0|0:0|0:0|0:0,0:0:0:0:
466,285,207912,1,8,0:0:0:0:
466,285,208003,2,0,L|470:258,1,27.5,0|2,0:0|0:0,0:0:0:0:
495,74,208185,6,0,P|425:95|356:92,1,110,12|0,1:0|0:0,0:0:0:0:
83,73,208366,1,10,1:0:0:0:
170,46,208457,1,8,1:0:0:0:
240,101,208548,1,10,1:0:0:0:
220,184,208639,1,14,0:0:0:0:
134,223,208730,1,0,0:0:0:0:
25,175,208821,6,0,P|9:238|8:335,1,110,12|0,1:0|0:0,0:0:0:0:
304,242,209003,1,8,1:0:0:0:
382,176,209094,2,0,P|376:121|362:68,1,110,14|0,1:3|0:0,0:0:0:0:
134,223,209275,2,0,P|139:277|153:330,1,110,14|0,1:0|0:0,0:0:0:0:
471,65,209457,1,8,1:0:0:0:
362,68,209548,1,8,1:0:0:0:
256,65,209639,6,0,L|140:80,1,110,12|2,1:0|0:2,0:0:0:0:
306,157,209912,2,0,L|422:172,1,110,0|2,1:0|0:2,0:0:0:0:
254,243,210185,2,0,L|138:258,1,110,0|2,1:0|0:2,0:0:0:0:
290,330,210457,2,0,L|406:345,1,110,0|2,1:0|0:2,0:0:0:0:
75,191,210730,6,0,P|51:263|54:302,1,82.5000031471254,0|0,1:0|1:0,0:0:0:0:
466,281,210912,6,0,P|479:208|450:139,1,110,0|0,1:0|1:0,0:0:0:0:
396,53,211094,6,0,L|227:66,1,165,8|0,0:2|2:0,0:0:0:0:
131,79,211821,5,2,0:2:0:0:
131,79,211912,1,0,0:0:0:0:
131,79,212003,1,2,0:2:0:0:
141,90,212185,5,2,0:2:0:0:
141,90,212276,1,2,0:2:0:0:
141,90,212367,1,2,0:2:0:0:
151,101,212548,5,2,0:2:0:0:
151,101,212639,1,2,0:2:0:0:
151,101,212730,1,2,0:2:0:0:
161,112,212912,5,2,0:2:0:0:
161,112,213003,1,2,0:2:0:0:
161,112,213094,1,2,0:2:0:0:
161,112,213275,6,0,L|152:227,1,110,0|0,1:0|1:0,0:0:0:0:
152,221,213821,2,0,L|150:249,1,27.5,0|0,1:0|0:0,0:0:0:0:
512,90,214003,6,0,P|475:74|398:78,1,82.5000031471254,12|0,0:1|0:0,0:0:0:0:
349,131,214185,2,0,P|312:147|235:143,1,82.5000031471254,4|8,1:2|1:0,0:0:0:0:
34,6,214366,2,0,P|117:-10|158:133,1,247.500009441376,8|8,0:0|1:2,0:0:0:0:
152,221,214730,2,0,P|58:218|24:273,1,165.000006294251,8|4,0:0|1:2,0:0:0:0:
85,346,215003,5,8,1:0:0:0:
158,365,215094,1,8,0:0:0:0:
226,336,215185,1,0,0:0:0:0:
263,270,215275,1,4,1:2:0:0:
325,220,215366,1,8,1:0:0:0:
406,227,215457,6,0,B|470:223|511:274|511:274|452:325,1,165.000006294251,8|4,0:0|1:2,0:0:0:0:
263,270,215730,1,8,1:0:0:0:
223,203,215821,1,8,0:0:0:0:
256,132,215912,1,0,0:0:0:0:
257,51,216003,2,0,P|157:16|83:144,1,247.500009441376,4|0,1:2|0:0,0:0:0:0:
223,203,216366,5,4,1:2:0:0:
138,224,216457,1,8,1:0:0:0:
59,249,216548,1,8,0:0:0:0:
144,270,216639,1,0,0:0:0:0:
223,295,216730,1,4,1:2:0:0:
302,322,216821,1,8,1:0:0:0:
387,348,216912,6,0,B|417:378|417:378|340:367|340:367|293:379|293:379|214:368,1,247.500009441376,8|8,0:0|0:0,0:0:0:0:
223,203,217275,1,8,0:0:0:0:
300,231,217366,1,0,0:0:0:0:
374,188,217457,2,0,P|385:96|307:54,1,165.000006294251,4|8,1:2|0:0,0:0:0:0:
75,83,217730,1,0,0:0:0:0:
146,140,217821,2,0,P|194:128|249:107,1,82.5000031471254,4|8,1:2|1:0,0:0:0:0:
449,243,218003,1,8,0:0:0:0:
370,286,218094,1,0,0:0:0:0:
300,231,218185,6,0,P|197:248|125:338,1,165.000006294251,4|8,1:2|0:0,0:0:0:0:
57,366,218457,1,0,0:0:0:0:
10,302,218548,2,0,P|2:279|12:193,1,82.5000031471254,4|8,1:2|1:0,0:0:0:0:
183,106,218730,5,8,0:0:0:0:
106,142,218821,1,0,0:0:0:0:
30,107,218912,2,0,P|27:66|38:26,1,82.5000031471254,4|8,1:2|1:0,0:0:0:0:
205,124,219094,5,8,0:0:0:0:
274,172,219185,1,0,0:0:0:0:
282,256,219276,2,0,P|247:278|208:289,1,82.5000031471254,4|8,1:2|1:0,0:0:0:0:
176,133,219457,5,8,0:0:0:0:
183,49,219548,1,0,0:0:0:0:
251,0,219639,2,0,B|351:13|296:65|433:61,1,165.000006294251,4|8,1:2|0:0,0:0:0:0:
507,136,219912,1,0,0:0:0:0:
438,184,220003,6,0,P|421:232|411:292,1,82.5000031471254,12|0,1:2|1:0,0:0:0:0:
94,207,220185,2,0,P|199:167|282:274,1,247.500009441376,8|0,0:0|1:0,0:0:0:0:
106,367,220548,5,8,0:0:0:0:
180,263,220639,2,0,P|193:301|195:347,1,82.5000031471254,0|4,0:0|1:2,0:0:0:0:
5,230,220821,2,0,P|7:188|20:149,1,82.5000031471254,8|8,1:0|0:0,0:0:0:0:
251,171,221003,1,0,0:0:0:0:
281,255,221094,2,0,L|379:276,1,82.5000031471254,6|0,1:2|1:0,0:0:0:0:
446,46,221275,5,12,1:3:0:0:
359,63,221366,1,8,1:3:0:0:
286,24,221457,1,2,0:2:0:0:
207,47,221548,2,0,P|139:50|90:52,1,82.5000031471254,0|0,0:0|2:0,0:0:0:0:
5,230,221821,5,12,1:3:0:0:
77,189,221912,1,8,1:3:0:0:
143,238,222003,1,2,0:2:0:0:
208,288,222094,1,0,0:0:0:0:
281,255,222185,2,0,P|318:255|364:261,1,55,0|0,0:0|0:0,0:0:0:0:
398,327,222366,5,12,1:3:0:0:
415,348,222457,1,8,1:3:0:0:
465,346,222548,1,2,1:3:0:0:
493,277,222639,1,2,1:3:0:0:
453,186,222730,6,0,B|380:120|333:202|241:106,1,220,12|4,0:1|1:2,0:0:0:0:
37,89,223003,1,8,1:0:0:0:
106,32,223094,1,8,0:0:0:0:
156,109,223185,1,0,0:0:0:0:
86,173,223275,6,0,L|73:246,1,55,14|8,1:3|2:0,0:0:0:0:
91,205,223639,2,0,L|78:278,1,55,14|0,1:3|2:0,0:0:0:0:
81,259,224003,6,0,P|161:286|194:312,1,123.750004720688,12|0,0:0|2:0,0:0:0:0:
359,364,224366,5,8,0:0:0:0:
373,340,224427,1,8,0:0:0:0:
378,312,224488,1,8,0:0:0:0:
374,281,224548,6,0,P|328:266|261:254,1,110,12|0,0:1|0:0,0:0:0:0:
181,168,224730,2,0,P|332:99|348:39,1,220,4|8,1:2|0:0,0:0:0:0:
140,9,225003,1,0,0:0:0:0:
57,31,225094,2,0,P|38:75|41:143,1,110,4|8,1:2|1:0,0:0:0:0:
169,317,225275,1,8,0:0:0:0:
214,247,225366,1,0,1:0:0:0:
181,168,225457,2,0,P|113:206|76:245,1,110,12|0,1:2|1:0,0:0:0:0:
240,369,225639,6,0,B|273:384|273:384|379:363,1,110,8|0,0:0|0:0,0:0:0:0:
512,261,225821,2,0,B|479:276|479:276|373:255,1,110,4|8,1:2|1:0,0:0:0:0:
296,158,226003,2,0,B|344:63|344:63|283:371,1,330,8|8,0:0|1:0,0:0:0:0:
119,328,226366,5,8,0:0:0:0:
89,311,226457,1,0,0:0:0:0:
74,282,226548,1,4,1:2:0:0:
76,247,226639,1,8,1:0:0:0:
105,203,226730,1,8,0:0:0:0:
177,169,226821,1,0,1:0:0:0:
215,94,226912,1,4,1:2:0:0:
175,21,227003,1,8,1:0:0:0:
86,15,227094,6,0,P|41:137|116:171,1,220,8|6,0:0|1:2,0:0:0:0:
215,94,227366,1,10,1:0:0:0:
289,50,227457,1,10,0:0:0:0:
373,66,227548,1,10,0:0:0:0:
427,135,227639,6,0,P|445:195|431:307,1,110,10|8,1:3|1:0,0:0:0:0:
282,307,227821,2,0,P|265:254|263:199,1,110,8|8,0:0|0:0,0:0:0:0:
503,336,228003,5,14,1:3:0:0:
443,268,228094,1,10,1:3:0:0:
415,347,228185,1,10,1:3:0:0:
361,285,228276,1,10,1:3:0:0:
331,363,228366,1,10,1:3:0:0:
282,307,228457,1,10,1:3:0:0:
253,379,228548,6,0,P|108:345|78:245,1,220,12|4,0:1|1:2,0:0:0:0:
53,122,228821,1,8,1:0:0:0:
109,60,228912,1,8,0:0:0:0:
192,65,229003,1,0,0:0:0:0:
257,122,229094,6,0,L|358:136,1,55,12|0,1:3|2:2,0:0:0:0:
275,115,229457,2,0,L|376:129,1,55,12|0,1:3|2:2,0:0:0:0:
329,122,229821,6,0,P|341:224|345:258,1,123.750004720688,12|0,1:3|0:0,0:0:0:0:
507,355,230185,5,8,0:0:0:0:
471,347,230245,1,8,0:0:0:0:
434,339,230306,1,8,0:0:0:0:
398,332,230366,6,0,L|260:352,1,110,12|0,0:1|0:0,0:0:0:0:
127,234,230548,2,0,L|265:254,1,110,4|8,1:2|1:0,0:0:0:0:
86,316,230730,1,8,0:0:0:0:
33,244,230821,1,0,0:0:0:0:
72,158,230912,2,0,P|110:43|117:13,1,110,4|8,1:2|1:0,0:0:0:0:
432,86,231094,1,8,0:0:0:0:
350,11,231185,1,0,0:0:0:0:
247,34,231275,6,0,B|231:113|231:113|247:167|247:167|228:297,1,220,4|8,1:2|0:0,0:0:0:0:
323,376,231548,1,0,0:0:0:0:
398,332,231639,2,0,B|425:300|425:300|423:210,1,110,4|8,1:2|1:0,0:0:0:0:
432,86,231821,2,0,B|352:70|250:88|301:173|193:185|70:141,1,330,8|8,0:0|1:0,0:0:0:0:
109,62,232185,5,8,0:0:0:0:
79,229,232275,2,0,P|91:287|117:345,1,110,0|4,0:0|1:2,0:0:0:0:
315,213,232457,2,0,P|141:148|55:222,1,220,8|0,1:0|0:0,0:0:0:0:
205,309,232730,2,0,P|254:341|313:364,1,110,12|8,1:2|1:0,0:0:0:0:
480,264,232912,5,2,0:2:0:0:
480,264,233003,1,0,0:0:0:0:
315,213,233094,5,14,0:0:0:0:
378,297,233185,2,0,P|393:240|403:143,1,110,0|0,1:0|1:0,0:0:0:0:
185,45,233366,5,14,0:0:0:0:
122,129,233457,2,0,P|107:72|97:-25,1,110,0|0,1:0|1:0,0:0:0:0:
364,113,233639,5,14,0:0:0:0:
440,72,233730,2,0,P|377:26|329:32,1,110,0|0,1:0|1:1,0:0:0:0:
205,309,233912,5,14,0:0:0:0:
129,268,234003,2,0,P|192:222|240:228,1,110,14|0,1:0|0:0,0:0:0:0:
475,214,234185,5,2,1:0:0:0:
471,242,234245,1,2,0:0:0:0:
467,271,234306,1,2,0:0:0:0:
464,299,234366,6,0,B|440:323|440:323|310:313,1,110,14|0,0:0|0:0,0:0:0:0:
86,116,234548,1,2,1:0:0:0:
135,51,234639,2,0,B|159:27|159:27|375:49,1,220,12|0,0:1|0:0,0:0:0:0:
288,366,234912,6,0,B|254:366|254:366|169:267,1,110,14|0,0:0|0:0,0:0:0:0:
169,125,235094,1,8,0:0:0:0:
117,195,235185,2,0,B|86:246|86:246|118:320,1,110,14|0,0:0|0:0,0:0:0:0:
344,45,235366,1,8,0:0:0:0:
388,120,235457,2,0,B|407:166|407:166|376:217,1,110,14|0,0:0|0:0,0:0:0:0:
204,308,235639,1,8,0:0:0:0:
211,224,235730,6,0,B|328:222|273:333|475:298,1,220,12|0,0:1|0:0,0:0:0:0:
248,30,236003,2,0,B|131:28|186:139|-16:104,1,220,14|8,0:0|0:0,0:0:0:0:
49,34,236275,5,0,0:0:0:0:
63,26,236366,1,2,0:0:0:0:
83,31,236457,1,8,0:0:0:0:
106,62,236548,1,2,0:0:0:0:
111,139,236639,1,2,0:0:0:0:
78,217,236730,1,8,0:0:0:0:
99,302,236821,1,2,0:0:0:0:
168,349,236912,1,10,0:0:0:0:
218,338,237003,1,2,0:0:0:0:
243,312,237094,1,8,0:0:0:0:
251,294,237185,1,2,0:0:0:0:
174,258,237275,6,0,B|134:247|134:247|33:283,1,110,14|0,0:0|0:0,0:0:0:0:
324,351,237457,1,8,0:0:0:0:
396,298,237548,2,0,B|410:219|410:219|393:168|393:168|413:79,1,220,12|0,0:1|0:0,0:0:0:0:
304,122,237821,6,0,B|292:173|292:173|314:225,1,110,14|0,0:0|0:0,0:0:0:0:
510,93,238003,1,8,0:0:0:0:
461,8,238094,2,0,B|409:-8|409:-8|351:16,1,110,14|0,0:0|0:0,0:0:0:0:
197,175,238275,1,8,0:0:0:0:
174,258,238366,6,0,B|122:274|122:274|64:250,1,110,14|0,0:0|0:0,0:0:0:0:
58,28,238548,1,8,0:0:0:0:
11,114,238639,2,0,B|90:116|90:116|148:81|148:81|263:74,1,220,12|0,0:1|0:0,0:0:0:0:
293,17,238912,2,0,B|315:69|315:69|303:120,1,110,14|0,0:0|0:0,0:0:0:0:
185,313,239094,5,2,0:0:0:0:
170,279,239185,1,8,0:0:0:0:
187,230,239275,1,2,0:0:0:0:
263,195,239366,1,2,0:0:0:0:
324,240,239457,1,8,0:0:0:0:
375,296,239548,1,8,0:0:0:0:
451,290,239639,1,2,0:0:0:0:
493,225,239730,1,8,0:0:0:0:
476,149,239821,1,10,0:0:0:0:
429,121,239912,1,2,0:0:0:0:
387,129,240003,1,8,0:0:0:0:
369,145,240094,1,2,0:0:0:0:
407,215,240185,6,0,B|430:263|430:263|393:368,1,110,14|0,0:0|0:0,0:0:0:0:
134,335,240366,1,8,0:0:0:0:
110,251,240457,2,0,B|161:228|161:228|374:280,1,220,12|0,0:1|0:0,0:0:0:0:
506,198,240730,6,0,B|471:226|471:226|351:204,1,110,14|0,0:0|0:0,0:0:0:0:
130,57,240912,1,8,0:0:0:0:
213,54,241003,2,0,B|241:89|241:89|219:209,1,110,14|0,0:0|0:0,0:0:0:0:
13,350,241185,1,8,0:0:0:0:
10,267,241276,6,0,B|45:239|45:239|165:261,1,110,14|0,0:0|0:0,0:0:0:0:
299,373,241457,1,8,0:0:0:0:
335,291,241548,2,0,B|286:272|217:287|259:329|193:357|133:334,1,220,12|0,0:1|0:0,0:0:0:0:
109,250,241821,2,0,P|110:202|186:114,1,110,14|0,0:0|0:0,0:0:0:0:
286,3,242003,5,2,0:0:0:0:
324,0,242094,1,8,0:0:0:0:
374,15,242185,1,2,0:0:0:0:
412,61,242275,1,2,0:0:0:0:
413,122,242366,1,8,0:0:0:0:
357,184,242457,1,2,0:0:0:0:
278,181,242548,1,8,0:0:0:0:
220,115,242639,1,8,0:0:0:0:
172,41,242730,1,10,0:0:0:0:
103,16,242821,1,2,0:0:0:0:
45,23,242912,1,8,0:0:0:0:
20,49,243003,1,2,0:0:0:0:
14,79,243094,6,0,P|14:132|35:212,1,110,14|0,0:0|0:0,0:0:0:0:
89,342,243275,1,8,0:0:0:0:
138,271,243366,2,0,B|206:250|206:250|275:278|275:278|407:248,1,220,12|0,0:1|0:0,0:0:0:0:
488,228,243639,6,0,P|438:342|437:353,1,110,14|0,0:0|0:0,0:0:0:0:
309,169,243821,1,8,0:0:0:0:
400,181,243912,2,0,P|450:67|451:56,1,110,14|0,0:0|0:0,0:0:0:0:
193,54,244094,1,8,0:0:0:0:
151,133,244185,6,0,B|130:177|130:177|90:120|105:61,1,165,12|8,0:0|0:0,0:0:0:0:
193,54,244548,6,0,L|298:74,1,82.5000031471254,8|0,0:2|0:0,0:0:0:0:
309,169,244730,2,0,L|208:188,1,55,2|0,0:2|0:0,0:0:0:0:
215,272,244912,2,0,L|274:283,1,41.2500015735627,2|0,0:2|0:0,0:0:0:0:
279,377,245094,6,0,L|176:388,1,82.5,2|0,0:2|0:0,0:0:0:0:
47,367,245457,2,2,P|75:308|153:323,1,137.5,0|0,0:0|2:0,0:1:0:0:
205,355,246003,6,0,L|199:388,1,27.5,2|0,0:2|0:0,0:0:0:0:
283,349,246185,2,0,L|277:382,1,27.5,2|0,0:2|0:0,0:0:0:0:
477,264,246366,5,14,0:0:0:0:
425,199,246457,1,2,0:0:0:0:
343,185,246548,1,2,0:0:0:0:
273,230,246639,2,0,P|259:202|271:134,1,82.5,2|2,0:2|0:2,0:0:0:0:
46,39,247094,5,14,0:0:0:0:
98,104,247185,1,2,0:0:0:0:
180,118,247276,1,2,0:0:0:0:
250,73,247367,2,0,P|264:101|252:169,1,82.5,2|2,0:2|0:2,0:0:0:0:
24,293,247821,5,14,0:0:0:0:
105,280,247912,1,2,0:0:0:0:
186,268,248003,1,2,0:0:0:0:
267,256,248094,1,2,0:0:0:0:
348,244,248185,6,0,P|352:269|353:295,1,27.5,0|0,1:0|1:0,0:0:0:0:
431,302,248366,2,0,P|416:323|398:341,1,27.5,0|0,1:0|1:0,0:0:0:0:
199,350,248548,5,14,0:0:0:0:
186,268,248639,1,2,0:0:0:0:
170,186,248730,1,2,0:0:0:0:
155,104,248821,1,2,0:0:0:0:
139,22,248912,6,0,L|79:16,6,41.2500015735627,8|8|8|8|8|8|8,1:0|1:0|1:0|1:0|1:0|1:0|1:0,0:0:0:0:
373,22,249275,2,0,L|433:16,6,41.2500015735627,8|8|8|8|8|8|8,1:0|1:0|1:0|1:0|1:0|1:0|1:0,0:0:0:0:
75,121,249639,6,0,B|53:126|53:126|43:131|43:131|-12:139,6,55,8|8|8|8|8|8|8,1:0|1:0|1:0|1:0|1:0|1:0|1:0,0:0:0:0:
437,121,250003,2,0,B|459:126|459:126|469:131|469:131|524:139,6,55,8|8|8|8|8|8|8,1:0|1:0|1:0|1:0|1:0|1:0|1:0,0:0:0:0:
239,213,250366,5,2,1:2:0:0:
260,218,250457,1,0,0:0:0:0:
281,212,250548,1,0,0:0:0:0:
281,172,250639,5,2,1:2:0:0:
260,166,250730,1,0,0:0:0:0:
239,171,250821,1,0,0:0:0:0:
205,285,250912,6,0,P|266:300|326:278,1,110,2|0,1:2|0:0,0:0:0:0:
310,96,251185,2,0,P|257:83|205:99,1,110,2|0,1:2|0:0,0:0:0:0:
128,201,251457,5,10,0:2:0:0:
381,193,251578,1,10,0:2:0:0:
128,201,251700,1,10,0:2:0:0:
381,193,251821,6,0,B|409:221|420:248|420:248|428:173|463:152|463:152|459:84|459:84|492:57|505:-16,1,330,8|0,1:0|2:0,0:0:0:0:
508,278,252185,5,12,0:1:0:0:
443,332,252275,1,0,0:0:0:0:
355,308,252366,2,0,B|315:311|315:311|290:322|290:322|202:326,1,110,10|8,1:0|0:0,0:0:0:0:
19,357,252548,5,8,0:0:0:0:
84,303,252638,1,2,1:0:0:0:
153,360,252730,5,8,0:0:0:0:
153,360,252821,1,10,1:0:0:0:
176,266,252912,6,0,L|196:124,1,110,8|0,1:0|0:0,0:0:0:0:
77,0,253094,1,10,1:1:0:0:
80,14,253154,1,8,0:0:0:0:
83,28,253215,1,8,0:0:0:0:
87,41,253275,6,0,B|221:16|152:106|326:79,1,220,8|0,0:0|1:0,0:0:0:0:
484,31,253548,1,10,1:0:0:0:
407,90,253639,1,8,0:0:0:0:
479,157,253730,1,8,0:0:0:0:
454,251,253821,1,2,1:0:0:0:
360,271,253912,1,10,1:0:0:0:
286,215,254003,6,0,P|230:198|147:196,1,110,8|0,0:0|0:0,0:0:0:0:
95,230,254185,1,10,1:1:0:0:
0,316,254275,6,2,P|81:319|223:285,1,220,8|0,0:0|0:0,1:0:0:0:
178,193,254730,5,8,0:0:0:0:
100,140,254821,2,0,P|81:107|70:21,1,110,10|0,1:0|1:2,0:0:0:0:
200,200,255003,1,8,0:0:0:0:
182,107,255094,2,0,P|191:70|244:1,1,110,10|0,1:0|0:0,0:0:0:0:
218,210,255275,1,8,1:2:0:0:
271,131,255366,6,2,P|304:111|505:165,1,220,10|0,1:0|0:0,0:0:0:0:
367,373,255639,1,10,1:0:0:0:
315,307,255730,2,0,P|307:238|341:186,1,110,8|0,1:0|0:0,0:0:0:0:
428,208,255912,2,0,P|436:277|402:329,1,110,8|2,0:0|1:0,0:0:0:0:
41,337,256094,1,0,0:0:0:0:
108,281,256185,6,0,B|149:297|193:282|193:282|227:310|227:310|272:290|360:318,1,220,14|0,1:3|0:0,0:0:0:0:
143,193,256457,2,0,P|86:190|33:223,1,110,14|0,1:3|0:0,0:0:0:0:
315,133,256639,1,0,0:0:0:0:
340,217,256730,2,0,P|397:220|490:127,1,110,14|0,1:0|0:0,0:0:0:0:
231,151,256912,6,0,L|238:219,2,55,10|8|2,0:0|1:3|1:3,0:0:0:0:
181,59,257457,5,8,1:0:0:0:
170,63,257518,1,8,1:0:0:0:
160,67,257578,1,8,1:0:0:0:
148,70,257639,6,0,L|30:49,1,110,12|0,0:1|0:0,0:0:0:0:
231,151,257821,2,0,L|349:130,1,110,0|10,1:0|1:0,0:0:0:0:
62,356,258003,1,8,0:0:0:0:
18,280,258094,1,0,1:0:0:0:
61,206,258185,2,0,P|116:220|198:260,1,110,2|8,1:0|0:0,0:0:0:0:
210,345,258366,6,0,P|265:331|347:291,1,110,8|0,0:0|1:0,0:0:0:0:
484,209,258548,1,10,0:0:0:0:
484,209,258639,1,8,1:0:0:0:
497,298,258730,2,0,B|374:303|426:195|244:213,1,220,0|10,0:0|1:0,0:0:0:0:
220,242,259003,1,10,1:0:0:0:
361,127,259094,6,0,B|386:102|413:98|413:98|472:123|551:97,2,165,14|10|10,0:0|1:0|1:0,0:0:0:0:
209,251,259457,2,0,B|184:276|157:280|157:280|98:255|19:281,2,165,14|10|10,0:1|1:0|1:0,0:0:0:0:
256,32,259821,5,14,0:0:0:0:
145,188,259957,5,10,1:0:0:0:
362,336,260094,6,0,P|292:336|244:350,1,110,12|0,0:1|2:0,0:0:0:0:
256,362,260548,6,0,P|286:315|303:245,1,82.5000031471254,12|0,0:1|2:0,0:0:0:0:
512,230,260730,6,0,P|433:257|372:228,1,110,0|10,1:0|1:0,0:0:0:0:
344,178,260912,1,8,0:0:0:0:
410,105,261003,2,0,P|464:101|512:126,1,110,2|8,1:0|1:2,0:0:0:0:
295,290,261185,2,0,P|246:315|192:311,1,110,8|12,0:0|0:1,0:0:0:0:
203,40,261366,2,0,P|257:36|305:61,1,110,2|0,1:0|1:0,0:0:0:0:
93,201,261548,1,8,0:0:0:0:
33,119,261639,6,0,B|110:91|217:119|147:181|256:204|369:186,1,330,14|10,0:1|1:0,0:0:0:0:
512,29,262003,2,0,P|425:3|376:109,1,220,12|2,0:0|1:0,0:0:0:0:
512,349,262275,2,0,P|412:370|373:277,1,220,12|2,1:0|0:0,0:0:0:0:
486,180,262548,1,12,1:0:0:0:
377,192,262639,1,8,1:0:0:0:
268,207,262730,6,0,B|221:209|186:193|186:193|167:167|159:101,1,165.000006294251,10|2,0:1|1:0,0:0:0:0:
315,118,262912,1,2,1:2:0:0:
377,192,263003,2,0,B|378:239|361:273|361:273|335:292|269:299,1,165.000006294251,10|2,0:1|1:0,0:0:0:0:
197,287,263185,1,0,0:0:0:0:
315,118,263275,6,2,P|377:94|467:166,1,192.5,10|0,0:0|2:0,0:1:0:0:
499,256,264003,6,0,P|470:300|383:309,1,110,12|0,0:1|0:0,0:0:0:0:
334,384,264185,2,0,P|282:367|252:322,1,110,2|0,1:0|0:0,0:0:0:0:
315,118,264366,2,0,L|307:247,1,110,10|0,1:0|1:0,0:0:0:0:
147,328,264548,2,0,L|140:218,1,110,12|0,0:0|0:0,0:0:0:0:
41,73,264730,1,0,1:0:0:0:
134,28,264821,1,10,1:0:0:0:
208,91,264912,6,0,P|260:108|314:117,1,110,12|0,0:1|0:0,0:0:0:0:
483,18,265094,1,8,1:2:0:0:
428,95,265185,1,2,1:0:0:0:
484,172,265275,5,8,0:0:0:0:
402,225,265366,1,2,0:0:0:0:
366,324,265457,5,8,1:3:0:0:
278,283,265548,1,8,1:0:0:0:
220,195,265639,6,0,P|165:197|111:210,1,110,12|0,0:0|0:0,0:0:0:0:
267,297,265821,1,10,1:0:0:0:
301,140,265912,2,0,P|271:93|233:54,1,110,12|0,0:0|0:0,0:0:0:0:
258,311,266094,1,10,1:0:0:0:
387,196,266185,2,0,P|412:147|427:94,1,110,14|0,0:0|1:0,0:0:0:0:
250,326,266366,6,2,B|224:338|224:338|149:325,1,82.5,8|8,0:0|0:0,1:0:0:0:
31,249,266730,5,12,0:1:0:0:
119,227,266821,1,10,0:0:0:0:
207,205,266912,2,0,P|216:156|224:83,1,110,10|0,1:0|1:0,0:0:0:0:
452,130,267094,5,8,0:0:0:0:
364,108,267185,2,0,P|354:59|347:-14,1,110,14|0,0:0|1:2,0:0:0:0:
497,205,267366,1,10,1:3:0:0:
455,284,267457,6,0,B|431:283|412:293|412:293|402:289|402:289|381:303|381:303|374:300|374:300|357:311|327:308,1,131.99999597168,8|0,0:0|2:0,0:0:0:0:
331,308,268548,6,0,P|186:324|309:245,1,330,2|0,0:2|2:0,0:0:0:0:
334,216,268912,6,0,B|339:181|339:181|345:174|345:174|352:134,1,82.5,8|0,0:0|2:0,0:0:0:0:
310,49,269275,5,12,0:1:0:0:
296,48,269366,1,0,1:0:0:0:
282,47,269457,1,0,1:0:0:0:
268,46,269548,1,0,1:0:0:0:
254,45,269639,1,8,0:0:0:0:
240,44,269730,1,0,1:0:0:0:
226,44,269821,1,0,1:0:0:0:
212,44,269912,1,0,1:0:0:0:
120,43,270003,5,8,0:0:0:0:
132,67,270094,1,0,1:0:0:0:
135,94,270185,1,0,1:0:0:0:
126,119,270275,1,0,1:0:0:0:
110,141,270366,1,8,0:0:0:0:
98,165,270457,1,0,1:0:0:0:
94,192,270548,1,0,1:0:0:0:
100,218,270639,1,0,1:0:0:0:
110,316,270730,5,8,0:0:0:0:
154,282,270821,1,0,1:0:0:0:
206,266,270912,1,0,1:0:0:0:
260,271,271003,1,0,1:0:0:0:
309,294,271094,1,8,0:0:0:0:
357,320,271185,1,0,1:0:0:0:
410,327,271275,1,0,1:0:0:0:
461,307,271366,1,0,1:0:0:0:
501,232,271457,5,8,0:0:0:0:
492,155,271548,1,0,1:0:0:0:
425,115,271639,1,0,1:0:0:0:
353,143,271730,1,0,1:0:0:0:
278,161,271821,1,8,0:0:0:0:
202,145,271912,1,0,1:0:0:0:
150,87,272003,1,0,1:0:0:0:
146,10,272094,1,0,1:0:0:0:
219,47,272185,6,0,L|250:52,1,27.5,8|8,1:3|1:3,0:0:0:0:
227,57,272275,2,0,L|258:62,1,27.5,8|8,1:3|1:3,0:0:0:0:
239,67,272366,2,0,L|296:74,2,55,8|8|8,1:3|1:3|1:3,0:0:0:0:
4,148,272639,6,0,P|63:180|116:165,1,110,8|8,1:3|1:3,0:0:0:0:
464,16,272912,6,0,P|403:76|371:179,1,165.000006294251,8|8,1:3|1:3,0:0:0:0:
512,362,273185,6,0,P|404:281|281:241,1,220,8|8,1:3|1:3,0:0:0:0:
50,339,273457,6,0,P|146:331|209:148,1,275,8|8,1:3|0:0,0:0:0:0:
221,184,273821,5,2,0:2:0:0:
135,137,274003,1,2,0:2:0:0:
135,137,274094,1,2,0:2:0:0:
135,137,274185,1,2,0:2:0:0:
43,176,274366,1,2,0:2:0:0:
43,176,274457,1,2,0:2:0:0:
43,176,274548,1,2,0:2:0:0:
135,137,274730,2,0,P|151:90|56:22,1,165,2|0,1:2|0:0,0:0:0:0:
231,146,275094,6,0,P|287:141|346:112,1,110,12|0,1:3|0:0,0:0:0:0:
371,39,275366,2,0,P|427:44|447:54,1,55,12|0,1:3|0:0,0:0:0:0:
471,117,275548,1,8,0:0:0:0:
471,117,275639,1,10,1:3:0:0:
323,384,275821,6,0,L|309:244,1,131.99999597168,12|0,1:3|0:0,0:0:0:0:
230,145,276094,2,0,L|221:236,1,65.9999979858399,12|0,1:3|0:0,0:0:0:0:
214,311,276275,1,8,1:3:0:0:
214,311,276366,1,10,1:3:0:0:
214,311,276457,1,10,1:3:0:0:
130,243,276548,6,0,P|42:215|-42:209,1,153.999995300293,12|0,1:3|0:0,0:0:0:0:
230,145,276821,2,0,P|318:117|402:111,1,153.999995300293,14|0,1:3|0:0,0:0:0:0:
88,0,277094,6,0,P|67:101|141:127,1,176,12|0,1:3|0:0,0:0:0:0:
408,239,277366,2,0,P|429:138|355:112,1,176,14|0,1:3|0:0,0:0:0:0:
130,243,277639,6,0,L|111:375,1,88,14|0,0:0|0:0,0:0:0:0:
418,315,277821,2,0,L|407:238,1,76.9999976501466,14|0,0:0|0:0,0:0:0:0:
231,225,278003,6,0,L|209:378,1,110,12|0,1:3|0:0,0:0:0:0:
338,384,278275,2,0,L|325:289,1,55,12|0,1:3|0:0,0:0:0:0:
320,251,278457,1,8,0:0:0:0:
320,251,278548,1,10,1:3:0:0:
116,185,278730,6,0,P|180:183|230:224,1,131.99999597168,12|0,1:3|0:0,0:0:0:0:
368,173,279003,2,0,P|295:166|261:190,1,65.9999979858399,14|0,1:3|0:0,0:0:0:0:
153,275,279185,1,8,1:3:0:0:
153,275,279275,1,10,1:3:0:0:
153,275,279366,1,10,1:3:0:0:
116,185,279457,6,0,P|101:91|164:41,1,153.999995300293,12|0,1:3|0:0,0:0:0:0:
418,251,279730,2,0,P|459:189|437:117,1,153.999995300293,12|0,1:3|0:0,0:0:0:0:
82,332,280003,6,0,P|173:363|246:284,1,176,12|0,1:3|0:0,0:0:0:0:
414,28,280275,1,12,0:1:0:0:
431,38,280366,6,0,L|519:25,2,82.5000031471254,0|0|0,0:0|0:0|0:0,0:0:0:0:
26,37,280912,6,0,L|163:55,1,110,12|0,1:3|0:0,0:0:0:0:
85,150,281185,2,0,L|184:137,1,55,12|0,1:3|0:0,0:0:0:0:
223,92,281366,1,8,0:0:0:0:
223,92,281457,1,10,1:3:0:0:
207,311,281639,6,0,P|220:229|245:178,1,131.99999597168,12|0,1:3|0:0,0:0:0:0:
326,265,281912,2,0,P|393:216|430:205,1,65.9999979858399,12|0,1:3|0:0,0:0:0:0:
470,197,282094,1,8,0:0:0:0:
470,197,282185,1,10,0:0:0:0:
470,197,282275,1,10,0:0:0:0:
381,135,282366,6,0,P|356:49|366:-24,1,153.999995300293,12|0,1:3|0:0,0:0:0:0:
246,10,282639,2,0,P|262:74|252:147,1,76.9999976501466,14|0,1:3|0:0,0:0:0:0:
81,312,282821,1,0,0:0:0:0:
30,238,282912,6,0,P|135:239|165:354,1,176,12|0,1:0|0:0,0:0:0:0:
351,364,283185,2,0,P|456:363|486:248,1,176,14|0,1:3|0:0,0:0:0:0:
508,48,283457,6,0,P|417:116|363:201,1,197.99999395752,12|0,1:0|0:0,0:0:0:0:
194,384,283730,2,0,P|172:339|171:287,1,98.9999969787599,14|0,1:3|0:0,0:0:0:0:
175,27,283912,1,8,0:0:0:0:
53,47,284003,6,0,P|214:92|283:202,1,220,12|0,1:0|0:0,0:0:0:0:
512,246,284275,2,0,P|425:312|317:325,1,220,14|0,1:3|0:0,0:0:0:0:
60,202,284548,6,0,B|11:149|11:149|267:240,1,242.000007385254,12|0,1:0|0:0,0:0:0:0:
503,126,284821,2,0,B|464:154|464:154|309:99,1,121.000003692627,14|0,1:3|0:0,0:0:0:0:
181,28,285003,1,8,0:0:0:0:
274,16,285094,6,0,B|291:71|291:71|280:107|280:107|288:194,1,137.5,12|0,1:0|0:0,0:0:0:0:
190,344,285275,5,12,1:3:0:0:
187,188,285397,1,10,1:1:0:0:
323,264,285518,1,8,1:1:0:0:
120,258,285639,5,14,1:3:0:0:
281,161,285761,1,8,1:1:0:0:
284,348,285882,1,10,1:1:0:0:
162,162,286003,5,12,1:3:0:0:
355,269,286125,1,10,1:1:0:0:
165,382,286246,1,8,1:1:0:0:
206,243,286366,5,14,1:0:0:0:
233,237,286427,1,8,0:0:0:0:
255,255,286488,1,8,0:0:0:0:
255,282,286548,1,8,0:0:0:0:
233,299,286609,1,8,0:0:0:0:
206,293,286669,1,8,0:0:0:0:
195,268,286730,5,12,0:0:0:0:
96,64,289457,5,12,0:0:0:0:
416,64,289639,1,12,0:0:0:0:
256,320,289821,1,12,0:0:0:0:
256,192,289912,12,0,291730,2:0:0:0:
512,113,291912,6,0,B|449:115|449:115|419:127|419:127|277:134,1,165.000006294251,12|0,0:0|0:0,0:0:0:0:
286,55,292185,2,0,B|314:38|314:38|396:32,1,82.5000031471254,12|0,0:0|0:0,0:0:0:0:
476,212,292366,5,10,1:0:0:0:
472,239,292427,1,8,1:0:0:0:
468,266,292488,1,8,1:0:0:0:
465,293,292548,6,0,B|462:318|462:318|462:332|462:332|458:358,1,55,12|0,0:0|0:0,0:0:0:0:
