osu file format v14

[General]
AudioFilename: audio.mp3
AudioLeadIn: 0
PreviewTime: 187457
Countdown: 0
SampleSet: None
StackLeniency: 0.7
Mode: 0
LetterboxInBreaks: 0
WidescreenStoryboard: 1

[Editor]
Bookmarks: 74366,84366,275094
DistanceSpacing: 0.1
BeatDivisor: 8
GridSize: 32
TimelineZoom: 3.300002

[Metadata]
Title:ANOMALY (Camellia's "MUTATION" Schranz Remix)
TitleUnicode:∀NOMALY (かめりあ's "MUT∀TION" Schranz Remix)
Artist:Camellia
ArtistUnicode:かめりあ
Creator:thzz
Version:Asami's "Mutated" EX
Source:osu!
Tags:Guest Track Summary & VIPs 02 toybot Mir Nanashima Asami featured artist fa
BeatmapID:1984256
BeatmapSetID:932446

[Difficulty]
HPDrainRate:5.2
CircleSize:4
OverallDifficulty:8.6
ApproachRate:9.8
SliderMultiplier:2.2
SliderTickRate:1

[Events]
//Background and Video events
0,0,"back.jpg",0,0
//Break Periods
2,25111,30069
2,86203,88251
2,121112,126251
2,286930,288978
//Storyboard Layer 0 (Background)
//Storyboard Layer 1 (Fail)
//Storyboard Layer 2 (Pass)
//Storyboard Layer 3 (Foreground)
//Storyboard Sound Samples

[TimingPoints]
185,363.636363636364,4,3,1,5,1,0
730,-100,4,3,1,20,0,0
912,-100,4,3,1,30,0,0
1094,-100,4,3,1,40,0,0
1275,-100,4,3,1,50,0,0
1457,-100,4,3,1,60,0,0
1548,-100,4,3,1,5,0,0
1639,-100,4,3,1,45,0,0
2548,-66.6666666666667,4,3,1,45,0,0
3094,-200,4,3,1,45,0,0
3730,-100,4,3,1,45,0,0
4003,-100,4,3,1,45,0,0
4366,-55.5555555555556,4,3,1,45,0,0
4548,-41.6666666666667,4,3,1,45,0,0
5457,-133.333333333333,4,3,1,45,0,0
6366,-100,4,3,1,45,0,0
6821,-55.5555555555556,4,3,1,45,0,0
7275,-66.6666666666667,4,3,1,45,0,0
8366,-76.9230769230769,4,3,1,45,0,0
8912,-200,4,3,1,45,0,0
9548,-100,4,3,1,45,0,0
9821,-100,4,3,1,45,0,0
10185,-55.5555555555556,4,3,1,45,0,0
10366,-41.6666666666667,4,3,1,45,0,0
10821,-133.333333333333,4,3,1,45,0,0
11094,-66.6666666666667,4,3,1,45,0,0
11366,-50,4,3,1,45,0,0
12003,-66.6666666666667,4,3,1,45,0,0
12548,-50,4,3,1,45,0,0
12821,-133.333333333333,4,3,1,45,0,0
13094,-41.6666666666667,4,3,1,45,0,0
13457,-133.333333333333,4,3,1,45,0,0
14003,-100,4,3,1,45,0,0
14548,-133.333333333333,4,3,1,45,0,0
15548,-133.333333333333,4,3,1,45,0,0
16003,-41.6666666666667,4,3,1,45,0,0
16185,-66.6666666666667,4,3,1,45,0,0
16730,-133.333333333333,4,3,1,45,0,0
16912,-100,4,3,1,45,0,0
18457,-41.6666666666667,4,3,1,45,0,0
18730,-66.6666666666667,4,3,1,45,0,0
19094,-66.6666666666667,4,3,1,52,0,0
19457,-133.333333333333,4,3,1,52,0,0
19821,-100,4,3,1,52,0,0
20366,-133.333333333333,4,3,1,52,0,0
21094,-100,4,3,1,52,0,0
21821,-41.6666666666667,4,3,1,52,0,0
21957,-41.6666666666667,4,3,1,52,0,0
22003,-66.6666666666667,4,3,1,52,0,0
22139,-66.6666666666667,4,3,1,52,0,0
22185,-41.6666666666667,4,3,1,52,0,0
23003,-38.4615384615385,4,3,1,52,0,0
23275,-133.333333333333,4,3,1,52,0,0
23457,-133.333333333333,4,3,1,30,0,0
24548,-66.6666666666667,4,3,1,5,0,0
24730,-28.5714285714286,4,3,1,30,0,0
24912,-28.5714285714286,4,2,2,60,0,0
30548,-66.6666666666667,4,2,2,60,0,0
30730,-83.3333333333333,4,2,2,60,0,0
31457,-66.6666666666667,4,2,2,60,0,0
32912,-50,4,2,2,60,0,0
33185,-133.333333333333,4,2,2,60,0,0
33639,-66.6666666666667,4,2,2,60,0,0
35821,-33.3333333333333,4,2,2,60,0,0
36003,-100,4,2,2,60,0,0
36185,-100,4,2,2,60,0,0
36548,-55.5555555555556,4,3,1,70,0,0
39003,-285.714285714284,4,3,1,70,0,0
39366,-285.714285714284,4,3,1,5,0,0
39457,-55.5555555555556,4,3,1,70,0,0
41912,-285.714285714284,4,3,1,70,0,0
42366,-133.333333333333,4,3,1,70,0,0
47094,-66.6666666666667,4,3,1,70,0,0
47457,-66.6666666666667,4,3,1,70,0,0
48003,-41.6666666666667,4,3,1,70,0,0
48275,-41.6666666666667,4,3,1,20,0,0
49639,-100,4,3,1,50,0,0
50003,-100,4,3,1,60,0,0
50366,-50,4,3,1,60,0,0
50730,-133.333333333333,4,3,1,60,0,0
50912,-285.714285714284,4,3,1,60,0,0
51094,-33.3333333333333,4,3,1,60,0,0
51457,-66.6666666666667,4,3,1,60,0,0
51821,-50,4,3,1,60,0,0
52912,-66.6666666666667,4,3,1,60,0,0
53275,-50,4,3,1,60,0,0
53548,-100,4,3,1,60,0,0
53639,-100,4,3,1,60,0,0
53912,-100,4,3,1,5,0,0
54003,-33.3333333333333,4,3,1,60,0,0
54366,-66.6666666666667,4,3,1,60,0,0
54730,-50,4,3,1,60,0,0
55821,-66.6666666666667,4,3,1,60,0,0
56185,-50,4,3,1,60,0,0
56548,-100,4,3,1,60,0,0
56685,-100,4,3,1,5,0,0
56730,-100,4,3,1,60,0,0
56775,-100,4,3,1,5,0,0
56821,-100,4,3,1,60,0,0
56866,-100,4,3,1,5,0,0
56912,-100,4,3,1,60,0,0
57048,-100,4,3,1,5,0,0
57094,-50,4,3,1,60,0,0
57139,-50,4,3,1,5,0,0
57185,-50,4,3,1,60,0,0
57230,-50,4,3,1,5,0,0
57275,-50,4,3,1,60,0,0
57321,-50,4,3,1,5,0,0
57366,-50,4,3,1,60,0,0
57412,-50,4,3,1,5,0,0
57458,-50,4,3,1,60,0,0
58730,-66.6666666666667,4,3,1,60,0,0
59094,-50,4,3,1,60,0,0
59594,-50,4,3,1,5,0,0
59639,-133.333333333333,4,3,1,5,0,0
59640,-133.333333333333,4,3,1,60,0,0
59821,-33.3333333333333,4,3,1,60,0,0
60185,-66.6666666666667,4,3,1,60,0,0
60548,-50,4,3,1,60,0,0
61094,-133.333333333333,4,3,1,60,0,0
61275,-41.6666666666667,4,3,1,60,0,0
61457,-40,4,3,1,60,0,0
62003,-50,4,3,1,60,0,0
62275,-41.6666666666667,4,3,1,60,0,0
62548,-285.714285714284,4,3,1,60,0,0
62821,-285.714285714284,4,3,1,5,0,0
62912,-50,4,3,1,70,0,0
63094,-66.6666666666667,4,1,2,70,0,0
63154,-66.6666666666667,4,3,1,70,0,0
63457,-50,4,3,1,70,0,0
64548,-66.6666666666667,4,3,1,70,0,0
64912,-100,4,3,1,70,0,0
65639,-50,4,3,1,70,0,0
68185,-200,4,3,1,70,0,0
68457,-200,4,3,1,5,0,0
68548,-66.6666666666667,4,3,1,5,0,0
68549,-66.6666666666667,4,3,1,70,0,0
68730,-133.333333333333,4,3,1,70,0,0
69275,-66.6666666666667,4,3,1,70,0,0
70003,-66.6666666666667,4,3,1,70,0,0
70730,-66.6666666666667,4,3,1,70,0,0
73094,-133.333333333333,4,3,1,70,0,0
74003,-66.6666666666667,4,3,1,70,0,0
74185,-50,4,3,1,70,0,0
74275,-50,4,3,1,5,0,0
74366,-41.6666666666667,4,3,1,80,0,0
74639,-66.6666666666667,4,3,1,80,0,0
74912,-41.6666666666667,4,3,1,80,0,0
76094,-50,4,3,1,80,0,0
76366,-35.7142857142857,4,3,1,80,0,0
76912,-41.6666666666667,4,3,1,80,0,0
77094,-45.4545454545455,4,3,1,80,0,0
77275,-41.6666666666667,4,3,1,80,0,0
79275,-35.7142857142857,4,3,1,80,0,0
79639,-100,4,3,1,80,0,0
80094,-100,4,3,1,5,0,0
80185,-35.7142857142857,4,3,1,80,0,0
80730,-50,4,3,1,80,0,0
80912,-41.6666666666667,4,3,1,80,0,0
81821,-50,4,3,1,80,0,0
82094,-41.6666666666667,4,3,1,80,0,0
82730,-35.7142857142857,4,3,1,80,0,0
83003,-33.3333333333333,4,3,1,80,0,0
83275,-43.4782608695652,4,3,1,80,0,0
83548,-33.3333333333333,4,3,1,80,0,0
83821,-33.3333333333333,4,3,1,80,0,0
84366,-111.111111111111,4,3,1,80,0,0
85275,-66.6666666666667,4,3,1,80,0,0
86003,-66.6666666666667,4,3,1,70,0,0
88730,-50,4,3,1,60,0,0
88912,-40,4,3,1,60,0,0
90730,-100,4,3,1,60,0,0
91639,-50,4,3,1,60,0,0
91821,-50,4,3,3,70,0,0
94366,-200,4,3,3,70,0,0
94639,-200,4,3,3,5,0,0
94730,-50,4,3,3,70,0,0
96912,-222.222222222221,4,3,4,70,0,0
97457,-66.6666666666667,4,3,4,70,0,0
97458,-66.6666666666667,4,3,3,70,0,0
97639,-50,4,3,3,70,0,0
100185,-222.222222222221,4,3,3,70,0,0
100457,-222.222222222221,4,3,3,5,0,0
100548,-100,4,3,3,5,0,0
100549,-100,4,2,2,40,0,0
102003,-41.6666666666667,4,3,3,70,0,0
102275,-100,4,3,3,70,0,0
102730,-41.6666666666667,4,3,3,70,0,0
103003,-55.5555555555556,4,3,3,70,0,0
103275,-66.6666666666667,4,3,3,70,0,0
103457,-50,4,3,3,70,0,0
104912,-100,4,3,4,80,0,0
106366,-50,4,3,3,80,0,0
107821,-100,4,3,4,80,0,0
109275,-50,4,3,3,80,0,0
110730,-100,4,3,4,80,0,0
112185,-100,4,3,3,80,0,0
112912,-66.6666666666667,4,3,3,80,0,0
113275,-50,4,3,3,80,0,0
113639,-35.7142857142857,4,3,3,80,0,0
113821,-50,4,3,3,80,0,0
114003,-35.7142857142857,4,3,3,80,0,0
114185,-50,4,3,3,80,0,0
114366,-55.5555555555556,4,3,3,80,0,0
114912,-32.258064516129,4,3,3,80,0,0
115048,-32.258064516129,4,3,3,5,0,0
115094,-32.258064516129,4,1,4,80,0,0
115185,-32.258064516129,4,3,1,20,0,0
120912,-32.258064516129,4,3,1,5,0,0
126730,-181.818181818181,4,3,5,60,0,0
128912,-222.222222222221,4,3,5,60,0,0
129639,-181.818181818181,4,3,5,60,0,0
134730,-222.222222222221,4,3,5,60,0,0
135457,-181.818181818181,4,3,5,60,0,0
138366,-133.333333333333,4,3,5,60,0,0
139821,-100,4,3,5,60,0,0
140366,-133.333333333333,4,3,5,60,0,0
141275,-100,4,3,5,60,0,0
143457,-133.333333333333,4,3,5,60,0,0
144185,-100,4,3,5,60,0,0
146366,-133.333333333333,4,3,5,60,0,0
147094,-100,4,3,5,60,0,0
149275,-133.333333333333,4,3,5,60,0,0
150185,-133.333333333333,4,3,1,20,0,0
152912,-133.333333333333,4,3,1,40,0,0
157094,-133.333333333333,4,3,1,5,0,0
157275,-58.8235294117647,4,2,2,50,0,0
157548,-133.333333333333,4,2,2,50,0,0
157821,-66.6666666666667,4,2,2,50,0,0
158003,-55.5555555555556,4,2,2,50,0,0
158275,-66.6666666666667,4,2,2,50,0,0
158730,-100,4,3,1,55,0,0
159094,-66.6666666666667,4,3,1,60,0,0
159457,-50,4,3,1,65,0,0
159821,-40,4,3,1,70,0,0
160185,-133.333333333333,4,3,4,70,0,0
160457,-83.3333333333333,4,3,4,70,0,0
160730,-133.333333333333,4,3,4,70,0,0
161003,-83.3333333333333,4,3,4,70,0,0
161639,-55.5555555555556,4,3,1,70,0,0
161912,-55.5555555555556,4,3,1,50,0,0
164094,-100,4,3,1,50,0,0
164366,-66.6666666666667,4,3,1,50,0,0
164548,-55.5555555555556,4,3,1,50,0,0
165275,-55.5555555555556,4,3,1,45,0,0
166003,-60.6060606060606,4,3,1,40,0,0
166275,-66.6666666666667,4,3,1,40,0,0
166730,-66.6666666666667,4,3,1,35,0,0
167003,-100,4,3,1,35,0,0
167457,-83.3333333333333,4,3,1,30,0,0
168185,-83.3333333333333,4,3,1,40,0,0
169094,-83.3333333333333,4,3,1,55,0,0
169639,-83.3333333333333,4,3,1,63,0,0
170366,-83.3333333333333,4,3,1,70,0,0
170730,-71.4285714285714,4,3,1,70,0,0
171003,-58.8235294117647,4,3,1,70,0,0
171094,-58.8235294117647,4,3,1,80,0,0
171821,-50,4,3,1,80,0,0
172094,-83.3333333333333,4,3,1,70,0,0
172366,-55.5555555555556,4,3,1,70,0,0
172548,-133.333333333333,4,3,1,60,0,0
173275,-55.5555555555556,4,3,1,70,0,0
175730,-285.714285714284,4,3,1,70,0,0
176094,-285.714285714284,4,3,1,5,0,0
176185,-55.5555555555556,4,3,1,70,0,0
178366,-45.4545454545455,4,3,1,70,0,0
178639,-285.714285714286,4,3,1,70,0,0
179003,-285.714285714286,4,3,1,5,0,0
179094,-133.333333333333,4,3,1,70,0,0
182003,-100,4,3,1,70,0,0
182366,-66.6666666666667,4,3,1,70,0,0
182730,-50,4,3,1,70,0,0
183094,-40,4,3,1,70,0,0
183457,-55.5555555555556,4,3,1,70,0,0
184730,-83.3333333333333,4,3,1,70,0,0
184912,-83.3333333333333,4,1,4,70,0,0
185003,-83.3333333333333,4,3,1,20,0,0
186185,-83.3333333333333,4,3,1,5,0,0
186366,-66.6666666666667,4,3,1,70,0,0
187094,-45.4545454545455,4,3,1,70,0,0
187457,-133.333333333333,4,3,1,70,0,0
187821,-45.4545454545455,4,3,6,70,0,1
193185,-133.333333333333,4,3,6,70,0,1
193548,-133.333333333333,4,3,6,5,0,1
193639,-45.4545454545455,4,3,6,70,0,1
196548,-45.4545454545455,4,3,6,70,0,1
198003,-35.7142857142857,4,3,6,70,0,1
198275,-41.6666666666667,4,3,6,70,0,1
198548,-35.7142857142857,4,3,6,70,0,1
198730,-100,4,3,6,70,0,1
199094,-66.6666666666667,4,3,6,70,0,1
199275,-50,4,3,6,70,0,1
199457,-133.333333333333,4,3,6,30,0,1
199821,-45.4545454545455,4,3,6,70,0,1
200003,-45.4545454545455,4,3,6,70,0,1
202003,-133.333333333333,4,3,6,70,0,1
202275,-133.333333333333,4,3,6,5,0,1
202366,-45.4545454545455,4,3,6,70,0,1
204185,-200,4,3,6,70,0,1
204457,-200,4,3,6,5,0,1
204548,-45.4545454545455,4,3,6,70,0,1
204821,-133.333333333333,4,3,6,70,0,1
205275,-50,4,3,6,70,0,1
206003,-66.6666666666667,4,3,4,70,0,1
206366,-200,4,3,4,70,0,1
206730,-41.6666666666667,4,3,6,70,0,1
206912,-66.6666666666667,4,3,6,70,0,1
207094,-35.7142857142857,4,3,6,70,0,1
207639,-66.6666666666667,4,3,6,70,0,1
207821,-66.6666666666667,4,3,6,70,0,1
208003,-100,4,3,6,70,0,1
208139,-100,4,3,6,5,0,1
208185,-45.4545454545455,4,3,6,70,0,1
209639,-50,4,3,6,70,0,1
210003,-66.6666666666667,4,3,6,70,0,1
210185,-41.6666666666667,4,3,6,70,0,1
210457,-55.5555555555556,4,3,6,70,0,1
210730,-52.6315789473684,4,3,6,70,0,1
211094,-38.4615384615385,4,3,4,70,0,0
211730,-38.4615384615385,4,3,6,5,0,0
211821,-83.3333333333333,4,3,6,40,0,0
212548,-55.5555555555556,4,3,6,40,0,0
213275,-47.6190476190476,4,3,6,50,0,0
213821,-133.333333333333,4,3,6,50,0,0
214003,-45.4545454545455,4,3,6,70,0,0
219821,-66.6666666666667,4,3,6,70,0,0
220185,-45.4545454545455,4,3,6,70,0,0
221548,-133.333333333333,4,3,6,70,0,0
221821,-45.4545454545455,4,3,6,70,0,0
222321,-45.4545454545455,4,3,6,5,0,0
222366,-45.4545454545455,4,3,6,70,0,0
223275,-133.333333333333,4,3,6,70,0,0
223321,-133.333333333333,4,3,6,5,0,0
223457,-133.333333333333,4,3,6,70,0,0
223685,-133.333333333333,4,3,6,5,0,0
223821,-133.333333333333,4,3,6,70,0,0
224003,-66.6666666666667,4,3,6,70,0,0
224275,-66.6666666666667,4,3,6,5,0,0
224366,-45.4545454545455,4,3,6,70,0,0
224548,-45.4545454545455,4,3,6,70,0,0
229094,-133.333333333333,4,3,6,70,0,0
229139,-133.333333333333,4,3,6,5,0,0
229275,-133.333333333333,4,3,6,70,0,0
229503,-133.333333333333,4,3,6,5,0,0
229639,-133.333333333333,4,3,6,70,0,0
229821,-66.6666666666667,4,3,6,70,0,0
230185,-45.4545454545455,4,3,6,70,0,0
232912,-100,4,3,6,70,0,0
233094,-45.4545454545455,4,3,6,70,0,0
234366,-45.4545454545455,4,3,6,70,0,0
235094,-45.4545454545455,4,3,6,70,0,0
236185,-50,4,3,4,70,0,0
236912,-50,4,3,6,70,0,0
237003,-66.6666666666667,4,3,6,70,0,0
237275,-45.4545454545455,4,3,6,70,0,0
239094,-100,4,3,4,70,0,0
239821,-100,4,3,6,70,0,0
240185,-45.4545454545455,4,3,6,70,0,0
242003,-45.4545454545455,4,3,4,70,0,0
242094,-100,4,3,4,70,0,0
242730,-100,4,3,6,70,0,0
243094,-45.4545454545455,4,3,6,70,0,0
244185,-66.6666666666667,4,3,4,70,0,0
244548,-100,4,3,4,70,0,0
244639,-100,4,3,1,20,0,0
244730,-66.6666666666667,4,3,1,20,0,0
244912,-50,4,3,1,30,0,0
245094,-76.9230769230769,4,3,1,30,0,0
245275,-76.9230769230769,4,3,1,40,0,0
245457,-153.846153846153,4,3,1,40,0,0
245639,-153.846153846153,4,3,1,50,0,0
245912,-153.846153846153,4,3,1,5,0,0
246003,-100,4,3,1,70,0,0
248912,-40,4,3,1,70,0,0
249275,-33.3333333333333,4,3,1,70,0,0
249639,-25,4,3,1,70,0,0
250366,-83.3333333333333,4,3,1,40,0,0
250639,-66.6666666666667,4,3,1,50,0,0
250912,-100,4,3,1,60,0,0
251185,-66.6666666666667,4,3,1,80,0,0
251821,-200,4,3,6,80,0,1
251866,-200,4,3,6,5,0,1
252003,-200,4,3,6,70,0,1
252094,-200,4,3,6,5,0,1
252185,-45.4545454545455,4,3,6,75,0,1
254275,-222.222222222221,4,3,6,75,0,1
254548,-100,4,3,6,75,0,1
254730,-45.4545454545455,4,3,6,75,0,1
256275,-45.4545454545455,4,3,6,5,0,1
256321,-45.4545454545455,4,3,6,75,0,1
256412,-45.4545454545455,4,3,6,5,0,1
256457,-45.4545454545455,4,3,6,75,0,1
256548,-45.4545454545455,4,3,6,5,0,1
256594,-45.4545454545455,4,3,6,75,0,1
256685,-45.4545454545455,4,3,6,5,0,1
256730,-45.4545454545455,4,3,6,75,0,1
256821,-45.4545454545455,4,3,6,5,0,1
256912,-133.333333333333,4,3,6,75,0,1
257048,-133.333333333333,4,3,6,5,0,1
257094,-133.333333333333,4,3,4,75,0,1
257230,-133.333333333333,4,3,4,5,0,1
257275,-133.333333333333,4,3,4,75,0,1
257412,-133.333333333333,4,3,4,5,0,1
257457,-100,4,3,6,75,0,1
257639,-45.4545454545455,4,3,6,75,0,1
258730,-133.333333333333,4,3,6,75,0,1
259094,-68.4931506849315,4,3,6,75,0,1
259154,-45.4545454545455,4,3,6,5,0,1
259215,-68.4931506849315,4,3,6,75,0,1
259275,-45.4545454545455,4,3,6,5,0,1
259336,-34.4827586206897,4,3,6,75,0,1
259397,-45.4545454545455,4,3,6,5,0,1
259457,-45.4545454545455,4,3,6,75,0,1
259594,-40,4,3,6,75,0,1
260185,-200,4,3,6,75,0,1
260457,-200,4,3,6,5,0,1
260548,-50,4,3,6,75,0,1
261275,-45.4545454545455,4,3,6,75,0,1
261548,-66.6666666666667,4,3,6,75,0,1
262275,-50,4,3,6,75,0,1
262548,-45.4545454545455,4,3,6,75,0,1
262730,-41.6666666666667,4,3,6,75,0,1
263003,-55.5555555555556,4,3,6,75,0,1
263275,-105.263157894737,4,3,6,75,0,1
263639,-66.6666666666667,4,3,6,75,0,1
263821,-45.4545454545455,4,3,6,75,0,1
265639,-40,4,3,6,75,0,1
266366,-66.6666666666667,4,3,6,75,0,1
266912,-45.4545454545455,4,3,6,75,0,1
267457,-1000,4,3,1,70,0,1
267503,-1000,4,3,1,20,0,1
268821,-1000,4,3,1,5,0,1
268912,-100,4,3,1,70,0,1
269185,-100,4,3,1,5,0,1
269275,-66.6666666666667,4,3,1,70,0,1
270548,-100,4,3,1,70,0,1
270730,-66.6666666666667,4,3,1,70,0,1
271457,-55.5555555555556,4,3,1,70,0,1
272548,-43.4782608695652,4,3,1,70,0,1
272912,-35.7142857142857,4,3,1,70,0,1
273275,-30.3030303030303,4,3,1,70,0,1
273821,-100,4,3,1,70,0,1
274730,-66.6666666666667,4,3,1,70,0,1
274912,-50,4,3,1,70,0,1
275003,-50,4,3,1,5,0,1
275094,-41.6666666666667,4,3,1,70,0,1
275366,-66.6666666666667,4,3,1,70,0,1
275639,-41.6666666666667,4,3,1,70,0,1
276730,-50,4,3,1,70,0,1
277094,-35.7142857142857,4,3,1,70,0,1
277639,-41.6666666666667,4,3,1,70,0,1
277821,-45.4545454545455,4,3,1,70,0,1
278003,-41.6666666666667,4,3,1,70,0,1
280003,-35.7142857142857,4,3,1,70,0,1
280366,-100,4,3,1,70,0,1
280821,-100,4,3,1,5,0,1
280912,-35.7142857142857,4,3,1,70,0,1
281457,-50,4,3,1,70,0,1
281639,-41.6666666666667,4,3,1,70,0,1
282548,-50,4,3,1,70,0,1
282912,-41.6666666666667,4,3,1,70,0,1
283457,-35.7142857142857,4,3,1,70,0,1
283730,-33.3333333333333,4,3,1,70,0,1
284003,-43.4782608695652,4,3,1,70,0,1
284275,-33.3333333333333,4,3,1,70,0,1
285094,-111.111111111111,4,3,1,70,0,1
286730,-41.6666666666667,4,3,1,60,0,0
289639,-35.7142857142857,4,3,1,60,0,0
290003,-133.333333333333,4,3,1,60,0,0
290548,-100,4,3,1,60,0,0
291094,-100,4,3,1,60,0,0
291457,-83.3333333333333,4,3,1,60,0,0
291912,-50,4,3,1,60,0,0
292548,-285.714285714284,4,3,1,60,0,0
292912,-285.714285714284,4,3,1,5,0,0

[Colours]
Combo1 : 223,242,49
Combo2 : 221,0,0
Combo3 : 98,98,176
Combo4 : 255,149,98

[HitObjects]
132,335,1639,5,12,0:0:0:0:
195,291,1821,1,0,0:0:0:0:
268,315,2003,1,2,0:2:0:0:
337,277,2185,1,0,0:0:0:0:
341,260,2275,1,0,0:0:0:0:
413,300,2548,6,0,B|80:264,1,330.000012588501,2|0,0:2|0:0,0:0:0:0:
400,67,3094,6,0,L|392:128,1,55,2|0,0:2|0:0,0:0:0:0:
473,103,3457,1,2,0:2:0:0:
315,77,3639,1,0,0:0:0:0:
318,90,3730,6,0,P|269:124|207:93,1,110,0|0,0:0|0:0,0:0:0:0:
28,82,4003,6,0,P|102:102|156:173,1,165,2|0,0:2|0:0,0:0:0:0:
223,111,4366,2,0,B|248:63|248:63|179:105,1,98.9999969787599,12|0,0:0|0:0,0:0:0:0:
5,219,4548,6,0,B|136:197|136:197|144:200|144:200|282:178,1,263.99999194336,12|12,0:0|0:0,0:0:0:0:
502,384,4912,5,2,0:2:0:0:
437,347,5094,1,0,0:0:0:0:
415,273,5275,1,0,0:0:0:0:
507,111,5457,6,0,B|516:134|516:134|357:104,1,165.000006294251,2|0,0:2|0:0,0:0:0:0:
165,16,6003,6,0,P|165:80|245:96,1,123.750004720688,2|0,0:2|0:0,0:0:0:0:
220,88,6366,6,0,P|143:89|80:160,1,165.000006294251,2|0,0:2|0:0,0:0:0:0:
36,248,6730,5,2,0:2:0:0:
47,237,6821,2,0,L|285:204,1,197.99999395752,14|0,0:1|0:0,0:0:0:0:
343,193,7094,1,14,0:0:0:0:
68,330,7275,6,0,L|60:389,3,55.0000020980836,14|8|8|14,0:0|0:0|0:0|0:0,0:0:0:0:
343,193,7639,5,0,0:0:0:0:
424,179,7821,1,2,0:2:0:0:
495,231,8003,1,0,0:0:0:0:
500,218,8094,1,0,0:0:0:0:
297,338,8366,6,0,P|198:255|37:239,1,285.99998690796,2|0,0:2|0:0,0:0:0:0:
424,179,8912,6,0,P|440:201|436:239,1,55,2|0,0:2|0:0,0:0:0:0:
297,338,9275,1,2,0:2:0:0:
333,128,9457,5,0,0:0:0:0:
341,140,9548,2,0,L|363:3,1,110,0|0,0:0|0:0,0:0:0:0:
352,233,9821,6,0,P|306:282|177:280,1,165,2|0,0:2|0:0,0:0:0:0:
8,185,10185,6,0,P|61:188|81:245,1,98.9999969787599,14|0,0:0|0:0,0:0:0:0:
159,374,10366,6,0,B|173:243|173:243|172:238|172:238|173:242|173:242|190:87,1,263.99999194336,14|14,0:0|0:0,0:0:0:0:
5,367,10730,5,0,0:0:0:0:
0,355,10821,2,0,L|92:335,1,82.5000031471254,14|0,0:0|0:0,0:0:0:0:
159,374,11094,6,0,P|249:360|277:253,1,165.000006294251,14|0,0:0|0:0,0:0:0:0:
186,119,11366,2,0,P|280:188|401:185,1,220,14|0,0:0|0:0,0:0:0:0:
512,66,11639,5,10,0:0:0:0:
468,134,11730,1,8,0:0:0:0:
465,216,11821,5,14,0:0:0:0:
105,126,12003,6,0,P|85:106|88:43,1,82.5000031471254,10|8,0:0|0:0,0:0:0:0:
148,0,12185,1,14,0:0:0:0:
451,230,12366,6,0,L|463:318,1,82.5000031471254,8|8,0:0|0:0,0:0:0:0:
348,369,12548,6,0,B|305:274|205:284|205:284|230:332,1,220,14|0,0:0|0:0,0:0:0:0:
93,194,12821,2,0,B|109:156|109:156|115:197,1,82.5000031471254,14|0,0:0|0:0,0:0:0:0:
25,382,13094,6,0,P|129:327|249:321,1,197.99999395752,14|0,0:0|0:0,0:0:0:0:
223,319,13275,5,14,0:1:0:0:
502,124,13457,2,0,L|519:61,1,41.2500015735627,2|0,0:2|0:0,0:0:0:0:
423,93,13730,5,0,0:0:0:0:
421,81,13821,2,0,L|411:24,1,41.2500015735627,2|0,0:2|0:0,0:0:0:0:
332,76,14003,5,0,0:0:0:0:
497,258,14185,1,2,0:2:0:0:
494,245,14275,2,0,P|450:194|377:189,1,110,0|0,0:0|0:0,0:0:0:0:
339,218,14548,6,0,L|351:285,1,41.2500015735627,2|0,0:2|0:0,0:0:0:0:
360,338,14730,6,0,L|244:323,1,82.5000031471254,2|0,0:2|0:0,0:0:0:0:
259,324,15003,1,2,0:2:0:0:
39,251,15185,1,0,0:0:0:0:
37,241,15275,2,0,L|24:187,1,41.2500015735627,2|0,0:2|0:0,0:0:0:0:
112,201,15548,6,0,L|119:135,2,41.2500015735627,0|2|0,0:0|0:2|0:0,0:0:0:0:
259,324,15821,5,0,0:0:0:0:
48,45,16003,2,0,P|115:130|238:126,1,197.99999395752,12|0,0:0|2:0,0:0:0:0:
211,135,16185,2,0,P|277:93|342:107,1,123.750004720688,12|0,0:0|2:0,0:0:0:0:
402,134,16366,6,0,L|490:141,2,82.5000031471254,12|0|0,0:0|0:0|0:2,0:0:0:0:
68,303,16730,2,0,L|62:360,1,41.2500015735627,2|0,0:2|0:0,0:0:0:0:
131,378,16912,6,0,P|178:350|252:353,1,110,0|2,0:0|0:2,0:0:0:0:
311,369,17185,1,0,0:0:0:0:
321,364,17275,1,0,0:0:0:0:
461,247,17457,1,2,0:2:0:0:
489,116,17639,6,0,B|478:60|478:60|428:35,1,110,2|0,0:2|0:0,0:0:0:0:
349,68,17912,2,0,B|340:98|340:98|243:112,1,110,2|0,0:2|0:0,0:0:0:0:
179,92,18185,1,2,0:2:0:0:
487,142,18366,5,0,0:0:0:0:
474,139,18457,2,0,P|339:218|310:322,1,263.99999194336,14|0,0:1|0:0,0:0:0:0:
414,287,18730,6,0,P|407:250|343:230,1,82.5000031471254,14|0,0:0|0:0,0:0:0:0:
14,21,18912,2,0,L|28:83,3,55.0000020980836,14|8|8|14,0:0|0:0|0:0|0:0,0:0:0:0:
159,281,19275,5,0,0:0:0:0:
222,119,19457,2,0,L|276:105,2,41.2500015735627,2|0|0,0:2|0:0|0:0,0:0:0:0:
320,172,19730,5,0,0:0:0:0:
331,166,19821,2,0,L|448:192,1,110,2|0,0:2|0:2,0:0:0:0:
409,101,20094,2,0,P|372:63|373:4,1,110,2|0,0:2|0:0,0:0:0:0:
449,8,20366,6,0,L|489:0,1,41.2500015735627,2|0,0:2|0:0,0:0:0:0:
438,189,20548,6,0,L|421:301,1,82.5000031471254,2|0,0:2|0:0,0:0:0:0:
423,290,20821,1,2,0:2:0:0:
305,360,21003,1,0,0:0:0:0:
298,348,21094,2,0,B|265:307|265:307|181:294,1,110,2|0,0:2|0:0,0:0:0:0:
118,377,21366,1,0,0:0:0:0:
128,372,21457,6,0,L|212:357,2,55,2|0|0,0:2|0:0|0:0,0:0:0:0:
371,8,21821,6,0,B|371:96|276:129|276:129|272:78,1,197.99999395752,14|0,0:0|2:0,0:0:0:0:
266,80,22003,2,0,P|206:52|135:57,1,123.750004720688,14|0,0:0|2:0,0:0:0:0:
76,117,22185,6,0,B|90:205|90:205|94:208|94:208|120:391,1,263.99999194336,14|0,0:0|0:0,0:0:0:0:
109,361,22457,6,0,P|219:253|356:244,1,263.99999194336,14|0,0:0|0:0,0:0:0:0:
512,342,22730,6,0,B|526:363|526:363|236:301,1,263.99999194336,14|0,0:0|0:0,0:0:0:0:
76,117,23003,2,0,L|380:48,1,285.99998690796,14|0,0:0|0:0,0:0:0:0:
487,0,23275,6,0,P|476:22|480:50,1,41.2500015735627,14|10,0:0|0:0,0:0:0:0:
498,113,23457,5,2,0:2:0:0:
256,192,23548,12,0,24548,2:0:0:0:
441,372,24730,6,0,L|47:312,1,385.000003671646,2|12,0:2|0:0,0:0:0:0:
53,257,30548,6,0,L|41:194,2,55.0000020980836,2|2|2,1:2|0:0|0:0,0:0:0:0:
112,331,30730,5,10,0:0:0:0:
144,42,30912,2,0,B|151:8|151:8|202:-6,1,65.9999979858399,0|0,1:0|1:2,0:0:0:0:
264,0,31094,5,10,0:0:0:0:
377,137,31275,1,0,1:0:0:0:
377,137,31366,1,0,1:0:0:0:
377,137,31457,2,0,P|296:91|190:89,1,165.000006294251,10|0,0:2|1:0,0:0:0:0:
228,70,31730,6,0,P|296:134|296:222,1,165.000006294251,2|0,1:2|0:0,0:0:0:0:
364,259,32003,2,0,P|387:236|359:169,1,82.5000031471254,2|0,1:2|1:0,0:0:0:0:
13,125,32185,6,0,L|186:160,1,165.000006294251,10|0,0:2|1:0,0:0:0:0:
186,160,32457,1,0,1:0:0:0:
198,162,32548,1,10,0:2:0:0:
52,384,32730,2,0,P|23:356|22:311,1,82.5000031471254,2|0,1:2|1:0,0:0:0:0:
117,308,32912,6,0,B|153:218|269:227|269:227|247:308,1,220,8|0,0:0|1:0,0:0:0:0:
383,384,33185,6,0,L|270:363,1,82.5000031471254,8|0,0:0|0:0,0:0:0:0:
223,352,33457,5,0,1:0:0:0:
211,350,33548,1,0,1:0:0:0:
299,333,33639,6,0,L|486:295,1,165.000006294251,8|0,0:0|1:0,0:0:0:0:
417,209,33912,1,0,1:0:0:0:
406,199,34003,2,0,L|312:180,1,82.5000031471254,8|0,0:0|0:0,0:0:0:0:
459,57,34185,2,0,L|479:152,1,82.5000031471254,0|0,1:0|1:0,0:0:0:0:
504,228,34366,5,8,0:0:0:0:
268,19,34548,1,0,1:0:0:0:
268,19,34639,1,0,1:0:0:0:
268,19,34730,2,0,P|299:53|295:104,1,82.5000031471254,8|0,0:0|0:0,0:0:0:0:
226,211,34912,1,0,1:0:0:0:
226,211,35003,1,0,1:0:0:0:
226,211,35094,6,0,P|190:161|71:137,1,165.000006294251,10|0,0:0|0:0,0:0:0:0:
18,141,35366,1,10,0:0:0:0:
51,312,35548,1,0,0:0:0:0:
55,328,35639,2,0,L|68:397,2,55.0000020980836,10|0|0,0:0|0:0|0:0,0:0:0:0:
159,271,35821,6,0,P|226:192|317:196,1,165.000006294251,8|0,0:0|0:0,0:0:0:0:
300,193,36003,6,0,P|329:224|362:226,1,55,4|0,0:1|0:0,0:0:0:0:
511,185,36185,6,0,L|507:214,1,27.5,2|0,3:2|0:0,0:0:0:0:
470,294,36275,1,0,0:0:0:0:
401,340,36366,1,2,3:2:0:0:
328,326,36457,1,2,3:2:0:0:
291,292,36548,6,0,L|302:176,1,98.9999969787599,14|0,0:1|0:0,0:0:0:0:
469,21,36730,5,10,0:0:0:0:
469,21,36821,1,2,0:2:0:0:
469,21,36912,2,0,P|511:51|492:121,1,98.9999969787599,10|0,0:0|0:0,0:0:0:0:
447,150,37094,2,0,P|438:192|380:222,1,98.9999969787599,10|0,0:0|0:0,0:0:0:0:
131,63,37275,5,10,0:0:0:0:
125,54,37366,2,2,B|21:33,2,98.9999969787599,0|10|0,0:0|0:0|0:0,0:2:0:0:
278,13,37639,6,0,P|272:60|231:83,1,98.9999969787599,10|0,0:0|0:0,0:0:0:0:
46,273,37821,2,0,P|4:251|-1:204,1,98.9999969787599,10|0,0:0|0:0,0:0:0:0:
271,349,38003,6,0,B|232:255|232:255|133:229,1,197.99999395752,10|10,0:0|0:0,0:0:0:0:
117,335,38275,1,2,0:2:0:0:
132,341,38366,6,0,B|129:376|129:376|208:338,1,98.9999969787599,10|0,0:0|0:0,0:0:0:0:
336,109,38548,2,0,B|339:144|339:144|260:106,1,98.9999969787599,10|0,0:0|0:0,0:0:0:0:
59,0,38730,5,10,0:0:0:0:
23,34,38821,1,0,0:0:0:0:
21,76,38912,1,2,0:2:0:0:
103,65,39003,6,0,L|192:50,1,76.9999976501466,0|0,0:0|0:0,0:0:0:0:
253,36,39457,6,0,P|288:71|276:124,1,98.9999969787599,14|0,0:1|0:0,0:0:0:0:
39,267,39639,1,10,0:0:0:0:
39,267,39730,1,2,0:2:0:0:
39,267,39821,6,0,P|39:219|77:190,1,98.9999969787599,10|0,0:0|0:0,0:0:0:0:
223,377,40003,2,0,P|177:345|174:299,1,98.9999969787599,10|0,0:0|0:0,0:0:0:0:
328,286,40185,5,10,0:0:0:0:
338,278,40275,2,0,L|448:296,2,98.9999969787599,0|10|2,0:0|0:0|0:2,0:0:0:0:
359,173,40548,5,10,0:0:0:0:
344,93,40639,1,0,0:0:0:0:
382,19,40730,1,10,0:0:0:0:
459,3,40821,1,0,0:0:0:0:
473,16,40912,6,0,L|444:111,1,98.9999969787599,10|0,0:0|0:0,0:0:0:0:
359,173,41094,2,0,L|257:211,1,98.9999969787599,10|2,0:0|0:2,0:0:0:0:
212,104,41275,6,0,B|179:94|179:94|173:95|173:95|83:70,1,98.9999969787599,10|0,0:0|0:0,0:0:0:0:
52,169,41457,2,0,B|62:202|62:202|61:208|61:208|86:298,1,98.9999969787599,10|0,0:0|0:0,0:0:0:0:
0,384,41639,5,10,0:0:0:0:
11,306,41730,1,0,0:0:0:0:
76,264,41821,1,14,0:0:0:0:
126,333,41912,6,0,L|202:319,1,76.9999976501466,0|0,0:0|0:0,0:0:0:0:
425,350,42366,6,0,L|422:378,3,20.6250007867813,2|0|0|0,0:2|0:0|0:0|0:0,0:0:0:0:
354,330,42548,2,0,L|351:350,2,20.6250007867813,2|0|0,0:2|0:0|0:0,0:0:0:0:
435,216,42730,5,14,0:1:0:0:
474,153,42821,1,8,0:0:0:0:
472,78,42912,1,8,0:0:0:0:
418,26,43003,1,8,0:0:0:0:
404,25,43094,6,0,L|325:15,1,41.2500015735627,2|0,0:2|0:0,0:0:0:0:
379,104,43275,2,0,L|389:160,1,41.2500015735627,2|0,0:2|0:0,0:0:0:0:
176,249,43457,5,14,0:1:0:0:
182,172,43548,1,8,0:0:0:0:
189,96,43639,1,8,0:0:0:0:
196,21,43730,1,8,0:0:0:0:
188,13,43821,6,0,L|122:23,1,41.2500015735627,2|0,0:2|0:0,0:0:0:0:
183,261,44003,2,0,L|193:317,1,41.2500015735627,2|0,0:2|0:0,0:0:0:0:
0,384,44185,5,14,0:1:0:0:
35,310,44275,1,8,0:0:0:0:
111,278,44366,1,8,0:0:0:0:
190,301,44457,1,8,0:0:0:0:
205,309,44548,6,0,L|261:319,1,41.2500015735627,0|0,1:0|1:0,0:0:0:0:
473,161,44730,2,0,L|538:143,1,41.2500015735627,0|0,1:0|1:0,0:0:0:0:
509,384,44912,5,14,0:1:0:0:
480,298,45002,1,8,0:0:0:0:
414,235,45093,1,8,0:0:0:0:
325,215,45184,1,8,0:0:0:0:
307,222,45275,6,0,L|315:260,6,20.6250007867813,10|8|10|8|10|8|10,1:2|1:0|1:2|1:0|1:2|1:0|1:2,0:0:0:0:
230,20,45639,2,0,L|234:0,6,20.6250007867813,10|8|10|8|10|8|10,1:2|1:0|1:2|1:0|1:2|1:0|1:2,0:0:0:0:
127,170,46003,6,0,L|106:174,6,20.6250007867813,10|8|10|8|10|8|10,1:2|1:0|1:2|1:0|1:2|1:0|1:2,0:0:0:0:
20,17,46366,2,0,L|0:12,6,20.6250007867813,10|8|10|8|10|8|10,1:2|1:0|1:2|1:0|1:2|1:0|1:2,0:0:0:0:
15,131,46730,5,8,1:0:0:0:
23,183,46821,1,8,1:0:0:0:
31,236,46912,1,8,1:0:0:0:
38,288,47003,1,8,1:0:0:0:
107,340,47094,6,0,B|226:320,1,110.000004196167,8|8,1:0|1:0,0:0:0:0:
377,384,47336,5,8,1:0:0:0:
282,367,47457,2,0,B|209:352|209:352|206:355|206:355|98:340,1,165.000006294251,8|8,1:0|1:0,0:0:0:0:
20,17,47821,1,8,1:0:0:0:
377,147,48003,6,0,B|367:171|367:171|258:193|258:193|256:190|256:190|258:193|258:193|111:220,1,263.99999194336,8|12,1:0|2:1,0:0:0:0:
256,192,48275,12,0,49457,0:0:0:0:
52,99,49639,6,0,L|62:153,1,55,0|0,0:0|0:0,0:0:0:0:
127,81,49821,2,0,L|137:135,1,55,0|0,0:0|0:0,0:0:0:0:
389,278,50003,6,0,L|323:264,2,36.6666666666667,2|0|0,1:0|0:0|0:0,0:0:0:0:
307,257,50185,2,0,L|241:243,2,36.6666666666667,8|0|0,0:0|0:0|0:0,0:0:0:0:
402,186,50366,6,0,P|448:173|461:104,1,110,10|0,1:0|0:0,0:0:0:0:
387,66,50548,2,0,P|372:15|322:-1,1,110,2|0,1:0|0:0,0:0:0:0:
239,25,50730,6,0,L|251:95,1,41.2500015735627,8|10,0:0|1:0,0:0:0:0:
299,384,50912,6,0,L|293:354,1,19.2499994125366,8|0,0:0|0:0,0:0:0:0:
3,189,51094,6,0,B|122:214|122:214|131:224|131:224|499:297,1,495.000018882752,12|8,0:1|1:0,0:0:0:0:
394,101,51457,6,0,L|380:37,2,55.0000020980836,12|4|4,0:2|0:2|0:2,0:0:0:0:
317,119,51639,2,0,L|300:54,2,55.0000020980836,4|4|4,1:2|0:2|0:2,0:0:0:0:
234,123,51821,5,8,0:0:0:0:
239,141,51912,2,0,P|152:124|106:64,1,165,0|0,0:0|2:0,0:0:0:0:
114,55,52094,2,0,P|150:96|140:182,1,110,8|8,1:0|0:0,0:0:0:0:
0,384,52275,1,0,0:0:0:0:
0,384,52366,2,0,P|19:335|86:327,1,110,0|8,1:0|1:0,0:0:0:0:
198,360,52548,6,0,L|329:336,1,110,8|0,0:0|0:0,0:0:0:0:
424,349,52730,2,0,L|316:330,1,110,0|8,1:0|1:0,0:0:0:0:
37,79,52912,6,0,L|26:140,2,55.0000020980836,12|4|4,0:2|0:2|0:2,0:0:0:0:
146,300,53094,2,0,L|136:236,2,55.0000020980836,4|4|4,1:2|0:2|0:2,0:0:0:0:
216,162,53275,5,8,0:0:0:0:
231,155,53366,2,0,L|343:178,1,110,0|0,0:0|1:0,0:0:0:0:
498,54,53548,6,0,L|509:13,1,27.5,8|0,1:0|0:0,0:0:0:0:
421,53,53639,6,0,P|368:81|343:192,1,165
469,364,54003,6,0,B|430:309|430:309|431:306|431:306|363:296|363:296|358:298|358:298|358:295|358:295|282:285|282:285|263:324|263:324|207:339|207:339|176:346|176:346|175:350|175:350|173:347|173:347|112:366|112:366|60:306,1,495.000018882752,12|8,0:1|1:0,0:0:0:0:
216,162,54366,6,0,L|207:216,2,55.0000020980836,12|6|6,0:2|0:2|0:2,0:0:0:0:
105,61,54548,2,0,L|96:7,2,55.0000020980836,6|6|6,1:2|0:2|0:2,0:0:0:0:
16,211,54730,5,8,0:0:0:0:
18,195,54821,2,0,B|57:128|142:127|142:127|133:169,1,165,0|0,0:0|2:0,0:0:0:0:
131,151,55003,6,0,P|93:108|117:51,1,110,8|8,1:0|0:0,0:0:0:0:
478,2,55185,1,0,0:0:0:0:
478,2,55275,2,0,B|458:50|458:50|388:38,1,110,0|8,1:0|1:0,0:0:0:0:
196,89,55457,6,0,P|237:44|313:38,1,110,8|0,0:0|0:0,0:0:0:0:
376,180,55639,2,0,P|331:131|252:126,1,110,0|8,1:0|1:0,0:0:0:0:
111,233,55821,6,0,L|123:291,2,55.0000020980836,12|6|6,0:2|0:2|0:2,0:0:0:0:
207,250,56003,2,0,L|198:310,2,55.0000020980836,6|6|6,1:2|0:2|0:2,0:0:0:0:
262,354,56185,5,0,0:0:0:0:
272,365,56275,2,0,B|390:339|390:339|410:268,1,165,2|0,0:2|2:0,0:0:0:0:
398,281,56457,1,2,0:2:0:0:
183,384,56548,6,0,L|41:365,1,110,0|12,0:0|1:3,0:0:0:0:
59,370,56791,6,0,L|50:323,1,36.6666666666667,8|8,0:0|0:0,0:0:0:0:
35,259,56912,5,12,0:1:0:0:
392,26,57094,2,0,P|372:69|311:80,1,110,2|10,1:2|1:2,0:0:0:0:
71,11,57275,5,10,0:2:0:0:
71,11,57366,1,2,0:2:0:0:
71,11,57457,2,0,L|-8:30,2,73.3333333333333,4|4|4,1:2|0:2|0:2,0:0:0:0:
199,97,57639,5,10,0:2:0:0:
191,111,57730,2,0,B|150:151|161:221|161:221|250:198,1,165,0|0,0:0|2:0,0:0:0:0:
226,214,57912,2,0,L|45:190,1,165,8|0,1:0|2:0,0:0:0:0:
48,181,58094,5,0,0:0:0:0:
68,266,58185,2,0,L|93:378,1,110,0|8,1:0|1:0,0:0:0:0:
212,328,58366,6,0,P|242:291|310:285,1,110,8|0,0:0|0:0,0:0:0:0:
400,328,58548,2,0,P|345:329|301:291,1,110,0|8,1:0|1:0,0:0:0:0:
203,68,58730,6,0,L|192:6,2,55.0000020980836,12|4|4,0:2|0:2|0:2,0:0:0:0:
280,54,58912,2,0,L|269:-7,2,55.0000020980836,4|4|4,1:2|0:2|0:2,0:0:0:0:
355,24,59094,5,8,0:0:0:0:
357,40,59185,2,0,P|400:99|502:109,1,165,0|0,0:0|2:0,0:0:0:0:
482,95,59366,6,0,B|432:103|432:103|404:182,1,110,8|0,0:0|0:0,0:0:0:0:
466,360,59548,5,0,0:0:0:0:
456,348,59639,2,0,P|432:333|384:329,1,61.875002360344,12|0,1:3|0:0,0:0:0:0:
318,310,59821,6,0,B|344:185|344:185|342:179|342:179|360:97|360:97|363:96|363:96|360:95|360:95|376:16|376:16|377:21|377:21|233:59|233:59|238:57|238:57|272:100,1,495.000018882752,12|8,0:0|1:0,0:0:0:0:
244,180,60185,6,0,L|180:167,2,55.0000020980836,12|4|4,0:2|0:2|0:2,0:0:0:0:
160,90,60366,2,0,L|96:107,2,55.0000020980836,12|4|4,1:2|0:2|0:2,0:0:0:0:
30,122,60548,5,12,0:0:0:0:
41,136,60639,2,0,L|70:311,1,165,0|0,0:0|2:0,0:0:0:0:
59,291,60821,2,0,P|97:243|189:249,1,110,8|12,1:0|0:1,0:0:0:0:
480,362,61003,5,0,1:0:0:0:
463,359,61094,2,0,L|400:347,1,61.875002360344,0|0,1:0|2:0,0:0:0:0:
311,336,61275,6,0,P|285:234|341:133,1,197.99999395752,14|0,0:0|0:0,0:0:0:0:
338,151,61457,5,8,1:0:0:0:
323,233,61548,2,0,B|279:352|139:351|139:351|166:290,1,275,14|8,0:0|1:0,0:0:0:0:
110,27,61821,1,6,0:0:0:0:
115,6,61912,1,8,0:0:0:0:
203,0,62003,6,0,P|285:34|316:167,1,220,14|0,0:0|1:0,0:0:0:0:
169,199,62275,2,0,L|470:134,1,263.99999194336,14|0,0:0|1:0,0:0:0:0:
512,284,62548,6,0,L|501:343,1,57.7499982376099,12|0,1:1|2:0,0:0:0:0:
497,355,62912,6,0,P|460:314|406:303,1,110,8|8,1:0|1:0,0:0:0:0:
102,307,63094,6,0,L|116:373,2,55.0000020980836,14|4|4,3:1|0:2|0:2,0:0:0:0:
208,109,63275,2,0,L|218:50,2,55.0000020980836,12|4|4,1:2|0:2|0:2,0:0:0:0:
1,188,63457,5,8,0:0:0:0:
10,206,63548,2,0,P|73:192|108:95,1,165,0|0,0:0|2:0,0:0:0:0:
96,100,63730,6,0,P|100:177|152:203,1,110,8|8,1:0|0:0,0:0:0:0:
335,384,63912,1,0,0:0:0:0:
331,369,64003,2,0,L|313:241,1,110,0|8,1:0|1:0,0:0:0:0:
379,8,64185,6,0,P|319:24|297:73,1,110,8|0,0:0|0:0,0:0:0:0:
212,223,64366,2,0,P|276:199|290:150,1,110,0|8,1:0|1:0,0:0:0:0:
217,54,64548,6,0,L|205:-1,2,55.0000020980836,12|4|4,0:2|0:2|0:2,0:0:0:0:
298,64,64730,2,0,L|307:6,2,55.0000020980836,4|4|4,1:2|0:2|0:2,0:0:0:0:
212,223,64912,5,2,3:2:0:0:
212,223,65003,2,0,L|137:239,1,55,2|0,3:2|0:0,0:0:0:0:
113,298,65185,2,0,L|38:282,1,55,2|0,3:2|0:0,0:0:0:0:
4,228,65366,1,2,3:2:0:0:
16,223,65457,2,0,L|9:160,1,55,2|0,1:2|2:0,0:0:0:0:
216,0,65639,6,0,P|203:74|106:133,1,165,12|0,0:1|2:0,0:0:0:0:
126,126,65821,2,0,P|167:88|251:99,1,110,0|8,1:0|1:0,0:0:0:0:
425,276,66003,6,0,P|367:261|351:231,2,73.3333333333333,12|4|4,0:2|0:2|0:2,0:0:0:0:
505,153,66185,2,0,P|483:188|440:198,2,73.3333333333333,4|4|4,1:2|0:2|0:2,0:0:0:0:
389,0,66366,5,8,0:0:0:0:
403,0,66457,2,0,P|436:38|440:102,1,110,0|0,0:0|1:0,0:0:0:0:
132,244,66639,6,0,B|111:190|111:190|189:169,1,110,8|8,1:0|0:0,0:0:0:0:
469,375,66821,1,0,0:0:0:0:
469,375,66912,2,0,P|432:335|360:323,1,110,0|8,1:0|1:0,0:0:0:0:
29,354,67094,6,0,L|143:321,1,110,8|0,0:0|0:0,0:0:0:0:
317,258,67275,2,0,L|194:233,1,110,0|8,1:0|1:0,0:0:0:0:
37,109,67457,6,0,P|13:84|16:17,2,73.3333333333333,14|4|4,2:0|0:2|0:2,0:0:0:0:
136,0,67639,2,0,P|111:26|109:67,2,73.3333333333333,14|4|4,2:0|0:2|0:2,0:0:0:0:
183,111,67821,6,0,P|242:119|292:66,1,110,12|0,1:3|0:0,0:0:0:0:
351,0,68003,2,0,P|410:-8|460:45,1,110,12|0,1:3|0:0,0:0:0:0:
494,123,68185,6,0,B|527:145|527:145|476:150,1,82.5,8|4,1:0|2:0,0:0:0:0:
383,134,68548,6,0,L|404:244,1,82.5000031471254,12|0,0:1|1:0,0:0:0:0:
181,384,68730,1,0,1:0:0:0:
143,324,68821,1,0,1:0:0:0:
156,255,68912,1,10,0:2:0:0:
211,211,69003,1,0,1:0:0:0:
250,153,69094,1,0,1:2:0:0:
229,86,69185,1,0,1:0:0:0:
153,109,69275,5,10,0:2:0:0:
142,123,69366,2,0,L|46:141,1,82.5000031471254,0|0,1:0|1:0,0:0:0:0:
32,356,69548,6,0,P|72:325|74:281,1,82.5000031471254,0|10,1:0|0:2,0:0:0:0:
18,4,69730,1,0,1:0:0:0:
12,16,69821,5,0,1:0:0:0:
64,78,69912,1,0,1:0:0:0:
142,123,70003,5,10,0:2:0:0:
210,123,70094,1,0,1:0:0:0:
264,81,70185,1,0,1:0:0:0:
292,20,70275,1,0,1:0:0:0:
357,0,70366,5,10,0:2:0:0:
425,15,70457,1,0,1:0:0:0:
472,61,70548,1,0,1:0:0:0:
481,131,70639,1,0,1:0:0:0:
405,186,70730,5,10,0:2:0:0:
390,198,70821,2,0,L|377:292,1,82.5000031471254,0|0,1:0|1:0,0:0:0:0:
46,379,71003,6,0,B|6:364|6:364|14:325,1,82.5000031471254,0|10,1:0|0:2,0:0:0:0:
252,164,71185,1,0,1:0:0:0:
268,164,71275,5,0,1:0:0:0:
215,228,71366,1,0,1:0:0:0:
137,259,71457,6,0,L|82:251,3,41.2500015735627,10|8|10|8,1:2|1:2|1:2|1:2,0:0:0:0:
113,179,71639,2,0,L|67:146,3,41.2500015735627,10|8|10|8,1:2|1:2|1:2|1:2,0:0:0:0:
126,95,71821,2,0,L|100:45,3,41.2500015735627,10|8|10|8,1:2|1:2|1:2|1:2,0:0:0:0:
183,41,72003,2,0,L|182:-14,2,41.2500015735627,10|8|10,1:2|1:2|1:2,0:0:0:0:
272,89,72185,5,10,1:2:0:0:
343,105,72275,1,10,1:2:0:0:
414,83,72366,1,10,1:2:0:0:
466,30,72457,1,10,1:2:0:0:
473,13,72548,5,10,1:2:0:0:
385,75,72639,1,10,1:2:0:0:
364,180,72730,1,10,1:2:0:0:
394,282,72821,1,10,1:2:0:0:
451,339,72912,5,8,0:0:0:0:
503,213,73094,6,0,L|511:154,1,41.2500015735627,2|0,0:2|0:0,0:0:0:0:
344,364,73275,1,2,0:2:0:0:
344,364,73366,1,2,0:2:0:0:
344,364,73457,2,0,L|275:375,1,41.2500015735627,2|0,0:2|0:0,0:0:0:0:
261,300,73639,6,0,L|193:285,1,41.2500015735627,2|2,0:2|0:2,0:0:0:0:
128,357,73821,6,0,L|66:389,1,41.2500015735627,2|0,0:2|0:0,0:0:0:0:
93,238,74003,6,0,L|4:205,1,82.5000031471254,8|0,1:0|0:0,0:0:0:0:
67,91,74185,6,0,L|6:0,1,110,10|0,1:2|2:0,0:0:0:0:
178,160,74366,6,0,B|264:134|264:134|271:126|271:126|430:78,1,263.99999194336,12|0,1:3|0:0,0:0:0:0:
505,24,74639,6,0,B|522:-8|522:-8|459:20,1,82.5000031471254,12|0,1:3|0:0,0:0:0:0:
223,311,74821,1,8,0:0:0:0:
220,293,74912,2,0,P|279:208|359:200,1,131.99999597168,10|0,1:3|0:0,0:0:0:0:
427,78,75094,6,0,P|388:175|394:355,1,263.99999194336,12|0,1:3|0:0,0:0:0:0:
468,384,75366,1,14,1:3:0:0:
348,305,75457,5,0,0:0:0:0:
324,303,75547,1,2,0:0:0:0:
301,310,75638,1,2,0:0:0:0:
283,326,75729,1,2,0:3:0:0:
219,379,75821,6,0,P|106:377|10:249,1,263.99999194336,12|0,1:3|0:0,0:0:0:0:
86,160,76094,6,0,P|120:189|190:191,1,110,14|0,1:3|0:0,0:0:0:0:
460,69,76275,1,0,0:0:0:0:
387,107,76366,6,0,B|267:125|267:125|263:131|263:131|56:164,1,307.999990600586,12|0,1:3|0:0,0:0:0:0:
9,16,76639,1,14,1:3:0:0:
4,0,76730,2,0,P|83:-4|144:69,1,153.999995300293,0|0,0:0|0:0,0:0:0:0:
387,317,76912,6,0,L|401:165,1,131.99999597168,14|0,1:3|0:0,0:0:0:0:
460,69,77094,2,0,L|480:188,1,121.000003692627,14|0,1:3|0:0,0:0:0:0:
511,384,77275,6,0,P|412:336|214:320,1,263.99999194336,12|0,1:3|0:0,0:0:0:0:
132,367,77548,6,0,B|77:351|77:351|154:329,1,131.99999597168,14|0,0:3|0:0,0:0:0:0:
460,69,77730,1,8,0:0:0:0:
441,70,77821,2,0,P|365:99|331:155,1,131.99999597168,10|0,1:3|0:0,0:0:0:0:
260,315,78003,6,0,P|255:164|181:51,1,263.99999194336,12|0,1:3|0:0,0:0:0:0:
149,5,78275,1,14,1:3:0:0:
59,58,78366,5,0,0:0:0:0:
43,76,78457,1,8,1:3:0:0:
36,99,78548,1,10,1:3:0:0:
38,123,78638,1,10,1:3:0:0:
57,198,78730,6,0,L|333:138,1,263.99999194336,12|0,1:3|0:0,0:0:0:0:
441,70,79003,1,14,1:3:0:0:
434,57,79094,2,0,B|399:8|399:8|290:-4,1,131.99999597168,0|0,0:0|0:0,0:0:0:0:
199,69,79275,6,0,B|320:100|321:245|321:245|289:239|289:239|287:241|287:241|286:238|286:238|238:227,1,307.999990600586,14|0,1:3|0:0,0:0:0:0:
0,374,79548,5,12,0:1:0:0:
5,360,79639,2,0,L|31:283,1,55,2|0,0:2|0:0,0:0:0:0:
91,253,79821,6,0,L|182:270,1,73.3333333333333,2|0,0:2|2:0,0:0:0:0:
237,365,80003,2,0,L|331:337,1,73.3333333333333,2|0,0:2|2:0,0:0:0:0:
375,302,80185,6,0,B|355:173|355:173|351:167|351:167|344:120|344:120|347:113|347:113|326:-7,1,307.999990600586,12|0,1:3|0:0,0:0:0:0:
425,139,80457,2,0,L|254:110,1,153.999995300293,14|0,1:3|0:0,0:0:0:0:
21,6,80639,5,8,0:0:0:0:
40,10,80730,2,0,P|79:41|87:113,1,110,10|0,1:3|0:0,0:0:0:0:
0,341,80912,6,0,P|72:208|192:153,1,263.99999194336,12|0,1:3|0:0,0:0:0:0:
252,161,81185,1,14,1:3:0:0:
188,236,81275,5,0,0:0:0:0:
172,254,81366,1,8,1:3:0:0:
165,277,81457,1,10,1:3:0:0:
167,301,81547,1,10,1:3:0:0:
210,367,81639,6,0,B|322:351|322:351|327:355|327:355|497:333,1,263.99999194336,12|0,1:3|0:0,0:0:0:0:
461,132,81912,2,0,P|427:176|425:259,1,110,14|0,0:0|0:0,0:0:0:0:
417,245,82094,1,8,0:0:0:0:
358,110,82185,6,0,P|280:27|108:31,1,263.99999194336,12|0,1:1|0:0,0:0:0:0:
0,183,82457,2,0,P|121:131|266:107,1,263.99999194336,14|0,1:3|0:0,0:0:0:0:
465,384,82730,6,0,P|345:329|314:134,1,307.999990600586,12|0,1:1|0:0,0:0:0:0:
444,0,83003,2,0,B|434:83|434:83|351:112,1,165.000006294251,14|0,1:3|0:0,0:0:0:0:
118,243,83185,1,8,0:0:0:0:
151,157,83275,6,0,P|210:75|415:25,1,253.000004825592,12|0,1:0|0:0,0:0:0:0:
359,21,83548,6,0,P|256:167|241:343,1,330.000012588501,14|0,1:3|0:0,0:0:0:0:
512,384,83821,6,0,B|355:354|355:354|355:360|355:360|176:323,1,330.000012588501,12|0,1:0|0:0,0:0:0:0:
34,117,84094,2,0,P|97:160|114:260,1,165.000006294251,14|0,0:0|0:0,0:0:0:0:
132,381,84275,5,8,0:0:0:0:
151,157,84366,2,0,B|157:116|157:116|189:82,1,74.2499977340699,14|0,1:0|2:0,0:0:0:0:
241,21,84548,5,12,1:3:0:0:
366,118,84670,1,10,1:3:0:0:
412,274,84791,1,8,1:3:0:0:
346,364,84912,5,14,1:3:0:0:
405,262,85033,1,8,1:3:0:0:
511,217,85154,1,10,1:3:0:0:
472,355,85276,5,12,1:3:0:0:
254,312,85397,1,10,1:3:0:0:
37,271,85518,1,8,1:3:0:0:
88,190,85639,6,0,L|81:128,5,55.0000020980836,14|8|8|8|8|8,1:0|0:0|0:0|0:0|0:0|0:0,0:0:0:0:
111,349,86003,1,12,0:0:0:0:
185,151,88730,6,0,B|163:190|163:190|225:154|299:145,1,165,12|0,0:0|0:0,0:0:0:0:
331,54,88912,6,0,L|311:275,1,206.25,6|0,0:0|0:0,0:0:0:0:
303,356,89094,5,6,0:0:0:0:
77,119,90366,6,0,L|100:311,2,183.333333333333,2|2|2,1:2|1:2|1:2,0:0:0:0:
185,151,90730,2,0,L|171:246,2,73.3333333333333,2|2|2,1:2|1:2|1:2,0:0:0:0:
425,365,91094,5,2,1:2:0:0:
417,352,91185,2,0,P|368:319|312:316,1,110,12|0,0:0|0:0,0:0:0:0:
239,327,91457,5,12,0:0:0:0:
471,117,91639,2,0,L|488:37,2,73.3333333333333,10|8|8,0:0|0:0|0:0,0:0:0:0:
389,156,91821,6,0,P|294:83|161:96,1,220,12|0,0:1|1:0,0:0:0:0:
85,222,92094,1,12,1:2:0:0:
84,239,92185,2,0,P|128:221|149:157,1,110,8|4,0:0|0:2,0:0:0:0:
209,0,92366,5,0,1:0:0:0:
40,154,92548,2,0,B|12:298|12:298|108:268,1,220,8|0,0:0|1:0,0:0:0:0:
157,251,92821,1,12,2:0:0:0:
253,220,92912,5,8,0:0:0:0:
285,224,93003,1,4,0:2:0:0:
312,242,93094,1,0,1:0:0:0:
327,271,93185,1,8,1:0:0:0:
329,303,93275,6,0,P|319:188|373:75,1,220,8|0,0:0|1:0,0:0:0:0:
210,54,93548,1,12,1:2:0:0:
209,69,93639,2,0,P|233:122|298:137,1,110,8|4,0:0|0:2,0:0:0:0:
512,225,93821,1,0,1:0:0:0:
358,93,94003,6,0,P|249:108|139:179,1,220,8|0,0:0|1:0,0:0:0:0:
4,349,94275,1,12,1:2:0:0:
78,333,94366,6,0,B|119:322|119:322|121:325|121:325|173:309,1,82.5,2|0,1:2|0:0,0:0:0:0:
310,365,94730,6,0,B|206:352|206:352|203:350|203:350|200:351|200:351|80:335,1,220,8|0,0:0|1:0,0:0:0:0:
19,267,95003,1,12,1:2:0:0:
24,257,95094,2,0,P|-9:212|18:141,1,110,8|4,0:3|0:2,0:0:0:0:
284,289,95275,1,0,1:0:0:0:
71,193,95457,6,0,B|113:114|221:130|221:130|201:189,1,220,8|0,0:0|1:0,0:0:0:0:
199,251,95730,1,12,1:2:0:0:
285,184,95821,5,8,0:0:0:0:
301,155,95912,1,4,0:2:0:0:
304,122,96003,1,0,1:0:0:0:
291,91,96094,1,8,1:0:0:0:
259,71,96185,6,0,L|287:309,1,220,8|0,0:0|1:0,0:0:0:0:
235,354,96457,1,12,1:2:0:0:
235,354,96548,2,0,P|176:357|142:312,1,110,8|4,0:0|0:2,0:0:0:0:
62,304,96730,1,0,1:0:0:0:
322,358,96912,6,0,B|365:349|365:349|370:352|370:352|394:347|394:347|396:342|396:342|455:331,1,123.74999622345,8|2,1:3|2:3,0:0:0:0:
504,272,97457,6,0,L|512:201,2,55.0000020980836,10|8|8,1:0|1:0|1:0,0:0:0:0:
436,320,97639,6,0,B|423:228|423:228|426:221|426:221|404:84,1,220,12|0,0:1|1:0,0:0:0:0:
509,88,97912,1,12,1:2:0:0:
512,103,98003,2,0,B|518:140|518:140|416:117,1,110,8|4,0:0|0:2,0:0:0:0:
254,6,98185,1,0,1:0:0:0:
453,29,98366,6,0,P|354:74|302:172,1,220,8|0,0:0|1:0,0:0:0:0:
293,256,98639,1,12,1:2:0:0:
225,309,98730,5,8,0:0:0:0:
193,319,98821,1,4,0:2:0:0:
160,317,98912,1,0,1:0:0:0:
130,301,99003,1,8,1:0:0:0:
112,273,99094,6,0,P|137:173|98:47,1,220,8|0,0:0|1:0,0:0:0:0:
27,15,99366,1,12,1:2:0:0:
27,15,99457,2,0,B|-23:2|-23:2|21:51,1,110,8|4,0:0|0:2,0:0:0:0:
236,206,99639,5,0,1:0:0:0:
107,62,99821,2,0,B|131:24|131:24|204:14|204:14|209:15|209:15|318:2,1,220,8|0,0:0|1:0,0:0:0:0:
219,120,100094,1,12,1:2:0:0:
301,117,100185,6,2,L|221:106,1,74.2499977340699,0|0,0:0|2:0,0:1:0:0:
427,217,100548,6,0,P|443:197|446:155,1,55,2|0,1:2|0:0,0:0:0:0:
506,115,100730,1,2,0:0:0:0:
506,115,100821,1,2,0:0:0:0:
506,115,100912,2,0,P|501:88|484:66,1,55,2|0,0:0|0:0,0:0:0:0:
419,20,101094,2,0,L|337:41,1,55,2|0,0:0|0:0,0:0:0:0:
301,117,101275,5,2,0:2:0:0:
310,108,101366,2,0,L|299:187,1,55,2|0,0:0|0:0,0:0:0:0:
427,217,101548,1,2,0:0:0:0:
418,208,101639,2,0,L|429:287,1,55,2|0,0:0|0:0,0:0:0:0:
275,307,101821,2,0,L|264:386,1,55,2|0,0:0|0:0,0:0:0:0:
378,384,102003,6,0,P|255:326|115:317,1,263.99999194336,12|0,0:0|0:0,0:0:0:0:
50,285,102275,6,0,P|11:241|24:186,1,110,12|0,0:0|0:0,0:0:0:0:
261,25,102548,5,10,0:0:0:0:
261,25,102639,1,10,0:0:0:0:
261,25,102730,2,0,P|199:162|80:211,1,263.99999194336,12|0,0:0|0:0,0:0:0:0:
105,187,103003,6,0,P|232:194|310:263,1,197.99999395752,12|0,0:0|0:0,0:0:0:0:
478,384,103275,2,0,B|500:337|500:337|446:311,1,82.5000031471254,10|0,0:0|0:0,0:0:0:0:
424,123,103457,6,0,B|415:199|415:199|409:204|409:204|391:347,1,220,12|0,0:1|1:0,0:0:0:0:
308,358,103730,1,12,1:2:0:0:
308,358,103821,2,0,L|182:325,1,110,8|4,0:0|0:2,0:0:0:0:
69,372,104003,5,0,1:0:0:0:
295,249,104185,1,8,0:0:0:0:
287,233,104275,2,0,B|254:146|135:152|135:152|152:198,1,220,0|12,0:0|1:2,0:0:0:0:
47,217,104548,5,8,0:0:0:0:
38,214,104638,1,0,0:0:0:0:
29,212,104729,1,2,1:0:0:0:
20,209,104820,1,10,1:0:0:0:
111,262,104912,6,0,P|174:268|213:226,1,110,6|2,0:0|0:0,0:0:0:0:
236,166,105185,1,0,0:0:0:0:
230,152,105275,2,0,L|242:79,1,55,8|0,0:0|0:0,0:0:0:0:
156,22,105457,2,0,L|164:76,1,55,2|8,0:0|0:0,0:0:0:0:
331,144,105639,5,8,0:0:0:0:
326,132,105730,2,0,L|486:161,1,110,0|8,0:0|0:0,0:0:0:0:
502,107,106003,6,0,P|511:76|494:42,1,55,2|2,0:0|0:0,0:0:0:0:
365,2,106185,1,8,0:0:0:0:
434,151,106366,6,0,B|495:225|471:295|471:295|369:272,1,220,12|0,0:1|1:0,0:0:0:0:
325,313,106639,1,12,1:2:0:0:
325,313,106730,2,0,P|313:274|354:213,1,110,8|4,0:0|0:2,0:0:0:0:
512,110,106912,5,0,1:0:0:0:
425,374,107094,1,8,0:0:0:0:
412,365,107185,2,0,P|308:323|170:329,1,220,0|12,0:0|1:2,0:0:0:0:
97,282,107457,5,8,0:0:0:0:
79,263,107547,1,8,0:0:0:0:
73,237,107638,1,2,0:0:0:0:
80,212,107729,1,2,0:0:0:0:
131,157,107821,6,0,P|144:97|114:42,1,110,6|8,0:0|0:0,0:0:0:0:
194,4,108094,2,0,L|259:15,2,55,2|0|2,0:0|0:0|0:0,0:0:0:0:
307,72,108366,6,0,P|354:44|411:37,1,110,8|8,0:0|0:0,0:0:0:0:
493,86,108639,1,2,0:0:0:0:
488,71,108730,6,0,L|477:150,1,55,0|2,0:0|0:0,0:0:0:0:
442,384,108912,2,0,L|449:329,1,55,8|2,0:0|0:0,0:0:0:0:
386,128,109094,6,0,P|386:160|412:186,1,55,8|0,0:0|0:0,0:0:0:0:
461,250,109275,6,0,P|353:203|240:197,1,220,12|0,0:1|1:0,0:0:0:0:
163,176,109548,1,12,1:2:0:0:
175,186,109639,2,0,L|49:214,1,110,8|4,0:0|0:2,0:0:0:0:
62,13,109821,2,0,P|123:51|127:106,1,110,0|8,1:0|1:0,0:0:0:0:
62,369,110003,5,8,0:0:0:0:
87,322,110094,1,0,0:0:0:0:
130,291,110185,1,0,1:0:0:0:
187,282,110275,1,12,1:2:0:0:
185,384,110366,5,8,0:0:0:0:
164,357,110457,1,4,0:2:0:0:
164,323,110548,1,2,1:0:0:0:
180,294,110639,1,10,1:0:0:0:
250,240,110730,6,0,P|291:197|286:119,1,110,6|0,0:0|0:0,0:0:0:0:
259,81,111003,1,8,0:0:0:0:
246,89,111094,2,0,L|189:79,1,55,2|2,0:0|0:0,0:0:0:0:
37,216,111275,6,0,L|150:159,1,110,8|2,0:0|0:0,0:0:0:0:
178,7,111548,2,0,P|122:52|128:112,1,110,8|2,0:0|0:0,0:0:0:0:
135,166,111821,6,0,L|131:230,3,55,8|2|8|8,0:0|0:0|0:0|0:0,0:0:0:0:
147,367,112185,5,12,0:0:0:0:
203,384,112275,1,2,0:0:0:0:
263,373,112366,1,2,1:0:0:0:
302,325,112457,1,2,1:0:0:0:
301,263,112548,5,12,0:0:0:0:
330,193,112639,1,2,0:0:0:0:
397,147,112730,1,2,1:0:0:0:
478,156,112821,1,2,1:0:0:0:
508,244,112912,6,0,L|491:347,1,82.5000031471254,12|2,0:0|0:0,0:0:0:0:
167,158,113094,1,2,1:0:0:0:
167,158,113185,1,2,1:0:0:0:
167,158,113275,6,0,P|123:126|136:65,1,110,12|2,0:0|0:0,0:0:0:0:
481,14,113457,1,2,1:0:0:0:
443,80,113548,1,2,1:0:0:0:
369,110,113639,6,0,B|321:102|321:102|314:105|314:105|212:89,1,153.999995300293,12|2,0:1|1:0,0:0:0:0:
0,287,113821,2,0,P|1:317|27:348,2,55,2|0|2,1:0|0:0|1:0,0:0:0:0:
90,384,114003,6,0,P|158:322|272:336,1,153.999995300293,12|2,1:0|1:0,0:0:0:0:
369,80,114185,2,0,P|370:50|396:19,2,55,2|0|2,1:0|1:0|1:0,0:0:0:0:
456,245,114366,5,10,0:0:0:0:
20,113,114548,1,2,1:0:0:0:
10,110,114639,1,10,0:0:0:0:
0,106,114730,5,2,1:0:0:0:
50,180,114821,1,2,1:0:0:0:
126,213,114912,2,2,B|254:227|254:227|256:226|256:226|396:239,1,255.750001951218,2|0,0:2|2:0,0:1:0:0:
456,245,115094,5,12,1:0:0:0:
256,192,115185,12,0,120912,2:0:0:0:
102,28,126730,6,0,B|113:81|113:81|111:91|111:91|133:218,1,181.500005538941,12|8,0:1|0:0,0:0:0:0:
339,321,127457,2,0,P|325:276|282:262,1,90.7500027694703,0|2,1:0|0:0,0:0:0:0:
213,274,127821,1,12,0:1:0:0:
213,274,128003,1,2,0:0:0:0:
339,321,128185,6,0,L|461:351,1,121.000003692627,12|2,0:1|0:0,0:0:0:0:
325,166,128730,2,0,P|313:150|310:130,1,30.2500009231568,8|0,0:0|0:0,0:0:0:0:
358,84,128912,2,0,P|355:48|408:1,1,98.9999969787599,0|2,1:0|0:0,2:0:0:0:
395,3,129639,6,0,B|410:14|410:14|227:47,1,181.500005538941,12|8,0:1|0:0,0:0:0:0:
56,119,130366,2,0,B|64:74|64:74|119:40,1,90.7500027694703,0|2,1:0|0:0,0:0:0:0:
177,24,130730,1,12,0:1:0:0:
165,97,130912,1,2,0:0:0:0:
150,211,131094,6,0,L|136:320,1,90.7500027694703,12|0,0:1|0:0,0:0:0:0:
184,358,131457,2,0,L|208:381,2,30.2500009231568,2|0|8,0:0|0:0|0:0,0:0:0:0:
2,250,131821,2,0,B|29:203|80:201|80:201|72:237,1,121.000003692627,4|0,1:1|0:0,2:0:0:0:
138,301,132548,6,0,P|141:230|105:114,1,181.500005538941,12|8,0:1|0:0,0:0:0:0:
257,23,133275,2,0,B|287:32|287:32|207:50,1,90.7500027694703,0|2,1:0|0:0,0:0:0:0:
157,65,133639,1,12,0:1:0:0:
157,65,133821,1,2,0:0:0:0:
324,98,134003,6,0,P|365:106|434:168,1,121.000003692627,12|2,0:1|0:0,0:0:0:0:
492,93,134548,2,0,L|483:50,1,30.2500009231568,8|0,0:0|0:0,0:0:0:0:
425,154,134730,2,0,B|418:193|418:193|419:200|419:200|408:264,1,98.9999969787599,0|2,1:0|0:0,2:0:0:0:
410,251,135457,6,0,B|439:235|439:235|357:197|283:263,1,181.500005538941,12|8,0:1|0:0,0:0:0:0:
242,384,136185,2,0,P|276:373|291:317,1,90.7500027694703,0|2,1:0|0:0,0:0:0:0:
299,249,136548,1,12,0:1:0:0:
299,249,136730,1,2,0:0:0:0:
148,304,136912,6,0,L|45:332,1,90.7500027694703,12|2,0:1|0:0,0:0:0:0:
60,327,137275,2,0,L|78:257,1,60.5000018463135,2|8,0:0|0:0,0:0:0:0:
178,162,137639,2,0,P|187:116|134:52,1,121.000003692627,4|2,1:1|0:0,2:0:0:0:
147,57,138366,6,0,P|193:89|319:103,1,165.000006294251,12|2,0:1|0:0,0:0:0:0:
436,32,138912,1,8,0:0:0:0:
436,32,139094,2,0,B|401:18|401:18|435:122,1,123.750004720688,0|2,1:0|0:0,0:0:0:0:
493,145,139457,2,0,P|503:180|471:229,1,82.5000031471254,12|2,0:1|0:0,0:0:0:0:
242,346,139821,6,0,B|286:306|286:306|354:296,1,110,12|0,0:1|0:0,0:0:0:0:
414,306,140094,2,0,P|408:336|382:359,1,55,2|2,0:0|0:0,0:0:0:0:
169,384,140366,1,8,0:0:0:0:
242,346,140548,6,0,L|263:164,1,165.000006294251,0|2,1:0|0:0,2:0:0:0:
260,182,141275,6,0,B|193:199|193:199|189:204|189:204|33:247,1,220,12|2,0:1|0:0,0:0:0:0:
10,146,141821,1,8,0:0:0:0:
10,146,142003,2,0,P|31:84|130:37,1,165,0|2,1:0|0:0,0:0:0:0:
131,38,142366,1,12,0:1:0:0:
207,60,142548,1,2,0:0:0:0:
258,180,142730,6,0,P|299:248|384:269,1,165,12|0,0:1|0:0,0:0:0:0:
374,260,143094,2,0,P|320:268|279:313,1,110,2|8,0:0|0:0,0:0:0:0:
461,381,143457,6,0,L|485:195,1,165.000006294251,4|2,1:1|0:0,2:0:0:0:
512,0,144185,6,0,L|482:225,1,220,12|2,0:1|0:0,0:0:0:0:
482,218,144730,2,0,B|474:191|474:191|449:181,1,55,8|0,0:0|0:0,0:0:0:0:
387,134,144912,6,0,L|196:184,1,165,0|2,1:0|0:0,0:0:0:0:
152,196,145275,1,12,0:1:0:0:
152,196,145457,1,2,0:0:0:0:
336,332,145639,6,0,L|459:352,1,110,12|0,0:1|0:0,0:0:0:0:
504,293,146003,1,2,0:0:0:0:
512,218,146185,1,8,0:0:0:0:
326,323,146366,6,0,P|258:356|140:370,1,165.000006294251,0|2,1:0|0:0,2:0:0:0:
170,371,147094,6,0,L|199:146,1,220,12|2,0:1|0:0,0:0:0:0:
19,5,147639,2,0,P|4:23|1:61,1,55,8|0,0:0|0:0,0:0:0:0:
70,91,147821,2,0,P|67:127|142:185,1,110,0|0,1:0|0:0,0:0:0:0:
197,152,148094,1,2,0:0:0:0:
202,135,148185,1,12,0:1:0:0:
249,70,148366,1,2,0:0:0:0:
398,16,148548,6,0,B|431:-12|431:-12|407:121,1,165,12|2,0:1|0:0,0:0:0:0:
415,121,148912,2,0,L|394:236,1,110,2|8,0:0|0:0,0:0:0:0:
128,384,149275,2,0,P|158:338|278:310,1,165.000006294251,4|2,1:1|0:0,2:0:0:0:
512,378,150003,5,12,0:1:0:0:
256,192,150185,12,0,157094,2:0:0:0:
219,8,157275,6,0,L|256:192,1,187.000003566742,2|0,1:2|0:0,0:0:0:0:
324,257,157548,2,0,B|365:264|365:264|317:227,1,82.5000031471254,2|0,1:2|0:0,0:0:0:0:
247,190,157821,6,0,P|211:163|145:167,1,82.5000031471254,2|0,1:2|0:0,0:0:0:0:
54,335,158003,6,0,B|81:248|181:246|181:246|166:317,1,197.99999395752,2|0,1:2|0:0,0:0:0:0:
236,347,158275,2,0,B|287:355|287:355|295:362|295:362|408:381,1,165.000006294251,2|0,1:2|0:0,0:0:0:0:
485,378,158548,5,2,1:2:0:0:
509,147,158730,6,0,L|514:105,6,27.5,8|8|8|8|8|8|8,1:0|1:0|1:0|1:0|1:0|1:0|1:0,0:0:0:0:
432,80,159094,2,0,L|417:39,6,41.2500015735627,8|8|8|8|8|8|8,1:0|1:0|1:0|1:0|1:0|1:0|1:0,0:0:0:0:
337,52,159457,2,0,L|296:13,6,55,8|8|8|8|8|8|8,1:0|1:0|1:0|1:0|1:0|1:0|1:0,0:0:0:0:
234,63,159821,2,0,L|160:40,6,68.75,8|8|8|8|8|8|8,1:0|1:0|1:0|1:0|1:0|1:0|1:0,0:0:0:0:
135,116,160185,6,0,B|102:123|102:123|100:125|100:125|92:124|92:124|90:126|90:126|56:134,1,82.5000031471254,2|8,0:0|0:0,0:0:0:0:
0,79,160457,6,0,L|159:113,1,131.99999597168,2|8,0:0|0:0,0:0:0:0:
225,129,160730,2,0,P|242:156|242:173,1,41.2500015735627,2|0,0:0|0:0,0:0:0:0:
64,328,160912,5,8,0:0:0:0:
71,312,161003,2,0,P|122:262|216:254,1,131.99999597168,2|8,0:0|0:0,0:0:0:0:
259,256,161275,5,2,0:0:0:0:
503,332,161457,2,0,B|511:353|528:356|528:356|525:339|506:334,1,65.9999979858399,8|8,0:0|0:0,0:0:0:0:
331,3,161639,6,0,B|339:61|339:61|347:66|347:66|362:199,1,197.99999395752,12|0,1:0|1:0,0:0:0:0:
378,279,161912,1,0,0:0:0:0:
411,270,162003,1,8,0:0:0:0:
433,243,162094,1,0,0:0:0:0:
443,209,162185,1,0,1:0:0:0:
293,377,162366,5,8,0:0:0:0:
275,372,162457,2,0,B|182:362|182:362|183:359|183:359|182:362|182:362|75:350,1,197.99999395752,0|0,0:0|1:0,0:0:0:0:
10,343,162730,5,8,0:2:0:0:
242,164,162912,1,0,1:0:0:0:
87,337,163094,6,0,B|108:249|205:247|205:247|194:301,1,197.99999395752,8|0,0:0|1:0,0:0:0:0:
198,294,163366,1,0,0:0:0:0:
249,357,163457,5,8,0:0:0:0:
275,372,163548,1,0,0:0:0:0:
306,377,163639,1,0,1:0:0:0:
338,370,163730,1,0,0:0:0:0:
403,324,163821,6,0,B|394:253|394:253|397:247|397:247|376:96,1,197.99999395752,8|0,0:0|1:0,0:0:0:0:
448,42,164094,2,0,B|497:8|497:8|466:97,1,110,8|0,0:0|0:0,0:0:0:0:
380,128,164366,5,8,1:0:0:0:
318,82,164457,1,8,1:0:0:0:
242,71,164548,6,0,B|256:90|256:90|153:110|153:110|155:112|155:112|56:130,1,197.99999395752,8|0,0:0|1:0,0:0:0:0:
0,82,164821,1,0,0:0:0:0:
12,55,164912,1,8,0:0:0:0:
35,36,165003,1,0,0:0:0:0:
63,28,165094,1,0,1:0:0:0:
275,158,165275,1,8,0:0:0:0:
266,171,165366,2,0,P|230:269|236:375,1,197.99999395752,0|0,0:0|1:0,0:0:0:0:
315,384,165639,5,8,0:0:0:0:
121,181,165821,1,0,1:0:0:0:
232,361,166003,6,0,P|161:312|34:322,1,181.500001730919,8|0,0:0|1:0,0:0:0:0:
69,320,166275,2,0,P|156:294|190:232,1,165.000006294251,2|2,0:2|0:2,0:0:0:0:
145,169,166548,2,0,B|110:142|110:142|120:180,1,82.5000031471254,0|0,1:0|0:0,0:0:0:0:
232,361,166730,6,0,B|285:347|285:347|289:349|289:349|422:318,1,165.000006294251,8|0,0:0|1:0,0:0:0:0:
409,319,167003,6,0,L|280:287,1,110,8|0,0:0|0:0,0:0:0:0:
230,276,167275,2,0,L|222:231,2,36.6666666666667,8|0|0,0:0|0:0|0:0,0:0:0:0:
210,165,167457,5,8,0:0:0:0:
299,116,167639,1,0,1:0:0:0:
323,115,167729,1,0,0:0:0:0:
345,123,167820,1,8,0:0:0:0:
369,123,167911,1,0,0:0:0:0:
391,131,168002,1,0,1:0:0:0:
467,322,168185,5,8,0:0:0:0:
454,317,168275,2,0,P|405:273|399:194,1,131.99999597168,0|0,0:0|1:0,0:0:0:0:
391,131,168548,1,8,0:0:0:0:
508,13,168730,1,0,1:0:0:0:
508,13,168821,1,0,0:0:0:0:
508,13,168912,6,0,B|501:32|501:32|371:46,1,131.99999597168,8|0,0:0|1:0,0:0:0:0:
315,58,169185,1,0,0:0:0:0:
255,6,169275,5,8,0:0:0:0:
229,0,169366,1,0,0:0:0:0:
202,1,169457,1,0,1:0:0:0:
179,14,169548,1,0,0:0:0:0:
165,36,169639,2,0,B|208:87|208:87|216:168,1,131.99999597168,8|0,0:0|1:0,0:0:0:0:
271,219,169912,6,0,P|208:198|143:187,1,131.99999597168,8|0,0:0|0:0,0:0:0:0:
67,170,170185,2,0,B|39:163|39:163|77:150,1,65.9999979858399,8|8,1:0|1:0,0:0:0:0:
315,58,170366,5,8,0:0:0:0:
144,188,170548,2,0,P|127:217|133:254,1,65.9999979858399,0|8,1:0|1:0,0:0:0:0:
174,323,170730,6,0,L|258:306,1,76.9999976501466,8|0,0:0|0:0,0:0:0:0:
328,357,170912,1,0,1:0:0:0:
315,363,171003,2,0,L|362:177,1,187.000003566742,8|0,1:0|0:0,0:0:0:0:
358,97,171275,6,0,B|390:109|390:109|392:106|392:106|449:129,1,93.500001783371,0|8,1:0|1:0,0:0:0:0:
512,169,171457,2,0,B|530:178|530:178|452:205,1,93.500001783371,8|0,0:0|0:0,0:0:0:0:
158,62,171639,1,0,1:0:0:0:
158,62,171730,1,8,1:0:0:0:
158,62,171821,6,0,B|187:-18|300:-14|300:-14|269:54,1,220,12|0,1:0|0:0,0:0:0:0:
256,172,172094,6,0,B|199:160|199:160|198:164|198:164|103:146,1,131.99999597168,12|0,0:0|0:0,0:0:0:0:
43,127,172366,6,0,P|11:87|23:36,1,98.9999969787599,12|0,1:0|0:0,0:0:0:0:
214,284,172548,5,0,0:0:0:0:
212,298,172639,2,0,L|200:382,1,82.5000031471254,2|0,0:2|0:0,0:0:0:0:
115,313,172912,6,0,L|74:320,3,41.2500015735627,2|2|2|2,0:2|0:2|0:2|0:2,0:0:0:0:
310,347,173275,6,0,P|342:381|390:376,1,98.9999969787599,14|0,0:1|0:0,0:0:0:0:
453,305,173457,2,0,P|493:277|491:222,1,98.9999969787599,10|2,1:0|0:2,0:0:0:0:
248,106,173639,6,0,P|270:155|317:165,1,98.9999969787599,10|0,1:0|0:0,0:0:0:0:
420,0,173821,2,0,P|376:31|376:79,1,98.9999969787599,10|0,1:0|0:0,0:0:0:0:
375,288,174003,5,10,1:0:0:0:
363,276,174094,2,0,L|242:251,2,98.9999969787599,2|10|2,0:2|1:0|0:2,0:0:0:0:
311,168,174366,5,10,1:0:0:0:
232,168,174456,1,0,0:0:0:0:
166,213,174547,1,10,1:0:0:0:
139,287,174638,1,0,0:0:0:0:
166,359,174730,6,0,B|171:386|171:386|-4:316,1,197.99999395752,10|10,1:0|1:0,0:0:0:0:
0,254,175003,1,2,0:2:0:0:
0,254,175094,2,0,P|22:212|71:204,1,98.9999969787599,10|2,1:0|0:2,0:0:0:0:
326,379,175275,2,0,P|278:370|256:328,1,98.9999969787599,10|2,1:1|0:2,0:0:0:0:
221,34,175457,1,10,1:0:0:0:
284,76,175548,1,0,0:0:0:0:
299,148,175639,1,10,0:0:0:0:
224,185,175730,6,2,B|185:176|185:176|181:178|181:178|132:170,1,76.9999976501466,0|0,0:0|2:0,1:0:0:0:
130,211,176185,6,0,P|177:218|228:167,1,98.9999969787599,14|0,0:1|0:0,0:0:0:0:
320,181,176366,2,0,P|330:129|298:91,1,98.9999969787599,10|2,1:0|0:2,0:0:0:0:
10,58,176548,6,0,P|30:106|85:116,1,98.9999969787599,10|2,1:0|0:2,0:0:0:0:
435,41,176730,2,0,P|385:7|327:15,1,98.9999969787599,10|0,1:0|0:0,0:0:0:0:
172,107,176912,5,10,1:0:0:0:
182,97,177003,2,0,L|195:-10,2,98.9999969787599,2|10|2,0:2|1:0|0:2,0:0:0:0:
71,119,177275,1,10,1:0:0:0:
107,189,177366,1,0,0:0:0:0:
175,228,177457,1,10,1:0:0:0:
254,232,177548,1,0,0:0:0:0:
320,181,177639,6,0,B|358:102|454:108|454:108|443:149,1,197.99999395752,10|10,1:0|1:0,0:0:0:0:
407,268,177912,1,2,0:2:0:0:
417,277,178003,6,0,L|405:209,2,65.9999979858399,2|2|2,1:0|1:0|1:0,0:0:0:0:
487,320,178185,2,0,L|475:384,2,65.9999979858399,2|2|0,1:0|1:0|0:0,0:0:0:0:
321,265,178366,6,0,B|277:257|277:257|275:260|275:260|198:246,1,121.000003692627,8|0,0:0|3:3,0:0:0:0:
38,380,178548,5,2,1:0:0:0:
116,373,178639,2,0,P|148:359|170:316,1,76.9999976501466,2|0,0:2|0:0,0:0:0:0:
204,247,179094,6,0,L|186:150,1,82.5000031471254,2|0,1:2|0:0,0:0:0:0:
175,150,179366,1,0,0:0:0:0:
214,47,179457,5,12,1:3:0:0:
284,24,179548,1,2,1:0:0:0:
354,47,179639,1,2,1:0:0:0:
398,106,179730,1,2,1:0:0:0:
405,122,179821,6,0,L|469:137,3,41.2500015735627,2|0|0|0,1:2|0:0|0:0|0:0,0:0:0:0:
255,359,180185,5,12,1:3:0:0:
275,282,180275,1,2,1:0:0:0:
327,221,180366,1,2,1:0:0:0:
402,196,180457,1,2,1:0:0:0:
411,214,180548,6,0,L|404:268,3,41.2500015735627,2|0|0|0,1:2|0:0|0:0|0:2,0:0:0:0:
255,359,180912,5,12,1:3:0:0:
176,345,181003,1,2,1:3:0:0:
96,333,181094,1,2,1:3:0:0:
17,322,181185,1,2,1:3:0:0:
14,307,181275,6,0,L|21:256,3,41.2500015735627,2|0|2|0,1:2|0:0|1:2|0:0,0:0:0:0:
149,191,181639,5,12,1:3:0:0:
138,104,181730,1,10,1:3:0:0:
90,32,181821,1,10,1:3:0:0:
10,2,181912,1,10,1:3:0:0:
0,109,182003,6,0,L|14:152,6,27.5,8|8|8|8|8|8|8,1:0|1:0|1:0|1:0|1:0|1:0|1:0,0:0:0:0:
17,220,182366,6,0,L|49:252,6,41.2500015735627,8|8|8|8|8|8|8,1:0|1:0|1:0|1:0|1:0|1:0|1:0,0:0:0:0:
95,326,182730,6,0,L|147:342,6,55,8|8|8|8|8|8|8,1:0|1:0|1:0|1:0|1:0|1:0|1:0,0:0:0:0:
226,367,183094,6,0,L|299:354,6,68.75,8|8|8|8|8|8|8,1:0|1:0|1:0|1:0|1:0|1:0|1:0,0:0:0:0:
376,372,183457,5,8,1:0:0:0:
446,336,183548,1,8,1:0:0:0:
487,259,183639,1,8,1:0:0:0:
487,147,183730,1,8,1:0:0:0:
398,231,183821,6,0,P|376:295|374:373,2,131.99999597168,8|8|8,1:0|1:0|1:0,0:0:0:0:
473,62,184185,5,8,1:0:0:0:
318,234,184366,5,8,1:0:0:0:
58,327,184548,5,8,1:0:0:0:
231,66,184730,6,0,B|235:13|288:-7|288:-7|282:40,1,131.99999597168,8|8,1:0|3:2,0:0:0:0:
256,192,185003,12,0,186185,2:0:0:0:
56,49,186366,5,10,0:2:0:0:
56,49,186548,2,0,P|61:85|103:116,1,82.5000031471254,8|10,0:0|0:2,0:0:0:0:
274,225,186730,6,0,B|268:185|268:185|269:181|269:181|259:127,1,82.5000031471254,2|0,0:0|0:0,0:0:0:0:
250,57,186912,1,10,0:2:0:0:
88,372,187094,5,8,0:0:0:0:
100,378,187185,2,0,P|167:379|203:323,1,121.000003692627,10|2,0:2|0:0,0:0:0:0:
424,51,187366,1,2,2:0:0:0:
424,51,187457,6,0,B|403:82|403:82|407:37,1,82.5000031471254,2|2,2:0|2:0,0:0:0:0:
512,268,187821,6,0,B|427:251|427:251|422:253|422:253|376:245|376:245|371:242|371:242|259:223,1,242.000007385254,12|4,1:0|1:2,0:0:0:0:
179,166,188094,1,8,1:0:0:0:
179,166,188185,2,0,L|206:305,1,121.000003692627,8|0,0:0|0:0,0:0:0:0:
216,384,188366,5,4,1:2:0:0:
36,100,188548,1,8,0:0:0:0:
32,88,188639,2,0,B|46:-3|158:-20|158:-20|143:88,1,242.000007385254,2|8,0:2|1:0,0:0:0:0:
179,166,188912,6,0,B|233:155|233:155|246:158|246:158|306:145,1,121.000003692627,8|0,0:0|0:0,0:0:0:0:
496,8,189094,2,0,P|443:24|421:94,1,121.000003692627,4|8,1:2|1:0,0:0:0:0:
512,383,189275,6,0,P|430:269|317:257,1,242.000007385254,8|4,0:0|1:2,0:0:0:0:
269,315,189548,1,8,1:0:0:0:
327,264,189639,1,8,0:0:0:0:
351,191,189730,1,0,0:0:0:0:
346,114,189821,1,4,1:2:0:0:
293,58,189912,1,8,1:0:0:0:
219,30,190003,6,0,B|259:70|259:70|63:34,1,242.000007385254,8|4,0:0|1:2,0:0:0:0:
0,185,190275,1,8,1:0:0:0:
10,192,190366,2,0,P|46:195|112:143,1,121.000003692627,8|0,0:0|0:0,0:0:0:0:
318,0,190548,1,4,1:2:0:0:
318,0,190639,1,8,1:0:0:0:
317,0,190730,6,0,P|262:95|278:234,1,242.000007385254,8|4,0:0|1:2,0:0:0:0:
388,376,191003,1,8,1:0:0:0:
399,297,191094,1,8,0:0:0:0:
350,232,191185,1,0,0:0:0:0:
272,222,191275,1,4,1:2:0:0:
22,364,191457,5,8,0:0:0:0:
37,360,191548,2,0,B|103:346|103:346|103:351|103:351|299:312,1,242.000007385254,2|8,0:2|1:0,0:0:0:0:
407,140,191821,2,0,P|356:178|351:238,1,121.000003692627,8|0,0:0|0:0,0:0:0:0:
512,384,192003,2,0,P|498:322|450:291,1,121.000003692627,4|8,1:2|1:0,0:0:0:0:
269,317,192185,6,0,P|271:265|204:82,1,242.000007385254,8|4,0:0|1:2,0:0:0:0:
309,35,192457,2,0,B|354:-10|354:-10|340:60,1,121.000003692627,8|8,1:0|0:0,0:0:0:0:
8,240,192639,1,0,0:0:0:0:
22,165,192730,2,0,B|39:110|39:110|102:73,1,121.000003692627,4|8,1:2|1:0,0:0:0:0:
349,231,192912,6,0,B|232:200|232:200|229:201|229:201|96:168,1,242.000007385254,8|4,0:0|1:2,0:0:0:0:
203,18,193185,5,8,1:0:0:0:
217,6,193275,2,0,L|206:107,1,82.5000031471254,2|0,0:0|0:0,0:0:0:0:
49,360,193639,6,0,B|11:325|11:325|219:366,1,242.000007385254,8|4,0:0|1:2,0:0:0:0:
283,380,193912,1,8,1:0:0:0:
283,380,194003,2,0,P|282:330|261:257,1,121.000003692627,8|0,0:0|0:0,0:0:0:0:
484,54,194185,2,0,P|495:99|440:156,1,121.000003692627,4|8,1:2|1:0,0:0:0:0:
131,156,194366,5,8,0:0:0:0:
140,141,194457,2,0,B|253:104|253:104|255:100|255:100|382:57,1,242.000007385254,2|8,0:2|1:0,0:0:0:0:
240,12,194730,2,0,B|176:9|176:9|251:52,1,121.000003692627,8|0,0:0|0:0,0:0:0:0:
501,236,194912,2,0,B|518:270|518:270|420:239,1,121.000003692627,4|8,1:2|1:0,0:0:0:0:
368,62,195094,6,0,P|317:157|323:301,1,242.000007385254,8|4,0:0|1:2,0:0:0:0:
353,377,195366,1,8,1:0:0:0:
321,306,195457,1,8,0:0:0:0:
256,263,195548,1,0,0:0:0:0:
178,255,195639,1,4,1:2:0:0:
111,292,195730,1,8,1:0:0:0:
57,354,195821,6,0,B|81:366|81:366|122:246|30:159,1,242.000007385254,8|4,0:0|1:2,0:0:0:0:
261,122,196094,2,0,P|212:232|105:293,1,242.000007385254,10|0,0:2|1:0,0:0:0:0:
16,87,196366,1,4,1:2:0:0:
16,87,196457,1,8,1:0:0:0:
16,87,196548,6,0,L|140:103,1,121.000003692627,12|0,0:1|0:0,0:0:0:0:
492,23,196730,1,4,1:2:0:0:
497,12,196821,1,8,1:0:0:0:
502,1,196912,2,0,L|375:40,1,121.000003692627,12|0,0:2|1:0,0:0:0:0:
207,58,197094,5,0,1:2:0:0:
203,46,197185,2,0,B|180:-10|180:-10|277:7,1,121.000003692627,12|0,0:0|0:0,0:0:0:0:
438,268,197366,1,8,1:2:0:0:
361,247,197457,1,8,1:2:0:0:
306,191,197548,1,8,0:0:0:0:
299,113,197639,6,0,P|350:113|404:166,1,121.000003692627,12|0,0:0|1:0,0:0:0:0:
308,374,197821,1,10,1:0:0:0:
308,374,197912,1,10,1:0:0:0:
308,374,198003,6,0,B|167:343|167:343|165:340|165:340|167:343|167:343|-22:301,1,307.999990600586,12|0,0:1|1:0,0:0:0:0:
3,314,198275,6,0,P|115:292|223:178,1,263.99999194336,12|0,0:0|1:0,0:0:0:0:
28,18,198548,2,0,P|33:76|119:130,1,153.999995300293,12|0,0:1|0:0,0:0:0:0:
306,191,198730,5,0,1:0:0:0:
296,182,198821,2,0,L|152:151,1,110,12|2,0:0|0:2,0:0:0:0:
170,80,199094,6,0,L|269:11,1,82.5000031471254,2|0,0:2|0:0,0:0:0:0:
467,196,199275,2,0,B|477:245|477:245|475:250|475:250|489:323,1,110,2|0,0:2|0:0,0:0:0:0:
185,380,199457,6,0,L|191:351,7,20.6250007867813,0|0|0|0|0|0|0|0,0:0|0:0|0:0|0:0|0:0|0:0|0:0|0:0,0:0:0:0:
196,279,199821,6,0,P|235:237|301:231,1,121.000003692627,14|0,0:1|0:0,0:0:0:0:
480,384,200003,1,4,1:2:0:0:
414,343,200094,1,8,1:0:0:0:
386,270,200185,1,8,0:0:0:0:
406,196,200275,6,0,B|454:228|454:228|417:22,1,242.000007385254,2|8,2:0|1:0,0:0:0:0:
294,33,200548,2,0,P|290:80|347:127,1,121.000003692627,8|0,0:0|0:0,0:0:0:0:
512,0,200730,2,0,P|438:9|414:61,1,121.000003692627,4|8,1:2|1:0,0:0:0:0:
386,270,200912,6,0,P|285:228|109:208,1,242.000007385254,8|4,0:0|1:2,0:0:0:0:
100,150,201185,1,8,1:0:0:0:
158,198,201275,1,8,0:0:0:0:
165,274,201366,1,0,0:0:0:0:
130,342,201457,1,4,1:2:0:0:
55,361,201548,1,8,1:0:0:0:
0,299,201639,6,0,B|9:216|9:216|15:211|15:211|34:44,1,242.000007385254,8|12,0:0|1:2,0:0:0:0:
154,2,201912,1,8,1:0:0:0:
154,2,202003,6,0,B|141:33|142:63|142:63|126:36|97:21,1,123.750004720688,6|0,0:0|0:0,0:0:0:0:
32,61,202366,6,0,P|131:108|263:28,1,242.000007385254,8|4,0:0|1:2,0:0:0:0:
342,1,202639,1,8,1:0:0:0:
323,75,202730,1,8,0:0:0:0:
308,150,202821,1,0,0:0:0:0:
296,226,202912,1,4,1:2:0:0:
512,371,203094,1,8,0:0:0:0:
512,371,203185,6,0,B|482:282|360:278|360:278|386:346,1,242.000007385254,2|8,0:2|1:0,0:0:0:0:
313,373,203457,2,0,B|262:363|262:363|258:367|258:367|193:355,1,121.000003692627,8|0,0:0|0:0,0:0:0:0:
0,141,203639,2,0,P|55:148|75:216,1,121.000003692627,4|8,1:2|1:0,0:0:0:0:
108,384,203821,6,0,P|100:332|143:265,1,121.000003692627,8|0,0:0|0:0,0:0:0:0:
410,37,204003,1,4,1:2:0:0:
371,107,204094,1,8,1:0:0:0:
303,153,204185,6,0,P|251:172|212:174,1,82.5,6|0,0:0|0:0,0:0:0:0:
149,126,204548,6,0,B|119:105|119:105|240:55|323:179,1,242.000007385254,12|0,0:0|1:0,0:0:0:0:
405,273,204821,6,0,P|370:257|356:211,1,82.5000031471254,14|0,1:0|1:0,0:0:0:0:
410,37,205094,2,0,L|404:92,1,41.2500015735627,12|0,0:0|1:0,0:0:0:0:
462,373,205275,5,12,1:0:0:0:
190,250,205457,1,10,1:0:0:0:
110,249,205548,1,10,1:0:0:0:
52,301,205639,5,10,1:0:0:0:
119,253,205730,1,10,1:0:0:0:
159,181,205821,2,0,B|167:132|167:132|163:130|163:130|175:53,1,110,10|0,1:0|0:0,0:0:0:0:
12,16,206003,6,0,B|-13:47|-13:47|111:17,1,165.000006294251,8|2,0:0|0:0,0:0:0:0:
179,59,206275,1,2,0:0:0:0:
249,25,206366,5,2,3:0:0:0:
259,28,206457,2,0,L|328:38,1,55,8|0,0:0|0:0,0:0:0:0:
444,259,206730,6,0,P|379:203|358:97,1,175.999994628906,12|0,1:0|0:0,0:0:0:0:
402,37,206912,2,0,B|427:21|427:21|415:44,2,55.0000020980836,8|0|0,1:0|1:0|1:0,0:0:0:0:
239,276,207094,1,10,1:0:0:0:
175,325,207185,1,10,1:0:0:0:
98,324,207275,2,0,P|68:256|125:259,1,153.999995300293,10|0,1:0|0:0,0:0:0:0:
356,119,207457,6,0,B|345:205|345:205|342:212|342:212|325:375,1,230.99999295044,2|0,0:0|0:0,0:0:0:0:
256,374,207639,6,0,L|198:389,2,41.2500015735627,8|8|8,0:0|0:0|0:0,0:0:0:0:
332,350,207821,6,0,L|431:321,1,82.5000031471254,2|8,0:0|0:0,0:0:0:0:
239,276,208003,2,0,P|207:251|202:198,1,82.5,0|0,0:0|2:0,0:0:0:0:
253,147,208185,6,0,B|273:195|273:195|93:131,1,242.000007385254,12|10,1:0|1:0,0:0:0:0:
40,194,208457,5,8,1:0:0:0:
57,111,208548,1,10,1:0:0:0:
110,48,208639,1,14,0:0:0:0:
192,32,208730,1,0,0:0:0:0:
252,111,208821,6,0,P|290:157|358:167,1,121.000003692627,12|0,1:0|0:0,0:0:0:0:
512,0,209003,1,8,1:0:0:0:
497,0,209094,2,0,P|440:26|421:85,1,121.000003692627,14|0,1:3|0:0,0:0:0:0:
466,378,209275,6,0,P|469:324|436:237,1,121.000003692627,14|0,1:0|0:0,0:0:0:0:
459,150,209457,1,8,1:0:0:0:
504,75,209548,1,8,1:0:0:0:
446,162,209639,6,0,P|362:215|224:255,1,220,12|2,1:0|0:2,0:0:0:0:
228,84,209911,1,0,1:0:0:0:
228,84,210003,2,0,B|249:41|249:41|246:103,1,82.5000031471254,0|2,0:0|0:2,0:0:0:0:
235,367,210185,6,0,P|157:285|-1:262,1,263.99999194336,0|2,1:0|0:2,0:0:0:0:
14,270,210457,6,0,P|135:230|191:154,1,197.99999395752,0|2,1:0|0:2,0:0:0:0:
228,84,210730,6,0,P|212:37|148:23,1,104.499997209549,0|0,1:0|1:0,0:0:0:0:
302,126,210912,2,0,P|336:72|329:20,1,104.499997209549,0|0,1:0|1:0,0:0:0:0:
481,323,211094,6,0,B|403:296|403:296|404:299|404:299|332:275|332:275|334:275|334:275|307:216|307:216|306:220|306:220|178:264|178:264|173:262|173:262|172:266|172:266|9:318|9:318|12:316|12:316|72:346|72:346|76:344|76:344|144:379|144:379|165:285|67:222|67:222|71:174|71:174|74:176|74:176|80:114,1,1000.99995417786,8|0,2:0|2:0,0:0:0:0:
2,12,211821,6,0,P|3:44|25:67,1,65.9999979858399,2|0,0:2|0:0,0:0:0:0:
118,44,212003,1,2,0:2:0:0:
118,44,212094,2,0,P|95:83|99:123,1,65.9999979858399,0|2,0:0|0:2,0:0:0:0:
151,163,212275,1,2,0:2:0:0:
158,150,212366,2,0,L|240:134,1,65.9999979858399,2|0,0:2|0:0,0:0:0:0:
458,58,212548,5,2,0:2:0:0:
458,58,212639,1,2,0:2:0:0:
458,58,212730,2,0,P|448:102|446:158,1,98.9999969787599,2|0,0:2|0:0,0:0:0:0:
355,141,212912,1,2,0:2:0:0:
355,141,213003,1,2,0:2:0:0:
355,141,213094,2,0,P|365:98|366:43,1,98.9999969787599,2|0,0:2|0:0,0:0:0:0:
512,329,213275,6,0,P|472:284|416:277,1,115.49999647522,0|0,1:0|0:0,0:0:0:0:
155,384,213457,5,0,1:0:0:0:
216,299,213548,1,0,0:0:0:0:
132,306,213639,5,0,1:0:0:0:
210,286,213730,1,0,1:0:0:0:
275,245,213821,6,0,P|290:223|294:192,1,41.2500015735627,0|0,1:0|0:0,0:0:0:0:
300,179,214003,6,0,B|315:209|315:209|104:167,1,242.000007385254,12|4,0:1|1:2,0:0:0:0:
0,86,214275,1,8,1:0:0:0:
0,86,214366,2,0,B|40:-10|153:-3|153:-3|135:51,1,242.000007385254,8|4,0:0|1:2,0:0:0:0:
243,118,214639,5,8,1:0:0:0:
243,118,214730,2,0,B|236:69|236:69|239:67|239:67|229:-2,1,121.000003692627,8|0,0:0|0:0,0:0:0:0:
0,294,214912,2,0,P|62:287|97:241,1,121.000003692627,4|8,1:2|1:0,0:0:0:0:
136,45,215094,5,8,0:0:0:0:
146,124,215185,1,0,0:0:0:0:
191,188,215275,1,4,1:2:0:0:
265,218,215366,1,8,1:0:0:0:
338,175,215457,6,0,B|503:124|503:124|468:148|464:219,1,242.000007385254,8|4,0:0|1:2,0:0:0:0:
392,381,215730,1,8,1:0:0:0:
392,364,215821,2,0,L|412:229,1,121.000003692627,8|0,0:0|0:0,0:0:0:0:
310,0,216003,2,0,P|324:56|394:93,1,121.000003692627,4|8,1:2|1:0,0:0:0:0:
468,182,216185,6,0,B|357:164|357:164|356:160|356:160|227:137,1,242.000007385254,8|4,0:0|1:2,0:0:0:0:
99,46,216457,1,8,1:0:0:0:
174,23,216548,1,8,0:0:0:0:
250,0,216639,1,0,0:0:0:0:
235,77,216730,1,4,1:2:0:0:
220,155,216821,1,8,1:0:0:0:
205,233,216912,6,0,L|229:371,1,121.000003692627,8|0,0:0|0:0,0:0:0:0:
457,384,217094,1,4,1:2:0:0:
419,317,217185,1,8,1:0:0:0:
354,281,217275,1,8,0:0:0:0:
279,287,217366,1,0,0:0:0:0:
225,352,217457,6,0,B|259:387|259:387|61:360,1,242.000007385254,4|8,1:2|0:0,0:0:0:0:
39,287,217730,1,0,0:0:0:0:
94,228,217821,2,0,P|100:162|117:100,1,121.000003692627,4|8,1:2|1:0,0:0:0:0:
0,0,218003,6,0,P|-4:53|38:106,1,121.000003692627,8|0,0:0|0:0,0:0:0:0:
281,22,218185,2,0,P|226:22|176:67,1,121.000003692627,4|8,1:2|1:0,0:0:0:0:
94,228,218366,6,0,B|180:213|180:213|191:216|191:216|350:188,1,242.000007385254,8|4,0:0|1:2,0:0:0:0:
408,150,218639,1,8,1:0:0:0:
346,199,218730,1,8,0:0:0:0:
320,273,218821,1,0,0:0:0:0:
339,349,218912,6,0,B|382:376|382:376|434:279|346:162,1,242.000007385254,4|8,1:2|0:0,0:0:0:0:
485,163,219185,1,0,0:0:0:0:
485,163,219275,2,0,B|503:206|503:206|415:232,1,121.000003692627,4|8,1:2|1:0,0:0:0:0:
97,0,219457,2,0,P|166:-9|194:32,1,121.000003692627,8|0,0:0|0:0,0:0:0:0:
80,189,219639,2,0,P|75:131|121:96,1,121.000003692627,4|8,1:2|1:0,0:0:0:0:
295,0,219821,6,0,B|290:49|290:49|287:49|287:49|272:192,1,165.000006294251,8|12,0:0|1:2,0:0:0:0:
309,287,220094,1,0,1:0:0:0:
298,275,220185,2,0,P|213:215|26:195,1,242.000007385254,8|4,0:0|1:2,0:0:0:0:
381,375,220548,5,8,0:0:0:0:
381,375,220639,2,0,P|417:335|495:325,1,121.000003692627,0|4,0:0|1:2,0:0:0:0:
333,138,220821,1,8,1:0:0:0:
402,81,220912,6,0,B|429:44|429:44|396:264,1,242.000007385254,8|6,0:0|1:2,0:0:0:0:
44,372,221275,5,12,1:3:0:0:
87,295,221366,1,8,1:3:0:0:
166,261,221457,1,0,0:0:0:0:
135,362,221548,6,0,B|99:368|99:368|95:371|95:371|35:380,1,82.5000031471254,0|0,0:0|0:0,0:0:0:0:
104,209,221821,5,12,1:3:0:0:
121,126,221912,1,8,1:3:0:0:
98,44,222003,1,0,0:0:0:0:
23,4,222094,1,0,0:0:0:0:
96,53,222185,6,0,P|195:42|294:0,1,181.500005538941,0|0,0:0|0:0,2:0:0:0:
261,12,222366,6,0,P|213:57|234:126,1,121.000003692627,12|8,1:3|1:3,0:0:0:0:
391,185,222548,2,0,P|357:138|288:134,1,121.000003692627,2|2,1:3|1:3,0:0:0:0:
87,295,222730,6,0,P|187:251|324:237,1,242.000007385254,12|4,0:1|1:2,0:0:0:0:
418,316,223003,1,8,1:0:0:0:
418,316,223094,2,0,B|425:352|425:352|338:332,1,121.000003692627,8|0,0:0|0:0,0:0:0:0:
298,131,223275,6,0,L|290:96,1,20.6250007867813,14|8,1:3|2:0,0:0:0:0:
432,26,223639,2,0,L|434:4,1,20.6250007867813,14|0,1:3|2:0,0:0:0:0:
398,171,224003,6,0,B|419:200|419:200|192:153,1,247.500009441376,12|0,0:0|2:0,0:0:0:0:
126,154,224366,6,0,L|111:74,2,80.6666691284181,8|8|8,0:0|0:0|0:0,0:0:0:0:
253,0,224548,6,0,P|237:63|177:92,1,121.000003692627,12|0,0:1|0:0,0:0:0:0:
13,0,224730,2,0,P|79:17|109:65,1,121.000003692627,4|8,1:2|1:0,0:0:0:0:
186,262,224912,5,8,0:0:0:0:
186,262,225003,1,0,0:0:0:0:
186,262,225094,2,0,B|174:323|174:323|178:324|178:324|165:410,1,121.000003692627,4|8,1:2|1:0,0:0:0:0:
24,267,225275,5,8,0:0:0:0:
58,196,225366,1,0,1:0:0:0:
126,154,225457,1,12,1:2:0:0:
203,145,225548,1,0,1:0:0:0:
263,200,225639,6,0,P|290:251|356:265,1,121.000003692627,8|0,0:0|0:0,0:0:0:0:
502,6,225821,2,0,P|452:32|441:105,1,121.000003692627,4|8,1:2|1:0,0:0:0:0:
417,364,226003,6,0,B|456:379|456:379|508:276|415:189,1,242.000007385254,8|4,0:0|1:2,0:0:0:0:
63,45,226366,5,8,0:0:0:0:
102,105,226457,1,0,0:0:0:0:
167,137,226548,1,4,1:2:0:0:
239,137,226639,1,8,1:0:0:0:
277,4,226730,5,8,0:0:0:0:
247,12,226821,1,0,1:0:0:0:
225,33,226912,1,4,1:2:0:0:
220,63,227003,1,8,1:0:0:0:
239,137,227094,6,0,B|171:228|210:336|210:336|264:314,1,242.000007385254,8|6,0:0|1:2,0:0:0:0:
312,381,227366,5,8,1:0:0:0:
312,381,227457,2,0,B|379:386|379:386|334:357,1,121.000003692627,8|8,0:0|0:0,0:0:0:0:
106,144,227639,2,0,B|57:167|57:167|94:229,1,121.000003692627,14|8,1:2|1:0,0:0:0:0:
239,324,227821,5,8,0:0:0:0:
299,278,227912,1,8,0:0:0:0:
373,270,228003,1,14,1:3:0:0:
435,306,228094,1,10,1:3:0:0:
465,380,228185,5,10,1:3:0:0:
448,303,228275,1,10,1:1:0:0:
432,227,228366,1,10,1:3:0:0:
416,151,228457,1,10,1:3:0:0:
474,73,228548,6,0,B|523:23|523:23|497:220,1,242.000007385254,12|4,0:1|1:2,0:0:0:0:
356,204,228821,1,8,1:0:0:0:
345,194,228912,2,0,B|292:181|292:181|289:185|289:185|210:169,1,121.000003692627,8|0,0:0|0:0,0:0:0:0:
16,120,229094,6,0,L|5:87,1,20.6250007867813,12|0,1:3|2:2,0:0:0:0:
161,0,229457,2,0,L|158:20,1,20.6250007867813,12|0,1:3|0:2,0:0:0:0:
1,345,229821,6,0,B|51:273|51:273|152:248|152:248|127:282|128:319,1,247.500009441376,12|0,1:3|0:0,0:0:0:0:
223,384,230185,6,0,P|225:347|209:293,2,80.6666691284181,8|8|8,0:0|0:0|0:0,0:0:0:0:
65,222,230366,6,0,B|67:278|67:278|128:297,1,121.000003692627,12|0,0:1|0:0,0:0:0:0:
325,118,230548,2,0,B|260:124|260:124|246:178,1,121.000003692627,4|8,1:2|1:0,0:0:0:0:
228,384,230730,5,8,0:0:0:0:
228,384,230821,1,0,0:0:0:0:
228,383,230912,2,0,P|274:346|332:331,1,121.000003692627,4|8,1:2|1:0,0:0:0:0:
479,127,231094,1,8,0:0:0:0:
418,167,231185,1,0,0:0:0:0:
392,234,231275,1,4,1:2:0:0:
396,306,231366,1,8,1:0:0:0:
441,366,231457,6,0,B|482:356|482:356|435:143,1,242.000007385254,8|4,0:0|1:2,0:0:0:0:
512,0,231730,1,8,1:0:0:0:
512,0,231821,2,0,P|523:88|452:9,1,242.000007385254,8|0,0:0|0:0,0:0:0:0:
202,2,232185,5,8,0:0:0:0:
202,2,232275,2,0,B|213:54|213:54|217:60|217:60|233:144,1,121.000003692627,0|4,0:0|1:2,0:0:0:0:
55,160,232457,1,8,1:0:0:0:
52,144,232548,2,0,P|56:85|111:48,1,121.000003692627,8|0,0:0|0:0,0:0:0:0:
417,166,232730,2,0,P|351:174|310:128,1,121.000003692627,4|8,1:2|1:0,0:0:0:0:
202,2,232912,6,0,L|286:19,1,55,2|0,0:2|0:0,0:0:0:0:
228,119,233094,5,14,0:0:0:0:
192,180,233185,1,0,1:0:0:0:
207,250,233275,1,0,1:0:0:0:
173,318,233366,5,14,0:0:0:0:
227,366,233457,1,0,1:0:0:0:
298,366,233547,1,0,1:0:0:0:
408,257,233639,5,14,0:0:0:0:
346,218,233730,1,0,1:0:0:0:
273,214,233821,1,0,1:1:0:0:
207,250,233912,1,14,0:0:0:0:
173,318,234003,2,0,P|136:366|51:372,1,121.000003692627,14|0,1:0|0:0,0:0:0:0:
163,65,234185,2,0,L|172:-4,2,60.5000018463135,2|2|2,1:0|1:0|1:0,0:0:0:0:
48,161,234366,6,0,B|20:205|20:205|231:153,1,242.000007385254,14|2,0:0|1:0,0:0:0:0:
319,0,234639,1,12,0:1:0:0:
319,0,234730,2,0,P|263:26|248:103,1,121.000003692627,0|0,0:0|0:0,0:0:0:0:
369,274,234912,6,0,B|375:218|375:218|373:213|373:213|383:139,1,121.000003692627,14|0,0:0|0:0,0:0:0:0:
45,1,235094,1,8,0:0:0:0:
45,1,235185,2,0,P|84:91|213:161,1,242.000007385254,14|8,0:0|0:0,0:0:0:0:
501,141,235457,6,0,B|432:44|327:76|327:76|365:140,1,242.000007385254,14|8,0:0|0:0,0:0:0:0:
240,309,235730,1,12,0:1:0:0:
250,297,235821,2,0,L|379:271,1,121.000003692627,0|0,0:0|0:0,0:0:0:0:
501,141,236003,5,14,0:0:0:0:
165,380,236185,1,8,0:0:0:0:
126,365,236275,1,0,0:0:0:0:
108,327,236366,5,2,0:0:0:0:
120,253,236457,1,8,0:0:0:0:
180,205,236548,1,2,0:0:0:0:
205,132,236639,1,2,0:0:0:0:
182,58,236730,1,8,0:0:0:0:
109,30,236821,1,2,0:0:0:0:
37,59,236912,5,10,0:0:0:0:
28,73,237003,2,0,L|48:174,1,82.5000031471254,2|0,0:0|0:0,0:0:0:0:
329,344,237185,1,2,0:0:0:0:
313,330,237275,6,0,P|199:278|70:266,1,242.000007385254,14|8,0:0|0:0,0:0:0:0:
13,332,237548,1,12,0:1:0:0:
13,332,237639,2,0,B|-21:371|-21:371|63:339,1,121.000003692627,0|0,0:0|0:0,0:0:0:0:
346,90,237821,6,0,B|333:180|333:180|334:188|334:188|310:348,1,242.000007385254,14|8,0:0|0:0,0:0:0:0:
390,377,238094,2,0,P|446:358|480:305,1,121.000003692627,14|0,0:0|0:0,0:0:0:0:
406,31,238275,1,8,0:0:0:0:
346,90,238366,6,0,P|227:142|87:157,1,242.000007385254,14|8,0:0|0:0,0:0:0:0:
13,332,238639,1,12,0:1:0:0:
13,332,238730,2,0,P|75:314|90:252,1,121.000003692627,0|0,0:0|0:0,0:0:0:0:
8,0,238912,2,0,P|2:59|43:106,1,121.000003692627,14|0,0:0|0:0,0:0:0:0:
267,211,239094,6,0,L|279:121,1,55,2|8,0:0|0:0,0:0:0:0:
214,51,239275,2,0,L|221:105,1,55,2|0,0:0|0:0,0:0:0:0:
367,322,239457,5,8,0:0:0:0:
438,324,239548,1,8,0:0:0:0:
493,279,239639,1,2,0:0:0:0:
505,208,239730,1,8,0:0:0:0:
402,119,239821,5,10,0:0:0:0:
389,150,239912,1,2,0:0:0:0:
394,185,240003,1,8,0:0:0:0:
414,211,240094,1,2,0:0:0:0:
505,208,240185,6,0,P|410:166|251:159,1,242.000007385254,14|8,0:0|0:0,0:0:0:0:
174,3,240457,1,12,0:1:0:0:
186,0,240548,2,0,B|241:-19|241:-19|232:52,1,121.000003692627,0|0,0:0|0:0,0:0:0:0:
180,328,240730,6,0,B|169:248|169:248|165:252|165:252|138:83,1,242.000007385254,14|8,0:0|0:0,0:0:0:0:
45,76,241003,2,0,P|10:52|37:84,1,121.000003692627,14|0,0:0|0:0,0:0:0:0:
247,280,241185,1,8,0:0:0:0:
180,328,241275,6,0,B|159:369|159:369|236:323|344:307,1,242.000007385254,14|8,0:0|0:0,0:0:0:0:
512,365,241548,1,12,0:1:0:0:
499,360,241639,2,0,P|452:321|447:250,1,121.000003692627,0|0,0:0|0:0,0:0:0:0:
475,17,241821,6,0,P|354:124|342:250,1,242.000007385254,14|2,0:0|0:0,0:0:0:0:
247,280,242094,5,8,0:0:0:0:
247,280,242185,2,0,L|234:200,1,55,0|2,0:0|0:0,0:0:0:0:
125,7,242366,5,8,0:0:0:0:
51,21,242457,1,2,0:0:0:0:
5,79,242548,1,8,0:0:0:0:
0,152,242639,1,8,0:0:0:0:
81,169,242730,5,10,0:0:0:0:
87,212,242821,1,2,0:0:0:0:
114,246,242912,1,8,0:0:0:0:
155,260,243003,1,2,0:0:0:0:
238,225,243094,6,0,B|285:149|394:159|394:159|368:235,1,242.000007385254,14|8,0:0|0:0,0:0:0:0:
437,364,243366,1,12,0:1:0:0:
428,355,243457,2,0,P|381:332|300:330,1,121.000003692627,0|0,0:0|0:0,0:0:0:0:
280,4,243639,6,0,P|358:114|369:248,1,242.000007385254,14|8,0:0|0:0,0:0:0:0:
229,359,243912,2,0,B|201:307|201:307|257:273,1,121.000003692627,14|0,0:0|0:0,0:0:0:0:
445,160,244094,5,8,0:0:0:0:
372,217,244185,2,0,P|215:259|116:262,1,247.500009441376,12|8,0:0|0:0,0:0:0:0:
51,221,244548,6,0,L|64:154,1,55,8|0,0:2|0:0,0:0:0:0:
180,142,244730,6,0,L|222:50,1,82.5000031471254,2|0,0:2|0:0,0:0:0:0:
344,83,244912,6,0,L|441:12,1,110,2|0,0:2|0:0,0:0:0:0:
492,326,245094,6,0,P|475:376|451:289,1,214.49999018097,2|0,0:2|2:0,0:0:0:0:
372,217,245457,6,0,B|440:200|440:200|440:197|440:197|444:199|444:199|525:180,1,142.99999345398,2|0,0:2|2:0,0:0:0:0:
507,184,246003,6,0,P|487:141|470:134,1,55,2|0,0:2|0:0,0:0:0:0:
475,57,246185,2,0,P|427:48|412:58,1,55,2|0,0:2|0:0,0:0:0:0:
335,4,246366,5,14,0:0:0:0:
257,7,246457,1,2,0:0:0:0:
192,48,246548,1,2,0:0:0:0:
163,119,246639,1,2,0:0:0:0:
171,144,246730,6,0,L|162:206,3,55,2|0|2|0,0:2|0:0|0:2|0:0,0:0:0:0:
6,227,247094,5,14,0:0:0:0:
84,230,247185,1,2,0:0:0:0:
149,271,247276,1,2,0:0:0:0:
178,342,247367,1,2,0:0:0:0:
196,359,247457,6,0,L|255:369,3,55,2|0|2|0,0:2|0:0|0:2|0:0,0:0:0:0:
384,384,247821,5,14,0:0:0:0:
373,307,247912,1,2,0:0:0:0:
363,230,248003,1,2,0:0:0:0:
353,154,248094,1,2,0:0:0:0:
369,134,248185,6,0,L|437:145,3,55,0|0|0|0,1:0|1:0|1:0|1:0,0:0:0:0:
252,53,248548,5,14,0:0:0:0:
223,130,248639,1,2,0:0:0:0:
162,185,248730,1,2,0:0:0:0:
80,200,248821,1,2,0:0:0:0:
58,188,248912,6,0,L|45:103,7,68.75,8|8|8|8|8|8|8|8,1:0|1:0|1:0|1:0|1:0|1:0|1:0|1:0,0:0:0:0:
138,110,249275,6,0,L|165:29,7,82.5000031471254,8|8|8|8|8|8|8|8,1:0|1:0|1:0|1:0|1:0|1:0|1:0|1:0,0:0:0:0:
251,76,249639,6,0,L|343:-13,7,110,8|8|8|8|8|8|8|8,1:0|1:0|1:0|1:0|1:0|1:0|1:0|1:0,0:0:0:0:
381,63,250003,6,0,L|527:17,7,110,8|8|8|8|8|8|8|8,1:0|1:0|1:0|1:0|1:0|1:0|1:0|1:0,1:0:0:0:
309,142,250366,6,0,B|275:192|275:192|267:272,1,131.99999597168,2|0,1:2|0:0,0:0:0:0:
201,337,250639,2,0,P|269:308|370:284,1,165.000006294251,2|0,1:2|0:0,0:0:0:0:
459,317,250912,6,0,P|480:347|445:324,1,110,2|0,1:2|0:0,0:0:0:0:
309,142,251185,2,0,L|400:164,1,82.5000031471254,2|0,1:2|0:0,0:0:0:0:
463,179,251366,1,0,0:2:0:0:
277,4,251457,5,10,0:2:0:0:
189,33,251578,5,10,0:2:0:0:
143,107,251700,5,10,0:2:0:0:
156,127,251821,6,0,B|163:161|163:161|166:166|166:166|174:211,1,82.5,8|0,1:0|2:0,0:0:0:0:
358,233,252185,6,0,P|322:192|242:193,1,121.000003692627,12|0,0:1|0:0,0:0:0:0:
17,336,252366,2,0,P|75:331|116:288,1,121.000003692627,10|8,1:0|0:0,0:0:0:0:
17,30,252548,5,8,0:0:0:0:
11,17,252639,2,0,L|147:44,1,121.000003692627,2|8,1:0|0:0,0:0:0:0:
470,97,252821,1,10,1:0:0:0:
475,83,252912,2,0,L|327:104,1,121.000003692627,8|0,1:0|0:0,0:0:0:0:
173,207,253094,1,10,1:1:0:0:
173,207,253154,2,0,B|135:200|135:200|164:165,1,80.6666691284181,8|8,0:0|0:0,0:0:0:0:
267,50,253275,6,0,P|227:158|238:344,1,242.000007385254,8|0,0:0|1:0,0:0:0:0:
452,384,253548,1,10,1:0:0:0:
422,317,253639,1,8,0:0:0:0:
364,270,253730,1,8,0:0:0:0:
292,257,253821,1,2,1:0:0:0:
224,284,253912,1,10,1:0:0:0:
184,344,254003,6,0,B|219:380|219:380|16:350,1,242.000007385254,8|10,0:0|1:1,0:0:0:0:
103,219,254275,6,0,L|114:288,1,49.4999984893799,8|0,0:0|0:0,0:0:0:0:
95,210,254548,6,0,L|79:122,1,55,2|0,0:2|0:0,0:0:0:0:
404,51,254730,5,8,0:0:0:0:
404,51,254821,2,0,B|395:108|395:108|333:94,1,121.000003692627,10|0,1:0|1:2,0:0:0:0:
3,50,255003,1,8,0:0:0:0:
78,63,255094,2,0,P|169:48|308:-4,1,242.000007385254,10|8,1:0|1:2,0:0:0:0:
398,145,255366,6,0,P|303:180|343:92,1,242.000007385254,10|0,1:0|0:0,0:0:0:0:
494,37,255639,1,10,1:0:0:0:
494,37,255730,2,0,L|480:186,1,121.000003692627,8|0,1:0|0:0,0:0:0:0:
365,352,255912,1,8,0:0:0:0:
362,339,256003,2,0,L|351:259,3,60.5000018463135,2|0|0|0,1:0|0:0|0:0|0:0,0:0:0:0:
475,349,256185,6,0,P|334:310|201:313,1,242.000007385254,14|0,1:3|0:0,0:0:0:0:
195,124,256457,2,0,P|315:183|354:293,1,242.000007385254,14|0,1:3|0:0,0:0:0:0:
170,377,256730,1,14,1:0:0:0:
120,323,256821,1,0,0:0:0:0:
51,294,256912,6,0,L|-3:306,1,41.2500015735627,10|0,0:0|0:0,0:0:0:0:
75,136,257094,2,0,L|84:65,1,41.2500015735627,8|0,1:3|0:0,0:0:0:0:
63,216,257275,5,2,1:3:0:0:
26,36,257457,2,0,L|18:-24,2,36.6666666666667,8|8|8,1:0|1:0|1:0,0:0:0:0:
80,95,257639,6,0,P|217:165|332:151,1,242.000007385254,12|0,0:1|1:0,0:0:0:0:
412,0,257912,1,10,1:0:0:0:
412,0,258003,2,0,B|349:-14|349:-14|330:60,1,121.000003692627,8|0,0:0|1:0,0:0:0:0:
386,318,258185,6,0,P|386:189|420:76,1,242.000007385254,2|8,1:0|0:0,0:0:0:0:
301,160,258457,2,0,P|300:222|361:258,1,121.000003692627,0|10,1:0|0:0,0:0:0:0:
512,384,258639,1,8,1:0:0:0:
439,370,258730,6,0,L|323:345,1,82.5000031471254,0|10,0:0|1:0,0:0:0:0:
287,318,259003,1,10,1:0:0:0:
224,355,259094,6,0,P|191:376|143:365,1,80.6666691284181,14|0,0:0|2:0,0:0:0:0:
133,368,259230,6,0,P|98:349|84:303,1,80.6666691284181,8|0,0:0|2:0,0:0:0:0:
68,294,259366,6,0,P|66:254|99:219,1,80.6666691284181,8|0,0:0|2:0,0:0:0:0:
114,214,259457,6,0,B|204:223|204:223|203:227|203:227|341:243,1,183.333333333333,14|8,0:1|0:0,0:0:0:0:
455,293,259730,1,8,0:0:0:0:
369,76,259821,5,14,0:0:0:0:
452,133,259957,5,8,0:0:0:0:
479,221,260094,5,14,0:0:0:0:
444,291,260185,6,0,L|355:279,1,82.5,2|0,0:2|2:0,0:0:0:0:
291,236,260548,6,0,P|279:138|324:22,1,220,12|0,0:1|1:0,0:0:0:0:
228,0,260821,1,10,1:0:0:0:
228,0,260912,2,0,B|175:-15|175:-15|216:33,1,110,8|2,0:0|1:0,0:0:0:0:
452,133,261094,2,0,B|438:80|438:80|367:94,1,110,8|8,1:2|0:0,0:0:0:0:
135,289,261275,6,0,B|192:186|307:204|307:204|268:276,1,242.000007385254,12|0,0:1|1:0,0:0:0:0:
190,368,261548,2,0,P|122:321|43:301,1,165.000006294251,10|8,0:0|0:0,0:0:0:0:
4,214,261821,6,0,B|1:171|1:171|27:206,1,82.5000031471254,2|10,1:1|1:0,0:0:0:0:
214,369,262003,6,0,L|330:349,1,82.5000031471254,12|0,0:0|1:2,0:0:0:0:
406,372,262185,1,2,1:0:0:0:
411,357,262275,2,0,L|461:126,1,220,12|2,1:0|0:0,0:0:0:0:
278,22,262548,2,0,B|261:78|261:78|320:95,1,121.000003692627,12|8,1:0|1:0,0:0:0:0:
457,141,262730,6,0,B|339:165|339:165|341:169|341:169|191:195,1,263.99999194336,10|2,0:1|1:2,0:0:0:0:
13,29,263003,2,0,P|95:103|108:211,1,197.99999395752,12|0,0:1|0:0,0:0:0:0:
49,329,263275,6,2,P|42:275|36:334,1,156.749995814324,10|0,0:0|0:0,0:1:0:0:
49,329,263639,6,0,L|184:301,1,82.5000031471254,8|8,0:0|2:0,0:0:0:0:
210,251,263821,6,0,L|381:285,1,121.000003692627,8|8,0:0|0:0,0:0:0:0:
456,353,264003,6,0,B|446:274|446:274|442:268|442:268|417:91,1,242.000007385254,12|2,0:1|1:0,0:0:0:0:
480,46,264275,1,0,0:0:0:0:
480,46,264366,2,0,B|537:18|537:18|501:93,1,121.000003692627,10|0,1:0|1:0,0:0:0:0:
328,274,264548,2,0,P|229:156|115:119,1,242.000007385254,12|0,0:0|1:0,0:0:0:0:
41,152,264821,5,10,1:0:0:0:
53,156,264912,2,0,B|146:136|146:136|160:141|160:141|312:107,1,242.000007385254,12|8,0:1|1:2,0:0:0:0:
386,9,265185,1,2,1:0:0:0:
376,80,265275,1,8,0:0:0:0:
366,151,265366,1,2,0:0:0:0:
356,222,265457,1,8,1:3:0:0:
346,293,265548,1,8,1:0:0:0:
386,367,265639,6,0,B|328:245|202:264|202:264|266:352,1,275,12|10,0:0|1:0,0:0:0:0:
90,378,265912,2,0,P|234:306|361:293,1,275,12|10,0:0|1:0,0:0:0:0:
456,334,266185,2,0,B|523:345|523:345|462:290,1,137.5,14|0,0:0|1:0,0:0:0:0:
47,261,266366,6,0,L|129:200,1,82.5000031471254,8|0,0:0|0:0,0:0:0:0:
86,81,266548,6,0,L|204:111,1,82.5000031471254,8|8,0:0|0:0,0:0:0:0:
249,0,266730,5,12,0:1:0:0:
249,0,266821,1,10,0:0:0:0:
249,0,266912,2,0,B|256:45|256:45|261:50|261:50|273:125,1,121.000003692627,10|0,1:0|1:0,0:0:0:0:
471,298,267094,1,8,0:0:0:0:
412,250,267185,2,0,P|351:209|267:220,1,121.000003692627,14|0,0:0|1:2,0:0:0:0:
86,335,267366,1,8,1:3:0:0:
161,350,267457,6,0,L|244:334,1,82.5,8|0,0:0|2:0,0:0:0:0:
242,334,268912,6,2,P|151:329|59:288,1,165,8|0,0:0|2:0,0:1:0:0:
27,238,269275,6,0,L|7:110,1,82.5000031471254,12|0,0:1|1:0,0:0:0:0:
230,21,269457,1,0,1:0:0:0:
230,21,269548,1,0,1:0:0:0:
230,21,269639,2,0,P|239:59|215:101,1,82.5000031471254,8|0,0:0|1:0,0:0:0:0:
14,156,269821,6,0,P|67:100|175:78,1,165.000006294251,0|8,1:0|0:0,0:0:0:0:
220,96,270094,2,0,P|278:146|387:159,1,165.000006294251,0|0,1:0|1:0,0:0:0:0:
442,130,270366,6,0,B|459:91|459:91|419:113,1,82.5000031471254,8|0,0:0|1:0,0:0:0:0:
272,258,270548,2,0,L|351:230,1,55,0|0,1:0|1:0,0:0:0:0:
362,162,270730,6,0,L|341:372,1,165.000006294251,8|0,0:0|1:0,0:0:0:0:
428,384,271003,5,0,1:0:0:0:
369,338,271094,1,8,0:0:0:0:
303,337,271185,1,0,1:0:0:0:
259,363,271275,2,0,P|220:364|175:317,1,82.5000031471254,0|0,1:0|1:0,0:0:0:0:
0,92,271457,6,0,P|79:148|114:259,1,197.99999395752,8|0,0:0|1:0,0:0:0:0:
83,327,271730,1,0,1:0:0:0:
73,332,271821,2,0,B|26:318|26:318|17:261,1,98.9999969787599,8|0,0:0|1:0,0:0:0:0:
252,0,272003,2,0,L|230:108,1,98.9999969787599,0|0,1:0|1:0,0:0:0:0:
113,239,272185,6,0,L|190:221,7,49.4999984893799,8|8|8|8|8|8|8|8,1:3|1:3|1:3|1:3|1:3|1:3|1:3|1:0,0:0:0:0:
200,158,272548,6,0,L|304:183,7,63.250001206398,8|8|8|8|8|8|8|8,1:3|1:3|1:3|1:3|1:3|1:3|1:3|1:0,0:0:0:0:
332,123,272912,6,0,L|413:193,7,76.9999976501466,8|8|8|8|8|8|8|8,1:3|1:3|1:3|1:3|1:3|1:3|1:3|1:0,0:0:0:0:
469,143,273275,6,0,L|509:243,6,90.7500008654595,8|8|8|8|8|8|8,1:3|1:3|1:3|1:3|1:3|1:3|1:3,0:0:0:0:
469,361,273639,5,0,0:0:0:0:
469,361,273821,2,0,L|404:350,1,55,2|0,0:2|0:0,0:0:0:0:
333,299,274003,1,2,0:2:0:0:
333,299,274094,1,2,0:2:0:0:
333,299,274185,2,0,L|258:313,1,55,2|0,0:2|0:0,0:0:0:0:
203,367,274366,1,2,0:2:0:0:
203,367,274457,1,2,0:2:0:0:
203,367,274548,6,0,P|181:351|172:325,1,55,2|0,0:2|0:0,0:0:0:0:
234,162,274730,6,0,P|234:118|256:88,1,82.5000031471254,2|0,1:2|0:0,0:0:0:0:
418,60,274912,6,0,P|457:23|511:16,1,110,2|0,1:2|0:0,0:0:0:0:
334,160,275094,6,0,B|248:134|248:134|241:126|241:126|82:78,1,263.99999194336,12|0,1:3|0:0,0:0:0:0:
13,19,275367,6,0,B|-1:-6|-1:-6|95:30,1,82.5000031471254,12|0,1:3|0:0,0:0:0:0:
289,311,275549,1,8,0:0:0:0:
292,293,275640,2,0,P|233:208|153:200,1,131.99999597168,10|0,1:3|0:0,0:0:0:0:
85,78,275822,6,0,P|124:175|118:355,1,263.99999194336,12|0,1:3|0:0,0:0:0:0:
44,384,276094,1,12,1:3:0:0:
164,305,276185,5,0,0:0:0:0:
188,303,276275,1,8,1:3:0:0:
211,310,276366,1,10,1:3:0:0:
229,326,276457,1,10,1:3:0:0:
293,379,276549,6,0,P|406:377|502:249,1,263.99999194336,12|0,1:3|0:0,0:0:0:0:
426,160,276822,6,0,P|392:189|322:191,1,110,14|0,1:3|0:0,0:0:0:0:
52,69,277003,1,0,0:0:0:0:
125,107,277094,6,0,B|245:125|245:125|249:131|249:131|456:164,1,307.999990600586,12|0,1:3|0:0,0:0:0:0:
503,16,277367,1,14,1:3:0:0:
508,0,277458,2,0,P|429:-4|368:69,1,153.999995300293,0|0,0:0|0:0,0:0:0:0:
125,317,277640,6,0,L|111:165,1,131.99999597168,14|0,0:0|0:0,0:0:0:0:
52,69,277822,2,0,L|32:188,1,121.000003692627,14|0,0:0|0:0,0:0:0:0:
1,384,278003,6,0,P|100:336|298:320,1,263.99999194336,12|0,1:3|0:0,0:0:0:0:
380,367,278276,6,0,B|435:351|435:351|358:329,1,131.99999597168,12|0,1:3|0:0,0:0:0:0:
52,69,278458,1,8,0:0:0:0:
71,70,278549,2,0,P|147:99|181:155,1,131.99999597168,10|0,1:3|0:0,0:0:0:0:
252,315,278731,6,0,P|257:164|331:51,1,263.99999194336,12|0,1:3|0:0,0:0:0:0:
363,5,279003,1,14,1:3:0:0:
453,58,279094,5,0,0:0:0:0:
469,76,279185,1,8,1:3:0:0:
476,99,279276,1,10,1:3:0:0:
474,123,279366,1,10,1:3:0:0:
455,198,279458,6,0,L|179:138,1,263.99999194336,12|0,1:3|0:0,0:0:0:0:
71,70,279731,1,12,1:3:0:0:
78,57,279822,2,0,B|113:8|113:8|222:-4,1,131.99999597168,0|0,0:0|0:0,0:0:0:0:
313,69,280003,6,0,B|193:111|191:245|191:245|223:239|223:239|225:241|225:241|226:238|226:238|274:227,1,307.999990600586,12|0,1:3|0:0,0:0:0:0:
512,374,280276,5,12,0:1:0:0:
507,360,280367,2,0,L|481:283,1,55,0|0,0:0|0:0,0:0:0:0:
421,253,280549,6,0,L|330:270,1,73.3333333333333,2|0,0:2|0:0,0:0:0:0:
275,365,280731,2,0,L|181:337,1,73.3333333333333,2|0,0:2|0:0,0:0:0:0:
137,302,280913,6,0,B|157:173|157:173|161:167|161:167|168:120|168:120|165:113|165:113|186:-7,1,307.999990600586,12|0,1:3|0:0,0:0:0:0:
87,139,281185,2,0,L|258:110,1,153.999995300293,12|0,1:3|0:0,0:0:0:0:
491,6,281367,5,8,0:0:0:0:
472,10,281458,2,0,P|433:41|425:113,1,110,10|0,1:3|0:0,0:0:0:0:
512,341,281640,6,0,P|440:208|320:153,1,263.99999194336,12|0,1:3|0:0,0:0:0:0:
260,161,281913,1,12,1:3:0:0:
324,236,282003,5,0,0:0:0:0:
340,254,282094,1,8,0:0:0:0:
347,277,282185,1,10,0:0:0:0:
345,301,282275,1,10,0:0:0:0:
302,367,282367,6,0,B|190:351|190:351|185:355|185:355|15:333,1,263.99999194336,12|0,1:3|0:0,0:0:0:0:
51,132,282640,2,0,P|85:176|87:259,1,110,14|0,1:3|0:0,0:0:0:0:
95,245,282822,1,0,0:0:0:0:
154,110,282913,6,0,P|232:27|404:31,1,263.99999194336,12|0,1:0|0:0,0:0:0:0:
499,207,283185,6,0,P|378:155|233:131,1,263.99999194336,14|0,1:3|0:0,0:0:0:0:
41,336,283458,6,0,B|29:384|29:384|194:338|193:157,1,307.999990600586,12|0,1:0|0:0,0:0:0:0:
60,0,283731,2,0,P|82:78|153:112,1,165.000006294251,14|0,1:3|0:0,0:0:0:0:
394,243,283913,1,8,0:0:0:0:
361,150,284003,6,0,P|302:68|97:18,1,253.000004825592,12|0,1:0|0:0,0:0:0:0:
164,11,284276,6,0,P|267:157|282:333,1,330.000012588501,14|0,1:3|0:0,0:0:0:0:
0,380,284549,6,0,B|157:350|157:350|162:353|162:353|336:319,1,330.000012588501,12|0,1:0|0:0,0:0:0:0:
451,97,284822,2,0,P|397:169|397:258,1,165.000006294251,14|0,1:3|0:0,0:0:0:0:
411,366,285003,5,8,0:0:0:0:
357,146,285094,2,0,B|332:53,1,65.9999979858399,12|0,1:0|2:0,0:0:0:0:
323,11,285275,5,12,1:3:0:0:
187,116,285397,1,10,1:1:0:0:
137,285,285518,1,8,1:1:0:0:
214,384,285639,5,14,1:3:0:0:
136,273,285760,1,8,1:1:0:0:
13,231,285881,1,10,1:1:0:0:
30,372,286003,5,12,1:3:0:0:
256,307,286124,1,10,1:1:0:0:
484,243,286245,1,8,1:1:0:0:
429,335,286366,6,0,L|423:397,5,32.99999899292,14|8|8|8|8|8,1:0|0:0|0:0|0:0|0:0|0:0,0:0:0:0:
443,157,286730,1,12,0:0:0:0:
29,24,289457,6,0,P|98:52|122:140,1,131.99999597168,12|0,0:0|0:0,0:0:0:0:
62,252,289639,6,0,B|132:236|132:236|138:240|138:240|361:188,1,307.999990600586,12|12,0:0|0:0,0:0:0:0:
281,8,290003,6,0,L|265:116,1,82.5000031471254,2|0,0:2|0:0,0:0:0:0:
267,105,290275,2,0,L|210:122,1,41.2500015735627,0|0,0:0|0:0,0:0:0:0:
361,188,290548,6,0,P|419:237|439:333,1,165,2|0,0:2|0:0,0:0:0:0:
433,330,290912,6,0,P|437:289|456:267,1,55,0|0,0:0|0:0,0:0:0:0:
336,325,291094,6,0,L|187:359,1,110,2|0,0:2|0:0,0:0:0:0:
228,349,291457,6,0,B|237:274|237:274|244:268|244:268|264:127,1,197.99999395752,2|0,0:2|0:0,0:0:0:0:
178,15,291821,5,2,0:2:0:0:
182,30,291912,2,0,P|278:123|382:141,1,220,12|0,0:0|0:0,0:0:0:0:
437,158,292185,5,12,0:0:0:0:
48,344,292366,1,10,1:0:0:0:
51,335,292427,1,8,1:0:0:0:
55,327,292488,1,8,1:0:0:0:
58,319,292548,6,0,L|66:233,1,76.9999976501466,12|0,0:0|2:0,0:0:0:0:
