osu file format v14

[General]
AudioFilename: audio.mp3
AudioLeadIn: 0
PreviewTime: 203323
Countdown: 0
SampleSet: Soft
StackLeniency: 0.7
Mode: 0
LetterboxInBreaks: 0
WidescreenStoryboard: 0

[Editor]
Bookmarks: -20,13105,25105,49105,61105,73105,97105,109105,133105,157105,181105,193105,205105,217105,229105,241105,253105,265105,292105,304105
DistanceSpacing: 0.3
BeatDivisor: 4
GridSize: 32
TimelineZoom: 2.8

[Metadata]
Title:1nput This 2 Y0ur Spine
TitleUnicode:1nput This 2 Y0ur Spine
Artist:Camellia
ArtistUnicode:かめりあ
Creator:Mir
Version:Lethality
Source:
Tags:thanks for 100k twitter followers 100000 metal breaks electronic instrumental Tera I/O input this to your spine
BeatmapID:2632448
BeatmapSetID:1266639

[Difficulty]
HPDrainRate:5
CircleSize:4
OverallDifficulty:9
ApproachRate:9.7
SliderMultiplier:2.4
SliderTickRate:1

[Events]
//Background and Video events
0,0,"big astero.jpg",0,0
//Break Periods
2,135555,138610
2,142305,144422
//Storyboard Layer 0 (Background)
//Storyboard Layer 1 (Fail)
//Storyboard Layer 2 (Pass)
//Storyboard Layer 3 (Foreground)
//Storyboard Layer 4 (Overlay)
//Storyboard Sound Samples

[TimingPoints]
1105,375,4,2,1,40,1,0
1105,-400,4,2,1,40,0,0
2605,-400,4,2,1,5,0,0
2698,-400,4,2,1,40,0,0
5605,-400,4,2,1,5,0,0
5698,-400,4,2,1,40,0,0
8605,-400,4,2,1,5,0,0
8698,-400,4,2,1,40,0,0
11605,-400,4,2,1,5,0,0
11698,-400,4,2,1,40,0,0
14605,-200,4,2,1,40,0,0
16105,-400,4,2,1,40,0,0
17605,-200,4,2,1,40,0,0
19105,-400,4,2,1,40,0,0
20605,-200,4,2,1,60,0,0
22855,-100,4,2,1,70,0,0
23605,-200,4,2,1,70,0,0
24730,-66.6666666666667,4,2,1,70,0,0
25105,-100,4,2,1,80,0,0
26417,-66.6666666666667,4,2,1,80,0,0
26980,-100,4,2,1,80,0,0
27870,-100,4,2,1,5,0,0
27917,-50,4,2,1,80,0,0
28105,-100,4,2,1,80,0,0
29417,-66.6666666666667,4,2,1,80,0,0
31105,-100,4,2,1,80,0,0
32417,-66.6666666666667,4,2,1,80,0,0
33870,-100,4,2,1,5,0,0
33917,-50,4,2,1,80,0,0
34105,-100,4,2,1,80,0,0
35370,-100,4,2,1,5,0,0
35417,-66.6666666666667,4,2,1,80,0,0
36448,-200,4,2,1,80,0,0
37105,-66.6666666666667,4,2,1,80,0,0
37480,-100,4,2,1,80,0,0
38417,-66.6666666666667,4,2,1,80,0,0
38980,-100,4,2,1,80,0,0
39870,-100,4,2,1,5,0,0
39917,-50,4,2,1,80,0,0
40105,-66.6666666666667,4,2,1,80,0,0
40480,-100,4,2,1,80,0,0
41417,-66.6666666666667,4,2,1,80,0,0
43480,-100,4,2,1,80,0,0
44417,-66.6666666666667,4,2,1,80,0,0
44980,-100,4,2,1,80,0,0
45870,-100,4,2,1,5,0,0
45917,-50,4,2,1,80,0,0
46105,-66.6666666666667,4,2,1,80,0,0
46480,-100,4,2,1,80,0,0
49105,-200,4,2,1,50,0,0
59605,-133.333333333333,4,2,1,50,0,0
61105,-100,4,2,1,60,0,0
72730,-133.333333333333,4,2,1,90,0,0
73105,-66.6666666666667,4,2,1,100,0,0
84448,-66.6666666666667,4,2,1,50,0,0
84730,-400,4,2,1,50,0,0
85105,-66.6666666666667,4,2,1,100,0,0
96167,-400,4,2,1,80,0,0
96261,-400,4,2,1,60,0,0
97105,-50,4,2,1,80,0,0
97386,-50,4,2,1,5,0,0
97480,-50,4,2,1,80,0,0
100011,-50,4,2,1,5,0,0
100105,-50,4,2,1,80,0,0
100386,-50,4,2,1,5,0,0
100480,-50,4,2,1,80,0,0
103292,-100,4,2,1,80,0,0
107417,-200,4,2,1,80,0,0
109105,-50,4,2,1,80,0,0
109386,-66.6666666666667,4,2,1,80,0,0
111730,-133.333333333333,4,2,1,80,0,0
112105,-66.6666666666667,4,2,1,80,0,0
114355,-133.333333333333,4,2,1,80,0,0
115105,-50,4,2,1,80,0,0
115292,-66.6666666666667,4,2,1,80,0,0
117730,-133.333333333333,4,2,1,80,0,0
117917,-66.6666666666667,4,2,1,80,0,0
118105,-133.333333333333,4,2,1,80,0,0
118292,-66.6666666666667,4,2,1,80,0,0
120730,-133.333333333333,4,2,1,80,0,0
121105,-50,4,2,1,80,0,0
121292,-200,4,2,1,80,0,0
121855,-100,4,2,1,80,0,0
122230,-66.6666666666667,4,2,1,80,0,0
122605,-200,4,2,1,80,0,0
124105,-66.6666666666667,4,2,1,80,0,0
124292,-133.333333333333,4,2,1,80,0,0
124855,-100,4,2,1,80,0,0
125230,-66.6666666666667,4,2,1,80,0,0
126636,-133.333333333333,4,2,1,80,0,0
127105,-133.333333333333,4,2,1,80,0,0
127855,-100,4,2,1,80,0,0
128605,-200,4,2,1,80,0,0
129730,-100,4,2,1,80,0,0
133198,-100,4,2,1,50,0,0
135355,-100,4,2,1,15,0,0
139105,-100,4,2,1,50,0,0
142105,-100,4,2,1,15,0,0
142198,-100,4,2,1,50,0,0
144917,-100,4,2,1,50,0,0
145105,-200,4,2,1,50,0,0
157105,-133.333333333333,4,2,1,70,0,0
157855,-333.333333333333,4,2,1,70,0,0
158417,-133.333333333333,4,2,1,70,0,0
159355,-333.333333333333,4,2,1,70,0,0
160105,-133.333333333333,4,2,1,70,0,0
160855,-333.333333333333,4,2,1,70,0,0
161417,-133.333333333333,4,2,1,70,0,0
162355,-333.333333333333,4,2,1,70,0,0
163105,-133.333333333333,4,2,1,70,0,0
163855,-333.333333333333,4,2,1,70,0,0
164417,-133.333333333333,4,2,1,70,0,0
165355,-333.333333333333,4,2,1,70,0,0
166105,-133.333333333333,4,2,1,70,0,0
166855,-333.333333333333,4,2,1,70,0,0
167417,-133.333333333333,4,2,1,70,0,0
168355,-333.333333333333,4,2,1,70,0,0
169105,-133.333333333333,4,2,1,70,0,0
178105,-400,4,2,1,70,0,0
180636,-100,4,2,1,70,0,0
181105,-133.333333333333,4,2,0,50,0,0
192355,-200,4,2,0,50,0,0
193105,-133.333333333333,4,2,1,60,0,0
198261,-100,4,2,1,60,0,0
201355,-66.6666666666667,4,2,1,70,0,0
204355,-133.333333333333,4,2,1,80,0,0
204730,-133.333333333333,4,2,1,80,0,0
205105,-50,4,2,1,100,0,1
211105,-80,4,2,1,100,0,1
214105,-50,4,2,1,100,0,1
216355,-100,4,2,1,100,0,1
217105,-50,4,2,1,100,0,1
228355,-133.333333333333,4,2,1,100,0,1
229105,-66.6666666666667,4,2,1,80,0,0
232105,-133.333333333333,4,2,1,80,0,0
232480,-100,4,2,1,80,0,0
235105,-133.333333333333,4,2,1,80,0,0
236605,-66.6666666666667,4,2,1,80,0,0
239417,-133.333333333333,4,2,1,80,0,0
241105,-125,4,3,1,80,0,0
253105,-66.6666666666667,4,3,1,80,0,0
264355,-133.333333333333,4,2,1,80,0,0
265480,-133.333333333333,4,2,1,40,0,0
265667,-200,4,2,1,40,0,0
266042,-133.333333333333,4,2,1,50,0,0
266417,-100,4,2,1,60,0,0
268105,-66.6666666666667,4,2,2,80,0,0
269417,-50,4,2,2,80,0,0
269605,-200,4,2,2,80,0,0
269792,-100,4,2,2,80,0,0
269980,-50,4,2,2,80,0,0
270167,-100,4,2,2,80,0,0
270355,-200,4,2,2,80,0,0
270542,-100,4,2,2,80,0,0
270730,-100,4,2,2,80,0,0
271292,-66.6666666666667,4,2,2,80,0,0
273730,-100,4,2,2,80,0,0
274105,-66.6666666666667,4,2,2,80,0,0
275417,-50,4,2,2,80,0,0
275605,-200,4,2,2,80,0,0
275792,-100,4,2,2,80,0,0
275980,-50,4,2,2,80,0,0
276167,-100,4,2,2,80,0,0
276355,-200,4,2,2,80,0,0
276542,-100,4,2,2,80,0,0
276730,-100,4,2,2,80,0,0
277292,-66.6666666666667,4,2,2,80,0,0
279167,-133.333333333333,4,2,2,80,0,0
280292,-100,4,2,2,80,0,0
281417,-66.6666666666667,4,2,2,80,0,0
281605,-400,4,2,2,80,0,0
281792,-133.333333333333,4,2,2,80,0,0
281980,-66.6666666666667,4,2,2,80,0,0
282167,-133.333333333333,4,2,2,80,0,0
282355,-400,4,2,2,80,0,0
282542,-133.333333333333,4,2,2,80,0,0
282730,-100,4,2,2,80,0,0
283105,-66.6666666666667,4,2,2,80,0,0
287417,-66.6666666666667,4,2,2,80,0,0
287605,-400,4,2,2,80,0,0
287792,-133.333333333333,4,2,2,80,0,0
287980,-66.6666666666667,4,2,2,80,0,0
288167,-133.333333333333,4,2,2,80,0,0
288355,-400,4,2,2,80,0,0
288542,-133.333333333333,4,2,2,80,0,0
288730,-66.6666666666667,4,2,2,80,0,0
291448,-133.333333333333,4,2,2,80,0,0
291730,-66.6666666666667,4,2,2,80,0,0
292105,-400,4,2,1,50,0,0
293605,-200,4,2,1,50,0,0
295105,-400,4,2,1,50,0,0
296605,-200,4,2,1,50,0,0
298105,-400,4,2,1,50,0,0
299605,-200,4,2,1,50,0,0
301105,-400,4,2,1,50,0,0
301855,-100,4,2,1,50,0,0
302605,-200,4,2,1,50,0,0
304105,-400,4,2,1,40,0,0
305605,-400,4,2,1,5,0,0
305698,-400,4,2,1,40,0,0
308605,-400,4,2,1,5,0,0
308698,-400,4,2,1,40,0,0
311605,-400,4,2,1,5,0,0
311698,-400,4,2,1,40,0,0
314605,-400,4,2,1,5,0,0
314698,-400,4,2,1,40,0,0

[Colours]
Combo1 : 128,128,192
Combo2 : 91,91,255
Combo3 : 181,230,227
Combo4 : 221,168,238

[HitObjects]
478,350,1105,6,0,B|328:327|430:247|282:230,1,240,6|0,3:2|0:2,0:2:0:0:
285,230,4105,6,0,P|284:188|356:254,1,240,2|0,0:2|0:2,0:2:0:0:
358,252,7105,6,0,L|111:276,1,240,2|0,0:2|0:2,0:2:0:0:
119,275,10105,6,0,B|164:334|164:334|252:313|252:313|260:228,1,240,2|0,0:2|0:2,0:2:0:0:
259,238,11698,6,0,L|221:233,2,30,2|0|0,0:2|0:2|0:2,0:2:0:0:
317,172,12167,1,0,0:2:0:0:
269,100,12355,5,0,0:2:0:0:
269,100,12448,2,0,L|239:103,2,30,2|0|0,0:2|0:2|0:2,0:2:0:0:
296,20,12917,1,0,0:2:0:0:
56,370,13105,6,0,L|16:128,1,240,4|0,3:2|0:2,0:2:0:0:
29,124,14698,1,0,0:2:0:0:
41,115,14792,1,0,0:2:0:0:
71,197,14980,6,0,L|143:209,1,60,8|0,0:2|0:2,0:2:0:0:
144,210,15261,1,0,1:2:0:0:
200,278,15448,1,0,0:2:0:0:
200,278,15542,2,0,L|210:331,1,30,0|0,1:2|0:2,0:2:0:0:
121,291,15730,2,0,L|131:344,3,30,8|0|8|8,0:2|1:2|0:2|0:2,0:2:0:0:
466,293,16105,6,0,B|372:308|372:308|363:357|363:357|270:373,1,240,4|0,3:2|0:2,0:2:0:0:
269,373,17698,6,0,L|280:312,1,60,2|0,0:2|0:2,0:2:0:0:
283,299,17980,1,8,0:2:0:0:
198,320,18167,5,0,0:2:0:0:
198,320,18261,2,0,L|151:327,2,30,2|0|0,0:2|0:2|0:2,0:2:0:0:
361,282,18542,2,0,L|408:275,2,30,2|0|8,0:2|0:2|0:2,0:2:0:0:
118,163,18917,1,8,0:2:0:0:
118,163,19011,1,8,0:2:0:0:
55,210,19105,6,0,B|38:262|38:262|214:231,1,225,4|0,3:2|0:2,0:2:0:0:
205,232,20605,6,0,L|212:186,7,30,0|0|0|0|0|0|0|0,1:2|1:2|1:2|1:2|1:2|1:2|1:2|1:2,1:2:0:0:
283,224,21355,2,0,L|290:178,7,30,0|0|0|0|0|0|0|0,1:2|1:2|1:2|1:2|1:2|1:2|1:2|1:2,1:2:0:0:
368,146,22105,5,0,1:2:0:0:
397,141,22198,1,0,1:2:0:0:
426,148,22292,1,0,1:2:0:0:
451,165,22386,1,0,1:2:0:0:
468,189,22480,1,0,1:2:0:0:
475,218,22573,1,0,1:2:0:0:
472,248,22667,1,0,1:2:0:0:
458,274,22761,1,0,1:2:0:0:
435,293,22855,5,0,1:2:0:0:
389,256,22948,1,0,1:2:0:0:
330,254,23042,1,0,1:2:0:0:
282,289,23136,1,0,1:2:0:0:
260,330,23230,1,0,1:2:0:0:
214,367,23323,1,0,1:2:0:0:
155,369,23417,1,0,1:2:0:0:
107,334,23511,1,0,1:2:0:0:
94,285,23605,6,0,L|83:218,1,60,0|0,0:2|0:2,0:2:0:0:
35,376,23980,1,8,0:2:0:0:
182,239,24167,5,0,3:2:0:0:
182,239,24261,1,0,3:2:0:0:
182,239,24355,2,0,L|230:248,1,30,0|0,3:2|3:2,0:2:0:0:
73,78,24542,5,0,1:2:0:0:
73,78,24636,1,0,3:2:0:0:
19,164,24730,6,0,B|58:149|104:177|104:177|137:160|137:160|140:143|140:143|172:121|172:121|203:156|305:140,1,270.000010299683,4|0,3:2|0:2,0:2:0:0:
502,254,25105,6,0,B|419:283|419:283|425:360,1,120,4|0,3:2|0:2,0:2:0:0:
432,343,25386,1,0,3:2:0:0:
388,208,25480,2,0,B|292:241|292:241|305:325,1,180,10|0,0:2|0:2,0:2:0:0:
304,318,25855,6,0,L|244:298,1,60,2|0,0:2|0:2,0:2:0:0:
156,195,26042,2,0,L|168:256,1,60,2|0,3:2|0:2,0:2:0:0:
123,384,26230,2,0,L|170:342,1,60,2|0,3:2|0:2,0:2:0:0:
104,60,26417,6,0,B|198:83|198:83|165:268,1,270.000010299683,10|0,0:2|0:2,0:2:0:0:
88,210,26792,1,0,3:2:0:0:
88,210,26886,1,0,3:2:0:0:
208,147,26980,5,10,0:2:0:0:
208,147,27073,2,0,B|231:141|231:141|241:144|241:144|269:139,1,60,0|0,3:2|3:2,0:2:0:0:
373,46,27261,5,0,3:2:0:0:
352,127,27355,1,2,3:0:0:0:
389,28,27448,2,0,B|308:16,1,60,2|0,3:2|0:2,0:2:0:0:
481,105,27636,1,0,0:0:0:0:
436,177,27730,2,0,L|460:279,1,90,10|0,0:2|0:2,0:2:0:0:
457,265,27917,6,0,B|413:284|413:284|410:307|410:307|347:332,1,120,2|0,3:2|0:2,0:2:0:0:
235,373,28105,6,0,L|214:210,1,120,6|0,3:2|3:2,0:2:0:0:
216,221,28386,1,0,3:2:0:0:
138,288,28480,5,8,0:2:0:0:
138,288,28573,2,0,L|38:275,1,60,2|0,3:2|0:2,0:2:0:0:
51,98,28761,5,2,0:2:0:0:
80,104,28855,1,2,0:2:0:0:
106,118,28948,1,2,0:2:0:0:
120,144,29042,2,0,L|137:225,1,60,2|0,3:2|0:2,0:2:0:0:
51,98,29230,2,0,L|38:39,1,60,2|0,3:2|0:2,0:2:0:0:
219,149,29417,6,0,B|365:127|365:127|376:34|376:34|341:72,1,270.000010299683,14|8,0:2|0:2,0:2:0:0:
446,133,29792,5,0,3:2:0:0:
448,115,29855,1,0,3:2:0:0:
450,97,29917,1,0,3:2:0:0:
452,79,29980,2,0,B|483:84|483:84|470:177,1,90.0000034332277,10|0,0:2|0:2,0:2:0:0:
385,372,30167,2,0,B|354:367|354:367|367:274,1,90.0000034332277,2|0,3:2|0:2,0:2:0:0:
324,228,30355,5,2,3:2:0:0:
201,322,30448,2,0,B|271:301|271:301|298:330|298:330|403:295,1,180.000006866455,2|8,3:2|0:2,0:2:0:0:
353,129,30730,5,8,0:2:0:0:
277,117,30823,1,8,0:2:0:0:
210,164,30917,5,0,3:2:0:0:
153,108,31011,5,8,0:2:0:0:
74,148,31105,6,0,P|92:79|48:59,1,120,6|0,3:2|0:2,0:2:0:0:
56,295,31386,1,0,3:2:0:0:
7,227,31480,2,0,B|38:193|38:193|129:218|129:218|134:277,1,180,10|0,0:2|0:2,0:2:0:0:
155,339,31855,6,0,B|182:324|182:324|167:355,1,60,2|0,0:2|0:2,0:2:0:0:
216,219,32042,2,0,B|245:227|245:227|213:238,1,60,2|0,3:2|0:2,0:2:0:0:
336,159,32230,2,0,B|351:186|351:186|320:171,1,60,2|0,3:2|0:2,0:2:0:0:
512,241,32417,6,0,B|476:290|479:367|479:367|444:290|386:256,1,270.000010299683,10|0,0:2|0:2,0:2:0:0:
441,193,32792,1,0,3:2:0:0:
441,193,32886,1,0,3:2:0:0:
335,79,32980,6,0,B|303:71|266:26|266:26|281:76|267:116,1,180.000006866455,10|0,0:2|0:2,0:2:0:0:
80,251,33261,5,2,3:2:0:0:
152,209,33355,1,2,3:2:0:0:
68,236,33448,2,0,B|44:199|44:199|82:148,1,90.0000034332277,2|0,3:2|0:2,0:2:0:0:
162,122,33636,1,0,3:2:0:0:
232,179,33730,2,0,B|287:219|287:219|218:267,1,135.000005149841,10|0,0:2|0:2,0:2:0:0:
232,257,33917,6,0,B|287:267|287:267|288:272|288:272|383:292,1,120,2|0,3:2|0:2,0:2:0:0:
473,355,34105,6,0,B|509:334|509:334|480:214,1,120,6|0,0:2|0:2,0:2:0:0:
504,234,34386,1,0,3:2:0:0:
404,294,34480,5,10,0:2:0:0:
404,294,34573,2,0,L|345:283,1,60,2|0,3:2|0:2,0:2:0:0:
411,172,34761,5,0,0:2:0:0:
440,177,34855,1,0,0:2:0:0:
469,182,34948,1,0,0:2:0:0:
498,188,35042,2,0,B|520:217|520:217|474:262,1,60,2|0,3:2|0:2,0:2:0:0:
331,185,35230,2,0,B|314:168|314:168|329:79,1,90,2|0,3:2|0:2,0:2:0:0:
324,102,35417,6,0,B|284:113|284:113|284:123|284:123|228:135,1,90.0000034332277,10|0,0:2|0:2,0:2:0:0:
115,183,35605,5,8,0:2:0:0:
45,231,35698,2,0,B|15:197|15:197|54:122,1,90.0000034332277,8|0,0:2|3:2,0:2:0:0:
320,276,35886,5,8,0:2:0:0:
390,324,35980,2,0,B|420:290|420:290|381:215,1,90.0000034332277,8|0,0:2|3:2,0:2:0:0:
163,331,36167,5,8,0:2:0:0:
93,379,36261,2,0,B|63:345|63:345|102:270,1,90.0000034332277,8|0,0:2|3:2,0:2:0:0:
247,328,36448,6,0,L|239:356,1,30,2|0,3:2|0:2,0:2:0:0:
319,358,36636,2,0,L|334:383,1,30,2|0,3:2|0:2,0:2:0:0:
390,324,36823,1,0,3:2:0:0:
390,324,36917,2,0,L|418:331,1,30,2|0,3:2|0:2,0:2:0:0:
512,125,37105,6,0,B|380:144|380:144|392:149|392:149|213:176,1,270.000010299683,6|0,3:2|0:2,0:2:0:0:
160,63,37480,2,0,B|225:-2|225:-2|257:134,1,180,8|0,0:2|0:2,0:2:0:0:
187,142,37855,6,0,L|111:173,1,60,2|0,0:2|0:2,0:2:0:0:
364,203,38042,2,0,L|440:234,1,60,2|0,3:2|0:2,0:2:0:0:
199,232,38230,2,0,L|123:263,1,60,2|0,3:2|0:2,0:2:0:0:
230,382,38417,6,0,B|315:359|315:359|263:144,1,270.000010299683,14|0,0:2|0:2,0:2:0:0:
199,232,38792,1,0,3:2:0:0:
199,232,38886,1,0,3:2:0:0:
329,282,38980,6,0,L|463:319,1,120,10|0,0:2|0:2,0:2:0:0:
446,174,39261,5,2,3:2:0:0:
496,237,39355,1,2,3:2:0:0:
446,174,39448,2,0,L|457:91,1,60,2|0,3:2|0:2,0:2:0:0:
409,35,39636,1,0,3:2:0:0:
346,95,39730,2,0,L|362:198,1,90,10|0,0:2|0:2,0:2:0:0:
359,183,39917,6,0,B|307:179|307:179|299:168|299:168|215:162,1,120,2|0,3:2|0:2,0:2:0:0:
90,95,40105,6,0,P|202:69|177:1,1,180.000006866455,6|0,3:2|0:2,0:2:0:0:
174,12,40386,1,0,3:2:0:0:
244,164,40480,2,0,L|218:359,1,180,8|0,0:2|0:2,0:2:0:0:
15,376,40855,6,0,P|53:372|96:396,1,60,2|0,0:2|0:2,0:2:0:0:
102,199,41042,2,0,P|131:223|145:270,1,60,2|0,3:2|0:2,0:2:0:0:
318,190,41230,2,0,P|322:228|298:271,1,60,2|0,3:2|0:2,0:2:0:0:
374,376,41417,6,0,B|363:226|467:299|438:115,1,270.000010299683,14|8,0:2|0:2,0:2:0:0:
341,22,41792,5,0,3:2:0:0:
353,34,41855,1,0,3:2:0:0:
369,41,41917,1,0,3:2:0:0:
387,40,41980,2,0,P|426:32|459:-5,1,90.0000034332277,8|0,0:2|0:2,0:2:0:0:
512,169,42167,2,0,P|483:135|440:125,1,90.0000034332277,0|0,3:2|3:2,0:2:0:0:
258,127,42355,5,2,3:2:0:0:
194,53,42448,2,0,B|290:57|236:122|353:124,1,180.000006866455,2|2,3:2|0:2,0:2:0:0:
395,209,42730,5,8,0:2:0:0:
336,265,42823,1,8,0:2:0:0:
250,259,42917,5,0,3:2:0:0:
173,321,43011,5,8,0:2:0:0:
80,286,43105,6,0,L|45:99,1,180.000006866455,6|0,3:2|0:2,0:2:0:0:
303,89,43355,5,0,3:2:0:0:
303,89,43417,1,0,3:2:0:0:
303,89,43480,2,0,B|258:133|258:133|112:96,1,180.000006866455,8|0,0:2|0:2,0:2:0:0:
47,10,43855,6,0,L|118:56,1,60,2|0,0:2|0:2,0:2:0:0:
158,203,44042,2,0,L|229:157,1,60,2|0,3:2|0:2,0:2:0:0:
337,10,44230,2,0,L|408:56,1,60,2|0,3:2|0:2,0:2:0:0:
478,236,44417,6,0,B|515:206|515:206|487:57|487:57|447:156,1,270.000010299683,14|0,0:2|0:2,0:2:0:0:
396,186,44792,5,0,3:2:0:0:
396,186,44886,1,0,3:2:0:0:
342,247,44980,2,0,B|286:223|286:223|323:135,1,120,10|0,0:2|0:2,0:2:0:0:
337,10,45261,5,2,3:2:0:0:
367,92,45355,1,2,3:2:0:0:
322,21,45448,2,2,L|228:33,1,60,0|0,3:2|0:2,0:2:0:0:
79,57,45636,1,0,3:2:0:0:
153,115,45730,2,0,L|169:11,1,90,10|0,0:2|0:2,0:2:0:0:
166,26,45917,6,0,B|185:62|185:62|176:105|176:105|199:162,1,120,2|0,3:2|0:2,0:2:0:0:
57,368,46105,6,0,P|90:266|213:254,1,180.000006866455,6|0,3:2|0:2,0:2:0:0:
168,257,46386,1,0,3:2:0:0:
241,380,46480,6,0,L|261:201,1,180,10|0,0:2|0:2,0:2:0:0:
355,195,46855,5,0,3:2:0:0:
378,190,46948,1,0,3:2:0:0:
401,186,47042,2,0,L|479:204,1,60,2|0,3:2|0:2,0:2:0:0:
485,117,47230,2,0,L|426:103,1,60,2|0,3:2|0:2,0:2:0:0:
278,15,47417,6,0,B|158:35|158:35|164:127,1,180,14|8,0:2|0:2,0:2:0:0:
164,183,47792,5,0,3:2:0:0:
148,180,47855,1,0,3:2:0:0:
132,177,47917,1,0,3:2:0:0:
116,174,47980,2,0,L|48:162,1,60,8|0,0:2|0:2,0:2:0:0:
102,82,48167,2,0,L|161:92,1,60,0|0,3:2|0:2,0:2:0:0:
247,272,48355,5,2,3:2:0:0:
196,333,48448,2,0,P|124:321|128:266,1,120,2|0,3:2|0:2,0:2:0:0:
165,213,48730,5,10,0:2:0:0:
186,198,48823,1,10,0:2:0:0:
252,183,48917,1,2,3:2:0:0:
342,209,49011,1,10,0:2:0:0:
392,287,49105,6,0,B|353:358|353:358|476:310|476:310|444:103,1,420,6|2,3:2|0:2,0:2:0:0:
509,41,50511,6,0,B|493:7|493:7|340:34|340:34|341:111|341:111|232:134,1,360,2|0,0:2|0:2,0:2:0:0:
33,294,51823,5,2,0:2:0:0:
33,294,51917,1,2,0:2:0:0:
33,294,52011,2,0,B|-1:402|199:416|180:240|91:198|101:247|27:191|15:167|31:107|58:78|101:70,1,450,2|2,0:2|0:2,0:2:0:0:
111,199,53511,6,0,B|175:234|274:229|174:92|341:109|391:164|327:250,1,330,2|0,0:2|0:2,0:2:0:0:
246,297,54730,5,2,0:2:0:0:
245,308,54823,1,2,0:2:0:0:
244,320,54917,1,2,0:2:0:0:
243,332,55011,1,2,0:2:0:0:
242,344,55105,6,0,B|476:366|476:366|436:253|436:253|353:276,1,420,2|2,0:2|0:2,0:2:0:0:
281,263,56511,6,0,B|250:84|250:84|392:102|392:102|353:172,1,390,2|0,0:2|0:2,0:2:0:0:
230,187,57823,5,2,0:2:0:0:
230,187,57917,1,2,0:2:0:0:
230,187,58011,2,0,B|150:173|150:173|122:246|122:246|32:229,1,240,2|0,0:2|0:2,0:2:0:0:
260,343,59042,6,0,L|264:372,2,20,2|2|2,0:2|0:2|0:2,0:2:0:0:
332,289,59230,6,0,L|428:309,1,90,2|0,0:2|0:2,0:2:0:0:
421,308,59605,6,0,P|366:321|345:360,1,90.0000034332277,2|0,0:2|0:2,0:2:0:0:
323,186,59980,2,0,P|293:234|306:276,1,90.0000034332277,2|0,0:2|0:2,0:2:0:0:
167,169,60355,2,0,P|180:223|218:244,1,90.0000034332277,2|0,0:2|0:2,0:2:0:0:
44,267,60730,2,0,P|92:296|134:283,1,90.0000034332277,2|0,0:2|0:2,0:2:0:0:
17,75,61105,6,0,B|173:56|63:158|278:124,1,240,6|0,3:2|1:2,0:2:0:0:
442,86,61667,2,0,P|451:61|448:26,1,60,2|0,0:2|0:2,0:2:0:0:
322,29,61855,1,2,0:2:0:0:
322,29,61948,6,0,B|302:56|302:56|323:102,1,60,2|0,0:2|0:2,0:2:0:0:
239,128,62136,2,0,B|243:161|243:161|291:178,1,60,2|0,0:2|0:2,0:2:0:0:
281,259,62323,2,0,B|308:279|308:279|354:258,1,60,2|0,3:2|1:2,3:2:0:0:
507,220,62511,6,0,B|419:252|419:252|419:318,1,120,2|0,0:2|0:2,0:2:0:0:
421,355,62792,1,2,0:2:0:0:
45,310,62980,6,0,L|55:387,1,60,2|0,1:2|0:2,0:2:0:0:
127,299,63167,2,0,L|137:376,1,60,2|0,0:2|0:2,0:2:0:0:
288,199,63355,6,0,L|278:276,1,60,2|0,0:2|0:2,0:2:0:0:
206,188,63542,2,0,L|196:265,1,60,2|0,0:2|0:2,0:2:0:0:
27,122,63730,6,0,L|37:199,1,60,2|0,1:2|0:2,0:2:0:0:
109,111,63917,2,0,L|119:188,1,60,2|0,0:2|1:2,0:2:0:0:
333,22,64105,6,0,B|269:39|269:39|262:90|262:90|193:103,1,180,2|0,0:2|0:2,0:2:0:0:
107,22,64480,2,0,B|188:33|188:33|193:84,1,120,2|2,1:2|0:2,0:2:0:0:
406,120,64855,5,2,0:2:0:0:
406,120,64948,2,0,L|336:135,1,60,2|0,0:2|0:2,0:2:0:0:
329,226,65136,2,0,L|259:211,1,60,2|0,0:2|0:2,0:2:0:0:
173,194,65323,2,0,L|103:209,1,60,2|0,0:2|1:2,0:2:0:0:
3,348,65511,6,0,B|32:291|32:291|178:330,1,180,2|2,0:2|0:2,0:2:0:0:
397,363,65980,6,0,P|373:339|383:293,1,60,2|0,1:2|0:2,0:2:0:0:
337,361,66167,2,0,P|337:327|376:301,1,60,2|0,0:2|0:2,0:2:0:0:
406,120,66355,6,0,P|430:144|420:190,1,60,2|0,0:2|0:2,0:2:0:0:
466,122,66542,2,0,P|466:155|426:181,1,60,2|0,0:2|0:2,0:2:0:0:
285,240,66730,6,0,P|309:216|355:226,1,60,2|0,1:2|0:2,0:2:0:0:
287,180,66917,2,0,P|320:180|346:219,1,60,2|0,0:2|0:2,0:2:0:0:
459,288,67105,6,0,P|454:327|320:343,1,180,2|0,1:2|1:2,1:2:0:0:
327,337,67480,1,0,1:2:0:0:
165,256,67667,5,2,1:2:0:0:
161,279,67761,1,2,1:2:0:0:
158,302,67855,1,2,1:2:0:0:
155,325,67948,6,0,L|147:386,1,60,2|0,1:2|1:2,1:2:0:0:
84,284,68136,2,0,L|36:320,1,60,2|0,1:2|1:2,1:2:0:0:
62,204,68323,2,0,L|2:196,1,60,2|0,1:2|1:2,1:2:0:0:
23,84,68511,6,0,L|247:194,1,240,2|0,1:2|1:2,1:2:0:0:
367,212,68980,5,0,1:2:0:0:
390,208,69073,1,0,1:2:0:0:
400,126,69167,5,2,1:2:0:0:
427,130,69261,1,2,1:2:0:0:
455,133,69355,1,2,1:2:0:0:
481,138,69448,6,0,L|467:220,1,60,2|0,1:2|1:2,1:2:0:0:
283,105,69636,2,0,L|331:172,1,60,2|0,1:2|1:2,1:2:0:0:
195,283,69823,2,0,L|277:297,1,60,2|0,1:2|1:2,1:2:0:0:
401,364,70011,1,2,1:2:0:0:
438,341,70105,5,0,1:2:0:0:
431,318,70198,1,0,1:2:0:0:
424,294,70292,1,0,1:2:0:0:
417,270,70386,1,0,1:2:0:0:
410,246,70480,1,0,1:2:0:0:
404,222,70573,1,0,1:2:0:0:
396,199,70667,1,0,1:2:0:0:
388,176,70761,1,0,1:2:0:0:
381,152,70855,5,0,1:2:0:0:
348,201,70948,1,0,1:2:0:0:
297,231,71042,1,0,1:2:0:0:
237,232,71136,1,0,1:2:0:0:
184,205,71230,1,0,1:2:0:0:
150,157,71323,1,0,1:2:0:0:
142,98,71417,1,0,1:2:0:0:
163,42,71511,1,0,1:2:0:0:
208,3,71605,5,2,1:2:0:0:
214,25,71792,5,2,0:2:0:0:
279,79,71980,5,10,0:2:0:0:
274,101,72167,5,2,0:2:0:0:
70,187,72355,6,0,L|-16:177,1,60,10|0,0:2|0:2,0:2:0:0:
32,265,72542,1,0,1:2:0:0:
32,265,72636,1,0,1:2:0:0:
32,265,72730,6,0,B|85:248|85:248|89:232|89:232|153:211,1,135.000005149841,0|0,3:2|0:2,0:2:0:0:
410,346,73105,6,0,P|298:346|301:265,1,180.000006866455,6|0,3:2|0:2,0:2:0:0:
325,143,73386,5,2,3:2:0:0:
325,143,73480,2,0,L|438:126,1,90.0000034332277,10|0,0:2|0:2,0:2:0:0:
473,188,73667,1,2,0:2:0:0:
286,299,73761,6,0,P|261:269|165:273,1,90.0000034332277,2|0,0:2|0:2,0:2:0:0:
128,126,73948,2,0,P|85:137|55:170,1,90.0000034332277,2|0,3:2|0:2,0:2:0:0:
20,375,74136,2,0,P|116:285|96:227,1,180.000006866455,2|0,0:2|0:2,0:2:0:0:
93,30,74417,1,10,0:2:0:0:
136,20,74511,1,2,3:2:0:0:
173,50,74605,6,0,L|334:76,1,90.0000034332277,2|0,3:2|0:2,0:2:0:0:
491,74,74792,1,0,3:2:0:0:
476,102,74886,2,0,L|387:116,1,90.0000034332277,2|8,3:2|0:2,0:2:0:0:
255,177,75073,5,2,0:2:0:0:
309,173,75167,1,2,0:2:0:0:
339,216,75261,2,0,P|351:265|371:336,1,90.0000034332277,2|0,3:2|0:2,0:2:0:0:
147,287,75448,2,0,P|135:336|115:407,1,90.0000034332277,2|0,3:2|0:2,0:2:0:0:
211,148,75636,5,2,3:2:0:0:
157,208,75730,2,0,B|112:201|112:201|53:257|53:257|-28:246,1,180.000006866455,8|2,0:2|0:2,0:2:0:0:
0,225,76011,1,2,0:2:0:0:
43,153,76105,6,0,B|71:67|71:67|-1:151,1,180.000006866455,2|0,3:2|3:2,0:2:0:0:
146,286,76386,2,0,B|169:327|169:327|177:284,1,90.0000034332277,2|8,3:2|0:2,0:2:0:0:
416,7,76667,5,2,0:2:0:0:
454,21,76761,2,0,P|458:63|390:106,1,90.0000034332277,2|0,0:2|0:2,0:2:0:0:
453,197,76948,2,0,P|426:229|347:211,1,90.0000034332277,2|0,0:2|3:2,0:2:0:0:
294,371,77136,2,0,P|282:275|273:147,1,180.000006866455,2|0,0:2|0:2,0:2:0:0:
228,34,77417,5,10,0:2:0:0:
160,75,77511,1,2,3:2:0:0:
230,113,77605,2,0,B|264:105|264:105|275:93|275:93|326:83,1,90.0000034332277,2|8,3:2|0:2,0:2:0:0:
173,190,77792,5,0,3:2:0:0:
149,194,77855,1,0,3:2:0:0:
125,198,77917,1,0,3:2:0:0:
101,202,77980,2,0,B|66:205|66:205|54:138,1,90.0000034332277,10|0,0:2|0:2,0:2:0:0:
40,356,78167,5,2,3:2:0:0:
92,298,78261,2,0,B|125:303|125:303|150:369,1,90.0000034332277,2|0,3:2|3:2,0:2:0:0:
296,221,78448,2,0,B|315:247|315:247|286:312,1,90.0000034332277,2|0,3:2|3:2,0:2:0:0:
472,333,78636,5,10,0:2:0:0:
456,262,78730,1,8,0:2:0:0:
440,191,78823,1,8,0:2:0:0:
470,172,78917,1,2,3:2:0:0:
456,92,79011,1,10,0:2:0:0:
501,156,79105,6,0,L|319:129,1,180.000006866455,6|0,3:2|0:2,0:2:0:0:
229,36,79386,5,2,3:2:0:0:
229,36,79480,2,0,B|253:60|253:60|230:151,1,90.0000034332277,8|0,0:2|0:2,0:2:0:0:
59,198,79667,5,2,0:2:0:0:
94,174,79761,2,0,B|131:180|131:180|136:184|136:184|229:204,1,90.0000034332277,2|0,0:2|0:2,0:2:0:0:
340,359,79948,2,0,B|377:352|377:352|382:348|382:348|475:329,1,90.0000034332277,2|0,0:2|3:2,0:2:0:0:
502,243,80136,2,0,B|481:301|481:301|365:280,1,180.000006866455,2|0,0:2|0:2,0:2:0:0:
198,343,80417,5,10,0:2:0:0:
202,293,80511,1,2,0:2:0:0:
156,278,80605,2,0,B|46:306|46:306|83:379,1,180.000006866455,2|0,0:2|3:2,0:2:0:0:
288,237,80886,5,2,3:2:0:0:
288,237,80980,2,0,L|304:131,1,90.0000034332277,8|0,0:2|0:2,0:2:0:0:
106,47,81167,1,2,0:2:0:0:
32,84,81261,5,2,3:2:0:0:
70,123,81355,1,0,3:2:0:0:
125,124,81448,2,0,L|223:105,1,90.0000034332277,2|0,3:2|0:2,0:2:0:0:
399,162,81636,5,2,3:2:0:0:
472,125,81730,2,0,B|501:94|501:94|482:37,1,90.0000034332277,8|0,0:2|0:2,0:2:0:0:
417,0,81917,2,0,B|388:31|388:31|407:88,1,90.0000034332277,2|0,3:2|0:2,0:2:0:0:
511,296,82105,6,0,B|490:273|490:273|376:290|376:290|349:254,1,180.000006866455,2|0,3:2|3:2,0:2:0:0:
246,355,82386,1,2,0:2:0:0:
266,384,82480,2,0,L|288:287,1,90.0000034332277,8|0,0:2|0:2,0:2:0:0:
299,163,82667,5,2,0:2:0:0:
269,177,82761,2,0,B|248:182|248:182|226:104,1,90.0000034332277,2|0,0:2|0:2,0:2:0:0:
34,82,82948,2,0,B|54:87|54:87|77:9,1,90.0000034332277,2|0,0:2|3:2,0:2:0:0:
260,8,83136,2,0,B|161:30|161:30|137:127,1,180.000006866455,2|0,0:2|0:2,0:2:0:0:
68,238,83417,5,10,0:2:0:0:
116,249,83511,1,2,0:2:0:0:
141,300,83605,2,0,P|143:338|116:380,1,90.0000034332277,2|8,0:2|0:2,0:2:0:0:
216,258,83792,5,0,3:2:0:0:
239,254,83855,1,0,3:2:0:0:
262,250,83917,1,0,3:2:0:0:
285,246,83980,2,0,P|329:261|391:290,1,90.0000034332277,10|0,0:2|3:2,0:2:0:0:
414,373,84167,5,2,3:2:0:0:
414,373,84261,1,2,3:2:0:0:
491,322,84355,5,10,0:2:0:0:
493,304,84448,1,2,0:2:0:0:
496,286,84542,1,2,0:2:0:0:
499,268,84636,1,2,0:2:0:0:
502,250,84730,2,0,L|497:228,3,15,2|2|2|2,0:2|0:2|0:2|0:2,0:2:0:0:
503,61,85105,6,0,B|380:92|484:154|329:185,1,180.000006866455,6|0,3:2|0:2,0:2:0:0:
314,6,85386,5,2,3:2:0:0:
314,6,85480,2,0,P|344:55|319:96,1,90.0000034332277,8|0,0:2|0:2,0:2:0:0:
96,119,85667,1,2,0:2:0:0:
82,93,85761,6,0,L|56:-5,1,90.0000034332277,2|0,0:2|0:2,0:2:0:0:
222,206,85948,2,0,L|248:108,1,90.0000034332277,2|0,0:2|3:2,0:2:0:0:
9,284,86136,2,0,P|105:206|152:284,1,180.000006866455,2|0,0:2|0:2,0:2:0:0:
203,346,86417,5,10,0:2:0:0:
257,331,86511,1,2,0:2:0:0:
277,279,86605,2,0,B|333:275|333:275|383:305|383:305|466:297,1,180.000006866455,2|0,0:2|3:2,0:2:0:0:
410,147,86886,5,2,3:2:0:0:
383,168,86980,2,0,B|402:211|402:211|432:171,1,90.0000034332277,8|0,0:2|0:2,0:2:0:0:
456,7,87167,1,2,0:2:0:0:
510,60,87261,5,2,3:2:0:0:
456,85,87355,1,0,3:2:0:0:
402,66,87448,2,0,B|364:59|364:59|357:46|357:46|293:33,1,90.0000034332277,2|0,3:2|0:2,0:2:0:0:
76,105,87636,5,2,3:2:0:0:
114,31,87730,2,0,B|168:53|168:53|143:222,1,180.000006866455,8|2,0:2|0:2,0:2:0:0:
139,252,88011,1,2,0:2:0:0:
205,350,88105,6,0,P|302:340|296:258,1,180.000006866455,2|0,3:2|3:2,0:2:0:0:
38,239,88386,1,2,3:2:0:0:
12,270,88480,2,0,P|20:311|85:316,1,90.0000034332277,8|0,0:2|0:2,0:2:0:0:
290,165,88667,5,2,0:2:0:0:
321,149,88761,2,0,B|355:155|355:155|373:243,1,90.0000034332277,2|0,0:2|0:2,0:2:0:0:
425,282,88948,2,0,B|444:310|444:310|395:385,1,90.0000034332277,2|0,0:2|3:2,0:2:0:0:
223,293,89136,2,0,B|176:267|176:267|218:72,1,180.000006866455,2|0,0:2|0:2,0:2:0:0:
23,51,89417,5,10,0:2:0:0:
67,53,89511,1,2,0:2:0:0:
101,22,89605,2,0,L|214:44,1,90.0000034332277,2|8,0:2|0:2,0:2:0:0:
439,108,89792,5,0,3:2:0:0:
450,105,89855,1,0,3:2:0:0:
461,102,89917,1,0,3:2:0:0:
472,100,89980,2,0,B|483:53|483:53|433:3,1,90.0000034332277,10|0,0:2|3:2,0:2:0:0:
202,143,90167,5,2,3:2:0:0:
278,200,90261,2,0,L|295:79,1,90.0000034332277,10|0,0:2|0:2,0:2:0:0:
71,239,90448,2,0,L|54:118,1,90.0000034332277,2|0,0:2|0:2,0:2:0:0:
99,341,90636,5,2,3:2:0:0:
160,287,90730,1,8,0:2:0:0:
239,310,90823,1,8,0:2:0:0:
262,299,90917,1,2,3:2:0:0:
353,315,91011,1,10,0:2:0:0:
297,378,91105,6,0,L|277:192,1,180.000006866455,6|0,3:2|0:2,0:2:0:0:
486,243,91386,5,2,3:2:0:0:
486,243,91480,2,0,B|439:254|439:254|395:191,1,90.0000034332277,8|0,0:2|0:2,0:2:0:0:
241,62,91667,5,2,0:2:0:0:
309,0,91761,2,0,L|331:117,1,90.0000034332277,2|0,0:2|0:2,0:2:0:0:
160,287,91948,2,0,L|138:170,1,90.0000034332277,2|0,0:2|3:2,0:2:0:0:
9,42,92136,2,0,B|81:57|81:57|96:95|96:95|199:114,1,180.000006866455,2|0,0:2|0:2,0:2:0:0:
365,166,92417,5,10,0:2:0:0:
325,153,92511,1,2,0:2:0:0:
294,168,92605,2,0,P|277:290|267:361,1,180.000006866455,2|0,0:2|3:2,0:2:0:0:
198,384,92886,1,2,3:2:0:0:
306,289,92980,6,0,L|403:277,1,90.0000034332277,8|0,0:2|0:2,0:2:0:0:
512,138,93167,1,2,0:2:0:0:
466,207,93261,5,2,3:2:0:0:
430,179,93355,1,0,3:2:0:0:
421,138,93448,2,0,P|438:85|458:45,1,90.0000034332277,2|0,3:2|0:2,0:2:0:0:
347,196,93636,2,0,P|330:143|310:103,1,90.0000034332277,2|8,3:2|0:2,0:2:0:0:
218,45,93823,5,2,0:2:0:0:
218,45,93917,2,0,L|108:67,1,90.0000034332277,0|8,3:2|0:2,0:2:0:0:
54,320,94105,6,0,L|168:268,1,90.0000034332277,10|0,0:2|0:2,0:2:0:0:
48,208,94292,5,0,3:2:0:0:
121,242,94386,2,0,L|238:285,1,90.0000034332277,10|0,0:2|0:2,0:2:0:0:
195,158,94573,5,0,3:2:0:0:
223,234,94667,2,0,L|275:348,1,90.0000034332277,10|0,2:2|2:2,2:2:0:0:
334,226,94855,5,0,3:2:0:0:
300,300,94948,2,0,L|256:417,1,90.0000034332277,10|0,2:2|2:2,2:2:0:0:
195,158,95136,5,0,3:2:0:0:
186,74,95230,2,0,B|247:83|247:83|271:141,1,90.0000034332277,10|0,0:2|0:2,0:2:0:0:
387,302,95417,2,0,B|448:293|448:293|458:266,1,90.0000034332277,2|0,3:2|0:2,0:2:0:0:
481,34,95605,5,10,0:2:0:0:
404,65,95698,2,0,P|391:105|384:192,1,90.0000034332277,0|0,3:2|0:2,0:2:0:0:
140,331,95886,2,0,P|133:286|119:243,1,90.0000034332277,10|0,0:2|0:2,0:2:0:0:
35,196,96073,1,0,3:2:0:0:
219,253,96167,6,0,L|246:246,9,15,10|0|0|0|0|0|0|0|0|0,0:2|0:2|0:2|0:2|0:2|0:2|0:2|0:2|0:2|0:2,0:2:0:0:
217,370,97105,6,0,B|128:311|13:312|13:312|116:308|145:248,1,360,4|0,3:2|0:2,0:2:0:0:
140,256,99917,6,0,B|145:211|145:211|118:189|118:189|124:105,1,120,4|0,3:2|0:2,0:2:0:0:
377,8,100105,6,0,B|513:54|513:54|410:174|410:174|410:88,1,360,4|0,3:2|0:2,0:2:0:0:
256,192,100855,12,0,102730,0:0:0:0:
410,115,103105,6,0,B|363:105|363:105|344:116|344:116|267:103,1,120,4|0,3:2|3:2,3:2:0:0:
39,17,103292,6,0,B|70:33|70:33|51:95,1,60,8|0,3:2|3:2,3:2:0:0:
152,34,103480,2,0,B|162:67|162:67|105:97,1,60,8|0,3:2|3:2,3:2:0:0:
219,125,103667,2,0,B|203:156|203:156|141:137,1,60,8|0,3:2|3:2,3:2:0:0:
213,384,103855,6,0,B|182:368|182:368|201:306,1,60,8|0,3:2|3:2,3:2:0:0:
100,367,104042,2,0,B|89:333|89:333|146:303,1,60,8|0,3:2|3:2,3:2:0:0:
33,276,104230,2,0,B|49:245|49:245|111:264,1,60,8|0,3:2|3:2,3:2:0:0:
49,164,104417,2,0,B|82:153|82:153|112:210,1,60,8|0,3:2|3:2,3:2:0:0:
289,333,104605,6,0,L|392:306,1,60,8|0,3:2|3:2,3:2:0:0:
432,334,104792,2,0,L|535:307,1,60,8|0,3:2|3:2,3:2:0:0:
306,235,104980,2,0,L|409:208,1,60,8|0,3:2|3:2,3:2:0:0:
449,236,105167,2,0,L|552:209,1,60,8|0,3:2|3:2,3:2:0:0:
227,147,105355,6,0,L|124:120,1,60,8|0,3:2|3:2,3:2:0:0:
84,148,105542,2,0,L|-19:121,1,60,8|0,3:2|3:2,3:2:0:0:
210,49,105730,2,0,L|107:22,1,60,8|0,3:2|3:2,3:2:0:0:
67,50,105917,2,0,L|-36:23,1,60,8|0,3:2|3:2,3:2:0:0:
5,363,106105,5,8,3:2:0:0:
12,321,106198,1,8,3:2:0:0:
33,285,106292,1,8,3:2:0:0:
64,257,106386,1,8,3:2:0:0:
103,241,106480,1,8,3:2:0:0:
145,238,106573,1,8,3:2:0:0:
185,249,106667,1,8,3:2:0:0:
220,272,106761,1,8,3:2:0:0:
245,306,106855,5,8,3:2:0:0:
302,347,106948,1,8,3:2:0:0:
373,341,107042,1,8,3:2:0:0:
422,290,107136,1,8,3:2:0:0:
426,220,107230,1,8,3:2:0:0:
383,164,107323,1,8,3:2:0:0:
314,150,107417,6,0,B|286:162|286:162|330:161,2,60,2|2|2,0:2|0:2|0:2,0:2:0:0:
498,138,107980,5,8,1:2:0:0:
498,138,108167,1,2,3:2:0:0:
451,21,108355,6,0,L|435:94,1,60,8|0,0:2|1:2,0:2:0:0:
394,348,108730,5,10,0:2:0:0:
392,342,108823,1,2,0:2:0:0:
390,336,108917,1,2,0:2:0:0:
388,330,109011,1,2,0:2:0:0:
448,283,109105,6,0,B|290:272|396:371|197:340,1,240,6|2,3:2|0:2,0:2:0:0:
15,191,109386,6,0,B|34:164|34:164|128:230,1,90.0000034332277,2|0,0:2|3:2,0:2:0:0:
98,207,109573,1,2,0:2:0:0:
79,60,109667,2,0,B|111:54|111:54|131:167,1,90.0000034332277,2|0,3:2|0:2,0:2:0:0:
227,343,109855,6,0,L|73:364,1,90.0000034332277,10|0,0:2|0:2,0:2:0:0:
55,371,110042,1,0,3:2:0:0:
234,176,110230,6,0,B|274:190|274:190|284:230|284:230|368:254,1,135.000005149841,6|0,0:2|0:2,0:2:0:0:
333,244,110417,2,0,L|344:293,3,45.0000017166138,2|2|2|2,0:2|0:2|0:2|0:2,0:2:0:0:
450,35,110698,6,2,B|435:48|435:48|446:71,1,45.0000017166138,2|2,3:2|0:2,0:2:0:0:
407,127,110792,2,2,B|425:132|425:132|439:110,1,45.0000017166138,2|2,3:2|0:2,0:2:0:0:
509,117,110886,2,2,B|504:97|504:97|479:96,1,45.0000017166138,2|2,3:2|0:2,0:2:0:0:
121,178,111073,6,2,B|121:158|121:158|97:150,1,45.0000017166138,2|2,3:2|0:2,0:2:0:0:
21,161,111167,2,2,B|37:172|37:172|56:155,1,45.0000017166138,2|2,3:2|0:2,0:2:0:0:
86,82,111261,2,2,B|69:91|69:91|73:116,1,45.0000017166138,2|2,3:2|0:2,0:2:0:0:
71,238,111355,5,8,0:2:0:0:
63,245,111448,2,0,L|72:312,4,45.0000017166138,2|2|2|2|2,0:2|0:2|0:2|0:2|0:2,0:2:0:0:
181,264,111730,6,0,B|203:276|228:271|228:271|249:290|249:290|281:281|316:302,1,135.000005149841,2|0,0:2|0:2,0:2:0:0:
455,375,112105,6,0,B|487:355|487:355|473:241,1,90.0000034332277,6|0,3:2|0:2,0:2:0:0:
269,23,112292,5,2,0:2:0:0:
247,98,112386,2,0,L|134:127,1,90.0000034332277,2|0,0:2|3:2,0:2:0:0:
109,0,112573,5,2,0:2:0:0:
87,75,112667,2,0,L|-26:104,1,90.0000034332277,2|0,3:2|0:2,0:2:0:0:
468,201,112855,6,0,B|503:179|503:179|477:65,1,90.0000034332277,10|0,0:2|0:2,0:2:0:0:
473,49,113042,1,0,3:2:0:0:
234,204,113230,6,0,B|170:220|170:220|205:369,1,180.000006866455,6|2,3:2|0:2,0:2:0:0:
201,348,113511,1,2,0:2:0:0:
446,303,113698,5,2,3:2:0:0:
371,291,113792,1,2,3:2:0:0:
397,362,113886,1,2,3:2:0:0:
439,87,114073,5,2,3:2:0:0:
363,116,114167,1,2,3:2:0:0:
375,38,114261,1,2,3:2:0:0:
426,163,114355,5,10,0:2:0:0:
447,133,114448,1,2,3:2:0:0:
481,145,114542,1,2,3:2:0:0:
481,181,114636,2,0,P|469:222|454:258,1,45.0000017166138,2|0,3:2|3:2,3:2:0:0:
270,197,114823,1,2,3:2:0:0:
270,233,114917,2,0,P|282:274|297:310,1,45.0000017166138,2|0,3:2|3:2,3:2:0:0:
476,342,115105,6,0,B|422:332|422:332|408:338|408:338|310:314,1,120,6|0,3:2|0:2,0:2:0:0:
96,132,115292,5,2,0:2:0:0:
42,191,115386,2,0,P|37:241|70:280,1,90.0000034332277,2|0,0:2|3:2,0:2:0:0:
152,64,115573,5,2,0:2:0:0:
73,46,115667,2,0,P|27:66|9:114,1,90.0000034332277,2|0,3:2|0:2,0:2:0:0:
364,152,115855,6,0,B|378:127|378:127|342:44,1,90.0000034332277,10|0,0:2|0:2,0:2:0:0:
323,0,116042,1,0,3:2:0:0:
224,321,116230,6,0,B|300:306|247:258|331:241,1,135.000005149841,6|0,0:2|0:2,0:2:0:0:
325,242,116417,2,0,P|337:269|332:299,3,45.0000017166138,2|2|2|2,0:2|0:2|0:2|0:2,0:2:0:0:
487,153,116698,6,2,L|417:176,1,45.0000017166138,2|2,3:2|0:2,0:2:0:0:
406,137,116792,2,2,L|336:160,1,45.0000017166138,2|2,3:2|0:2,0:2:0:0:
320,123,116886,2,2,L|250:146,1,45.0000017166138,2|2,3:2|0:2,0:2:0:0:
55,347,117073,6,2,L|125:370,1,45.0000017166138,2|2,3:2|0:2,0:2:0:0:
136,331,117167,2,2,L|206:354,1,45.0000017166138,2|2,3:2|0:2,0:2:0:0:
222,317,117261,2,2,L|292:340,1,45.0000017166138,2|2,3:2|0:2,0:2:0:0:
332,379,117355,5,10,0:2:0:0:
338,356,117448,2,0,P|351:337|369:323,4,45.0000017166138,2|2|2|2|2,0:2|0:2|0:2|0:2|0:2,0:2:0:0:
264,331,117730,6,0,L|255:278,1,45.0000017166138,0|0,0:2|0:2,0:2:0:0:
206,200,117917,2,0,B|221:187|221:187|304:211,1,90.0000034332277,0|0,0:2|0:2,0:2:0:0:
476,25,118105,6,0,L|466:72,1,45.0000017166138,6|0,3:2|0:2,0:2:0:0:
502,293,118292,5,2,0:2:0:0:
441,351,118386,2,0,P|421:335|424:263,1,90.0000034332277,2|0,0:2|3:2,0:2:0:0:
427,136,118573,5,2,0:2:0:0:
512,139,118667,2,0,P|514:164|461:213,1,90.0000034332277,2|0,3:2|0:2,0:2:0:0:
272,0,118855,6,0,L|282:89,1,90.0000034332277,10|0,0:2|0:2,0:2:0:0:
282,89,119042,1,0,3:2:0:0:
0,207,119230,6,0,B|27:160|27:160|161:214,1,180.000006866455,6|2,3:2|0:2,0:2:0:0:
141,228,119511,1,2,0:2:0:0:
92,107,119605,6,0,L|-40:134,1,90.0000034332277,10|0,0:2|0:2,0:2:0:0:
210,299,119792,5,2,3:2:0:0:
210,299,119886,1,2,3:2:0:0:
229,209,119980,2,0,L|97:236,1,90.0000034332277,10|0,0:2|0:2,0:2:0:0:
371,362,120167,5,2,3:2:0:0:
374,350,120230,1,0,3:2:0:0:
377,338,120292,1,0,3:2:0:0:
381,326,120355,2,0,L|249:353,1,90.0000034332277,10|0,0:2|0:2,0:2:0:0:
426,221,120542,6,0,B|425:192|425:192|451:219,2,60.0000022888184,0|0|0,3:2|3:2|3:2,0:2:0:0:
471,302,120730,5,2,3:2:0:0:
471,302,120823,1,2,3:2:0:0:
471,302,120917,2,0,L|491:364,1,45.0000017166138,2|0,3:2|0:2,0:2:0:0:
331,251,121105,6,0,L|349:70,1,120,6|0,3:2|0:2,0:2:0:0:
115,77,121292,5,2,0:2:0:0:
111,91,121386,2,0,L|59:102,1,30,2|0,0:2|3:2,0:2:0:0:
99,2,121573,5,2,0:2:0:0:
95,16,121667,2,0,L|43:27,1,30,2|0,3:2|0:2,0:2:0:0:
112,364,121855,6,0,L|92:275,1,60,10|0,0:2|0:2,0:2:0:0:
79,230,122042,1,0,3:2:0:0:
384,286,122230,6,0,B|426:270|426:270|429:225|429:225|477:204,1,135.000005149841,6|0,3:2|0:2,0:2:0:0:
470,207,122417,2,0,B|493:212|493:212|489:263,3,45.0000017166138,2|2|2|2,0:2|0:2|0:2|0:2,0:2:0:0:
512,113,122698,6,2,L|485:108,1,15,2|2,3:2|0:2,0:2:0:0:
480,67,122792,2,2,L|457:83,1,15,2|2,3:2|0:2,0:2:0:0:
426,58,122886,2,2,L|420:85,1,15,2|2,3:2|0:2,0:2:0:0:
298,54,123073,6,2,L|271:59,1,15,2|2,3:2|0:2,0:2:0:0:
266,100,123167,2,2,L|243:84,1,15,2|2,3:2|0:2,0:2:0:0:
212,109,123261,2,2,L|206:82,1,15,2|2,3:2|0:2,0:2:0:0:
136,66,123355,5,10,0:2:0:0:
126,50,123448,2,0,L|130:28,6,15,2|2|2|2|2|2|2,0:2|0:2|0:2|0:2|0:2|0:2|0:2,0:2:0:0:
41,62,123917,6,0,B|30:76|30:76|44:89,1,30,2|0,3:2|0:2,0:2:0:0:
264,141,124105,2,0,B|252:119|252:119|166:137,1,90.0000034332277,6|0,3:2|0:2,0:2:0:0:
25,204,124292,5,2,0:2:0:0:
33,216,124386,2,0,L|42:171,1,45.0000017166138,2|0,0:2|3:2,0:2:0:0:
47,314,124573,5,2,0:2:0:0:
39,302,124667,2,0,L|30:347,1,45.0000017166138,2|0,3:2|0:2,0:2:0:0:
293,342,124855,6,0,L|208:336,1,60,10|0,0:2|0:2,0:2:0:0:
150,329,125042,1,0,3:2:0:0:
264,141,125230,6,0,B|318:131|318:131|339:75|339:75|438:57,1,180.000006866455,6|2,3:2|0:2,0:2:0:0:
472,124,125511,1,2,0:2:0:0:
472,124,125698,5,2,3:2:0:0:
432,199,125792,1,2,3:2:0:0:
482,270,125886,1,2,3:2:0:0:
482,270,126073,5,2,3:2:0:0:
432,199,126167,1,2,3:2:0:0:
345,211,126261,1,2,3:2:0:0:
279,270,126355,5,10,0:2:0:0:
246,270,126448,1,2,3:2:0:0:
233,248,126542,1,2,3:2:0:0:
204,246,126636,2,0,L|198:290,1,45.0000017166138,2|0,3:2|3:2,3:2:0:0:
104,247,126823,1,2,3:2:0:0:
115,235,126917,2,0,L|109:191,1,45.0000017166138,2|0,3:2|3:2,3:2:0:0:
379,341,127105,6,0,L|486:362,1,90.0000034332277,6|2,3:2|0:2,0:2:0:0:
472,351,127386,1,2,0:2:0:0:
476,272,127573,5,2,0:2:0:0:
488,268,127667,2,0,L|500:215,1,45.0000017166138,2|0,3:2|0:2,0:2:0:0:
249,365,127855,6,0,P|210:336|205:303,1,60,10|0,0:2|0:2,0:2:0:0:
217,253,128042,1,0,3:2:0:0:
41,162,128230,6,0,P|98:158|121:114,1,90,6|0,3:2|0:2,0:2:0:0:
116,134,128417,2,2,L|98:82,3,30,2|2|2|2,0:2|0:2|0:2|0:2,0:2:0:0:
256,41,128698,6,2,L|252:18,1,15,2|2,3:2|0:2,0:2:0:0:
241,84,128792,2,2,L|223:98,1,15,2|2,3:2|0:2,0:2:0:0:
286,76,128886,2,2,L|307:84,1,15,2|2,3:2|0:2,0:2:0:0:
432,144,129073,6,2,L|428:167,1,15,2|2,3:2|0:2,0:2:0:0:
417,101,129167,2,2,L|399:86,1,15,2|2,3:2|0:2,0:2:0:0:
462,109,129261,2,2,L|483:100,1,15,2|2,3:2|0:2,0:2:0:0:
462,35,129355,5,10,0:2:0:0:
456,21,129448,2,2,L|464:-4,4,15,2|2|2|2|2,0:2|0:2|0:2|0:2|0:2,0:2:0:0:
339,144,129730,6,0,B|315:167|315:167|343:200,1,60,0|0,1:2|1:2,1:2:0:0:
506,239,129917,2,0,B|530:216|530:216|502:183,1,60,0|0,1:2|1:2,1:2:0:0:
390,268,130105,6,0,L|228:296,1,120,6|2,3:2|0:2,0:2:0:0:
272,289,130386,6,0,L|251:398,1,60,2|0,0:2|3:2,0:2:0:0:
185,316,130573,1,2,0:2:0:0:
171,326,130667,2,0,L|150:435,1,60,2|0,3:2|0:2,0:2:0:0:
13,210,130855,6,0,B|21:201|21:201|109:231,1,60,10|0,0:2|0:2,0:2:0:0:
233,197,131042,2,0,B|241:206|241:206|329:176,1,60,2|0,3:2|0:2,0:2:0:0:
493,158,131230,6,0,L|484:72,1,60,4|0,3:2|0:2,0:2:0:0:
476,16,131417,1,2,0:2:0:0:
476,16,131511,1,2,0:2:0:0:
390,84,131605,5,2,3:2:0:0:
336,27,131698,1,2,0:2:0:0:
286,22,131792,1,2,0:2:0:0:
246,42,131886,1,2,0:2:0:0:
213,168,132073,5,2,0:2:0:0:
185,183,132167,1,2,0:2:0:0:
163,179,132261,1,2,0:2:0:0:
91,86,132448,5,2,0:2:0:0:
76,77,132542,1,2,0:2:0:0:
60,76,132636,1,2,0:2:0:0:
35,149,132730,5,10,1:2:0:0:
29,159,132823,2,0,P|7:90|97:97,1,180,2|4,0:2|3:2,0:2:0:0:
256,192,133198,12,0,135355,0:2:0:0:
256,192,139105,12,0,142105,0:2:0:0:
85,235,144917,5,0,3:2:0:0:
85,235,145011,1,0,3:2:0:0:
85,235,145105,2,0,L|67:119,2,90,0|0|0,3:2|3:2|3:2,0:2:0:0:
99,316,145855,1,0,3:2:0:0:
387,327,146605,6,0,L|451:315,1,60,0|0,1:2|3:2,0:2:0:0:
497,92,147167,2,0,L|439:81,1,60,0|0,1:2|3:2,0:2:0:0:
143,100,147917,5,0,3:2:0:0:
143,100,148011,1,0,3:2:0:0:
143,100,148105,2,0,P|88:69|59:70,2,90,0|0|0,3:2|3:2|3:2,0:2:0:0:
187,175,148855,1,0,3:2:0:0:
512,255,149605,6,0,P|468:245|443:231,1,60,0|0,1:2|3:2,0:2:0:0:
247,352,150167,2,0,P|217:356|189:368,1,60,0|0,1:2|3:2,0:2:0:0:
46,215,150917,5,0,3:2:0:0:
46,215,151011,1,0,3:2:0:0:
46,215,151105,2,0,L|144:199,2,90,0|0|0,3:2|3:2|3:2,0:2:0:0:
16,288,151855,1,0,3:2:0:0:
451,21,152605,6,0,L|440:100,1,60,0|0,1:2|3:2,0:2:0:0:
218,193,153167,2,0,L|229:272,1,60,0|0,1:2|3:2,0:2:0:0:
435,354,153917,5,0,3:2:0:0:
435,354,154011,1,0,3:2:0:0:
435,354,154105,2,0,P|466:327|521:312,1,90,0|0,1:2|3:2,0:2:0:0:
241,319,154667,5,0,1:2:0:0:
310,374,154855,2,0,P|342:349|344:251,1,120,0|0,3:2|1:2,0:2:0:0:
341,269,155417,1,0,0:2:0:0:
407,117,155605,5,0,1:2:0:0:
330,97,155792,1,0,3:2:0:0:
384,39,155980,1,0,3:2:0:0:
352,173,156167,1,0,3:2:0:0:
384,39,156355,2,0,L|473:24,1,90,0|0,1:2|1:2,0:2:0:0:
496,158,156730,5,2,0:0:0:0:
497,166,156823,1,2,0:0:0:0:
498,174,156917,1,2,1:2:0:0:
499,182,157011,1,2,0:2:0:0:
503,268,157105,6,0,B|417:268|454:314|360:320,1,135.000005149841,2|0,3:2|0:2,0:2:0:0:
242,315,157480,2,0,B|265:342|265:379|265:379|272:342|303:306,1,135.000005149841,0|0,3:2|0:2,0:2:0:0:
109,118,157855,6,0,B|66:126|66:126|64:130|64:130|13:139,1,89.9999972534181,8|0,0:2|0:2,0:2:0:0:
95,207,158417,6,0,L|112:92,1,90.0000034332277,0|0,3:2|0:2,0:2:0:0:
164,355,158792,1,0,3:2:0:0:
418,175,158980,2,0,P|462:180|515:192,1,90.0000034332277,0|0,3:2|0:2,0:2:0:0:
257,384,159355,6,0,B|246:324|246:324|247:317|247:317|236:247,1,125.999996154785,8|0,0:2|0:2,0:2:0:0:
329,304,160105,6,0,B|359:309|359:309|371:336|371:336|404:342,1,90.0000034332277,0|0,3:2|0:2,0:2:0:0:
150,202,160480,2,0,B|119:207|119:207|107:234|107:234|74:240,1,90.0000034332277,0|0,3:2|0:2,0:2:0:0:
445,32,160855,6,0,B|436:69|436:69|443:76|443:76|429:132,1,89.9999972534181,8|0,0:2|0:2,0:2:0:0:
433,117,161417,6,0,P|385:104|325:81,1,90.0000034332277,0|0,3:2|0:2,0:2:0:0:
112,31,161792,1,0,3:2:0:0:
345,198,161980,2,0,P|296:211|236:234,1,90.0000034332277,0|0,3:2|0:2,0:2:0:0:
512,305,162355,6,0,B|511:351|511:351|432:368,1,125.999996154785,8|0,0:2|0:2,0:2:0:0:
432,367,163105,6,0,P|405:337|378:295,1,90.0000034332277,0|0,3:2|0:2,0:2:0:0:
145,141,163480,2,0,P|172:110|199:68,1,90.0000034332277,0|0,3:2|0:2,0:2:0:0:
155,326,163855,6,0,B|113:339|113:339|114:344|114:344|60:359,1,89.9999972534181,8|0,0:2|0:2,0:2:0:0:
75,355,164417,6,0,P|94:305|94:257,1,90.0000034332277,0|0,3:2|0:2,0:2:0:0:
45,199,164792,1,0,3:2:0:0:
305,217,164980,2,0,P|334:251|352:293,1,90.0000034332277,0|0,3:2|0:2,0:2:0:0:
142,134,165355,6,0,B|92:155|92:155|90:176|90:176|37:202,1,125.999996154785,8|0,0:2|0:2,0:2:0:0:
31,0,166105,6,0,L|49:111,1,90.0000034332277,0|0,3:2|0:2,0:2:0:0:
305,217,166480,2,0,L|323:106,1,90.0000034332277,0|0,3:2|0:2,0:2:0:0:
47,353,166855,6,0,B|73:327|73:327|134:340,1,89.9999972534181,8|0,0:2|0:2,0:2:0:0:
203,384,167417,6,0,P|251:355|260:308,1,90.0000034332277,0|0,3:2|0:2,0:2:0:0:
187,121,167792,1,0,3:2:0:0:
363,369,167980,2,0,P|376:314|349:274,1,90.0000034332277,0|0,3:2|0:2,0:2:0:0:
187,121,168355,6,0,B|154:128|154:128|151:137|151:137|114:142,1,71.9999978027344,8|0,0:2|0:2,0:2:0:0:
33,55,168917,1,8,0:2:0:0:
33,55,169011,1,8,0:2:0:0:
33,55,169105,6,0,B|95:70|95:70|108:103|108:103|205:124,1,180.000006866455,2|0,3:2|3:2,0:2:0:0:
262,52,169667,1,2,0:2:0:0:
453,156,169855,5,10,3:2:0:0:
453,156,169948,2,0,P|509:143|510:143,1,45.0000017166138,2|0,0:2|0:2,0:2:0:0:
444,74,170136,2,0,P|421:69|400:61,1,45.0000017166138,2|0,0:2|3:2,0:2:0:0:
371,132,170323,2,0,P|368:166|351:215,1,45.0000017166138,2|0,0:2|0:2,0:2:0:0:
354,287,170511,6,0,P|393:260|459:263,1,90.0000034332277,2|0,0:2|0:2,0:2:0:0:
451,270,170792,1,2,0:2:0:0:
270,275,170980,5,2,3:2:0:0:
251,357,171167,1,2,0:2:0:0:
57,224,171355,5,10,3:2:0:0:
76,306,171542,1,2,0:2:0:0:
306,112,171730,5,2,3:2:0:0:
287,194,171917,1,2,0:2:0:0:
33,143,172105,6,0,B|82:139|82:139|107:152|107:152|181:147,1,135.000005149841,2|0,3:2|0:2,0:2:0:0:
166,125,172480,2,0,L|182:15,1,90.0000034332277,2|0,3:2|0:2,0:2:0:0:
188,316,172855,5,10,3:2:0:0:
188,316,172948,2,0,L|249:307,1,45.0000017166138,2|0,0:2|0:2,0:2:0:0:
313,278,173136,2,0,L|362:314,1,45.0000017166138,2|0,0:2|3:2,0:2:0:0:
433,323,173323,2,0,L|442:384,1,45.0000017166138,2|0,0:2|0:2,0:2:0:0:
484,165,173511,6,0,B|433:175|433:175|425:222,1,90.0000034332277,2|0,0:2|0:2,0:2:0:0:
427,235,173792,1,2,0:2:0:0:
318,23,173980,5,2,3:2:0:0:
398,45,174167,1,2,0:2:0:0:
308,194,174355,5,10,3:2:0:0:
228,216,174542,1,2,0:2:0:0:
20,131,174730,5,2,3:2:0:0:
100,153,174917,1,2,0:2:0:0:
194,314,175105,6,0,P|141:346|110:246,1,180.000006866455,2|0,3:2|3:2,0:2:0:0:
306,295,175667,5,2,0:2:0:0:
306,295,175761,1,2,0:2:0:0:
370,356,175855,1,10,3:2:0:0:
370,356,175948,2,0,P|415:350|445:343,1,45.0000017166138,2|0,0:2|0:2,0:2:0:0:
509,288,176136,2,0,P|464:282|433:275,1,45.0000017166138,2|0,0:2|3:2,0:2:0:0:
401,187,176323,2,0,L|381:296,1,90.0000034332277,2|2,0:2|0:2,0:2:0:0:
467,111,176605,5,8,3:2:0:0:
132,61,176792,1,8,3:2:0:0:
438,23,176980,5,8,3:2:0:0:
127,159,177167,1,8,3:2:0:0:
335,360,177355,5,8,3:2:0:0:
374,93,177542,1,8,3:2:0:0:
89,379,177730,5,8,3:2:0:0:
50,112,177917,1,8,3:2:0:0:
427,253,178105,6,0,B|438:231|468:224|468:224|378:216|403:283|320:270,1,210,4|0,3:2|0:2,0:2:0:0:
253,230,179605,5,2,0:2:0:0:
253,230,179980,1,2,0:2:0:0:
253,230,180355,1,2,0:2:0:0:
79,75,180730,5,8,0:2:0:0:
151,28,180823,1,8,0:2:0:0:
69,48,180917,1,8,0:2:0:0:
157,57,181011,1,8,0:2:0:0:
123,140,181105,5,4,0:2:0:0:
123,140,181198,2,0,L|106:239,1,90.0000034332277,0|0,0:2|0:2,0:2:0:0:
92,305,181480,1,8,0:2:0:0:
250,363,181667,5,0,0:2:0:0:
250,363,181761,1,0,3:2:0:0:
308,301,181948,1,0,0:2:0:0:
308,301,182042,1,0,3:2:0:0:
391,322,182230,2,0,L|459:310,3,45.0000017166138,0|0|8|0,0:2|0:2|0:2|0:2,0:2:0:0:
493,140,182698,5,0,0:2:0:0:
493,140,182792,1,0,3:2:0:0:
493,140,182886,1,0,0:2:0:0:
493,140,182980,2,0,L|507:57,3,45.0000017166138,8|0|0|0,0:2|0:2|0:2|3:2,0:2:0:0:
392,96,183355,5,0,0:2:0:0:
369,94,183448,1,0,0:2:0:0:
346,92,183542,1,0,3:2:0:0:
323,90,183636,1,0,0:2:0:0:
300,88,183730,6,0,L|312:147,2,45.0000017166138,8|0|0,0:2|0:2|0:2,0:2:0:0:
222,47,184011,2,0,L|234:-12,2,45.0000017166138,8|0|0,0:2|3:2|0:2,0:2:0:0:
136,85,184292,5,0,0:2:0:0:
113,88,184386,1,0,0:2:0:0:
90,92,184480,2,0,L|26:77,1,45.0000017166138,8|0,0:2|0:2,0:2:0:0:
29,181,184667,1,0,0:2:0:0:
52,185,184761,2,0,L|116:170,2,45.0000017166138,0|0|0,3:2|0:2|0:2,0:2:0:0:
18,270,185042,2,0,L|3:334,3,45.0000017166138,0|0|0|0,3:2|0:2|0:2|0:2,0:2:0:0:
107,263,185417,2,0,L|171:278,1,45.0000017166138,8|0,0:2|0:2,0:2:0:0:
239,372,185605,5,0,0:2:0:0:
243,350,185698,1,0,0:2:0:0:
247,327,185792,1,0,3:2:0:0:
251,304,185886,1,0,0:2:0:0:
255,281,185980,6,0,L|298:270,2,45.0000017166138,8|0|0,0:2|0:2|0:2,0:2:0:0:
349,363,186261,2,0,L|392:373,2,45.0000017166138,0|0|0,3:2|0:2|0:2,0:2:0:0:
391,246,186542,2,0,L|434:235,1,45.0000017166138,0|0,3:2|0:2,0:2:0:0:
284,180,186730,2,0,L|294:136,1,45.0000017166138,8|0,0:2|0:2,0:2:0:0:
310,34,186917,5,0,0:2:0:0:
332,31,187011,1,8,0:2:0:0:
400,54,187105,5,0,3:2:0:0:
422,57,187198,1,0,0:2:0:0:
443,62,187292,2,0,L|514:72,1,45.0000017166138,0|0,0:2|0:2,0:2:0:0:
397,157,187480,1,8,0:2:0:0:
418,152,187573,2,0,L|489:142,1,45.0000017166138,0|0,0:2|0:2,0:2:0:0:
434,235,187761,1,0,3:2:0:0:
455,240,187855,2,0,L|526:250,1,45.0000017166138,0|0,0:2|0:2,0:2:0:0:
431,336,188042,2,0,L|502:326,1,45.0000017166138,0|0,3:2|0:2,0:2:0:0:
362,286,188230,5,0,3:2:0:0:
339,283,188323,1,0,0:2:0:0:
316,280,188417,2,0,L|324:350,1,45.0000017166138,8|0,0:2|0:2,0:2:0:0:
215,330,188605,5,0,0:2:0:0:
238,327,188698,2,0,L|230:397,2,45.0000017166138,0|0|0,0:2|3:2|0:2,0:2:0:0:
163,311,188980,2,0,L|155:241,2,45.0000017166138,8|0|0,0:2|0:2|0:2,0:2:0:0:
94,363,189261,5,0,3:2:0:0:
72,356,189355,1,0,0:2:0:0:
50,349,189448,1,0,0:2:0:0:
28,343,189542,2,0,L|85:336,1,45.0000017166138,0|0,3:2|0:2,0:2:0:0:
157,266,189730,2,0,L|100:259,1,45.0000017166138,8|0,0:2|0:2,0:2:0:0:
51,201,189917,5,0,0:2:0:0:
45,179,190011,1,8,0:2:0:0:
40,156,190105,2,0,L|46:100,1,45.0000017166138,0|0,3:2|0:2,0:2:0:0:
129,0,190292,1,0,0:2:0:0:
123,22,190386,1,0,0:2:0:0:
118,45,190480,2,0,L|124:101,1,45.0000017166138,8|0,0:2|0:2,0:2:0:0:
201,141,190667,5,0,3:2:0:0:
223,138,190761,2,0,L|288:131,1,45.0000017166138,0|0,3:2|0:2,0:2:0:0:
297,47,190948,1,0,0:2:0:0:
319,50,191042,2,0,L|384:57,1,45.0000017166138,0|0,3:2|0:2,0:2:0:0:
445,126,191230,5,0,0:2:0:0:
449,104,191323,1,0,0:2:0:0:
453,81,191417,1,8,0:2:0:0:
457,58,191511,2,0,L|495:98,1,45.0000017166138,0|0,0:2|3:2,0:2:0:0:
368,182,191698,5,0,3:2:0:0:
364,159,191792,1,0,0:2:0:0:
360,136,191886,2,0,L|322:176,1,45.0000017166138,0|8,0:2|0:2,0:2:0:0:
437,254,192073,5,0,0:2:0:0:
441,231,192167,1,0,3:2:0:0:
444,208,192261,1,0,3:2:0:0:
449,186,192355,6,0,B|344:189|422:295|295:311,1,210,2|0,0:2|0:2,0:2:0:0:
198,353,193105,6,0,L|185:278,1,45.0000017166138,10|0,3:2|3:2,3:2:0:0:
96,320,193292,1,0,3:2:0:0:
101,298,193386,2,0,L|114:223,2,45.0000017166138,2|8|0,3:2|3:2|3:2,3:2:0:0:
192,216,193667,5,2,3:2:0:0:
187,193,193761,2,0,L|174:118,1,45.0000017166138,2|8,3:2|3:2,3:2:0:0:
20,240,193948,2,0,L|33:165,1,45.0000017166138,2|0,3:2|3:2,3:2:0:0:
256,109,194136,2,0,L|243:34,1,45.0000017166138,2|8,3:2|3:2,3:2:0:0:
166,0,194323,5,0,3:2:0:0:
163,22,194417,1,2,3:2:0:0:
160,44,194511,1,2,3:2:0:0:
158,66,194605,6,0,L|81:80,2,45.0000017166138,10|0|0,3:2|3:2|3:2,3:2:0:0:
256,109,194886,2,0,L|333:123,1,45.0000017166138,2|8,3:2|3:2,3:2:0:0:
375,59,195073,1,0,3:2:0:0:
397,54,195167,1,2,3:2:0:0:
419,49,195261,6,0,L|475:37,1,45.0000017166138,2|8,3:2|3:2,3:2:0:0:
285,201,195448,2,0,L|229:189,1,45.0000017166138,2|0,3:2|3:2,3:2:0:0:
433,131,195636,2,0,L|489:119,1,45.0000017166138,2|8,3:2|3:2,3:2:0:0:
481,320,195823,5,0,3:2:0:0:
465,279,195917,1,2,3:2:0:0:
422,261,196011,1,2,3:2:0:0:
380,274,196105,6,0,L|359:356,1,45.0000017166138,10|0,3:2|3:2,3:2:0:0:
285,380,196292,1,0,3:2:0:0:
278,358,196386,2,0,L|257:276,2,45.0000017166138,2|8|0,3:2|3:2|3:2,3:2:0:0:
164,311,196667,5,2,3:2:0:0:
170,289,196761,2,0,L|191:207,1,45.0000017166138,2|8,3:2|3:2,3:2:0:0:
277,226,196948,2,0,L|254:187,1,45.0000017166138,2|0,3:2|3:2,3:2:0:0:
284,102,197136,2,0,L|240:90,2,45.0000017166138,2|8|0,3:2|3:2|3:2,3:2:0:0:
206,14,197417,1,2,3:2:0:0:
184,20,197511,1,2,3:2:0:0:
162,26,197605,6,0,L|85:18,2,45.0000017166138,10|0|0,3:2|3:2|3:2,3:2:0:0:
81,96,197886,2,0,L|4:104,2,45.0000017166138,2|8|0,3:2|3:2|3:2,3:2:0:0:
187,113,198167,1,2,3:2:0:0:
174,121,198261,6,0,P|162:177|200:208,1,60,2|8,3:2|3:2,3:2:0:0:
67,175,198448,2,0,P|98:222|146:218,1,60,2|0,3:2|3:2,3:2:0:0:
39,296,198636,2,0,P|95:307|126:270,2,60,2|8|0,3:2|3:2|3:2,3:2:0:0:
138,384,198917,2,0,P|160:365|169:336,1,60,2|0,3:2|3:2,3:2:0:0:
261,322,199105,5,12,3:2:0:0:
283,341,199198,1,8,3:2:0:0:
311,351,199292,1,8,3:2:0:0:
341,350,199386,1,8,3:2:0:0:
368,338,199480,1,8,3:2:0:0:
389,317,199573,1,8,3:2:0:0:
400,290,199667,1,8,3:2:0:0:
400,260,199761,1,8,3:2:0:0:
389,232,199855,1,8,3:2:0:0:
380,204,199948,1,8,3:2:0:0:
380,174,200042,1,8,3:2:0:0:
391,146,200136,1,8,3:2:0:0:
412,125,200229,1,8,3:2:0:0:
439,113,200323,1,8,3:2:0:0:
469,112,200417,1,8,3:2:0:0:
497,122,200511,1,8,3:2:0:0:
509,143,200605,5,8,3:2:0:0:
472,163,200698,1,8,3:2:0:0:
431,161,200792,1,8,3:2:0:0:
397,138,200886,1,8,3:2:0:0:
379,101,200980,1,8,3:2:0:0:
361,64,201073,1,8,3:2:0:0:
327,41,201167,1,8,3:2:0:0:
286,39,201261,1,8,3:2:0:0:
250,72,201355,5,8,3:2:0:0:
290,141,201448,1,8,3:2:0:0:
281,220,201542,1,8,3:2:0:0:
227,278,201636,1,8,3:2:0:0:
148,292,201730,1,8,3:2:0:0:
77,256,201823,1,8,3:2:0:0:
41,185,201917,1,8,3:2:0:0:
56,107,202011,1,8,3:2:0:0:
117,55,202105,6,0,L|138:108,2,45.0000017166138,0|0|0,3:2|1:2|1:2,1:2:0:0:
206,148,202292,2,0,L|185:200,2,45.0000017166138,0|0|0,3:2|1:2|1:2,1:2:0:0:
231,270,202480,2,0,L|178:290,2,45.0000017166138,0|0|0,3:2|1:2|1:2,1:2:0:0:
153,361,202667,2,0,L|100:340,2,45.0000017166138,0|0|0,3:2|1:2|1:2,1:2:0:0:
344,328,202855,6,0,L|362:391,2,45.0000017166138,0|0|0,3:2|1:2|1:2,1:2:0:0:
363,56,203042,2,0,L|408:8,2,45.0000017166138,0|0|0,3:2|1:2|1:2,1:2:0:0:
118,176,203230,2,0,L|54:160,2,45.0000017166138,0|0|0,3:2|1:2|1:2,1:2:0:0:
278,187,203417,5,2,0:2:0:0:
278,187,203605,1,2,0:2:0:0:
278,187,203792,1,2,0:2:0:0:
510,196,203980,6,0,L|408:225,1,90.0000034332277,2|0,1:2|0:2,0:2:0:0:
347,244,204167,1,2,3:2:0:0:
363,62,204355,6,0,L|370:12,1,45.0000017166138,8|0,0:2|0:2,0:2:0:0:
480,16,204542,5,0,3:2:0:0:
480,16,204636,1,0,3:2:0:0:
480,16,204730,2,0,B|427:30|427:30|425:46|425:46|352:64,1,135.000005149841,0|0,3:2|0:2,0:2:0:0:
43,300,205105,6,0,B|57:272|57:272|191:296,1,120,6|0,3:2|0:2,0:2:0:0:
410,198,205292,1,2,0:2:0:0:
345,145,205386,2,0,B|317:159|317:159|341:293,1,120,2|8,3:2|0:2,0:2:0:0:
501,299,205573,1,2,3:2:0:0:
511,216,205667,6,0,B|417:238|417:238|399:350|399:350|230:378,1,360,2|0,3:2|0:2,0:2:0:0:
53,333,206042,2,0,B|28:309|28:309|173:348,1,120,0|0,3:2|0:2,0:2:0:0:
320,9,206230,2,0,B|355:22|355:22|208:48,1,120,0|0,3:2|0:2,0:2:0:0:
161,228,206417,6,0,B|199:289|199:289|215:136|215:136|84:166,1,360,14|0,0:2|0:2,0:2:0:0:
85,248,206792,1,0,3:2:0:0:
136,113,206886,1,0,3:2:0:0:
247,190,206980,6,0,L|490:227,1,240,10|0,0:2|0:2,0:2:0:0:
365,166,207261,5,2,3:2:0:0:
249,360,207355,1,2,3:2:0:0:
341,382,207448,2,0,B|385:354|385:354|349:212,1,120,2|0,3:2|0:2,0:2:0:0:
85,165,207636,1,2,3:2:0:0:
58,276,207730,6,0,B|102:264|102:264|119:237|119:237|198:219,1,120,10|0,0:2|0:2,0:2:0:0:
365,166,207917,1,2,3:2:0:0:
449,145,208011,1,2,0:2:0:0:
308,96,208105,6,0,B|441:117|311:232|519:260,1,240,2|0,3:2|3:2,0:2:0:0:
482,12,208386,1,2,3:2:0:0:
482,12,208480,2,0,B|404:33|462:68|368:98,1,120,8|0,0:2|0:2,0:2:0:0:
144,154,208667,5,2,0:2:0:0:
69,120,208761,2,0,B|36:103|36:103|66:18,1,120,2|0,0:2|0:2,0:2:0:0:
234,258,208948,2,0,B|267:241|267:241|237:156,1,120,2|0,0:2|3:2,0:2:0:0:
17,301,209136,2,0,B|-4:371|-4:371|198:342,1,240,2|0,0:2|0:2,0:2:0:0:
416,239,209417,5,10,0:2:0:0:
488,294,209511,2,0,B|477:343|477:343|362:361|362:361|338:272,1,240,2|10,0:2|0:2,0:2:0:0:
332,103,209792,5,0,3:2:0:0:
355,96,209855,1,0,3:2:0:0:
377,89,209917,1,0,3:2:0:0:
400,83,209980,2,0,B|479:102|479:102|493:161,1,120,10|0,0:2|0:2,0:2:0:0:
242,311,210167,6,0,B|220:275|220:275|259:157,1,120,2|0,3:2|0:2,0:2:0:0:
207,65,210355,1,2,3:2:0:0:
280,118,210448,2,0,B|302:82|302:82|263:-36,1,120,2|0,3:2|0:2,0:2:0:0:
24,236,210636,5,2,3:2:0:0:
102,252,210730,1,8,0:2:0:0:
183,267,210823,1,8,0:2:0:0:
177,236,210917,1,2,3:2:0:0:
258,252,211011,1,10,0:2:0:0:
337,270,211105,5,6,3:2:0:0:
358,281,211167,1,2,0:2:0:0:
372,300,211230,1,2,0:2:0:0:
374,323,211292,2,0,P|354:362|293:372,1,75,2|0,0:2|3:2,0:2:0:0:
175,114,211480,5,10,0:2:0:0:
154,103,211542,1,2,0:2:0:0:
140,84,211605,1,2,0:2:0:0:
138,60,211667,2,0,P|154:25|189:7,1,75,2|0,0:2|0:2,0:2:0:0:
387,214,211855,5,2,0:2:0:0:
409,206,211917,1,2,0:2:0:0:
433,210,211980,1,2,0:2:0:0:
450,225,212042,2,0,P|463:261|450:299,1,75,2|0,3:2|0:2,0:2:0:0:
125,170,212230,5,2,3:2:0:0:
103,178,212292,1,2,0:2:0:0:
79,174,212355,1,2,0:2:0:0:
61,158,212417,2,0,P|48:122|61:84,1,75,10|0,0:2|0:2,0:2:0:0:
382,139,212605,5,2,0:2:0:0:
392,117,212667,1,2,0:2:0:0:
412,103,212730,1,2,0:2:0:0:
435,102,212792,2,0,P|470:118|488:153,1,75,2|0,3:2|3:2,0:2:0:0:
130,245,212980,5,10,0:2:0:0:
120,267,213042,1,2,0:2:0:0:
100,281,213105,1,2,0:2:0:0:
76,281,213167,2,0,P|41:265|23:230,1,75,2|0,0:2|3:2,0:2:0:0:
325,89,213355,5,2,3:2:0:0:
316,66,213417,1,2,0:2:0:0:
321,42,213480,1,2,0:2:0:0:
336,24,213542,2,0,P|372:11|410:24,1,75,2|0,0:2|3:2,0:2:0:0:
187,295,213730,5,10,0:2:0:0:
196,318,213792,1,2,0:2:0:0:
191,342,213855,1,2,0:2:0:0:
176,359,213917,2,0,P|134:372|84:336,1,75,2|0,3:2|0:2,0:2:0:0:
228,227,214105,6,0,B|307:244|307:244|318:301|318:301|471:338,1,240,2|0,0:2|3:2,0:2:0:0:
510,71,214386,2,0,B|367:129|367:129|406:239,1,240,2|0,0:2|0:2,0:2:0:0:
487,232,214667,1,2,0:2:0:0:
348,133,214761,6,0,B|316:126|316:126|288:148|288:148|237:139,1,120,2|0,0:2|0:2,0:2:0:0:
87,314,214948,2,0,B|108:290|108:290|103:254|103:254|136:214,1,120,2|0,0:2|3:2,0:2:0:0:
59,0,215136,2,0,B|68:30|68:30|102:43|102:43|120:92,1,120,2|0,0:2|3:2,0:2:0:0:
228,227,215323,5,2,0:2:0:0:
57,153,215417,2,0,B|-6:161|-6:161|99:231,1,120,10|0,0:2|0:2,0:2:0:0:
219,307,215605,5,10,0:2:0:0:
239,153,215698,2,0,L|253:14,1,120,2|0,3:2|0:2,0:2:0:0:
496,250,215886,2,0,L|482:111,1,120,10|0,0:2|0:2,0:2:0:0:
167,384,216073,2,0,B|95:364|95:364|145:172,1,240,10|0,0:2|3:2,0:2:0:0:
228,227,216355,5,10,0:2:0:0:
250,240,216417,1,2,0:2:0:0:
274,247,216480,1,2,0:2:0:0:
299,249,216542,1,2,0:2:0:0:
326,271,216605,5,2,0:2:0:0:
338,263,216667,1,2,0:2:0:0:
350,253,216730,1,2,0:2:0:0:
388,261,216792,5,2,0:2:0:0:
390,250,216855,1,2,0:2:0:0:
390,239,216917,1,2,0:2:0:0:
417,220,216980,5,2,0:2:0:0:
411,213,217042,1,2,0:2:0:0:
488,254,217105,6,0,B|437:250|437:250|355:344|355:344|250:330,1,240,6|0,3:2|0:2,0:2:0:0:
227,214,217386,1,2,3:2:0:0:
227,214,217480,2,0,B|301:192|301:192|326:245,1,120,8|0,0:2|0:2,0:2:0:0:
226,382,217667,1,2,0:2:0:0:
170,314,217761,6,0,L|38:286,1,120,2|0,0:2|0:2,0:2:0:0:
288,64,217948,1,0,0:2:0:0:
361,101,218042,2,0,L|493:73,1,120,0|0,3:2|0:2,0:2:0:0:
213,29,218230,2,0,L|95:53,1,120,2|0,3:2|0:2,0:2:0:0:
99,369,218417,6,0,B|43:302|43:302|248:246|248:246|215:276|223:341,1,360,14|0,0:2|0:2,0:2:0:0:
121,242,218792,1,0,3:2:0:0:
208,166,218886,1,0,3:2:0:0:
308,309,218980,6,0,L|531:263,1,120,10|0,0:2|0:2,0:2:0:0:
481,90,219167,1,2,0:2:0:0:
430,33,219261,2,0,B|385:77|385:77|433:172,1,120,2|0,3:2|3:2,0:2:0:0:
444,379,219448,2,0,B|469:328|469:328|424:284,1,120,2|0,3:2|0:2,0:2:0:0:
99,102,219636,5,2,3:2:0:0:
155,45,219730,2,0,B|307:70|307:70|262:186,1,240,8|2,0:2|0:2,0:2:0:0:
170,298,220011,1,2,0:2:0:0:
99,373,220105,6,0,B|92:284|210:296|179:156,1,240,2|0,3:2|3:2,0:2:0:0:
99,102,220386,1,2,3:2:0:0:
99,102,220480,2,0,P|34:155|66:200,1,120,8|0,0:2|0:2,0:2:0:0:
170,298,220667,1,2,0:2:0:0:
241,249,220761,6,0,P|281:274|312:366,1,120,2|0,0:2|0:2,0:2:0:0:
444,379,220948,2,0,P|466:324|456:265,1,120,2|0,0:2|3:2,0:2:0:0:
296,164,221136,2,0,P|397:203|446:106,1,240,2|0,0:2|0:2,0:2:0:0:
263,78,221417,1,10,0:2:0:0:
156,181,221511,6,0,B|298:198|202:82|360:84,1,240,2|10,0:2|0:2,0:2:0:0:
144,37,221792,5,0,3:2:0:0:
130,16,221855,1,0,3:2:0:0:
107,8,221917,1,0,3:2:0:0:
83,11,221980,2,0,P|60:65|118:125,1,120,10|0,0:2|0:2,0:2:0:0:
52,333,222167,2,0,P|80:282|138:275,1,120,2|0,3:2|0:2,0:2:0:0:
361,365,222355,5,0,3:2:0:0:
274,383,222448,2,0,P|258:331|246:234,1,120,2|0,3:2|0:2,0:2:0:0:
372,15,222636,5,2,3:2:0:0:
319,76,222730,1,8,0:2:0:0:
382,133,222823,1,8,0:2:0:0:
400,148,222917,1,2,3:2:0:0:
339,215,223011,1,10,0:2:0:0:
412,280,223105,6,0,B|482:253|482:253|421:46,1,240,2|0,3:2|0:2,0:2:0:0:
255,18,223386,1,2,3:2:0:0:
255,18,223480,2,0,B|199:33|199:33|226:121,1,120,8|0,0:2|0:2,0:2:0:0:
327,361,223667,6,0,B|282:295|282:295|198:310|198:310|181:350|181:350|85:369|85:369|42:304,1,360,2|0,0:2|0:2,0:2:0:0:
24,196,224042,5,2,3:2:0:0:
105,234,224136,1,2,0:2:0:0:
172,173,224230,1,2,3:2:0:0:
217,92,224323,1,2,0:2:0:0:
298,53,224417,1,10,0:2:0:0:
365,114,224511,1,2,0:2:0:0:
313,199,224605,6,0,B|243:228|243:228|172:173|172:173|87:213,1,240,2|0,0:2|3:2,0:2:0:0:
49,49,224886,1,2,3:2:0:0:
49,49,224980,2,0,B|0:81|0:81|39:154,1,120,8|0,0:2|0:2,0:2:0:0:
133,383,225167,5,2,0:2:0:0:
114,306,225261,2,0,B|163:269|163:269|193:342,1,120,2|0,3:2|0:2,0:2:0:0:
444,313,225448,2,0,B|421:367|421:367|372:330,1,120,2|0,3:2|0:2,0:2:0:0:
298,53,225636,5,2,0:2:0:0:
298,53,225730,2,0,B|346:32|346:32|441:118|441:118|521:86,1,240,8|2,0:2|3:2,0:2:0:0:
390,247,226011,1,2,0:2:0:0:
460,211,226105,6,0,L|335:188,1,120,10|0,0:2|0:2,0:2:0:0:
130,78,226292,5,2,3:2:0:0:
68,24,226386,2,0,B|27:43|27:43|65:151,1,120,10|0,0:2|0:2,0:2:0:0:
308,306,226573,5,2,3:2:0:0:
370,360,226667,2,0,B|411:341|411:341|373:233,1,120,10|0,0:2|0:2,0:2:0:0:
210,109,226855,5,2,3:2:0:0:
204,26,226948,2,0,B|161:10|161:10|112:113,1,120,10|0,0:2|0:2,0:2:0:0:
228,275,227136,5,2,3:2:0:0:
233,357,227230,2,0,B|275:372|275:372|324:269,1,120,10|0,0:2|0:2,0:2:0:0:
323,225,227417,1,2,3:2:0:0:
323,225,227511,1,2,3:2:0:0:
130,247,227605,6,0,P|69:222|81:135,1,120,10|0,0:2|0:2,0:2:0:0:
65,94,227792,1,2,3:2:0:0:
323,225,227886,2,0,P|384:200|372:113,1,120,10|0,0:2|0:2,0:2:0:0:
388,72,228073,1,2,3:2:0:0:
217,145,228167,2,0,L|203:25,1,120,10|0,0:2|0:2,0:2:0:0:
203,25,228355,6,0,L|76:7,2,120.000004577637,2|2|2,0:2|0:2|0:2,0:2:0:0:
460,307,229105,5,8,1:2:0:0:
433,302,229198,1,0,1:2:0:0:
406,298,229292,1,0,1:2:0:0:
379,294,229386,1,0,1:2:0:0:
352,290,229480,1,0,1:2:0:0:
325,286,229573,1,0,1:2:0:0:
284,225,229667,5,8,1:2:0:0:
284,225,229761,1,0,1:2:0:0:
218,267,229855,5,0,1:2:0:0:
191,262,229948,1,0,1:2:0:0:
164,258,230042,1,0,1:2:0:0:
137,254,230136,1,0,1:2:0:0:
72,208,230230,5,8,1:2:0:0:
72,208,230323,1,0,1:2:0:0:
31,278,230417,5,8,1:2:0:0:
61,286,230511,1,8,1:2:0:0:
72,208,230605,5,8,1:2:0:0:
68,181,230698,1,0,1:2:0:0:
64,154,230792,1,0,1:2:0:0:
61,127,230886,1,0,1:2:0:0:
58,100,230980,1,0,1:2:0:0:
53,73,231073,1,0,1:2:0:0:
39,2,231167,5,8,1:2:0:0:
39,2,231261,1,0,1:2:0:0:
112,23,231355,5,0,1:2:0:0:
194,6,231448,5,8,1:2:0:0:
194,6,231542,1,0,1:2:0:0:
264,39,231636,5,0,1:2:0:0:
340,15,231730,5,8,1:2:0:0:
340,15,231823,1,0,1:2:0:0:
417,48,231917,6,0,B|459:67|459:67|380:129,1,90.0000034332277,10|0,1:2|1:2,1:2:0:0:
291,161,232105,6,0,B|186:143|186:143|146:193,1,135.000005149841,6|0,3:2|1:2,1:2:0:0:
88,195,232480,5,0,1:2:0:0:
93,221,232573,1,0,1:2:0:0:
55,297,232667,5,8,1:2:0:0:
55,297,232761,1,0,1:2:0:0:
121,349,232855,5,0,1:2:0:0:
147,351,232948,1,0,1:2:0:0:
173,353,233042,1,0,1:2:0:0:
199,355,233136,1,0,1:2:0:0:
265,303,233230,5,8,1:2:0:0:
265,303,233323,1,0,1:2:0:0:
331,357,233417,5,8,1:2:0:0:
331,357,233511,1,0,1:2:0:0:
397,302,233605,5,8,1:2:0:0:
397,302,233698,1,0,1:2:0:0:
480,356,233792,5,0,1:2:0:0:
482,329,233886,1,0,1:2:0:0:
485,302,233980,1,0,1:2:0:0:
488,275,234073,1,0,1:2:0:0:
495,188,234167,5,8,1:2:0:0:
425,220,234261,1,8,1:2:0:0:
425,220,234355,1,0,1:2:0:0:
372,120,234448,5,8,1:2:0:0:
345,192,234542,1,8,1:2:0:0:
345,192,234636,1,0,1:2:0:0:
236,158,234730,5,8,1:2:0:0:
268,228,234823,1,8,1:2:0:0:
268,228,234917,1,0,1:2:0:0:
206,276,235011,1,8,1:2:0:0:
206,276,235105,6,0,L|148:291,1,45.0000017166138,12|0,3:2|3:2,3:2:0:0:
119,358,235292,2,0,L|76:370,1,45.0000017166138,8|0,3:2|3:2,3:2:0:0:
160,198,235480,2,0,L|108:167,1,45.0000017166138,8|0,3:2|3:2,3:2:0:0:
39,195,235667,2,0,L|0:173,1,45.0000017166138,8|0,3:2|3:2,3:2:0:0:
306,276,235855,6,0,L|364:291,1,45.0000017166138,8|0,3:2|3:2,3:2:0:0:
393,358,236042,2,0,L|436:370,1,45.0000017166138,8|0,3:2|3:2,3:2:0:0:
352,198,236230,2,0,L|403:167,1,45.0000017166138,8|0,3:2|3:2,3:2:0:0:
473,195,236417,2,0,L|511:173,1,45.0000017166138,8|0,3:2|3:2,3:2:0:0:
311,38,236605,6,0,B|298:83|298:83|331:110,1,90.0000034332277,8|0,3:2|3:2,3:2:0:0:
425,84,236792,2,0,B|438:39|438:39|404:11,1,90.0000034332277,8|0,3:2|3:2,3:2:0:0:
87,84,236980,2,0,B|74:39|74:39|107:11,1,90.0000034332277,8|0,3:2|3:2,3:2:0:0:
200,37,237167,2,0,B|213:82|213:82|180:109,1,90.0000034332277,8|0,3:2|3:2,3:2:0:0:
115,178,237355,6,0,L|20:200,1,90.0000034332277,8|0,3:2|3:2,3:2:0:0:
41,366,237542,2,0,L|128:345,1,90.0000034332277,8|0,3:2|3:2,3:2:0:0:
397,178,237730,2,0,L|492:200,1,90.0000034332277,8|0,3:2|3:2,3:2:0:0:
471,366,237917,2,0,L|383:345,1,90.0000034332277,8|0,3:2|3:2,3:2:0:0:
41,366,238105,5,8,3:2:0:0:
48,324,238198,1,8,3:2:0:0:
69,288,238292,1,8,3:2:0:0:
100,260,238386,1,8,3:2:0:0:
139,244,238480,1,8,3:2:0:0:
181,241,238573,1,8,3:2:0:0:
221,252,238667,1,8,3:2:0:0:
256,275,238761,1,8,3:2:0:0:
281,309,238855,5,8,3:2:0:0:
338,350,238948,1,8,3:2:0:0:
409,344,239042,1,8,3:2:0:0:
458,293,239136,1,8,3:2:0:0:
462,223,239230,1,8,3:2:0:0:
419,167,239323,1,8,3:2:0:0:
350,156,239417,6,0,B|321:178|321:178|338:249,2,90.0000034332277,2|2|2,0:2|0:2|0:2,0:2:0:0:
493,113,239980,1,0,1:2:0:0:
493,113,240167,6,0,L|449:98,1,45.0000017166138,2|0,0:2|0:2,0:2:0:0:
370,70,240355,1,8,0:2:0:0:
122,176,240542,5,0,3:2:0:0:
122,176,240636,1,0,3:2:0:0:
122,176,240730,2,0,L|73:190,3,45.0000017166138,8|0|0|0,0:2|0:2|0:2|0:2,0:2:0:0:
8,75,241105,5,4,0:2:0:0:
30,32,241198,1,0,0:2:0:0:
69,5,241292,1,0,0:2:0:0:
116,0,241386,1,0,0:2:0:0:
161,16,241480,1,0,0:2:0:0:
192,51,241573,1,0,0:2:0:0:
204,97,241667,1,0,0:2:0:0:
194,144,241761,1,0,0:2:0:0:
122,176,241855,5,8,0:2:0:0:
90,211,241948,1,0,0:2:0:0:
79,257,242042,1,0,0:2:0:0:
91,303,242136,1,0,0:2:0:0:
123,338,242229,1,0,0:2:0:0:
167,355,242323,1,0,0:2:0:0:
215,349,242417,1,0,0:2:0:0:
254,322,242511,1,0,0:2:0:0:
276,280,242604,5,0,0:2:0:0:
290,278,242698,1,0,0:2:0:0:
304,276,242792,1,0,0:2:0:0:
318,274,242886,1,0,0:2:0:0:
332,272,242980,1,0,0:2:0:0:
346,270,243073,1,0,0:2:0:0:
360,268,243167,1,0,0:2:0:0:
374,266,243261,1,0,0:2:0:0:
413,326,243355,5,8,0:2:0:0:
427,328,243449,1,0,0:2:0:0:
441,330,243543,1,0,0:2:0:0:
455,332,243637,1,0,0:2:0:0:
469,334,243731,1,0,0:2:0:0:
483,336,243824,1,0,0:2:0:0:
497,338,243918,1,0,0:2:0:0:
511,340,244012,1,0,0:2:0:0:
501,257,244105,5,4,0:2:0:0:
459,233,244198,1,0,0:2:0:0:
412,230,244292,1,0,0:2:0:0:
368,249,244386,1,0,0:2:0:0:
336,285,244480,1,0,0:2:0:0:
304,320,244573,1,0,0:2:0:0:
260,339,244667,1,0,0:2:0:0:
213,336,244761,1,0,0:2:0:0:
201,249,244855,5,8,0:2:0:0:
178,207,244948,1,0,0:2:0:0:
137,184,245042,1,0,0:2:0:0:
89,186,245136,1,0,0:2:0:0:
51,214,245230,1,0,0:2:0:0:
33,258,245323,1,0,0:2:0:0:
42,305,245417,1,0,0:2:0:0:
75,339,245511,1,0,0:2:0:0:
121,351,245605,5,0,0:2:0:0:
123,337,245698,1,0,0:2:0:0:
125,322,245792,1,0,0:2:0:0:
127,307,245886,1,0,0:2:0:0:
129,292,245980,1,0,0:2:0:0:
131,277,246073,1,0,0:2:0:0:
133,262,246167,1,0,0:2:0:0:
135,247,246261,1,0,0:2:0:0:
54,225,246355,5,8,0:2:0:0:
52,211,246448,1,0,0:2:0:0:
50,196,246542,1,0,0:2:0:0:
48,181,246636,1,0,0:2:0:0:
46,166,246730,1,0,0:2:0:0:
44,147,246823,1,0,0:2:0:0:
104,85,246917,1,8,0:2:0:0:
191,117,247011,1,8,0:2:0:0:
212,194,247105,5,4,0:2:0:0:
253,217,247198,1,0,0:2:0:0:
300,220,247292,1,0,0:2:0:0:
344,201,247386,1,0,0:2:0:0:
376,165,247480,1,0,0:2:0:0:
409,131,247573,1,0,0:2:0:0:
453,112,247667,1,0,0:2:0:0:
500,115,247761,1,0,0:2:0:0:
507,204,247855,5,8,0:2:0:0:
497,250,247948,1,0,0:2:0:0:
471,290,248042,1,0,0:2:0:0:
432,318,248136,1,0,0:2:0:0:
385,329,248230,1,0,0:2:0:0:
338,322,248323,1,0,0:2:0:0:
296,299,248417,1,0,0:2:0:0:
266,261,248511,1,0,0:2:0:0:
252,216,248605,5,0,0:2:0:0:
266,214,248698,1,0,0:2:0:0:
280,212,248792,1,0,0:2:0:0:
294,210,248886,1,0,0:2:0:0:
308,208,248980,1,0,0:2:0:0:
322,206,249073,1,0,0:2:0:0:
336,204,249167,1,0,0:2:0:0:
350,202,249261,1,0,0:2:0:0:
399,145,249355,5,8,0:2:0:0:
412,147,249448,1,0,0:2:0:0:
426,149,249542,1,0,0:2:0:0:
440,151,249636,1,0,0:2:0:0:
454,153,249730,1,0,0:2:0:0:
468,155,249823,1,0,0:2:0:0:
482,157,249917,1,0,0:2:0:0:
496,159,250011,1,0,0:2:0:0:
462,60,250105,5,4,0:2:0:0:
417,40,250198,1,0,0:2:0:0:
369,38,250292,1,0,0:2:0:0:
324,50,250386,1,0,0:2:0:0:
284,77,250480,1,0,0:2:0:0:
255,116,250573,1,0,0:2:0:0:
242,162,250667,1,0,0:2:0:0:
244,209,250761,1,0,0:2:0:0:
326,223,250855,5,8,0:2:0:0:
369,243,250948,1,0,0:2:0:0:
394,282,251042,1,0,0:2:0:0:
393,329,251136,1,0,0:2:0:0:
365,368,251230,1,0,0:2:0:0:
321,384,251323,1,0,0:2:0:0:
275,373,251417,1,0,0:2:0:0:
243,339,251511,1,0,0:2:0:0:
236,292,251605,5,0,0:2:0:0:
248,299,251698,1,0,0:2:0:0:
260,305,251792,1,0,0:2:0:0:
272,311,251886,1,0,0:2:0:0:
284,318,251980,1,0,0:2:0:0:
296,324,252073,1,0,0:2:0:0:
308,330,252167,1,0,0:2:0:0:
320,337,252261,1,0,0:2:0:0:
332,343,252355,5,8,0:2:0:0:
400,306,252448,2,0,L|475:288,2,48,8|0|0,0:2|0:2|0:2,0:2:0:0:
233,368,252730,5,8,0:2:0:0:
218,288,252823,1,8,0:2:0:0:
203,207,252917,1,8,0:2:0:0:
189,126,253011,1,8,0:2:0:0:
174,48,253105,5,4,0:2:0:0:
26,204,253293,2,0,L|152:179,1,90.0000034332277,8|0,0:2|0:2,0:2:0:0:
260,84,253480,5,0,0:2:0:0:
264,102,253574,1,0,0:2:0:0:
267,120,253668,2,0,L|393:145,1,90.0000034332277,8|0,0:2|0:2,0:2:0:0:
218,288,253855,5,0,0:2:0:0:
222,270,253949,1,0,0:2:0:0:
225,252,254043,2,0,L|351:227,1,90.0000034332277,8|0,0:2|0:2,0:2:0:0:
417,21,254230,5,0,0:2:0:0:
421,39,254324,1,0,0:2:0:0:
424,57,254418,2,0,L|550:82,1,90.0000034332277,8|0,0:2|0:2,0:2:0:0:
467,332,254605,5,0,0:2:0:0:
481,321,254699,1,0,0:2:0:0:
495,310,254793,2,0,B|482:275|482:275|396:297,1,90.0000034332277,8|0,0:2|0:2,0:2:0:0:
313,174,254980,5,0,0:2:0:0:
327,185,255074,1,0,0:2:0:0:
341,196,255168,2,0,B|328:231|328:231|242:209,1,90.0000034332277,8|0,0:2|0:2,0:2:0:0:
97,332,255355,5,0,0:2:0:0:
165,376,255448,2,0,B|196:347|196:347|155:277,1,90.0000034332277,12|0,0:2|0:2,0:2:0:0:
32,289,255636,2,0,B|1:318|1:318|42:388,1,90.0000034332277,12|0,0:2|0:2,0:2:0:0:
278,219,255823,2,0,B|303:178|303:178|272:149,1,90.0000034332277,12|0,0:2|0:2,0:2:0:0:
132,165,256011,2,0,B|108:207|108:207|139:236,1,90.0000034332277,12|0,0:2|0:2,0:2:0:0:
484,202,256292,6,0,L|454:102,1,90.0000034332277,8|0,0:2|0:2,0:2:0:0:
132,165,256480,5,0,0:2:0:0:
146,177,256573,1,0,0:2:0:0:
160,189,256667,2,0,L|185:102,1,90.0000034332277,8|0,0:2|0:2,0:2:0:0:
370,206,256855,5,0,0:2:0:0:
353,213,256948,1,0,0:2:0:0:
336,221,257042,2,0,L|332:116,1,90.0000034332277,8|0,0:2|0:2,0:2:0:0:
6,95,257230,5,0,0:2:0:0:
16,110,257323,1,0,0:2:0:0:
27,125,257417,2,0,L|74:48,1,90.0000034332277,8|0,0:2|0:2,0:2:0:0:
367,296,257605,5,0,0:2:0:0:
384,289,257699,1,0,0:2:0:0:
401,281,257793,2,0,B|437:288|437:288|449:301|449:301|515:316,1,90.0000034332277,8|0,0:2|0:2,0:2:0:0:
332,131,257980,5,0,0:2:0:0:
315,124,258074,1,0,0:2:0:0:
298,116,258168,2,0,B|262:123|262:123|250:136|250:136|184:151,1,90.0000034332277,8|0,0:2|0:2,0:2:0:0:
125,269,258355,5,0,0:2:0:0:
140,352,258448,2,0,B|95:364|95:364|53:315,1,90.0000034332277,12|0,0:2|0:2,0:2:0:0:
104,189,258636,2,0,B|149:177|149:177|191:226,1,90.0000034332277,12|0,0:2|0:2,0:2:0:0:
295,301,258823,5,8,0:2:0:0:
367,296,258917,1,8,0:2:0:0:
406,234,259011,1,8,0:2:0:0:
385,162,259105,6,0,L|358:60,1,90.0000034332277,4|0,0:2|0:2,0:2:0:0:
224,0,259292,2,0,L|197:102,1,90.0000034332277,12|0,0:2|0:2,0:2:0:0:
104,189,259479,5,0,0:2:0:0:
85,189,259573,1,0,0:2:0:0:
67,189,259667,2,0,B|21:165|21:165|23:106,1,90.0000034332277,8|0,0:2|0:2,0:2:0:0:
63,381,259854,5,0,0:2:0:0:
49,367,259948,1,0,0:2:0:0:
36,354,260042,2,0,B|20:305|20:305|63:265,1,90.0000034332277,8|0,0:2|0:2,0:2:0:0:
158,274,260229,5,0,0:2:0:0:
175,278,260323,1,0,0:2:0:0:
192,281,260417,2,0,L|301:303,1,90.0000034332277,8|0,0:2|0:2,0:2:0:0:
512,151,260604,5,0,0:2:0:0:
495,155,260698,1,0,0:2:0:0:
478,158,260792,2,0,L|369:180,1,90.0000034332277,8|0,0:2|0:2,0:2:0:0:
353,306,260980,5,0,0:0:0:0:
359,331,261073,1,0,0:0:0:0:
366,357,261167,2,0,L|391:243,1,90.0000034332277,8|0,0:2|0:2,0:2:0:0:
429,42,261355,1,0,0:2:0:0:
341,91,261448,6,0,B|313:73|313:73|340:-9,1,90.0000034332277,12|0,0:2|0:2,0:2:0:0:
206,140,261636,2,0,B|173:147|173:147|134:69,1,90.0000034332277,12|0,0:2|0:2,0:2:0:0:
219,23,261823,1,8,0:2:0:0:
319,189,261917,2,0,B|326:221|326:221|248:260,1,90.0000034332277,12|0,0:2|0:2,0:2:0:0:
50,356,262105,6,0,L|66:243,1,90.0000034332277,8|0,0:2|0:2,0:2:0:0:
131,364,262292,2,0,L|147:251,1,90.0000034332277,8|0,0:2|0:2,0:2:0:0:
113,58,262480,6,0,L|129:171,1,90.0000034332277,8|0,0:2|0:2,0:2:0:0:
194,50,262667,2,0,L|210:163,1,90.0000034332277,8|0,0:2|0:2,0:2:0:0:
308,376,262855,6,0,L|324:263,1,90.0000034332277,8|0,0:2|0:2,0:2:0:0:
389,384,263042,2,0,L|405:271,1,90.0000034332277,8|0,0:2|0:2,0:2:0:0:
371,78,263230,6,0,L|387:191,1,90.0000034332277,8|0,0:2|0:2,0:2:0:0:
452,70,263417,2,0,L|468:183,1,90.0000034332277,8|0,0:2|0:2,0:2:0:0:
216,376,263605,6,0,P|161:369|146:280,1,90.0000034332277,8|0,0:2|0:2,0:2:0:0:
268,21,263792,2,0,P|323:28|338:117,1,90.0000034332277,8|0,0:2|0:2,0:2:0:0:
77,166,263980,2,0,P|84:111|173:96,1,90.0000034332277,8|0,0:2|0:2,0:2:0:0:
432,218,264167,2,0,P|425:273|336:288,1,90.0000034332277,8|0,0:2|0:2,0:2:0:0:
242,187,264355,6,0,P|243:169|251:200,1,135.000005149841,0|0,3:2|0:2,0:2:0:0:
264,180,264730,5,2,0:2:0:0:
267,177,264824,1,2,0:2:0:0:
271,180,264918,1,2,0:2:0:0:
267,184,265011,1,2,0:2:0:0:
174,258,265105,6,0,B|77:286|140:337|25:366,1,180.000006866455,0|0,3:2|0:2,0:2:0:0:
41,248,265573,5,2,0:2:0:0:
41,248,265667,2,0,P|73:256|87:283,1,60,2|2,0:2|0:2,0:2:0:0:
160,178,265948,5,2,0:2:0:0:
160,178,266042,1,2,0:2:0:0:
160,178,266136,2,0,P|184:218|171:260,1,90.0000034332277,2|2,0:2|0:2,0:2:0:0:
263,278,266417,6,0,P|252:318|218:336,1,60,2|0,0:2|0:2,0:2:0:0:
76,357,266605,5,0,1:2:0:0:
75,316,266698,1,0,1:2:0:0:
96,279,266792,1,0,1:2:0:0:
131,258,266886,1,0,1:2:0:0:
31,217,266980,5,0,1:2:0:0:
64,181,267073,1,0,1:2:0:0:
113,166,267167,1,0,1:2:0:0:
160,178,267261,1,0,1:2:0:0:
140,84,267355,5,0,1:2:0:0:
198,81,267448,1,0,1:2:0:0:
252,110,267542,1,0,1:2:0:0:
282,160,267636,1,0,1:2:0:0:
251,244,267730,6,0,P|241:271|230:291,6,30,0|0|0|0|0|0|0,3:2|3:2|3:2|3:2|3:2|3:2|3:2,3:2:0:0:
189,332,268105,1,4,3:2:0:0:
432,265,268292,5,2,0:2:0:0:
510,100,268386,2,0,B|448:121|448:121|448:175,1,90.0000034332277,2|0,0:2|3:2,0:2:0:0:
423,245,268573,5,2,0:2:0:0:
282,160,268667,2,0,B|344:181|344:181|344:235,1,90.0000034332277,2|0,0:2|0:2,0:2:0:0:
35,49,268855,6,0,B|122:39|122:39|116:32|116:32|211:22|211:22|221:51|221:51|306:41,1,270.000010299683,2|0,3:2|0:2,0:2:0:0:
368,26,269230,2,0,B|348:5|348:5|265:28,1,90.0000034332277,2|0,3:2|0:2,0:2:0:0:
127,116,269417,6,2,P|99:137|112:208,1,60,2|2,0:2|0:2,0:2:0:0:
36,156,269511,2,2,P|31:190|90:231,1,60,2|2,0:2|0:2,0:2:0:0:
12,243,269605,2,2,P|22:257|29:262,1,15,2|2,3:2|0:2,0:2:0:0:
24,282,269698,2,2,P|41:284|49:283,1,15,2|2,0:2|0:2,0:2:0:0:
45,296,269792,2,2,P|61:283|67:275,1,30,2|2,0:2|0:2,0:2:0:0:
67,290,269886,2,2,P|69:269|68:259,1,30,2|2,0:2|0:2,0:2:0:0:
86,271,269980,6,2,P|107:243|178:256,1,60,2|2,3:2|0:2,0:2:0:0:
153,208,270074,2,2,P|187:203|228:262,1,60,2|2,0:2|0:2,0:2:0:0:
235,189,270168,2,2,P|253:202|260:211,1,30,2|2,0:2|0:2,0:2:0:0:
305,213,270261,2,2,P|308:234|306:245,1,30,2|2,0:2|0:2,0:2:0:0:
326,286,270355,2,2,P|316:298|310:302,1,15,2|2,3:2|0:2,0:2:0:0:
299,321,270449,2,2,P|280:323|271:322,1,15,2|2,0:2|0:2,0:2:0:0:
266,334,270542,2,2,P|249:321|243:313,1,30,2|2,0:2|0:2,0:2:0:0:
236,324,270636,2,2,P|233:303|234:293,1,30,2|2,2:2|2:2,2:2:0:0:
236,285,270730,6,0,B|337:290|289:367|397:371,1,180,2|0,3:2|0:2,0:2:0:0:
495,297,271105,6,0,P|461:305|449:339,1,60,6|0,3:2|0:2,0:2:0:0:
358,137,271292,5,2,0:2:0:0:
512,211,271386,2,0,P|489:173|446:171,1,90.0000034332277,2|0,0:2|3:2,0:2:0:0:
335,141,271573,5,2,0:2:0:0:
450,7,271667,2,0,P|460:48|431:80,1,90.0000034332277,2|0,0:2|0:2,0:2:0:0:
174,277,271855,6,0,B|184:211|184:211|172:200|172:200|196:80|196:80|186:67|186:67|196:20,1,270.000010299683,2|0,3:2|0:2,0:2:0:0:
59,125,272230,2,0,B|68:173|68:173|59:185|59:185|82:306|82:306|71:316|71:316|81:384,1,270.000010299683,2|0,3:2|0:2,0:2:0:0:
174,278,272605,5,2,3:2:0:0:
208,237,272698,1,2,0:2:0:0:
260,227,272792,1,2,0:2:0:0:
308,250,272886,1,2,0:2:0:0:
349,346,272980,5,2,3:2:0:0:
406,373,273074,1,2,0:2:0:0:
470,360,273168,1,2,0:2:0:0:
512,311,273261,1,2,0:2:0:0:
468,240,273355,6,0,B|421:243|421:243|488:209,1,90.0000034332277,2|0,3:2|0:2,0:2:0:0:
476,125,273542,2,0,B|437:105|437:105|484:108,1,90.0000034332277,2|0,3:2|0:2,0:2:0:0:
437,331,273730,6,0,L|333:348,1,60,2|0,3:2|0:2,0:2:0:0:
405,29,273917,2,0,L|301:12,1,60,2|0,3:2|0:2,0:2:0:0:
19,227,274105,5,6,3:2:0:0:
38,132,274198,1,2,3:2:0:0:
145,206,274386,5,2,3:2:0:0:
178,120,274480,1,2,3:2:0:0:
178,120,274573,1,2,0:2:0:0:
178,120,274667,2,0,B|215:124|215:124|230:193,1,90.0000034332277,2|0,0:2|0:2,0:2:0:0:
221,361,274855,6,0,B|276:353|276:353|288:365|288:365|376:348|376:348|390:297|390:297|450:282,1,270.000010299683,2|0,3:2|0:2,0:2:0:0:
494,351,275230,2,0,B|513:328|513:328|459:277,1,90.0000034332277,2|0,3:2|0:2,0:2:0:0:
299,254,275417,6,2,P|327:233|314:162,1,60,2|2,0:2|0:2,0:2:0:0:
390,214,275511,2,2,P|395:180|336:139,1,60,2|2,0:2|0:2,0:2:0:0:
414,127,275605,2,2,P|404:113|397:108,1,15,2|2,3:2|0:2,0:2:0:0:
402,88,275698,2,2,P|385:86|377:87,1,15,2|2,0:2|0:2,0:2:0:0:
381,74,275792,2,2,P|365:87|359:95,1,30,2|2,0:2|0:2,0:2:0:0:
359,80,275886,2,2,P|357:101|358:111,1,30,2|2,0:2|0:2,0:2:0:0:
340,99,275980,6,2,P|319:127|248:114,1,60,2|2,3:2|0:2,0:2:0:0:
273,162,276074,2,2,P|239:167|198:108,1,60,2|2,0:2|0:2,0:2:0:0:
191,181,276168,2,2,P|173:168|166:159,1,30,2|2,0:2|0:2,0:2:0:0:
121,157,276261,2,2,P|118:136|120:125,1,30,2|2,0:2|0:2,0:2:0:0:
100,84,276355,2,2,P|110:72|116:68,1,15,2|2,3:2|0:2,0:2:0:0:
127,49,276449,2,2,P|146:47|155:48,1,15,2|2,0:2|0:2,0:2:0:0:
159,42,276542,2,2,P|176:55|182:63,1,30,2|2,0:2|0:2,0:2:0:0:
190,49,276636,2,2,P|193:70|192:80,1,30,2|2,2:2|2:2,2:2:0:0:
207,71,276730,6,0,B|202:131|202:131|168:158|168:158|159:256,1,180,2|0,3:2|0:2,0:2:0:0:
114,307,277105,6,0,P|137:326|195:300,1,60,6|0,3:2|0:2,0:2:0:0:
341,214,277292,5,2,0:2:0:0:
319,362,277386,2,0,P|301:320|267:291,1,90.0000034332277,2|0,0:2|3:2,0:2:0:0:
335,193,277573,5,2,0:2:0:0:
420,335,277667,2,0,P|417:290|434:249,1,90.0000034332277,2|0,0:2|0:2,0:2:0:0:
442,101,277855,6,0,B|272:99|390:221|188:209,1,270.000010299683,2|0,3:2|0:2,0:2:0:0:
52,74,278230,2,0,B|10:3|144:-47|198:81|81:186,1,270.000010299683,2|0,3:2|0:2,0:2:0:0:
43,336,278605,5,10,0:2:0:0:
46,359,278698,1,10,3:2:0:0:
126,347,278792,5,10,0:2:0:0:
144,361,278885,1,10,3:2:0:0:
192,296,278980,5,10,0:2:0:0:
215,293,279073,1,10,3:2:0:0:
241,289,279167,2,0,L|339:279,4,90.0000034332277,2|2|2|2|2,0:2|0:2|0:2|0:2|0:2,0:2:0:0:
38,37,280105,6,0,L|123:48,1,45.0000017166138,6|0,3:2|0:2,0:2:0:0:
344,88,280292,5,2,0:2:0:0:
351,69,280386,2,0,B|362:38|362:38|321:1,1,60,10|0,0:2|3:2,0:2:0:0:
95,193,280573,5,2,0:2:0:0:
85,177,280667,2,0,B|74:146|74:146|115:109,1,60,10|0,0:2|0:2,0:2:0:0:
346,180,280855,6,0,L|471:207,1,120,2|0,3:2|0:2,0:2:0:0:
491,302,281136,1,8,0:2:0:0:
491,302,281230,2,0,L|399:321,1,60,2|0,3:2|0:2,0:2:0:0:
154,369,281417,6,2,P|137:356|145:315,1,45.0000017166138,10|2,0:2|0:2,0:2:0:0:
100,335,281511,2,2,P|96:314|132:289,1,45.0000017166138,2|2,0:2|0:2,0:2:0:0:
82,274,281605,2,2,P|87:267|90:264,1,7.5,2|2,3:2|0:2,0:2:0:0:
94,235,281698,2,2,P|102:233|106:234,1,7.5,2|2,0:2|0:2,0:2:0:0:
115,221,281792,2,2,P|131:234|137:242,1,22.5000008583069,2|2,0:2|0:2,0:2:0:0:
137,227,281886,2,2,P|139:248|138:258,1,22.5000008583069,10|2,0:2|0:2,0:2:0:0:
165,254,281980,6,2,P|180:274|231:264,1,45.0000017166138,2|2,3:2|0:2,0:2:0:0:
213,300,282074,2,2,P|237:303|267:260,1,45.0000017166138,2|2,0:2|0:2,0:2:0:0:
284,308,282168,2,2,P|302:295|309:286,1,22.5000008583069,10|2,0:2|0:2,0:2:0:0:
346,283,282261,2,2,P|349:262|347:251,1,22.5000008583069,2|2,0:2|0:2,0:2:0:0:
378,229,282355,2,2,P|373:223|369:220,1,7.5,2|2,3:2|0:2,0:2:0:0:
367,202,282449,2,2,P|359:201|355:201,1,7.5,2|2,0:2|0:2,0:2:0:0:
343,189,282542,2,2,P|326:202|320:210,1,22.5000008583069,2|2,0:2|0:2,0:2:0:0:
320,193,282636,2,2,P|317:214|318:224,1,22.5000008583069,10|2,2:2|2:2,2:2:0:0:
307,218,282730,5,2,3:2:0:0:
505,160,282917,2,0,L|424:146,1,60,10|0,0:2|0:2,0:2:0:0:
167,15,283105,6,0,B|178:42|178:42|167:68|167:68|190:125,1,90.0000034332277,6|0,3:2|0:2,0:2:0:0:
224,347,283292,6,0,B|205:329|205:329|218:277,1,45.0000017166138,2|0,3:2|3:2,3:2:0:0:
195,346,283386,2,0,B|194:319|194:319|240:292,1,45.0000017166138,2|0,3:2|3:2,3:2:0:0:
185,326,283480,1,2,3:2:0:0:
288,301,283573,5,2,0:2:0:0:
298,292,283667,2,0,B|327:257|327:257|299:202,1,90.0000034332277,10|0,0:2|0:2,0:2:0:0:
302,2,283855,5,2,3:2:0:0:
266,120,283980,5,2,3:2:0:0:
385,157,284105,5,2,3:2:0:0:
420,37,284230,5,2,3:2:0:0:
484,296,284417,2,0,B|492:346|492:346|453:293,1,90.0000034332277,10|0,0:2|0:2,0:2:0:0:
403,268,284605,5,2,3:2:0:0:
367,262,284698,1,2,0:2:0:0:
331,254,284792,1,2,0:2:0:0:
295,248,284886,1,10,0:2:0:0:
259,318,284980,5,2,3:2:0:0:
183,330,285073,1,2,0:2:0:0:
107,347,285167,1,10,0:2:0:0:
32,360,285261,1,2,0:2:0:0:
59,278,285355,5,10,3:2:0:0:
59,278,285448,2,0,B|69:242|69:242|60:220|60:220|75:166,1,90.0000034332277,10|0,3:2|0:2,0:2:0:0:
323,107,285636,2,0,B|312:71|312:71|321:49|321:49|306:-4,1,90.0000034332277,10|0,3:2|0:2,0:2:0:0:
155,170,285823,5,10,3:2:0:0:
19,100,285917,2,0,B|43:83|43:83|127:131,1,90.0000034332277,10|0,3:2|0:2,0:2:0:0:
303,255,286105,6,0,B|360:250|360:250|395:303|395:303|504:292,1,180.000006866455,6|0,3:2|0:2,0:2:0:0:
512,224,286386,2,0,B|488:180|496:136|496:136|467:187|381:216,1,180.000006866455,2|0,3:2|0:2,0:2:0:0:
269,337,286667,1,2,3:2:0:0:
198,366,286761,1,2,3:2:0:0:
128,326,286855,6,0,B|89:292|89:292|134:134,1,180.000006866455,2|0,3:2|0:2,0:2:0:0:
129,52,287136,2,0,B|6:92|6:92|78:135,1,180.000006866455,2|0,3:2|0:2,0:2:0:0:
352,186,287417,6,2,P|369:199|361:240,1,45.0000017166138,2|2,3:2|0:2,0:2:0:0:
406,220,287511,2,2,P|410:241|374:266,1,45.0000017166138,2|2,0:2|0:2,0:2:0:0:
424,281,287605,2,2,P|419:288|416:291,1,7.5,2|2,3:2|0:2,0:2:0:0:
412,320,287698,2,2,P|404:322|400:321,1,7.5,2|2,0:2|0:2,0:2:0:0:
391,334,287792,2,2,P|375:321|369:313,1,22.5000008583069,2|2,0:2|0:2,0:2:0:0:
369,328,287886,2,2,P|367:307|368:297,1,22.5000008583069,2|2,3:2|0:2,0:2:0:0:
341,301,287980,6,2,P|326:281|275:291,1,45.0000017166138,2|2,0:2|0:2,0:2:0:0:
293,255,288074,2,2,P|269:252|239:295,1,45.0000017166138,2|2,0:2|0:2,0:2:0:0:
222,247,288168,2,2,P|204:260|197:269,1,22.5000008583069,2|2,3:2|0:2,0:2:0:0:
160,272,288261,2,2,P|157:293|159:304,1,22.5000008583069,2|2,3:2|0:2,0:2:0:0:
128,326,288355,2,2,P|133:332|137:335,1,7.5,2|2,3:2|0:2,0:2:0:0:
139,353,288449,2,2,P|147:354|151:354,1,7.5,2|2,0:2|0:2,0:2:0:0:
163,366,288542,2,2,P|180:353|186:345,1,22.5000008583069,2|2,0:2|0:2,0:2:0:0:
186,362,288636,2,2,P|189:341|188:331,1,22.5000008583069,2|2,3:2|2:2,2:2:0:0:
197,337,288730,5,2,0:2:0:0:
140,131,288917,5,2,3:2:0:0:
140,131,289011,1,2,3:2:0:0:
60,62,289105,5,14,3:2:0:0:
45,54,289198,1,2,3:2:0:0:
30,133,289292,5,10,3:2:0:0:
12,135,289385,1,2,3:2:0:0:
60,210,289480,5,14,3:2:0:0:
45,220,289573,1,2,3:2:0:0:
138,241,289667,5,10,3:2:0:0:
134,259,289760,1,2,3:2:0:0:
215,208,289855,5,14,3:2:0:0:
224,224,289948,1,2,3:2:0:0:
246,131,290043,5,10,3:2:0:0:
263,136,290136,1,2,3:2:0:0:
260,46,290230,6,10,L|250:-13,6,45.0000017166138,14|10|10|10|10|10|10,3:2|3:2|3:2|3:2|3:2|3:2|3:2,3:2:0:0:
463,195,290698,5,0,0:2:0:0:
413,181,290792,1,0,0:2:0:0:
384,221,290886,1,0,0:2:0:0:
246,253,291073,5,0,0:2:0:0:
196,267,291167,1,0,0:2:0:0:
167,227,291261,1,0,0:2:0:0:
99,166,291448,6,0,P|61:173|13:196,1,90.0000034332277,2|0,0:2|0:2,0:2:0:0:
14,194,291730,6,0,B|174:198|69:63|291:84,1,270.000010299683,0|0,3:2|0:2,0:2:0:0:
482,122,292105,6,0,B|510:77|510:77|353:126,1,210,4|0,3:2|0:2,0:2:0:0:
360,123,293605,6,0,L|351:198,2,60,0|0|8,0:2|0:2|0:2,0:2:0:0:
297,62,294167,1,0,0:2:0:0:
297,62,294261,1,0,1:2:0:0:
218,96,294448,1,0,0:2:0:0:
218,96,294542,1,0,1:2:0:0:
153,32,294730,1,8,0:2:0:0:
153,32,294823,2,0,L|76:48,1,60,0|0,0:2|1:2,0:2:0:0:
0,229,295105,6,0,P|0:190|136:171,1,210,0|0,3:2|1:2,0:2:0:0:
156,250,296605,5,0,0:2:0:0:
156,250,296698,1,0,0:2:0:0:
156,250,296792,2,0,L|137:301,1,30,0|0,1:2|0:2,0:2:0:0:
114,353,296980,2,0,L|95:404,3,30,8|0|0|0,0:2|0:2|0:2|1:2,0:2:0:0:
377,306,297542,5,0,1:2:0:0:
458,335,297730,1,8,0:2:0:0:
488,192,297917,5,0,0:2:0:0:
488,192,298011,1,8,0:2:0:0:
488,192,298105,2,0,L|271:159,1,210,0|0,3:2|1:2,0:2:0:0:
280,160,299605,6,0,L|264:85,2,60,0|0|8,0:2|0:2|0:2,0:2:0:0:
354,88,300167,1,0,0:2:0:0:
354,88,300261,1,0,1:2:0:0:
197,59,300448,1,0,0:2:0:0:
197,59,300542,1,0,1:2:0:0:
61,130,300730,1,8,0:2:0:0:
60,276,300917,5,0,0:2:0:0:
60,276,301011,1,8,0:2:0:0:
60,276,301105,2,0,B|100:251|100:251|209:291|209:291|210:341,1,210,0|0,3:2|0:2,0:2:0:0:
303,365,302605,5,0,1:2:0:0:
303,365,302698,1,0,0:2:0:0:
303,365,302792,2,0,L|308:324,1,30,0|0,0:2|0:2,0:2:0:0:
430,284,302980,6,0,L|354:293,1,60,8|0,0:2|0:2,0:2:0:0:
300,259,303261,2,0,L|359:266,1,60,0|0,1:2|0:2,0:2:0:0:
375,247,303542,1,0,1:2:0:0:
393,363,303730,1,8,0:2:0:0:
464,147,303917,5,0,0:2:0:0:
464,147,304011,1,8,0:2:0:0:
464,147,304105,2,0,P|418:59|366:144,1,240,2|0,0:2|0:2,0:2:0:0:
366,144,307105,6,0,B|281:160|281:160|258:222|258:222|170:243,1,240,2|0,0:2|0:2,0:2:0:0:
173,242,310105,6,0,B|153:183|229:137|312:236|209:321,1,240,2|0,0:2|0:2,0:2:0:0:
217,314,313105,6,0,P|139:350|90:231,1,240,2|0,0:2|0:2,0:2:0:0:
