osu file format v14

[General]
AudioFilename: 1nput.ogg
AudioLeadIn: 0
PreviewTime: 71374
Countdown: 0
SampleSet: Normal
StackLeniency: 0.7
Mode: 3
LetterboxInBreaks: 0
EpilepsyWarning: 1
SpecialStyle: 0
WidescreenStoryboard: 1

[Editor]
DistanceSpacing: 1.5
BeatDivisor: 4
GridSize: 4
TimelineZoom: 3.699999

[Metadata]
Title:1nput This 2 Y0ur Spine
TitleUnicode:1nput This 2 Y0ur Spine
Artist:Camellia
ArtistUnicode:かめりあ
Creator:A kiwi
Version:3eyond Human1ty
Source:
Tags:thanks for 100k twitter followers 100000 metal breaks electronic instrumental insert tera i/o io input this to your spine cametek kamelcamellia track 2 two fa featured artist かめるかめりあ akiri akiwi
BeatmapID:4185049
BeatmapSetID:2011220

[Difficulty]
HPDrainRate:8.5
CircleSize:5
OverallDifficulty:8.5
ApproachRate:5
SliderMultiplier:1.4
SliderTickRate:1

[Events]
//Background and Video events
0,0,"bg.jpg",0,0
//Break Periods
//Storyboard Layer 0 (Background)
//Storyboard Layer 1 (Fail)
//Storyboard Layer 2 (Pass)
//Storyboard Layer 3 (Foreground)
//Storyboard Layer 4 (Overlay)
//Storyboard Sound Samples

[TimingPoints]
1062,375,4,1,1,50,1,0
73062,-100,4,1,1,50,0,1
97062,-100,4,1,1,50,0,0
132687,-1297.95336914063,4,1,1,50,0,0
132710,-434.044494628906,4,1,1,50,0,0
132734,-262.110076904297,4,1,1,50,0,0
132757,-189.045608520508,4,1,1,50,0,0
132781,-148.95751953125,4,1,1,50,0,0
132804,-123.880981445313,4,1,1,50,0,0
132828,-106.912246704102,4,1,1,50,0,0
132851,-94.8353881835938,4,1,1,50,0,0
132874,-85.9537811279297,4,1,1,50,0,0
132898,-79.2915267944336,4,1,1,50,0,0
132921,-74.2514038085938,4,1,1,50,0,0
132945,-70.4516677856445,4,1,1,50,0,0
132968,-67.6416015625,4,1,1,50,0,0
132992,-65.6551513671875,4,1,1,50,0,0
133015,-64.3844146728516,4,1,1,50,0,0
133039,-63.7643585205078,4,1,1,50,0,0
133062,-100,4,1,1,50,0,0
192312,-16.8225326538086,4,1,1,50,0,0
192324,-10000,4,1,1,50,0,0
192335,-18.4235248565674,4,1,1,50,0,0
192347,-10000,4,1,1,50,0,0
192358,-20.1768798828125,4,1,1,50,0,0
192370,-10000,4,1,1,50,0,0
192381,-22.0971031188965,4,1,1,50,0,0
192393,-10000,4,1,1,50,0,0
192404,-24.2000713348389,4,1,1,50,0,0
192416,-10000,4,1,1,50,0,0
192427,-26.5031795501709,4,1,1,50,0,0
192439,-10000,4,1,1,50,0,0
192450,-29.0254707336426,4,1,1,50,0,0
192462,-10000,4,1,1,50,0,0
192474,-31.7878112792969,4,1,1,50,0,0
192485,-10000,4,1,1,50,0,0
192497,-34.8130378723145,4,1,1,50,0,0
192508,-10000,4,1,1,50,0,0
192520,-38.1261749267578,4,1,1,50,0,0
192531,-10000,4,1,1,50,0,0
192543,-41.7546234130859,4,1,1,50,0,0
192554,-10000,4,1,1,50,0,0
192566,-45.728385925293,4,1,1,50,0,0
192577,-10000,4,1,1,50,0,0
192589,-50.0803298950195,4,1,1,50,0,0
192600,-10000,4,1,1,50,0,0
192612,-54.8464469909668,4,1,1,50,0,0
192624,-10000,4,1,1,50,0,0
192635,-60.0661506652832,4,1,1,50,0,0
192647,-10000,4,1,1,50,0,0
192658,-65.7826156616211,4,1,1,50,0,0
192670,-10000,4,1,1,50,0,0
192681,-72.0431060791016,4,1,1,50,0,0
192693,-10000,4,1,1,50,0,0
192704,-78.8994064331055,4,1,1,50,0,0
192716,-10000,4,1,1,50,0,0
192727,-86.4082260131836,4,1,1,50,0,0
192739,-10000,4,1,1,50,0,0
192750,-94.6316452026367,4,1,1,50,0,0
192762,-10000,4,1,1,50,0,0
192774,-103.637687683105,4,1,1,50,0,0
192785,-10000,4,1,1,50,0,0
192797,-113.500831604004,4,1,1,50,0,0
192808,-10000,4,1,1,50,0,0
192820,-124.302635192871,4,1,1,50,0,0
192831,-10000,4,1,1,50,0,0
192843,-136.132446289063,4,1,1,50,0,0
192854,-10000,4,1,1,50,0,0
192866,-149.088104248047,4,1,1,50,0,0
192877,-10000,4,1,1,50,0,0
192889,-163.276733398438,4,1,1,50,0,0
192900,-10000,4,1,1,50,0,0
192912,-178.815689086914,4,1,1,50,0,0
192924,-10000,4,1,1,50,0,0
192935,-195.833465576172,4,1,1,50,0,0
192947,-10000,4,1,1,50,0,0
192958,-214.470840454102,4,1,1,50,0,0
192970,-10000,4,1,1,50,0,0
192981,-234.881896972656,4,1,1,50,0,0
192993,-10000,4,1,1,50,0,0
193004,-257.235473632813,4,1,1,50,0,0
193016,-10000,4,1,1,50,0,0
193027,-281.716461181641,4,1,1,50,0,0
193039,-10000,4,1,1,50,0,0
193050,-308.527252197266,4,1,1,50,0,0
193062,-100,4,1,1,50,0,0
205062,-100,4,1,1,50,0,1
228312,-100,4,1,1,50,0,0
241062,-100,4,1,1,50,0,1
265062,-100,4,1,1,50,0,0
279124,-1297.95336914063,4,1,1,50,0,0
279136,-434.044494628906,4,1,1,50,0,0
279148,-262.110076904297,4,1,1,50,0,0
279159,-189.045608520508,4,1,1,50,0,0
279171,-148.95751953125,4,1,1,50,0,0
279183,-123.880981445313,4,1,1,50,0,0
279194,-106.912246704102,4,1,1,50,0,0
279206,-94.8353881835938,4,1,1,50,0,0
279218,-85.9537811279297,4,1,1,50,0,0
279230,-79.2915267944336,4,1,1,50,0,0
279242,-74.2514038085938,4,1,1,50,0,0
279253,-70.4516677856445,4,1,1,50,0,0
279265,-67.6416015625,4,1,1,50,0,0
279277,-65.6551513671875,4,1,1,50,0,0
279288,-64.3844146728516,4,1,1,50,0,0
279300,-63.7643585205078,4,1,1,50,0,0
279312,-556.521728515625,4,1,1,50,0,0
279324,-196.923080444336,4,1,1,50,0,0
279335,-126.73267364502,4,1,1,50,0,0
279347,-97.7099227905273,4,1,1,50,0,0
279359,-82.5806427001953,4,1,1,50,0,0
279370,-73.9884414672852,4,1,1,50,0,0
279382,-69.1891860961914,4,1,1,50,0,0
279394,-67.0157089233398,4,1,1,50,0,0
279417,-69.1891860961914,4,1,1,50,0,0
279429,-73.9884414672852,4,1,1,50,0,0
279441,-82.5806427001953,4,1,1,50,0,0
279452,-97.7099227905273,4,1,1,50,0,0
279464,-126.73267364502,4,1,1,50,0,0
279476,-196.923080444336,4,1,1,50,0,0
279487,-556.521728515625,4,1,1,50,0,0
279511,-196.923080444336,4,1,1,50,0,0
279522,-126.73267364502,4,1,1,50,0,0
279534,-97.7099227905273,4,1,1,50,0,0
279546,-82.5806427001953,4,1,1,50,0,0
279558,-73.9884414672852,4,1,1,50,0,0
279570,-69.1891860961914,4,1,1,50,0,0
279581,-67.0157089233398,4,1,1,50,0,0
279605,-69.1891860961914,4,1,1,50,0,0
279616,-73.9884414672852,4,1,1,50,0,0
279628,-82.5806427001953,4,1,1,50,0,0
279640,-97.7099227905273,4,1,1,50,0,0
279652,-126.73267364502,4,1,1,50,0,0
279664,-196.923080444336,4,1,1,50,0,0
279675,-556.521728515625,4,1,1,50,0,0
279687,-1297.95336914063,4,1,1,50,0,0
279699,-434.044494628906,4,1,1,50,0,0
279710,-262.110076904297,4,1,1,50,0,0
279722,-189.045608520508,4,1,1,50,0,0
279734,-148.95751953125,4,1,1,50,0,0
279745,-123.880981445313,4,1,1,50,0,0
279757,-106.912246704102,4,1,1,50,0,0
279769,-94.8353881835938,4,1,1,50,0,0
279780,-85.9537811279297,4,1,1,50,0,0
279792,-79.2915267944336,4,1,1,50,0,0
279804,-74.2514038085938,4,1,1,50,0,0
279816,-70.4516677856445,4,1,1,50,0,0
279827,-67.6416015625,4,1,1,50,0,0
279839,-65.6551513671875,4,1,1,50,0,0
279851,-64.3844146728516,4,1,1,50,0,0
279862,-63.7643585205078,4,1,1,50,0,0
279874,-1297.95336914063,4,1,1,50,0,0
279886,-434.044494628906,4,1,1,50,0,0
279898,-262.110076904297,4,1,1,50,0,0
279909,-189.045608520508,4,1,1,50,0,0
279921,-148.95751953125,4,1,1,50,0,0
279933,-123.880981445313,4,1,1,50,0,0
279944,-106.912246704102,4,1,1,50,0,0
279956,-94.8353881835938,4,1,1,50,0,0
279968,-85.9537811279297,4,1,1,50,0,0
279980,-79.2915267944336,4,1,1,50,0,0
279992,-74.2514038085938,4,1,1,50,0,0
280003,-70.4516677856445,4,1,1,50,0,0
280015,-67.6416015625,4,1,1,50,0,0
280027,-65.6551513671875,4,1,1,50,0,0
280038,-64.3844146728516,4,1,1,50,0,0
280050,-63.7643585205078,4,1,1,50,0,0
280062,-100,4,1,1,50,0,0

[HitObjects]
228,192,1062,128,0,2562:0:0:0:0:
402,192,1062,128,0,1437:0:0:0:0:
109,192,1062,128,0,1437:0:0:0:0:
475,192,1062,128,0,1249:0:0:0:0:
36,192,1062,128,4,1249:0:0:0:0:
228,192,4062,128,0,4624:0:0:0:0:
153,192,4624,128,0,4812:0:0:0:0:
256,192,4812,128,0,5374:0:0:0:0:
358,192,5374,128,0,5562:0:0:0:0:
228,192,7062,128,0,7624:0:0:0:0:
109,192,7624,128,0,7812:0:0:0:0:
256,192,7812,128,0,8374:0:0:0:0:
358,192,8374,128,0,8562:0:0:0:0:
228,192,10062,128,0,10624:0:0:0:0:
109,192,10624,128,0,10812:0:0:0:0:
228,192,10812,128,0,11374:0:0:0:0:
402,192,11374,128,0,11562:0:0:0:0:
36,192,11562,1,0,0:0:0:0:
475,192,11655,1,0,0:0:0:0:
36,192,11843,1,0,0:0:0:0:
36,192,12030,1,0,0:0:0:0:
109,192,12124,1,0,0:0:0:0:
36,192,12312,1,0,0:0:0:0:
475,192,12405,1,0,0:0:0:0:
109,192,12593,1,0,0:0:0:0:
36,192,12780,1,0,0:0:0:0:
402,192,12874,1,0,0:0:0:0:
475,192,13062,128,0,14562:0:0:0:0:
36,192,13062,128,0,14562:0:0:0:0:
228,192,13062,1,0,0:0:0:0:
228,192,13437,1,0,0:0:0:0:
402,192,13437,1,0,0:0:0:0:
228,192,14374,1,0,0:0:0:0:
109,192,14374,1,0,0:0:0:0:
109,192,14562,1,0,0:0:0:0:
475,192,14655,1,0,0:0:0:0:
36,192,14843,1,0,0:0:0:0:
228,192,14937,1,0,0:0:0:0:
475,192,14937,1,0,0:0:0:0:
36,192,15030,1,0,0:0:0:0:
109,192,15124,1,0,0:0:0:0:
36,192,15312,1,0,0:0:0:0:
475,192,15405,1,0,0:0:0:0:
109,192,15593,1,0,0:0:0:0:
228,192,15687,1,0,0:0:0:0:
402,192,15687,1,0,0:0:0:0:
36,192,15780,1,0,0:0:0:0:
402,192,15874,1,0,0:0:0:0:
153,192,15968,1,0,0:0:0:0:
475,192,16062,128,0,17562:0:0:0:0:
36,192,16062,128,0,17562:0:0:0:0:
228,192,16062,1,0,0:0:0:0:
228,192,16437,1,0,0:0:0:0:
402,192,16437,1,0,0:0:0:0:
228,192,17374,1,0,0:0:0:0:
109,192,17374,1,0,0:0:0:0:
109,192,17562,1,0,0:0:0:0:
475,192,17655,1,0,0:0:0:0:
36,192,17843,1,0,0:0:0:0:
228,192,17937,1,0,0:0:0:0:
475,192,17937,1,0,0:0:0:0:
36,192,18030,1,0,0:0:0:0:
109,192,18124,1,0,0:0:0:0:
36,192,18312,1,0,0:0:0:0:
475,192,18405,1,0,0:0:0:0:
109,192,18593,1,0,0:0:0:0:
402,192,18687,1,0,0:0:0:0:
475,192,18687,1,0,0:0:0:0:
36,192,18780,1,0,0:0:0:0:
402,192,18874,1,0,0:0:0:0:
153,192,18968,1,0,0:0:0:0:
475,192,19062,128,0,20562:0:0:0:0:
36,192,19062,128,0,20562:0:0:0:0:
228,192,19062,1,0,0:0:0:0:
402,192,19155,1,0,0:0:0:0:
109,192,19249,1,0,0:0:0:0:
402,192,19343,1,0,0:0:0:0:
109,192,19437,1,0,0:0:0:0:
228,192,19437,1,0,0:0:0:0:
402,192,19530,1,0,0:0:0:0:
109,192,19624,1,0,0:0:0:0:
402,192,19718,1,0,0:0:0:0:
109,192,19812,1,0,0:0:0:0:
402,192,19905,1,0,0:0:0:0:
109,192,19999,1,0,0:0:0:0:
402,192,20093,1,0,0:0:0:0:
109,192,20187,1,0,0:0:0:0:
402,192,20280,1,0,0:0:0:0:
109,192,20374,1,0,0:0:0:0:
228,192,20374,1,0,0:0:0:0:
402,192,20468,1,0,0:0:0:0:
109,192,20562,1,0,0:0:0:0:
402,192,20655,1,0,0:0:0:0:
475,192,20655,1,0,0:0:0:0:
109,192,20749,1,0,0:0:0:0:
36,192,20749,1,0,0:0:0:0:
402,192,20843,1,0,0:0:0:0:
475,192,20843,1,0,0:0:0:0:
109,192,20937,1,0,0:0:0:0:
36,192,20937,1,0,0:0:0:0:
402,192,21030,1,0,0:0:0:0:
475,192,21030,1,0,0:0:0:0:
109,192,21124,1,0,0:0:0:0:
36,192,21124,1,0,0:0:0:0:
402,192,21218,1,0,0:0:0:0:
475,192,21218,1,0,0:0:0:0:
109,192,21312,1,0,0:0:0:0:
36,192,21312,1,0,0:0:0:0:
402,192,21405,1,0,0:0:0:0:
475,192,21405,1,0,0:0:0:0:
109,192,21499,1,0,0:0:0:0:
36,192,21499,1,0,0:0:0:0:
402,192,21593,1,0,0:0:0:0:
475,192,21593,1,0,0:0:0:0:
109,192,21687,1,0,0:0:0:0:
36,192,21687,1,0,0:0:0:0:
402,192,21780,1,0,0:0:0:0:
475,192,21780,1,0,0:0:0:0:
109,192,21874,1,0,0:0:0:0:
36,192,21874,1,0,0:0:0:0:
228,192,21968,1,0,0:0:0:0:
402,192,21968,1,0,0:0:0:0:
36,192,22062,128,0,23562:0:0:0:0:
109,192,22062,128,0,23562:0:0:0:0:
475,192,22062,1,0,0:0:0:0:
402,192,22155,1,0,0:0:0:0:
228,192,22249,1,0,0:0:0:0:
475,192,22343,1,0,0:0:0:0:
256,192,22437,1,0,0:0:0:0:
460,192,22530,1,0,0:0:0:0:
256,192,22624,1,0,0:0:0:0:
358,192,22718,1,0,0:0:0:0:
460,192,22812,1,0,0:0:0:0:
256,192,22905,1,0,0:0:0:0:
460,192,22999,1,0,0:0:0:0:
228,192,23093,1,0,0:0:0:0:
475,192,23187,1,0,0:0:0:0:
402,192,23280,1,0,0:0:0:0:
228,192,23374,128,0,23468:0:0:0:0:
228,192,23562,128,0,23655:0:0:0:0:
228,192,23749,128,0,23843:0:0:0:0:
402,192,23937,1,0,0:0:0:0:
228,192,23937,128,0,24030:0:0:0:0:
228,192,24124,128,0,24218:0:0:0:0:
109,192,24124,1,0,0:0:0:0:
228,192,24312,128,0,24874:0:0:0:0:
475,192,24312,1,0,0:0:0:0:
36,192,24312,1,8,0:0:0:0:
402,192,24499,1,0,0:0:0:0:
109,192,24593,1,0,0:0:0:0:
475,192,24687,1,0,0:0:0:0:
36,192,24687,1,0,0:0:0:0:
475,192,24874,1,0,0:0:0:0:
109,192,24874,1,0,0:0:0:0:
228,192,24968,1,0,0:0:0:0:
402,192,25062,1,0,0:0:0:0:
475,192,25062,1,0,0:0:0:0:
36,192,25062,1,4,0:0:0:0:
109,192,25155,1,0,0:0:0:0:
228,192,25249,1,0,0:0:0:0:
402,192,25343,1,0,0:0:0:0:
475,192,25343,1,0,0:0:0:0:
475,192,25437,1,0,0:0:0:0:
402,192,25437,1,0,0:0:0:0:
109,192,25437,1,0,0:0:0:0:
228,192,25530,1,0,0:0:0:0:
36,192,25530,1,0,0:0:0:0:
402,192,25624,1,0,0:0:0:0:
36,192,25718,1,0,0:0:0:0:
109,192,25812,1,0,0:0:0:0:
228,192,25812,1,0,0:0:0:0:
36,192,25905,1,0,0:0:0:0:
256,192,25999,1,0,0:0:0:0:
358,192,25999,1,0,0:0:0:0:
153,192,26093,1,0,0:0:0:0:
402,192,26187,1,0,0:0:0:0:
460,192,26187,1,0,0:0:0:0:
256,192,26280,1,0,0:0:0:0:
109,192,26374,1,0,0:0:0:0:
51,192,26374,1,0,0:0:0:0:
475,192,26374,1,0,0:0:0:0:
402,192,26437,1,0,0:0:0:0:
228,192,26499,1,0,0:0:0:0:
109,192,26562,1,0,0:0:0:0:
36,192,26624,1,0,0:0:0:0:
109,192,26687,1,0,0:0:0:0:
475,192,26749,1,0,0:0:0:0:
358,192,26749,1,0,0:0:0:0:
358,192,26843,1,0,0:0:0:0:
475,192,26843,1,0,0:0:0:0:
36,192,26937,1,0,0:0:0:0:
109,192,26937,1,0,0:0:0:0:
228,192,26937,1,0,0:0:0:0:
402,192,27030,1,0,0:0:0:0:
475,192,27030,1,0,0:0:0:0:
228,192,27124,1,0,0:0:0:0:
109,192,27218,1,0,0:0:0:0:
36,192,27218,1,0,0:0:0:0:
153,192,27312,1,0,0:0:0:0:
402,192,27312,1,0,0:0:0:0:
475,192,27405,1,0,0:0:0:0:
402,192,27405,1,0,0:0:0:0:
228,192,27499,1,0,0:0:0:0:
460,192,27593,1,0,0:0:0:0:
153,192,27593,1,0,0:0:0:0:
402,192,27687,1,0,0:0:0:0:
475,192,27687,1,0,0:0:0:0:
51,192,27687,1,0,0:0:0:0:
228,192,27780,1,0,0:0:0:0:
402,192,27874,1,0,0:0:0:0:
109,192,27874,1,0,0:0:0:0:
36,192,27968,1,0,0:0:0:0:
228,192,28062,1,0,0:0:0:0:
475,192,28062,1,0,0:0:0:0:
109,192,28155,1,0,0:0:0:0:
358,192,28249,1,0,0:0:0:0:
475,192,28249,1,0,0:0:0:0:
402,192,28343,1,0,0:0:0:0:
475,192,28343,1,0,0:0:0:0:
228,192,28437,1,0,0:0:0:0:
109,192,28437,1,0,0:0:0:0:
36,192,28437,1,0,0:0:0:0:
402,192,28530,1,0,0:0:0:0:
475,192,28530,1,0,0:0:0:0:
228,192,28624,1,0,0:0:0:0:
109,192,28718,1,0,0:0:0:0:
475,192,28718,1,0,0:0:0:0:
402,192,28812,1,0,0:0:0:0:
36,192,28812,1,0,0:0:0:0:
228,192,28905,1,0,0:0:0:0:
402,192,28999,1,0,0:0:0:0:
475,192,28999,1,0,0:0:0:0:
109,192,29093,1,0,0:0:0:0:
228,192,29187,1,0,0:0:0:0:
402,192,29187,1,0,0:0:0:0:
36,192,29280,1,0,0:0:0:0:
109,192,29374,1,0,0:0:0:0:
228,192,29374,1,0,0:0:0:0:
475,192,29374,1,0,0:0:0:0:
36,192,29437,1,0,0:0:0:0:
402,192,29499,1,0,0:0:0:0:
228,192,29562,1,0,0:0:0:0:
109,192,29655,1,0,0:0:0:0:
36,192,29655,1,0,0:0:0:0:
475,192,29655,1,0,0:0:0:0:
228,192,29749,1,0,0:0:0:0:
402,192,29749,1,0,0:0:0:0:
109,192,29812,1,0,0:0:0:0:
36,192,29812,1,0,0:0:0:0:
475,192,29874,1,0,0:0:0:0:
402,192,29874,1,0,0:0:0:0:
228,192,29937,1,0,0:0:0:0:
109,192,29937,1,0,0:0:0:0:
36,192,29937,1,0,0:0:0:0:
402,192,30030,1,0,0:0:0:0:
475,192,30124,1,0,0:0:0:0:
36,192,30124,1,0,0:0:0:0:
109,192,30218,1,0,0:0:0:0:
402,192,30312,1,0,0:0:0:0:
475,192,30312,1,0,0:0:0:0:
402,192,30405,1,0,0:0:0:0:
475,192,30405,1,0,0:0:0:0:
228,192,30499,1,0,0:0:0:0:
36,192,30593,1,0,0:0:0:0:
109,192,30593,1,0,0:0:0:0:
109,192,30687,1,0,0:0:0:0:
36,192,30687,1,0,0:0:0:0:
475,192,30687,1,0,0:0:0:0:
228,192,30780,1,0,0:0:0:0:
402,192,30780,1,0,0:0:0:0:
460,192,30780,1,0,0:0:0:0:
36,192,30874,1,0,0:0:0:0:
109,192,30874,1,0,0:0:0:0:
228,192,30968,1,0,0:0:0:0:
402,192,30968,1,0,0:0:0:0:
475,192,30968,1,0,0:0:0:0:
109,192,31062,1,0,0:0:0:0:
36,192,31062,1,0,0:0:0:0:
475,192,31062,1,0,0:0:0:0:
402,192,31155,1,0,0:0:0:0:
228,192,31249,1,0,0:0:0:0:
109,192,31343,1,0,0:0:0:0:
36,192,31343,1,0,0:0:0:0:
36,192,31437,1,0,0:0:0:0:
109,192,31437,1,0,0:0:0:0:
402,192,31437,1,0,0:0:0:0:
228,192,31530,1,0,0:0:0:0:
475,192,31530,1,0,0:0:0:0:
109,192,31624,1,0,0:0:0:0:
475,192,31718,1,0,0:0:0:0:
402,192,31812,1,0,0:0:0:0:
228,192,31812,1,0,0:0:0:0:
475,192,31905,1,0,0:0:0:0:
109,192,31999,1,0,0:0:0:0:
256,192,31999,1,0,0:0:0:0:
402,192,32093,1,0,0:0:0:0:
51,192,32187,1,0,0:0:0:0:
153,192,32187,1,0,0:0:0:0:
256,192,32280,1,0,0:0:0:0:
402,192,32374,1,0,0:0:0:0:
460,192,32374,1,0,0:0:0:0:
36,192,32374,1,0,0:0:0:0:
109,192,32437,1,0,0:0:0:0:
228,192,32499,1,0,0:0:0:0:
402,192,32562,1,0,0:0:0:0:
475,192,32624,1,0,0:0:0:0:
402,192,32687,1,0,0:0:0:0:
36,192,32749,1,0,0:0:0:0:
153,192,32749,1,0,0:0:0:0:
153,192,32843,1,0,0:0:0:0:
36,192,32843,1,0,0:0:0:0:
475,192,32937,1,0,0:0:0:0:
402,192,32937,1,0,0:0:0:0:
228,192,32937,1,0,0:0:0:0:
109,192,33030,1,0,0:0:0:0:
36,192,33030,1,0,0:0:0:0:
228,192,33124,1,0,0:0:0:0:
402,192,33218,1,0,0:0:0:0:
475,192,33218,1,0,0:0:0:0:
475,192,33312,1,0,0:0:0:0:
109,192,33312,1,0,0:0:0:0:
36,192,33405,1,0,0:0:0:0:
109,192,33405,1,0,0:0:0:0:
228,192,33499,1,0,0:0:0:0:
36,192,33593,1,0,0:0:0:0:
358,192,33593,1,0,0:0:0:0:
109,192,33687,1,0,0:0:0:0:
36,192,33687,1,0,0:0:0:0:
460,192,33687,1,0,0:0:0:0:
228,192,33780,1,0,0:0:0:0:
109,192,33874,1,0,0:0:0:0:
402,192,33874,1,0,0:0:0:0:
475,192,33968,1,0,0:0:0:0:
228,192,34062,1,0,0:0:0:0:
36,192,34062,1,0,0:0:0:0:
402,192,34155,1,0,0:0:0:0:
51,192,34249,1,0,0:0:0:0:
109,192,34249,1,0,0:0:0:0:
109,192,34343,1,0,0:0:0:0:
36,192,34343,1,0,0:0:0:0:
228,192,34437,1,0,0:0:0:0:
402,192,34437,1,0,0:0:0:0:
475,192,34437,1,0,0:0:0:0:
109,192,34530,1,0,0:0:0:0:
36,192,34530,1,0,0:0:0:0:
228,192,34624,1,0,0:0:0:0:
402,192,34718,1,0,0:0:0:0:
36,192,34718,1,0,0:0:0:0:
109,192,34812,1,0,0:0:0:0:
475,192,34812,1,0,0:0:0:0:
228,192,34905,1,0,0:0:0:0:
109,192,34999,1,0,0:0:0:0:
36,192,34999,1,0,0:0:0:0:
402,192,35093,1,0,0:0:0:0:
228,192,35187,1,0,0:0:0:0:
109,192,35187,1,0,0:0:0:0:
475,192,35280,1,0,0:0:0:0:
402,192,35374,1,0,0:0:0:0:
228,192,35374,1,0,0:0:0:0:
36,192,35374,1,0,0:0:0:0:
109,192,35468,1,0,0:0:0:0:
228,192,35562,1,0,0:0:0:0:
402,192,35562,1,0,0:0:0:0:
475,192,35562,1,0,0:0:0:0:
402,192,35655,1,0,0:0:0:0:
475,192,35655,1,0,0:0:0:0:
36,192,35655,1,0,0:0:0:0:
109,192,35749,1,0,0:0:0:0:
228,192,35749,1,0,0:0:0:0:
36,192,35843,1,0,0:0:0:0:
402,192,35843,1,0,0:0:0:0:
475,192,35843,1,0,0:0:0:0:
402,192,35937,1,0,0:0:0:0:
475,192,35937,1,0,0:0:0:0:
228,192,35937,1,0,0:0:0:0:
109,192,36030,1,0,0:0:0:0:
36,192,36030,1,0,0:0:0:0:
228,192,36124,1,0,0:0:0:0:
402,192,36124,1,0,0:0:0:0:
475,192,36124,1,0,0:0:0:0:
228,192,36218,1,0,0:0:0:0:
402,192,36218,1,0,0:0:0:0:
109,192,36218,1,0,0:0:0:0:
256,192,36405,1,0,0:0:0:0:
153,192,36405,1,0,0:0:0:0:
51,192,36405,1,0,0:0:0:0:
402,192,36593,1,0,0:0:0:0:
228,192,36593,1,0,0:0:0:0:
109,192,36593,1,0,0:0:0:0:
228,192,36780,1,0,0:0:0:0:
402,192,36780,1,0,0:0:0:0:
109,192,36780,1,0,0:0:0:0:
228,192,36874,1,0,0:0:0:0:
109,192,36874,1,0,0:0:0:0:
36,192,36874,1,0,0:0:0:0:
109,192,37062,1,0,0:0:0:0:
36,192,37062,1,4,0:0:0:0:
475,192,37062,1,0,0:0:0:0:
402,192,37155,1,0,0:0:0:0:
228,192,37249,1,0,0:0:0:0:
109,192,37343,1,0,0:0:0:0:
36,192,37343,1,0,0:0:0:0:
36,192,37437,1,0,0:0:0:0:
109,192,37437,1,0,0:0:0:0:
402,192,37437,1,0,0:0:0:0:
228,192,37530,1,0,0:0:0:0:
475,192,37530,1,0,0:0:0:0:
109,192,37624,1,0,0:0:0:0:
475,192,37718,1,0,0:0:0:0:
402,192,37812,1,0,0:0:0:0:
228,192,37812,1,0,0:0:0:0:
475,192,37905,1,0,0:0:0:0:
109,192,37999,1,0,0:0:0:0:
256,192,37999,1,0,0:0:0:0:
402,192,38093,1,0,0:0:0:0:
109,192,38187,1,0,0:0:0:0:
51,192,38187,1,0,0:0:0:0:
256,192,38280,1,0,0:0:0:0:
402,192,38374,1,0,0:0:0:0:
460,192,38374,1,0,0:0:0:0:
36,192,38374,1,0,0:0:0:0:
109,192,38437,1,0,0:0:0:0:
228,192,38499,1,0,0:0:0:0:
402,192,38562,1,0,0:0:0:0:
475,192,38624,1,0,0:0:0:0:
402,192,38687,1,0,0:0:0:0:
36,192,38749,1,0,0:0:0:0:
153,192,38749,1,0,0:0:0:0:
153,192,38843,1,0,0:0:0:0:
36,192,38843,1,0,0:0:0:0:
475,192,38937,1,0,0:0:0:0:
402,192,38937,1,0,0:0:0:0:
228,192,38937,1,0,0:0:0:0:
109,192,39030,1,0,0:0:0:0:
36,192,39030,1,0,0:0:0:0:
228,192,39124,1,0,0:0:0:0:
402,192,39218,1,0,0:0:0:0:
475,192,39218,1,0,0:0:0:0:
358,192,39312,1,0,0:0:0:0:
51,192,39312,1,0,0:0:0:0:
36,192,39405,1,0,0:0:0:0:
109,192,39405,1,0,0:0:0:0:
228,192,39499,1,0,0:0:0:0:
153,192,39593,1,0,0:0:0:0:
358,192,39593,1,0,0:0:0:0:
109,192,39687,1,0,0:0:0:0:
36,192,39687,1,0,0:0:0:0:
460,192,39687,1,0,0:0:0:0:
228,192,39780,1,0,0:0:0:0:
109,192,39874,1,0,0:0:0:0:
402,192,39874,1,0,0:0:0:0:
475,192,39968,1,0,0:0:0:0:
228,192,40062,1,0,0:0:0:0:
36,192,40062,1,0,0:0:0:0:
402,192,40155,1,0,0:0:0:0:
153,192,40249,1,0,0:0:0:0:
51,192,40249,1,0,0:0:0:0:
109,192,40343,1,0,0:0:0:0:
36,192,40343,1,0,0:0:0:0:
228,192,40437,1,0,0:0:0:0:
402,192,40437,1,0,0:0:0:0:
475,192,40437,1,0,0:0:0:0:
109,192,40530,1,0,0:0:0:0:
36,192,40530,1,0,0:0:0:0:
228,192,40624,1,0,0:0:0:0:
402,192,40718,1,0,0:0:0:0:
36,192,40718,1,0,0:0:0:0:
460,192,40812,1,0,0:0:0:0:
153,192,40812,1,0,0:0:0:0:
51,192,40905,1,0,0:0:0:0:
358,192,40999,1,0,0:0:0:0:
256,192,40999,1,0,0:0:0:0:
460,192,41093,1,0,0:0:0:0:
153,192,41187,1,0,0:0:0:0:
51,192,41187,1,0,0:0:0:0:
256,192,41280,1,0,0:0:0:0:
51,192,41374,1,0,0:0:0:0:
460,192,41374,1,0,0:0:0:0:
358,192,41374,1,0,0:0:0:0:
153,192,41468,1,0,0:0:0:0:
358,192,41562,1,0,0:0:0:0:
153,192,41655,1,0,0:0:0:0:
51,192,41655,1,0,0:0:0:0:
256,192,41655,1,0,0:0:0:0:
358,192,41749,1,0,0:0:0:0:
460,192,41749,1,0,0:0:0:0:
51,192,41812,1,0,0:0:0:0:
153,192,41812,1,0,0:0:0:0:
358,192,41874,1,0,0:0:0:0:
256,192,41874,1,0,0:0:0:0:
475,192,41937,1,0,0:0:0:0:
153,192,41937,1,0,0:0:0:0:
36,192,41937,1,0,0:0:0:0:
256,192,42030,1,0,0:0:0:0:
36,192,42124,1,0,0:0:0:0:
475,192,42124,1,0,0:0:0:0:
402,192,42218,1,0,0:0:0:0:
109,192,42312,1,0,0:0:0:0:
36,192,42312,1,0,0:0:0:0:
109,192,42405,1,0,0:0:0:0:
36,192,42405,1,0,0:0:0:0:
228,192,42499,1,0,0:0:0:0:
402,192,42593,1,0,0:0:0:0:
475,192,42593,1,0,0:0:0:0:
402,192,42687,1,0,0:0:0:0:
475,192,42687,1,0,0:0:0:0:
36,192,42687,1,0,0:0:0:0:
228,192,42780,1,0,0:0:0:0:
153,192,42780,1,0,0:0:0:0:
51,192,42780,1,0,0:0:0:0:
475,192,42874,1,0,0:0:0:0:
402,192,42874,1,0,0:0:0:0:
228,192,42968,1,0,0:0:0:0:
109,192,42968,1,0,0:0:0:0:
36,192,42968,1,0,0:0:0:0:
402,192,43062,1,0,0:0:0:0:
475,192,43062,1,0,0:0:0:0:
36,192,43062,1,0,0:0:0:0:
109,192,43155,1,0,0:0:0:0:
228,192,43249,1,0,0:0:0:0:
402,192,43343,1,0,0:0:0:0:
475,192,43343,1,0,0:0:0:0:
475,192,43437,1,0,0:0:0:0:
402,192,43437,1,0,0:0:0:0:
109,192,43437,1,0,0:0:0:0:
228,192,43530,1,0,0:0:0:0:
36,192,43530,1,0,0:0:0:0:
402,192,43624,1,0,0:0:0:0:
36,192,43718,1,0,0:0:0:0:
109,192,43812,1,0,0:0:0:0:
228,192,43812,1,0,0:0:0:0:
36,192,43905,1,0,0:0:0:0:
256,192,43999,1,0,0:0:0:0:
358,192,43999,1,0,0:0:0:0:
109,192,44093,1,0,0:0:0:0:
402,192,44187,1,0,0:0:0:0:
460,192,44187,1,0,0:0:0:0:
256,192,44280,1,0,0:0:0:0:
109,192,44374,1,0,0:0:0:0:
51,192,44374,1,0,0:0:0:0:
475,192,44374,1,0,0:0:0:0:
402,192,44437,1,0,0:0:0:0:
228,192,44499,1,0,0:0:0:0:
109,192,44562,1,0,0:0:0:0:
36,192,44624,1,0,0:0:0:0:
109,192,44687,1,0,0:0:0:0:
475,192,44749,1,0,0:0:0:0:
358,192,44749,1,0,0:0:0:0:
358,192,44843,1,0,0:0:0:0:
475,192,44843,1,0,0:0:0:0:
36,192,44937,1,0,0:0:0:0:
109,192,44937,1,0,0:0:0:0:
228,192,44937,1,0,0:0:0:0:
402,192,45030,1,0,0:0:0:0:
475,192,45030,1,0,0:0:0:0:
228,192,45124,1,0,0:0:0:0:
109,192,45218,1,0,0:0:0:0:
36,192,45218,1,0,0:0:0:0:
36,192,45312,1,0,0:0:0:0:
460,192,45312,1,0,0:0:0:0:
475,192,45405,1,0,0:0:0:0:
402,192,45405,1,0,0:0:0:0:
228,192,45499,1,0,0:0:0:0:
358,192,45593,1,0,0:0:0:0:
153,192,45593,1,0,0:0:0:0:
402,192,45687,1,0,0:0:0:0:
475,192,45687,1,0,0:0:0:0:
51,192,45687,1,0,0:0:0:0:
228,192,45780,1,0,0:0:0:0:
402,192,45874,1,0,0:0:0:0:
109,192,45874,1,0,0:0:0:0:
36,192,45968,1,0,0:0:0:0:
228,192,46062,1,0,0:0:0:0:
475,192,46062,1,0,0:0:0:0:
109,192,46155,1,0,0:0:0:0:
460,192,46249,1,0,0:0:0:0:
402,192,46249,1,0,0:0:0:0:
402,192,46343,1,0,0:0:0:0:
475,192,46343,1,0,0:0:0:0:
228,192,46437,1,0,0:0:0:0:
109,192,46437,1,0,0:0:0:0:
36,192,46437,1,0,0:0:0:0:
402,192,46530,1,0,0:0:0:0:
475,192,46530,1,0,0:0:0:0:
228,192,46624,1,0,0:0:0:0:
109,192,46718,1,0,0:0:0:0:
475,192,46718,1,0,0:0:0:0:
36,192,46812,1,0,0:0:0:0:
402,192,46812,1,0,0:0:0:0:
460,192,46905,1,0,0:0:0:0:
153,192,46999,1,0,0:0:0:0:
256,192,46999,1,0,0:0:0:0:
51,192,47093,1,0,0:0:0:0:
402,192,47187,1,0,0:0:0:0:
460,192,47187,1,0,0:0:0:0:
256,192,47280,1,0,0:0:0:0:
475,192,47374,1,0,0:0:0:0:
51,192,47374,1,0,0:0:0:0:
109,192,47374,1,0,0:0:0:0:
402,192,47468,1,0,0:0:0:0:
228,192,47562,1,0,0:0:0:0:
402,192,47655,1,0,0:0:0:0:
475,192,47655,1,0,0:0:0:0:
109,192,47655,1,0,0:0:0:0:
358,192,47749,1,0,0:0:0:0:
460,192,47749,1,0,0:0:0:0:
51,192,47812,1,0,0:0:0:0:
153,192,47812,1,0,0:0:0:0:
358,192,47874,1,0,0:0:0:0:
256,192,47874,1,0,0:0:0:0:
475,192,47937,1,0,0:0:0:0:
36,192,47937,1,0,0:0:0:0:
153,192,47937,1,0,0:0:0:0:
228,192,48030,1,0,0:0:0:0:
109,192,48124,1,0,0:0:0:0:
402,192,48124,1,0,0:0:0:0:
475,192,48218,1,0,0:0:0:0:
109,192,48312,1,0,0:0:0:0:
36,192,48312,1,0,0:0:0:0:
228,192,48405,1,0,0:0:0:0:
475,192,48405,1,0,0:0:0:0:
402,192,48499,1,0,0:0:0:0:
228,192,48593,1,0,0:0:0:0:
109,192,48593,1,0,0:0:0:0:
36,192,48687,128,0,48780:0:0:0:0:
475,192,48687,1,0,0:0:0:0:
402,192,48687,1,0,0:0:0:0:
228,192,48780,128,0,48874:0:0:0:0:
475,192,48780,1,0,0:0:0:0:
402,192,48780,1,0,0:0:0:0:
109,192,48874,128,0,48968:0:0:0:0:
36,192,48874,1,0,0:0:0:0:
228,192,48968,128,0,49062:0:0:0:0:
402,192,48968,1,0,0:0:0:0:
475,192,48968,1,0,0:0:0:0:
402,192,49062,128,0,50374:0:0:0:0:
475,192,49062,1,0,0:0:0:0:
36,192,49062,1,4,0:0:0:0:
228,192,50374,128,0,50468:0:0:0:0:
475,192,50468,128,0,51780:0:0:0:0:
228,192,51312,128,0,51593:0:0:0:0:
402,192,51780,128,0,51874:0:0:0:0:
228,192,51874,128,0,51968:0:0:0:0:
109,192,51968,128,0,53374:0:0:0:0:
402,192,53374,128,0,53468:0:0:0:0:
36,192,53468,128,0,54687:0:0:0:0:
228,192,54124,128,0,54499:0:0:0:0:
109,192,54687,128,0,54780:0:0:0:0:
228,192,54780,128,0,54874:0:0:0:0:
36,192,54874,128,0,54968:0:0:0:0:
228,192,54968,128,0,55062:0:0:0:0:
402,192,55062,128,0,56374:0:0:0:0:
228,192,56374,128,0,56468:0:0:0:0:
475,192,56468,128,0,57780:0:0:0:0:
228,192,57312,128,0,57593:0:0:0:0:
109,192,57780,128,0,57874:0:0:0:0:
475,192,57874,128,0,57968:0:0:0:0:
402,192,57968,128,0,59187:0:0:0:0:
460,192,58999,128,0,59187:0:0:0:0:
228,192,59062,128,0,59187:0:0:0:0:
109,192,59124,128,0,59187:0:0:0:0:
36,192,59187,128,0,59562:0:0:0:0:
475,192,59562,128,0,59937:0:0:0:0:
228,192,59562,128,0,59655:0:0:0:0:
36,192,59937,128,0,60312:0:0:0:0:
402,192,59937,128,0,60030:0:0:0:0:
228,192,60312,128,0,60687:0:0:0:0:
109,192,60312,128,0,60405:0:0:0:0:
475,192,60687,128,0,61062:0:0:0:0:
402,192,60687,128,0,60780:0:0:0:0:
402,192,61062,128,0,61624:0:0:0:0:
228,192,61062,1,0,0:0:0:0:
109,192,61062,1,4,0:0:0:0:
36,192,61062,1,0,0:0:0:0:
36,192,61624,128,0,61812:0:0:0:0:
109,192,61624,128,0,61718:0:0:0:0:
228,192,61812,128,0,61905:0:0:0:0:
402,192,61812,128,0,61905:0:0:0:0:
109,192,61905,128,0,62093:0:0:0:0:
475,192,61905,128,0,61999:0:0:0:0:
228,192,62093,128,0,62280:0:0:0:0:
402,192,62093,128,0,62187:0:0:0:0:
475,192,62280,128,0,62468:0:0:0:0:
402,192,62280,128,0,62374:0:0:0:0:
402,192,62468,128,0,62749:0:0:0:0:
228,192,62468,128,0,62562:0:0:0:0:
36,192,62749,128,0,62937:0:0:0:0:
109,192,62749,128,0,62843:0:0:0:0:
402,192,62937,128,0,63124:0:0:0:0:
228,192,62937,128,0,63030:0:0:0:0:
36,192,63124,128,0,63312:0:0:0:0:
109,192,63124,128,0,63218:0:0:0:0:
228,192,63312,128,0,63499:0:0:0:0:
402,192,63312,128,0,63405:0:0:0:0:
36,192,63499,128,0,63687:0:0:0:0:
109,192,63499,128,0,63593:0:0:0:0:
109,192,63687,128,0,63874:0:0:0:0:
402,192,63687,128,0,63780:0:0:0:0:
36,192,63874,128,0,64062:0:0:0:0:
228,192,63874,128,0,63968:0:0:0:0:
402,192,64062,128,0,64624:0:0:0:0:
475,192,64062,128,0,64155:0:0:0:0:
228,192,64437,128,0,64624:0:0:0:0:
36,192,64624,128,0,64812:0:0:0:0:
109,192,64624,128,0,64718:0:0:0:0:
228,192,64812,128,0,64905:0:0:0:0:
475,192,64812,128,0,64905:0:0:0:0:
109,192,64905,128,0,65093:0:0:0:0:
402,192,64905,128,0,64999:0:0:0:0:
228,192,65093,128,0,65280:0:0:0:0:
475,192,65093,128,0,65187:0:0:0:0:
402,192,65280,128,0,65468:0:0:0:0:
475,192,65280,128,0,65374:0:0:0:0:
475,192,65468,128,0,65749:0:0:0:0:
36,192,65468,128,0,65562:0:0:0:0:
36,192,65749,128,0,65937:0:0:0:0:
228,192,65749,128,0,65843:0:0:0:0:
402,192,65937,128,0,66124:0:0:0:0:
475,192,65937,128,0,66030:0:0:0:0:
36,192,66124,128,0,66312:0:0:0:0:
109,192,66124,128,0,66218:0:0:0:0:
228,192,66312,128,0,66499:0:0:0:0:
402,192,66312,128,0,66405:0:0:0:0:
36,192,66499,128,0,66687:0:0:0:0:
109,192,66499,128,0,66593:0:0:0:0:
109,192,66687,128,0,66874:0:0:0:0:
475,192,66687,128,0,66780:0:0:0:0:
36,192,66874,128,0,67062:0:0:0:0:
402,192,66874,128,0,66968:0:0:0:0:
228,192,67062,128,0,67624:0:0:0:0:
402,192,67062,128,0,67155:0:0:0:0:
36,192,67624,128,0,67718:0:0:0:0:
402,192,67624,128,0,67718:0:0:0:0:
109,192,67718,128,0,67812:0:0:0:0:
228,192,67718,128,0,67812:0:0:0:0:
475,192,67812,128,0,67905:0:0:0:0:
402,192,67812,128,0,67905:0:0:0:0:
36,192,67905,128,0,68093:0:0:0:0:
228,192,67905,128,0,67999:0:0:0:0:
109,192,68093,128,0,68280:0:0:0:0:
402,192,68093,128,0,68187:0:0:0:0:
475,192,68280,128,0,68468:0:0:0:0:
51,192,68280,128,0,68374:0:0:0:0:
228,192,68468,128,0,69124:0:0:0:0:
153,192,68468,128,0,68562:0:0:0:0:
402,192,68562,1,0,0:0:0:0:
109,192,68655,1,0,0:0:0:0:
402,192,68749,1,0,0:0:0:0:
36,192,68843,1,0,0:0:0:0:
402,192,68937,1,0,0:0:0:0:
109,192,69030,1,0,0:0:0:0:
36,192,69124,128,0,69218:0:0:0:0:
475,192,69124,128,0,69218:0:0:0:0:
109,192,69218,128,0,69312:0:0:0:0:
402,192,69218,128,0,69312:0:0:0:0:
228,192,69312,128,0,69405:0:0:0:0:
475,192,69312,128,0,69405:0:0:0:0:
402,192,69405,128,0,69593:0:0:0:0:
36,192,69405,128,0,69499:0:0:0:0:
228,192,69499,1,0,0:0:0:0:
109,192,69593,128,0,69780:0:0:0:0:
475,192,69593,128,0,69687:0:0:0:0:
228,192,69687,1,0,0:0:0:0:
475,192,69780,128,0,70062:0:0:0:0:
402,192,69780,128,0,69874:0:0:0:0:
36,192,69874,1,0,0:0:0:0:
228,192,69968,128,0,71468:0:0:0:0:
153,192,69968,128,0,70062:0:0:0:0:
51,192,70062,1,0,0:0:0:0:
402,192,70155,1,0,0:0:0:0:
475,192,70155,1,0,0:0:0:0:
109,192,70249,1,0,0:0:0:0:
36,192,70249,1,0,0:0:0:0:
402,192,70343,1,0,0:0:0:0:
475,192,70343,1,0,0:0:0:0:
109,192,70437,1,0,0:0:0:0:
36,192,70437,1,0,0:0:0:0:
402,192,70530,1,0,0:0:0:0:
475,192,70530,1,0,0:0:0:0:
109,192,70624,1,0,0:0:0:0:
36,192,70624,1,0,0:0:0:0:
402,192,70718,1,0,0:0:0:0:
475,192,70718,1,0,0:0:0:0:
109,192,70812,1,0,0:0:0:0:
36,192,70812,1,0,0:0:0:0:
402,192,70905,1,0,0:0:0:0:
475,192,70905,1,0,0:0:0:0:
109,192,70999,1,0,0:0:0:0:
36,192,70999,1,0,0:0:0:0:
475,192,71093,1,0,0:0:0:0:
402,192,71093,1,0,0:0:0:0:
109,192,71187,1,0,0:0:0:0:
36,192,71187,1,0,0:0:0:0:
402,192,71280,1,0,0:0:0:0:
475,192,71280,1,0,0:0:0:0:
109,192,71374,1,0,0:0:0:0:
36,192,71374,1,0,0:0:0:0:
402,192,71468,1,0,0:0:0:0:
475,192,71468,1,0,0:0:0:0:
228,192,71562,128,0,71655:0:0:0:0:
228,192,71749,128,0,71843:0:0:0:0:
402,192,71937,1,0,0:0:0:0:
228,192,71937,128,0,72030:0:0:0:0:
228,192,72124,128,0,72218:0:0:0:0:
109,192,72124,1,0,0:0:0:0:
228,192,72312,128,0,72687:0:0:0:0:
475,192,72312,1,0,0:0:0:0:
36,192,72312,1,8,0:0:0:0:
402,192,72499,1,0,0:0:0:0:
109,192,72593,1,0,0:0:0:0:
475,192,72687,1,0,0:0:0:0:
36,192,72687,1,0,0:0:0:0:
228,192,72780,1,0,0:0:0:0:
475,192,72874,1,0,0:0:0:0:
109,192,72874,1,0,0:0:0:0:
228,192,72968,1,0,0:0:0:0:
402,192,73062,1,0,0:0:0:0:
475,192,73062,1,0,0:0:0:0:
36,192,73062,1,4,0:0:0:0:
109,192,73155,1,0,0:0:0:0:
228,192,73249,1,0,0:0:0:0:
475,192,73249,1,0,0:0:0:0:
36,192,73343,1,0,0:0:0:0:
109,192,73343,1,0,0:0:0:0:
109,192,73437,1,0,0:0:0:0:
36,192,73437,1,0,0:0:0:0:
402,192,73437,1,0,0:0:0:0:
475,192,73530,1,0,0:0:0:0:
228,192,73530,1,0,0:0:0:0:
109,192,73624,1,0,0:0:0:0:
402,192,73624,1,0,0:0:0:0:
36,192,73718,1,0,0:0:0:0:
228,192,73718,1,0,0:0:0:0:
460,192,73812,1,0,0:0:0:0:
358,192,73905,1,0,0:0:0:0:
36,192,73905,1,0,0:0:0:0:
228,192,73999,1,0,0:0:0:0:
153,192,73999,1,0,0:0:0:0:
358,192,74093,1,0,0:0:0:0:
460,192,74093,1,0,0:0:0:0:
153,192,74187,1,0,0:0:0:0:
256,192,74187,1,0,0:0:0:0:
51,192,74280,1,0,0:0:0:0:
475,192,74280,1,0,0:0:0:0:
109,192,74374,1,0,0:0:0:0:
228,192,74374,1,0,0:0:0:0:
402,192,74374,1,0,0:0:0:0:
475,192,74468,1,0,0:0:0:0:
36,192,74562,1,0,0:0:0:0:
402,192,74655,1,0,0:0:0:0:
228,192,74655,1,0,0:0:0:0:
109,192,74749,1,0,0:0:0:0:
36,192,74749,1,0,0:0:0:0:
109,192,74843,1,0,0:0:0:0:
358,192,74843,1,0,0:0:0:0:
402,192,74937,1,0,0:0:0:0:
228,192,74937,1,0,0:0:0:0:
475,192,74937,1,0,0:0:0:0:
109,192,75030,1,0,0:0:0:0:
36,192,75030,1,0,0:0:0:0:
358,192,75124,1,0,0:0:0:0:
475,192,75124,1,0,0:0:0:0:
36,192,75218,1,0,0:0:0:0:
109,192,75218,1,0,0:0:0:0:
358,192,75312,1,0,0:0:0:0:
153,192,75312,1,0,0:0:0:0:
402,192,75405,1,0,0:0:0:0:
475,192,75405,1,0,0:0:0:0:
228,192,75499,1,0,0:0:0:0:
109,192,75593,1,0,0:0:0:0:
36,192,75593,1,0,0:0:0:0:
228,192,75687,1,0,0:0:0:0:
109,192,75687,1,0,0:0:0:0:
36,192,75687,1,0,0:0:0:0:
475,192,75780,1,0,0:0:0:0:
109,192,75874,1,0,0:0:0:0:
402,192,75874,1,0,0:0:0:0:
475,192,75968,1,0,0:0:0:0:
36,192,75968,1,0,0:0:0:0:
109,192,76062,1,0,0:0:0:0:
228,192,76062,1,0,0:0:0:0:
475,192,76155,1,0,0:0:0:0:
402,192,76249,1,0,0:0:0:0:
228,192,76249,1,0,0:0:0:0:
402,192,76343,1,0,0:0:0:0:
36,192,76343,1,0,0:0:0:0:
36,192,76437,1,0,0:0:0:0:
109,192,76437,1,0,0:0:0:0:
475,192,76437,1,0,0:0:0:0:
228,192,76530,1,0,0:0:0:0:
402,192,76624,1,0,0:0:0:0:
109,192,76624,1,0,0:0:0:0:
475,192,76718,1,0,0:0:0:0:
228,192,76718,1,0,0:0:0:0:
109,192,76812,1,0,0:0:0:0:
36,192,76905,1,0,0:0:0:0:
475,192,76905,1,0,0:0:0:0:
402,192,76999,1,0,0:0:0:0:
228,192,76999,1,0,0:0:0:0:
109,192,77093,1,0,0:0:0:0:
475,192,77093,1,0,0:0:0:0:
36,192,77187,1,0,0:0:0:0:
228,192,77187,1,0,0:0:0:0:
475,192,77280,1,0,0:0:0:0:
109,192,77374,1,0,0:0:0:0:
36,192,77374,1,0,0:0:0:0:
402,192,77374,1,0,0:0:0:0:
228,192,77468,1,0,0:0:0:0:
475,192,77468,1,0,0:0:0:0:
402,192,77562,1,0,0:0:0:0:
36,192,77562,1,0,0:0:0:0:
475,192,77655,1,0,0:0:0:0:
228,192,77655,1,0,0:0:0:0:
109,192,77655,1,0,0:0:0:0:
109,192,77749,1,0,0:0:0:0:
36,192,77749,1,0,0:0:0:0:
402,192,77812,1,0,0:0:0:0:
475,192,77812,1,0,0:0:0:0:
109,192,77874,1,0,0:0:0:0:
36,192,77874,1,0,0:0:0:0:
228,192,77937,1,0,0:0:0:0:
402,192,77937,1,0,0:0:0:0:
475,192,77937,1,0,0:0:0:0:
109,192,78030,1,0,0:0:0:0:
36,192,78124,1,0,0:0:0:0:
475,192,78124,1,0,0:0:0:0:
402,192,78218,1,0,0:0:0:0:
228,192,78218,1,0,0:0:0:0:
109,192,78312,1,0,0:0:0:0:
36,192,78312,1,0,0:0:0:0:
109,192,78405,1,0,0:0:0:0:
228,192,78405,1,0,0:0:0:0:
36,192,78499,1,0,0:0:0:0:
402,192,78593,1,0,0:0:0:0:
475,192,78593,1,0,0:0:0:0:
475,192,78687,1,0,0:0:0:0:
402,192,78687,1,0,0:0:0:0:
36,192,78687,1,0,0:0:0:0:
109,192,78780,1,0,0:0:0:0:
228,192,78780,1,0,0:0:0:0:
36,192,78780,1,0,0:0:0:0:
402,192,78874,1,0,0:0:0:0:
475,192,78874,1,0,0:0:0:0:
109,192,78968,1,0,0:0:0:0:
36,192,78968,1,0,0:0:0:0:
402,192,78968,1,0,0:0:0:0:
109,192,79062,1,0,0:0:0:0:
36,192,79062,1,0,0:0:0:0:
475,192,79062,1,0,0:0:0:0:
402,192,79155,1,0,0:0:0:0:
228,192,79249,1,0,0:0:0:0:
36,192,79249,1,0,0:0:0:0:
475,192,79343,1,0,0:0:0:0:
402,192,79343,1,0,0:0:0:0:
402,192,79437,1,0,0:0:0:0:
475,192,79437,1,0,0:0:0:0:
109,192,79437,1,0,0:0:0:0:
36,192,79530,1,0,0:0:0:0:
228,192,79530,1,0,0:0:0:0:
402,192,79624,1,0,0:0:0:0:
109,192,79624,1,0,0:0:0:0:
475,192,79718,1,0,0:0:0:0:
228,192,79718,1,0,0:0:0:0:
51,192,79812,1,0,0:0:0:0:
153,192,79905,1,0,0:0:0:0:
475,192,79905,1,0,0:0:0:0:
228,192,79999,1,0,0:0:0:0:
51,192,79999,1,0,0:0:0:0:
402,192,80093,1,0,0:0:0:0:
475,192,80093,1,0,0:0:0:0:
228,192,80187,1,0,0:0:0:0:
109,192,80187,1,0,0:0:0:0:
475,192,80280,1,0,0:0:0:0:
36,192,80280,1,0,0:0:0:0:
402,192,80374,1,0,0:0:0:0:
228,192,80374,1,0,0:0:0:0:
109,192,80374,1,0,0:0:0:0:
36,192,80468,1,0,0:0:0:0:
475,192,80562,1,0,0:0:0:0:
109,192,80655,1,0,0:0:0:0:
228,192,80655,1,0,0:0:0:0:
402,192,80749,1,0,0:0:0:0:
475,192,80749,1,0,0:0:0:0:
36,192,80843,1,0,0:0:0:0:
402,192,80843,1,0,0:0:0:0:
109,192,80937,1,0,0:0:0:0:
228,192,80937,1,0,0:0:0:0:
36,192,80937,1,0,0:0:0:0:
402,192,81030,1,0,0:0:0:0:
475,192,81030,1,0,0:0:0:0:
228,192,81124,1,0,0:0:0:0:
36,192,81124,1,0,0:0:0:0:
475,192,81218,1,0,0:0:0:0:
402,192,81218,1,0,0:0:0:0:
475,192,81312,1,0,0:0:0:0:
36,192,81312,1,0,0:0:0:0:
109,192,81405,1,0,0:0:0:0:
36,192,81405,1,0,0:0:0:0:
228,192,81499,1,0,0:0:0:0:
402,192,81593,1,0,0:0:0:0:
475,192,81593,1,0,0:0:0:0:
228,192,81687,1,0,0:0:0:0:
402,192,81687,1,0,0:0:0:0:
475,192,81687,1,0,0:0:0:0:
36,192,81780,1,0,0:0:0:0:
402,192,81874,1,0,0:0:0:0:
109,192,81874,1,0,0:0:0:0:
36,192,81968,1,0,0:0:0:0:
475,192,81968,1,0,0:0:0:0:
402,192,82062,1,0,0:0:0:0:
228,192,82062,1,0,0:0:0:0:
36,192,82155,1,0,0:0:0:0:
475,192,82249,1,0,0:0:0:0:
402,192,82249,1,0,0:0:0:0:
109,192,82343,1,0,0:0:0:0:
402,192,82343,1,0,0:0:0:0:
475,192,82437,1,0,0:0:0:0:
36,192,82437,1,0,0:0:0:0:
109,192,82437,1,0,0:0:0:0:
228,192,82530,1,0,0:0:0:0:
109,192,82624,1,0,0:0:0:0:
402,192,82624,1,0,0:0:0:0:
36,192,82718,1,0,0:0:0:0:
228,192,82718,1,0,0:0:0:0:
402,192,82812,1,0,0:0:0:0:
475,192,82905,1,0,0:0:0:0:
36,192,82905,1,0,0:0:0:0:
109,192,82999,1,0,0:0:0:0:
228,192,82999,1,0,0:0:0:0:
402,192,83093,1,0,0:0:0:0:
36,192,83093,1,0,0:0:0:0:
475,192,83187,1,0,0:0:0:0:
153,192,83187,1,0,0:0:0:0:
256,192,83280,1,0,0:0:0:0:
402,192,83374,1,0,0:0:0:0:
475,192,83374,1,0,0:0:0:0:
109,192,83374,1,0,0:0:0:0:
228,192,83468,1,0,0:0:0:0:
36,192,83468,1,0,0:0:0:0:
109,192,83562,1,0,0:0:0:0:
475,192,83562,1,0,0:0:0:0:
36,192,83655,1,0,0:0:0:0:
228,192,83655,1,0,0:0:0:0:
402,192,83655,1,0,0:0:0:0:
402,192,83749,1,0,0:0:0:0:
475,192,83749,1,0,0:0:0:0:
109,192,83812,1,0,0:0:0:0:
36,192,83812,1,0,0:0:0:0:
402,192,83874,1,0,0:0:0:0:
475,192,83874,1,0,0:0:0:0:
228,192,83937,1,0,0:0:0:0:
109,192,83937,1,0,0:0:0:0:
36,192,83937,1,0,0:0:0:0:
402,192,84030,1,0,0:0:0:0:
475,192,84124,1,0,0:0:0:0:
153,192,84124,1,0,0:0:0:0:
51,192,84218,1,0,0:0:0:0:
256,192,84218,1,0,0:0:0:0:
358,192,84312,1,0,0:0:0:0:
153,192,84312,1,0,0:0:0:0:
475,192,84312,128,0,84405:0:0:0:0:
228,192,84405,128,0,84499:0:0:0:0:
109,192,84499,128,0,84593:0:0:0:0:
402,192,84593,128,0,84687:0:0:0:0:
36,192,84687,128,0,84780:0:0:0:0:
228,192,84780,128,0,84874:0:0:0:0:
36,192,84874,128,0,84968:0:0:0:0:
109,192,84968,128,0,85062:0:0:0:0:
402,192,85062,1,0,0:0:0:0:
475,192,85062,1,4,0:0:0:0:
228,192,85062,1,0,0:0:0:0:
109,192,85155,1,0,0:0:0:0:
228,192,85249,1,0,0:0:0:0:
475,192,85249,1,0,0:0:0:0:
36,192,85343,1,0,0:0:0:0:
109,192,85343,1,0,0:0:0:0:
109,192,85437,1,0,0:0:0:0:
36,192,85437,1,0,0:0:0:0:
402,192,85437,1,0,0:0:0:0:
475,192,85530,1,0,0:0:0:0:
228,192,85530,1,0,0:0:0:0:
109,192,85624,1,0,0:0:0:0:
402,192,85624,1,0,0:0:0:0:
36,192,85718,1,0,0:0:0:0:
228,192,85718,1,0,0:0:0:0:
402,192,85812,1,0,0:0:0:0:
475,192,85905,1,0,0:0:0:0:
36,192,85905,1,0,0:0:0:0:
228,192,85999,1,0,0:0:0:0:
402,192,85999,1,0,0:0:0:0:
109,192,86093,1,0,0:0:0:0:
36,192,86093,1,0,0:0:0:0:
228,192,86187,1,0,0:0:0:0:
402,192,86187,1,0,0:0:0:0:
36,192,86280,1,0,0:0:0:0:
475,192,86280,1,0,0:0:0:0:
109,192,86374,1,0,0:0:0:0:
228,192,86374,1,0,0:0:0:0:
402,192,86374,1,0,0:0:0:0:
475,192,86468,1,0,0:0:0:0:
36,192,86562,1,0,0:0:0:0:
402,192,86655,1,0,0:0:0:0:
228,192,86655,1,0,0:0:0:0:
109,192,86749,1,0,0:0:0:0:
36,192,86749,1,0,0:0:0:0:
402,192,86843,1,0,0:0:0:0:
109,192,86843,1,0,0:0:0:0:
402,192,86937,1,0,0:0:0:0:
228,192,86937,1,0,0:0:0:0:
475,192,86937,1,0,0:0:0:0:
109,192,87030,1,0,0:0:0:0:
36,192,87030,1,0,0:0:0:0:
228,192,87124,1,0,0:0:0:0:
475,192,87124,1,0,0:0:0:0:
36,192,87218,1,0,0:0:0:0:
109,192,87218,1,0,0:0:0:0:
109,192,87312,1,0,0:0:0:0:
402,192,87312,1,0,0:0:0:0:
402,192,87405,1,0,0:0:0:0:
475,192,87405,1,0,0:0:0:0:
228,192,87499,1,0,0:0:0:0:
109,192,87593,1,0,0:0:0:0:
36,192,87593,1,0,0:0:0:0:
228,192,87687,1,0,0:0:0:0:
109,192,87687,1,0,0:0:0:0:
36,192,87687,1,0,0:0:0:0:
475,192,87780,1,0,0:0:0:0:
109,192,87874,1,0,0:0:0:0:
402,192,87874,1,0,0:0:0:0:
475,192,87968,1,0,0:0:0:0:
36,192,87968,1,0,0:0:0:0:
109,192,88062,1,0,0:0:0:0:
228,192,88062,1,0,0:0:0:0:
402,192,88155,1,0,0:0:0:0:
475,192,88249,1,0,0:0:0:0:
36,192,88249,1,0,0:0:0:0:
109,192,88343,1,0,0:0:0:0:
36,192,88343,1,0,0:0:0:0:
109,192,88437,1,0,0:0:0:0:
475,192,88437,1,0,0:0:0:0:
402,192,88437,1,0,0:0:0:0:
228,192,88530,1,0,0:0:0:0:
402,192,88624,1,0,0:0:0:0:
109,192,88624,1,0,0:0:0:0:
460,192,88718,1,0,0:0:0:0:
228,192,88718,1,0,0:0:0:0:
109,192,88812,1,0,0:0:0:0:
36,192,88905,1,0,0:0:0:0:
460,192,88905,1,0,0:0:0:0:
402,192,88999,1,0,0:0:0:0:
228,192,88999,1,0,0:0:0:0:
109,192,89093,1,0,0:0:0:0:
460,192,89093,1,0,0:0:0:0:
36,192,89187,1,0,0:0:0:0:
228,192,89187,1,0,0:0:0:0:
358,192,89280,1,0,0:0:0:0:
109,192,89374,1,0,0:0:0:0:
36,192,89374,1,0,0:0:0:0:
460,192,89374,1,0,0:0:0:0:
228,192,89468,1,0,0:0:0:0:
358,192,89468,1,0,0:0:0:0:
460,192,89562,1,0,0:0:0:0:
36,192,89562,1,0,0:0:0:0:
358,192,89655,1,0,0:0:0:0:
228,192,89655,1,0,0:0:0:0:
109,192,89655,1,0,0:0:0:0:
109,192,89749,1,0,0:0:0:0:
36,192,89749,1,0,0:0:0:0:
402,192,89812,1,0,0:0:0:0:
460,192,89812,1,0,0:0:0:0:
109,192,89874,1,0,0:0:0:0:
36,192,89874,1,0,0:0:0:0:
228,192,89937,1,0,0:0:0:0:
402,192,89937,1,0,0:0:0:0:
460,192,89937,1,0,0:0:0:0:
109,192,90030,1,0,0:0:0:0:
36,192,90124,1,0,0:0:0:0:
475,192,90124,1,0,0:0:0:0:
402,192,90218,1,0,0:0:0:0:
228,192,90218,1,0,0:0:0:0:
109,192,90312,1,0,0:0:0:0:
36,192,90312,1,0,0:0:0:0:
109,192,90405,1,0,0:0:0:0:
228,192,90405,1,0,0:0:0:0:
36,192,90499,1,0,0:0:0:0:
402,192,90593,1,0,0:0:0:0:
475,192,90593,1,0,0:0:0:0:
475,192,90687,1,0,0:0:0:0:
402,192,90687,1,0,0:0:0:0:
36,192,90687,1,0,0:0:0:0:
109,192,90780,1,0,0:0:0:0:
228,192,90780,1,0,0:0:0:0:
36,192,90780,1,0,0:0:0:0:
402,192,90874,1,0,0:0:0:0:
475,192,90874,1,0,0:0:0:0:
228,192,90968,1,0,0:0:0:0:
109,192,90968,1,0,0:0:0:0:
402,192,90968,1,0,0:0:0:0:
109,192,91062,1,0,0:0:0:0:
36,192,91062,1,0,0:0:0:0:
475,192,91062,1,0,0:0:0:0:
402,192,91155,1,0,0:0:0:0:
228,192,91249,1,0,0:0:0:0:
36,192,91249,1,0,0:0:0:0:
475,192,91343,1,0,0:0:0:0:
402,192,91343,1,0,0:0:0:0:
402,192,91437,1,0,0:0:0:0:
475,192,91437,1,0,0:0:0:0:
109,192,91437,1,0,0:0:0:0:
36,192,91530,1,0,0:0:0:0:
228,192,91530,1,0,0:0:0:0:
402,192,91624,1,0,0:0:0:0:
109,192,91624,1,0,0:0:0:0:
475,192,91718,1,0,0:0:0:0:
228,192,91718,1,0,0:0:0:0:
109,192,91812,1,0,0:0:0:0:
36,192,91905,1,0,0:0:0:0:
475,192,91905,1,0,0:0:0:0:
228,192,91999,1,0,0:0:0:0:
109,192,91999,1,0,0:0:0:0:
402,192,92093,1,0,0:0:0:0:
475,192,92093,1,0,0:0:0:0:
228,192,92187,1,0,0:0:0:0:
109,192,92187,1,0,0:0:0:0:
475,192,92280,1,0,0:0:0:0:
36,192,92280,1,0,0:0:0:0:
402,192,92374,1,0,0:0:0:0:
228,192,92374,1,0,0:0:0:0:
109,192,92374,1,0,0:0:0:0:
36,192,92468,1,0,0:0:0:0:
475,192,92562,1,0,0:0:0:0:
109,192,92655,1,0,0:0:0:0:
228,192,92655,1,0,0:0:0:0:
402,192,92749,1,0,0:0:0:0:
475,192,92749,1,0,0:0:0:0:
36,192,92843,1,0,0:0:0:0:
402,192,92843,1,0,0:0:0:0:
109,192,92937,1,0,0:0:0:0:
228,192,92937,1,0,0:0:0:0:
36,192,92937,1,0,0:0:0:0:
402,192,93030,1,0,0:0:0:0:
475,192,93030,1,0,0:0:0:0:
228,192,93124,1,0,0:0:0:0:
36,192,93124,1,0,0:0:0:0:
475,192,93218,1,0,0:0:0:0:
402,192,93218,1,0,0:0:0:0:
475,192,93312,1,0,0:0:0:0:
36,192,93312,1,0,0:0:0:0:
109,192,93405,1,0,0:0:0:0:
36,192,93405,1,0,0:0:0:0:
228,192,93499,1,0,0:0:0:0:
402,192,93593,1,0,0:0:0:0:
475,192,93593,1,0,0:0:0:0:
228,192,93687,1,0,0:0:0:0:
402,192,93687,1,0,0:0:0:0:
475,192,93687,1,0,0:0:0:0:
36,192,93780,1,0,0:0:0:0:
475,192,93874,1,0,0:0:0:0:
402,192,93874,1,0,0:0:0:0:
109,192,93968,1,0,0:0:0:0:
36,192,93968,1,0,0:0:0:0:
228,192,94062,128,0,94155:0:0:0:0:
402,192,94062,128,0,94155:0:0:0:0:
475,192,94062,128,0,94155:0:0:0:0:
402,192,94249,1,0,0:0:0:0:
475,192,94249,1,0,0:0:0:0:
475,192,94343,128,0,94437:0:0:0:0:
402,192,94343,128,0,94437:0:0:0:0:
109,192,94343,128,0,94437:0:0:0:0:
228,192,94530,1,0,0:0:0:0:
109,192,94530,1,0,0:0:0:0:
402,192,94624,128,0,94718:0:0:0:0:
228,192,94624,128,0,94718:0:0:0:0:
109,192,94624,128,0,94718:0:0:0:0:
228,192,94812,1,0,0:0:0:0:
402,192,94812,1,0,0:0:0:0:
36,192,94905,128,0,94999:0:0:0:0:
228,192,94905,128,0,94999:0:0:0:0:
402,192,94905,128,0,94999:0:0:0:0:
109,192,95093,1,0,0:0:0:0:
36,192,95093,1,0,0:0:0:0:
36,192,95187,128,0,95280:0:0:0:0:
109,192,95187,128,0,95280:0:0:0:0:
228,192,95187,128,0,95280:0:0:0:0:
402,192,95374,1,0,0:0:0:0:
475,192,95374,1,0,0:0:0:0:
36,192,95468,1,0,0:0:0:0:
402,192,95468,1,0,0:0:0:0:
109,192,95562,128,0,95655:0:0:0:0:
36,192,95562,128,0,95655:0:0:0:0:
228,192,95562,128,0,95655:0:0:0:0:
109,192,95749,1,0,0:0:0:0:
36,192,95749,1,0,0:0:0:0:
109,192,95843,128,0,95937:0:0:0:0:
228,192,95843,128,0,95937:0:0:0:0:
402,192,95843,128,0,95937:0:0:0:0:
402,192,96030,1,0,0:0:0:0:
475,192,96030,1,0,0:0:0:0:
228,192,96124,128,0,96218:0:0:0:0:
475,192,96124,128,0,96218:0:0:0:0:
402,192,96124,128,0,96218:0:0:0:0:
153,192,96312,128,0,96405:0:0:0:0:
358,192,96405,128,0,96499:0:0:0:0:
51,192,96499,128,0,96593:0:0:0:0:
460,192,96593,128,0,96687:0:0:0:0:
153,192,96687,128,0,96780:0:0:0:0:
358,192,96780,128,0,96874:0:0:0:0:
51,192,96874,128,0,96968:0:0:0:0:
460,192,96968,128,0,97062:0:0:0:0:
228,192,97062,128,0,103062:0:0:0:0:
402,192,97062,128,0,97343:0:0:0:0:
109,192,97062,128,0,97343:0:0:0:0:
36,192,97062,128,4,97343:0:0:0:0:
475,192,99874,128,0,99968:0:0:0:0:
402,192,99874,128,0,99968:0:0:0:0:
109,192,99874,128,0,99968:0:0:0:0:
402,192,100062,128,0,100343:0:0:0:0:
109,192,100062,128,0,100343:0:0:0:0:
36,192,100062,128,0,100343:0:0:0:0:
475,192,103062,128,0,103155:0:0:0:0:
402,192,103062,128,0,103155:0:0:0:0:
36,192,103062,128,0,103155:0:0:0:0:
402,192,103249,128,0,103343:0:0:0:0:
228,192,103249,128,0,103343:0:0:0:0:
36,192,103249,128,0,103343:0:0:0:0:
109,192,103437,128,0,103530:0:0:0:0:
36,192,103437,128,0,103530:0:0:0:0:
228,192,103437,128,0,103530:0:0:0:0:
109,192,103624,128,0,103718:0:0:0:0:
228,192,103624,128,0,103718:0:0:0:0:
402,192,103624,128,0,103718:0:0:0:0:
36,192,103812,128,0,103905:0:0:0:0:
109,192,103812,128,0,103905:0:0:0:0:
475,192,103812,128,0,103905:0:0:0:0:
475,192,103999,128,0,104093:0:0:0:0:
109,192,103999,128,0,104093:0:0:0:0:
228,192,103999,128,0,104093:0:0:0:0:
402,192,104187,128,0,104280:0:0:0:0:
475,192,104187,128,0,104280:0:0:0:0:
228,192,104187,128,0,104280:0:0:0:0:
228,192,104374,128,0,104468:0:0:0:0:
109,192,104374,128,0,104468:0:0:0:0:
402,192,104374,128,0,104468:0:0:0:0:
36,192,104562,128,0,104655:0:0:0:0:
109,192,104562,128,0,104655:0:0:0:0:
228,192,104562,128,0,104655:0:0:0:0:
36,192,104749,128,0,104843:0:0:0:0:
109,192,104749,128,0,104843:0:0:0:0:
402,192,104749,128,0,104843:0:0:0:0:
36,192,104937,128,0,105030:0:0:0:0:
109,192,104937,128,0,105030:0:0:0:0:
475,192,104937,128,0,105030:0:0:0:0:
228,192,105124,128,0,105218:0:0:0:0:
402,192,105124,128,0,105218:0:0:0:0:
109,192,105124,128,0,105218:0:0:0:0:
475,192,105312,128,0,105405:0:0:0:0:
402,192,105312,128,0,105405:0:0:0:0:
228,192,105312,128,0,105405:0:0:0:0:
475,192,105499,128,0,105593:0:0:0:0:
402,192,105499,128,0,105593:0:0:0:0:
109,192,105499,128,0,105593:0:0:0:0:
475,192,105687,128,0,105780:0:0:0:0:
402,192,105687,128,0,105780:0:0:0:0:
36,192,105687,128,0,105780:0:0:0:0:
228,192,105874,128,0,105968:0:0:0:0:
109,192,105874,128,0,105968:0:0:0:0:
402,192,105874,128,0,105968:0:0:0:0:
36,192,106062,128,0,106155:0:0:0:0:
228,192,106062,128,0,106155:0:0:0:0:
402,192,106155,128,0,106249:0:0:0:0:
109,192,106155,128,0,106249:0:0:0:0:
475,192,106249,128,0,106343:0:0:0:0:
228,192,106249,128,0,106343:0:0:0:0:
36,192,106343,128,0,106437:0:0:0:0:
109,192,106343,128,0,106437:0:0:0:0:
228,192,106437,128,0,106530:0:0:0:0:
402,192,106437,128,0,106530:0:0:0:0:
36,192,106530,128,0,106624:0:0:0:0:
475,192,106530,128,0,106624:0:0:0:0:
109,192,106624,128,0,106718:0:0:0:0:
228,192,106624,128,0,106718:0:0:0:0:
475,192,106718,128,0,106812:0:0:0:0:
402,192,106718,128,0,106812:0:0:0:0:
36,192,106812,128,0,106905:0:0:0:0:
109,192,106812,128,0,106905:0:0:0:0:
228,192,106905,128,0,106999:0:0:0:0:
402,192,106905,128,0,106999:0:0:0:0:
36,192,106999,128,0,107093:0:0:0:0:
475,192,106999,128,0,107093:0:0:0:0:
109,192,107093,128,0,107187:0:0:0:0:
228,192,107093,128,0,107187:0:0:0:0:
402,192,107187,128,0,107280:0:0:0:0:
475,192,107187,128,0,107280:0:0:0:0:
36,192,107280,128,0,107374:0:0:0:0:
109,192,107280,128,0,107374:0:0:0:0:
228,192,107374,128,0,107468:0:0:0:0:
228,192,107562,128,0,107655:0:0:0:0:
228,192,107749,128,0,107843:0:0:0:0:
228,192,107937,128,0,108030:0:0:0:0:
109,192,107937,1,0,0:0:0:0:
228,192,108124,128,0,108218:0:0:0:0:
402,192,108124,1,0,0:0:0:0:
228,192,108312,128,0,108687:0:0:0:0:
475,192,108312,1,0,0:0:0:0:
36,192,108312,1,8,0:0:0:0:
153,192,108499,1,0,0:0:0:0:
402,192,108593,1,0,0:0:0:0:
36,192,108687,1,0,0:0:0:0:
460,192,108687,1,0,0:0:0:0:
402,192,108780,1,0,0:0:0:0:
109,192,108780,1,0,0:0:0:0:
228,192,108874,1,0,0:0:0:0:
402,192,108968,1,0,0:0:0:0:
109,192,108968,1,0,0:0:0:0:
36,192,109062,128,4,109249:0:0:0:0:
475,192,109062,128,0,109155:0:0:0:0:
228,192,109062,128,0,109202:0:0:0:0:
402,192,109249,1,0,0:0:0:0:
475,192,109249,1,0,0:0:0:0:
402,192,109343,1,0,0:0:0:0:
475,192,109343,1,0,0:0:0:0:
228,192,109437,1,0,0:0:0:0:
109,192,109530,1,0,0:0:0:0:
36,192,109530,1,0,0:0:0:0:
109,192,109624,1,0,0:0:0:0:
36,192,109624,1,0,0:0:0:0:
402,192,109718,1,0,0:0:0:0:
228,192,109812,1,0,0:0:0:0:
109,192,109812,1,0,0:0:0:0:
36,192,109812,1,0,0:0:0:0:
402,192,109905,1,0,0:0:0:0:
228,192,109999,1,0,0:0:0:0:
36,192,109999,1,0,0:0:0:0:
109,192,110093,1,0,0:0:0:0:
228,192,110187,1,0,0:0:0:0:
475,192,110187,1,0,0:0:0:0:
109,192,110233,1,0,0:0:0:0:
36,192,110280,1,0,0:0:0:0:
475,192,110327,1,0,0:0:0:0:
402,192,110374,1,0,0:0:0:0:
228,192,110421,1,0,0:0:0:0:
475,192,110468,1,0,0:0:0:0:
402,192,110515,1,0,0:0:0:0:
109,192,110562,1,0,0:0:0:0:
36,192,110562,1,0,0:0:0:0:
228,192,110608,1,0,0:0:0:0:
402,192,110655,1,0,0:0:0:0:
475,192,110702,1,0,0:0:0:0:
109,192,110749,1,0,0:0:0:0:
36,192,110749,1,0,0:0:0:0:
36,192,110843,1,0,0:0:0:0:
109,192,110843,1,0,0:0:0:0:
402,192,110890,1,0,0:0:0:0:
228,192,110937,1,0,0:0:0:0:
109,192,110983,1,0,0:0:0:0:
402,192,111030,1,0,0:0:0:0:
475,192,111030,1,0,0:0:0:0:
402,192,111124,1,0,0:0:0:0:
475,192,111124,1,0,0:0:0:0:
109,192,111218,1,0,0:0:0:0:
36,192,111218,1,0,0:0:0:0:
109,192,111312,1,0,0:0:0:0:
36,192,111312,1,0,0:0:0:0:
475,192,111312,1,0,0:0:0:0:
228,192,111358,1,0,0:0:0:0:
402,192,111405,1,0,0:0:0:0:
36,192,111452,1,0,0:0:0:0:
109,192,111499,1,0,0:0:0:0:
228,192,111546,1,0,0:0:0:0:
402,192,111593,1,0,0:0:0:0:
475,192,111640,1,0,0:0:0:0:
36,192,111687,128,0,111874:0:0:0:0:
228,192,111874,128,0,112062:0:0:0:0:
153,192,111874,128,0,111968:0:0:0:0:
475,192,112062,128,0,112249:0:0:0:0:
36,192,112062,128,0,112155:0:0:0:0:
402,192,112062,128,0,112202:0:0:0:0:
109,192,112249,1,0,0:0:0:0:
36,192,112249,1,0,0:0:0:0:
109,192,112343,1,0,0:0:0:0:
36,192,112343,1,0,0:0:0:0:
228,192,112437,1,0,0:0:0:0:
402,192,112530,1,0,0:0:0:0:
475,192,112530,1,0,0:0:0:0:
402,192,112624,1,0,0:0:0:0:
475,192,112624,1,0,0:0:0:0:
109,192,112718,1,0,0:0:0:0:
228,192,112812,1,0,0:0:0:0:
402,192,112812,1,0,0:0:0:0:
475,192,112812,1,0,0:0:0:0:
109,192,112905,1,0,0:0:0:0:
36,192,112999,1,0,0:0:0:0:
402,192,112999,1,0,0:0:0:0:
228,192,113093,1,0,0:0:0:0:
36,192,113187,1,0,0:0:0:0:
109,192,113187,1,0,0:0:0:0:
228,192,113280,1,0,0:0:0:0:
402,192,113374,1,0,0:0:0:0:
475,192,113374,1,0,0:0:0:0:
402,192,113468,1,0,0:0:0:0:
475,192,113468,1,0,0:0:0:0:
228,192,113562,1,0,0:0:0:0:
109,192,113655,1,0,0:0:0:0:
36,192,113655,1,0,0:0:0:0:
51,192,113749,1,0,0:0:0:0:
358,192,113749,1,0,0:0:0:0:
460,192,113843,1,0,0:0:0:0:
358,192,113843,1,0,0:0:0:0:
256,192,113937,1,0,0:0:0:0:
402,192,114030,1,0,0:0:0:0:
475,192,114030,1,0,0:0:0:0:
36,192,114124,1,0,0:0:0:0:
475,192,114124,1,0,0:0:0:0:
109,192,114218,1,0,0:0:0:0:
36,192,114218,1,0,0:0:0:0:
228,192,114312,1,0,0:0:0:0:
402,192,114312,1,0,0:0:0:0:
475,192,114312,1,0,0:0:0:0:
402,192,114405,1,0,0:0:0:0:
475,192,114405,1,0,0:0:0:0:
228,192,114499,1,0,0:0:0:0:
109,192,114499,1,0,0:0:0:0:
36,192,114593,1,0,0:0:0:0:
402,192,114593,1,0,0:0:0:0:
228,192,114687,1,0,0:0:0:0:
475,192,114687,1,0,0:0:0:0:
109,192,114780,1,0,0:0:0:0:
36,192,114780,1,0,0:0:0:0:
109,192,114874,1,0,0:0:0:0:
36,192,114874,1,0,0:0:0:0:
228,192,114968,1,0,0:0:0:0:
402,192,114968,1,0,0:0:0:0:
475,192,115062,128,0,115249:0:0:0:0:
36,192,115062,128,0,115155:0:0:0:0:
109,192,115062,128,0,115202:0:0:0:0:
228,192,115249,1,0,0:0:0:0:
36,192,115249,1,0,0:0:0:0:
228,192,115343,1,0,0:0:0:0:
36,192,115343,1,0,0:0:0:0:
109,192,115437,1,0,0:0:0:0:
228,192,115530,1,0,0:0:0:0:
475,192,115530,1,0,0:0:0:0:
228,192,115624,1,0,0:0:0:0:
475,192,115624,1,0,0:0:0:0:
109,192,115718,1,0,0:0:0:0:
36,192,115812,1,0,0:0:0:0:
402,192,115812,1,0,0:0:0:0:
475,192,115812,1,0,0:0:0:0:
228,192,115905,1,0,0:0:0:0:
109,192,115999,1,0,0:0:0:0:
475,192,115999,1,0,0:0:0:0:
402,192,116093,1,0,0:0:0:0:
228,192,116187,1,0,0:0:0:0:
36,192,116187,1,0,0:0:0:0:
402,192,116233,1,0,0:0:0:0:
475,192,116280,1,0,0:0:0:0:
36,192,116327,1,0,0:0:0:0:
109,192,116374,1,0,0:0:0:0:
228,192,116421,1,0,0:0:0:0:
36,192,116468,1,0,0:0:0:0:
109,192,116515,1,0,0:0:0:0:
402,192,116562,1,0,0:0:0:0:
475,192,116562,1,0,0:0:0:0:
228,192,116608,1,0,0:0:0:0:
109,192,116655,1,0,0:0:0:0:
36,192,116702,1,0,0:0:0:0:
402,192,116749,1,0,0:0:0:0:
475,192,116749,1,0,0:0:0:0:
475,192,116843,1,0,0:0:0:0:
402,192,116843,1,0,0:0:0:0:
109,192,116890,1,0,0:0:0:0:
228,192,116937,1,0,0:0:0:0:
402,192,116983,1,0,0:0:0:0:
109,192,117030,1,0,0:0:0:0:
36,192,117030,1,0,0:0:0:0:
109,192,117124,1,0,0:0:0:0:
36,192,117124,1,0,0:0:0:0:
402,192,117218,1,0,0:0:0:0:
475,192,117218,1,0,0:0:0:0:
402,192,117312,1,0,0:0:0:0:
475,192,117312,1,0,0:0:0:0:
36,192,117312,1,0,0:0:0:0:
228,192,117358,1,0,0:0:0:0:
109,192,117405,1,0,0:0:0:0:
475,192,117452,1,0,0:0:0:0:
402,192,117499,1,0,0:0:0:0:
228,192,117546,1,0,0:0:0:0:
109,192,117593,1,0,0:0:0:0:
36,192,117640,1,0,0:0:0:0:
475,192,117687,128,0,117874:0:0:0:0:
228,192,117874,128,0,118062:0:0:0:0:
402,192,117874,128,0,117968:0:0:0:0:
36,192,118062,128,0,118249:0:0:0:0:
475,192,118062,128,0,118155:0:0:0:0:
109,192,118062,128,0,118202:0:0:0:0:
402,192,118249,1,0,0:0:0:0:
475,192,118249,1,0,0:0:0:0:
402,192,118343,1,0,0:0:0:0:
475,192,118343,1,0,0:0:0:0:
228,192,118437,1,0,0:0:0:0:
109,192,118530,1,0,0:0:0:0:
36,192,118530,1,0,0:0:0:0:
109,192,118624,1,0,0:0:0:0:
36,192,118624,1,0,0:0:0:0:
402,192,118718,1,0,0:0:0:0:
228,192,118812,1,0,0:0:0:0:
109,192,118812,1,0,0:0:0:0:
36,192,118812,1,0,0:0:0:0:
402,192,118905,1,0,0:0:0:0:
475,192,118999,1,0,0:0:0:0:
109,192,118999,1,0,0:0:0:0:
228,192,119093,1,0,0:0:0:0:
475,192,119187,1,0,0:0:0:0:
402,192,119187,1,0,0:0:0:0:
228,192,119280,1,0,0:0:0:0:
109,192,119374,1,0,0:0:0:0:
36,192,119374,1,0,0:0:0:0:
109,192,119468,1,0,0:0:0:0:
36,192,119468,1,0,0:0:0:0:
228,192,119562,1,0,0:0:0:0:
402,192,119562,1,0,0:0:0:0:
475,192,119562,1,0,0:0:0:0:
109,192,119655,1,0,0:0:0:0:
36,192,119655,1,0,0:0:0:0:
402,192,119749,1,0,0:0:0:0:
475,192,119749,1,0,0:0:0:0:
402,192,119843,1,0,0:0:0:0:
475,192,119843,1,0,0:0:0:0:
228,192,119937,1,0,0:0:0:0:
109,192,119937,1,0,0:0:0:0:
36,192,119937,1,0,0:0:0:0:
475,192,120030,1,0,0:0:0:0:
109,192,120124,1,0,0:0:0:0:
36,192,120124,1,0,0:0:0:0:
402,192,120187,1,0,0:0:0:0:
475,192,120187,1,0,0:0:0:0:
228,192,120249,1,0,0:0:0:0:
109,192,120249,1,0,0:0:0:0:
402,192,120312,1,0,0:0:0:0:
475,192,120312,1,0,0:0:0:0:
36,192,120312,1,0,0:0:0:0:
228,192,120358,1,0,0:0:0:0:
109,192,120405,1,0,0:0:0:0:
475,192,120452,1,0,0:0:0:0:
402,192,120499,1,0,0:0:0:0:
228,192,120546,1,0,0:0:0:0:
109,192,120593,1,0,0:0:0:0:
36,192,120640,1,0,0:0:0:0:
358,192,120687,1,0,0:0:0:0:
51,192,120780,1,0,0:0:0:0:
153,192,120874,1,0,0:0:0:0:
228,192,120968,1,0,0:0:0:0:
36,192,121062,128,4,121249:0:0:0:0:
475,192,121062,128,0,121155:0:0:0:0:
402,192,121062,128,0,121202:0:0:0:0:
109,192,121249,1,0,0:0:0:0:
475,192,121249,1,0,0:0:0:0:
109,192,121343,1,0,0:0:0:0:
475,192,121343,1,0,0:0:0:0:
228,192,121437,1,0,0:0:0:0:
36,192,121530,1,0,0:0:0:0:
402,192,121530,1,0,0:0:0:0:
36,192,121624,1,0,0:0:0:0:
402,192,121624,1,0,0:0:0:0:
475,192,121718,1,0,0:0:0:0:
228,192,121812,1,0,0:0:0:0:
109,192,121812,1,0,0:0:0:0:
36,192,121812,1,0,0:0:0:0:
402,192,121905,1,0,0:0:0:0:
228,192,121999,1,0,0:0:0:0:
36,192,121999,1,0,0:0:0:0:
109,192,122093,1,0,0:0:0:0:
228,192,122187,1,0,0:0:0:0:
475,192,122187,1,0,0:0:0:0:
109,192,122233,1,0,0:0:0:0:
36,192,122280,1,0,0:0:0:0:
475,192,122327,1,0,0:0:0:0:
402,192,122374,1,0,0:0:0:0:
228,192,122421,1,0,0:0:0:0:
475,192,122468,1,0,0:0:0:0:
402,192,122515,1,0,0:0:0:0:
109,192,122562,1,0,0:0:0:0:
36,192,122562,1,0,0:0:0:0:
228,192,122608,1,0,0:0:0:0:
402,192,122655,1,0,0:0:0:0:
475,192,122702,1,0,0:0:0:0:
109,192,122749,1,0,0:0:0:0:
36,192,122749,1,0,0:0:0:0:
36,192,122843,1,0,0:0:0:0:
109,192,122843,1,0,0:0:0:0:
402,192,122890,1,0,0:0:0:0:
228,192,122937,1,0,0:0:0:0:
109,192,122983,1,0,0:0:0:0:
402,192,123030,1,0,0:0:0:0:
475,192,123030,1,0,0:0:0:0:
402,192,123124,1,0,0:0:0:0:
475,192,123124,1,0,0:0:0:0:
109,192,123218,1,0,0:0:0:0:
36,192,123218,1,0,0:0:0:0:
109,192,123312,1,0,0:0:0:0:
36,192,123312,1,0,0:0:0:0:
475,192,123312,1,0,0:0:0:0:
228,192,123358,1,0,0:0:0:0:
402,192,123405,1,0,0:0:0:0:
36,192,123452,1,0,0:0:0:0:
109,192,123499,1,0,0:0:0:0:
475,192,123546,1,0,0:0:0:0:
402,192,123593,1,0,0:0:0:0:
228,192,123640,1,0,0:0:0:0:
153,192,123687,128,0,123874:0:0:0:0:
358,192,123874,128,0,124062:0:0:0:0:
256,192,123874,128,0,123968:0:0:0:0:
475,192,124062,128,0,124249:0:0:0:0:
36,192,124062,128,0,124155:0:0:0:0:
109,192,124062,128,0,124202:0:0:0:0:
402,192,124249,1,0,0:0:0:0:
36,192,124249,1,0,0:0:0:0:
402,192,124343,1,0,0:0:0:0:
36,192,124343,1,0,0:0:0:0:
228,192,124437,1,0,0:0:0:0:
109,192,124530,1,0,0:0:0:0:
475,192,124530,1,0,0:0:0:0:
109,192,124624,1,0,0:0:0:0:
475,192,124624,1,0,0:0:0:0:
36,192,124718,1,0,0:0:0:0:
228,192,124812,1,0,0:0:0:0:
402,192,124812,1,0,0:0:0:0:
475,192,124812,1,0,0:0:0:0:
109,192,124905,1,0,0:0:0:0:
36,192,124999,1,0,0:0:0:0:
402,192,124999,1,0,0:0:0:0:
228,192,125093,1,0,0:0:0:0:
36,192,125187,1,0,0:0:0:0:
109,192,125187,1,0,0:0:0:0:
228,192,125280,1,0,0:0:0:0:
402,192,125374,1,0,0:0:0:0:
475,192,125374,1,0,0:0:0:0:
402,192,125468,1,0,0:0:0:0:
475,192,125468,1,0,0:0:0:0:
228,192,125562,1,0,0:0:0:0:
109,192,125655,1,0,0:0:0:0:
36,192,125655,1,0,0:0:0:0:
475,192,125749,1,0,0:0:0:0:
402,192,125749,1,0,0:0:0:0:
402,192,125843,1,0,0:0:0:0:
109,192,125843,1,0,0:0:0:0:
228,192,125937,1,0,0:0:0:0:
402,192,126030,1,0,0:0:0:0:
475,192,126030,1,0,0:0:0:0:
36,192,126124,1,0,0:0:0:0:
475,192,126124,1,0,0:0:0:0:
109,192,126218,1,0,0:0:0:0:
36,192,126218,1,0,0:0:0:0:
228,192,126312,1,0,0:0:0:0:
402,192,126312,1,0,0:0:0:0:
475,192,126312,1,0,0:0:0:0:
402,192,126405,1,0,0:0:0:0:
475,192,126405,1,0,0:0:0:0:
228,192,126499,1,0,0:0:0:0:
109,192,126499,1,0,0:0:0:0:
36,192,126593,1,0,0:0:0:0:
402,192,126593,1,0,0:0:0:0:
228,192,126687,1,0,0:0:0:0:
475,192,126687,1,0,0:0:0:0:
109,192,126780,1,0,0:0:0:0:
36,192,126780,1,0,0:0:0:0:
109,192,126874,1,0,0:0:0:0:
36,192,126874,1,0,0:0:0:0:
228,192,126968,1,0,0:0:0:0:
402,192,126968,1,0,0:0:0:0:
475,192,127062,128,0,127249:0:0:0:0:
36,192,127062,128,0,127155:0:0:0:0:
109,192,127062,128,0,127202:0:0:0:0:
228,192,127249,1,0,0:0:0:0:
36,192,127249,1,0,0:0:0:0:
228,192,127343,1,0,0:0:0:0:
36,192,127343,1,0,0:0:0:0:
109,192,127437,1,0,0:0:0:0:
228,192,127530,1,0,0:0:0:0:
475,192,127530,1,0,0:0:0:0:
228,192,127624,1,0,0:0:0:0:
475,192,127624,1,0,0:0:0:0:
109,192,127718,1,0,0:0:0:0:
36,192,127812,1,0,0:0:0:0:
402,192,127812,1,0,0:0:0:0:
475,192,127812,1,0,0:0:0:0:
228,192,127905,1,0,0:0:0:0:
109,192,127999,1,0,0:0:0:0:
475,192,127999,1,0,0:0:0:0:
402,192,128093,1,0,0:0:0:0:
228,192,128187,1,0,0:0:0:0:
36,192,128187,1,0,0:0:0:0:
402,192,128233,1,0,0:0:0:0:
475,192,128280,1,0,0:0:0:0:
36,192,128327,1,0,0:0:0:0:
109,192,128374,1,0,0:0:0:0:
228,192,128421,1,0,0:0:0:0:
36,192,128468,1,0,0:0:0:0:
109,192,128515,1,0,0:0:0:0:
402,192,128562,1,0,0:0:0:0:
475,192,128562,1,0,0:0:0:0:
228,192,128608,1,0,0:0:0:0:
109,192,128655,1,0,0:0:0:0:
36,192,128702,1,0,0:0:0:0:
402,192,128749,1,0,0:0:0:0:
475,192,128749,1,0,0:0:0:0:
475,192,128843,1,0,0:0:0:0:
402,192,128843,1,0,0:0:0:0:
109,192,128890,1,0,0:0:0:0:
228,192,128937,1,0,0:0:0:0:
402,192,128983,1,0,0:0:0:0:
109,192,129030,1,0,0:0:0:0:
36,192,129030,1,0,0:0:0:0:
109,192,129124,1,0,0:0:0:0:
36,192,129124,1,0,0:0:0:0:
402,192,129218,1,0,0:0:0:0:
475,192,129218,1,0,0:0:0:0:
402,192,129312,1,0,0:0:0:0:
475,192,129312,1,0,0:0:0:0:
36,192,129312,1,0,0:0:0:0:
228,192,129358,1,0,0:0:0:0:
109,192,129405,1,0,0:0:0:0:
475,192,129452,1,0,0:0:0:0:
402,192,129499,1,0,0:0:0:0:
228,192,129546,1,0,0:0:0:0:
109,192,129593,1,0,0:0:0:0:
36,192,129640,1,0,0:0:0:0:
460,192,129687,1,0,0:0:0:0:
153,192,129780,1,0,0:0:0:0:
256,192,129874,1,0,0:0:0:0:
358,192,129968,1,0,0:0:0:0:
36,192,130062,128,0,130249:0:0:0:0:
475,192,130062,128,0,130155:0:0:0:0:
109,192,130062,128,0,130202:0:0:0:0:
402,192,130249,1,0,0:0:0:0:
475,192,130249,1,0,0:0:0:0:
402,192,130343,1,0,0:0:0:0:
475,192,130343,1,0,0:0:0:0:
228,192,130437,1,0,0:0:0:0:
109,192,130530,1,0,0:0:0:0:
36,192,130530,1,0,0:0:0:0:
109,192,130624,1,0,0:0:0:0:
36,192,130624,1,0,0:0:0:0:
402,192,130718,1,0,0:0:0:0:
228,192,130812,1,0,0:0:0:0:
109,192,130812,1,0,0:0:0:0:
36,192,130812,1,0,0:0:0:0:
402,192,130905,1,0,0:0:0:0:
475,192,130999,1,0,0:0:0:0:
109,192,130999,1,0,0:0:0:0:
228,192,131093,1,0,0:0:0:0:
475,192,131187,1,0,0:0:0:0:
402,192,131187,1,0,0:0:0:0:
228,192,131280,1,0,0:0:0:0:
36,192,131374,1,0,0:0:0:0:
153,192,131374,1,0,0:0:0:0:
358,192,131468,1,0,0:0:0:0:
460,192,131468,1,0,0:0:0:0:
36,192,131562,1,0,0:0:0:0:
256,192,131562,1,0,0:0:0:0:
153,192,131562,1,0,0:0:0:0:
460,192,131655,1,0,0:0:0:0:
358,192,131655,1,0,0:0:0:0:
153,192,131749,1,0,0:0:0:0:
36,192,131749,1,0,0:0:0:0:
475,192,131843,1,0,0:0:0:0:
228,192,131843,1,0,0:0:0:0:
36,192,131937,1,0,0:0:0:0:
402,192,132030,1,0,0:0:0:0:
228,192,132030,1,0,0:0:0:0:
475,192,132124,1,0,0:0:0:0:
109,192,132124,1,0,0:0:0:0:
36,192,132218,1,0,0:0:0:0:
402,192,132218,1,0,0:0:0:0:
228,192,132312,1,0,0:0:0:0:
402,192,132405,1,0,0:0:0:0:
109,192,132405,1,0,0:0:0:0:
475,192,132499,1,0,0:0:0:0:
36,192,132499,1,0,0:0:0:0:
228,192,132593,1,0,0:0:0:0:
402,192,132593,1,0,0:0:0:0:
109,192,132687,1,0,0:0:0:0:
36,192,132687,1,8,0:0:0:0:
475,192,132687,1,0,0:0:0:0:
228,192,133062,128,0,134562:0:0:0:0:
358,192,133062,128,0,133437:0:0:0:0:
153,192,133062,128,0,133437:0:0:0:0:
51,192,133062,128,4,133249:0:0:0:0:
460,192,133062,128,0,133249:0:0:0:0:
228,192,136062,128,0,137562:0:0:0:0:
36,192,138874,128,0,139062:0:0:0:0:
228,192,139062,128,0,140562:0:0:0:0:
475,192,139062,128,0,140937:0:0:0:0:
402,192,140562,128,0,141312:0:0:0:0:
228,192,140937,128,0,141687:0:0:0:0:
109,192,141312,128,0,142062:0:0:0:0:
36,192,141687,128,0,142437:0:0:0:0:
228,192,142062,128,0,143562:0:0:0:0:
475,192,144874,1,0,0:0:0:0:
402,192,144874,1,0,0:0:0:0:
402,192,144968,1,0,0:0:0:0:
475,192,145062,1,0,0:0:0:0:
36,192,145062,1,0,0:0:0:0:
109,192,145062,1,0,0:0:0:0:
228,192,145062,128,0,146562:0:0:0:0:
109,192,145343,1,0,0:0:0:0:
36,192,145343,1,0,0:0:0:0:
109,192,145624,1,0,0:0:0:0:
36,192,145624,1,0,0:0:0:0:
36,192,145812,1,0,0:0:0:0:
109,192,145812,1,0,0:0:0:0:
475,192,146562,1,0,0:0:0:0:
402,192,146562,1,0,0:0:0:0:
109,192,146749,1,0,0:0:0:0:
402,192,147124,1,0,0:0:0:0:
475,192,147124,1,0,0:0:0:0:
109,192,147312,1,0,0:0:0:0:
109,192,147874,1,0,0:0:0:0:
36,192,147874,1,0,0:0:0:0:
109,192,147968,1,0,0:0:0:0:
228,192,148062,128,0,149562:0:0:0:0:
402,192,148062,1,0,0:0:0:0:
402,192,148343,1,0,0:0:0:0:
402,192,148624,1,0,0:0:0:0:
402,192,148812,1,0,0:0:0:0:
402,192,149562,1,0,0:0:0:0:
475,192,149562,1,0,0:0:0:0:
109,192,149749,1,0,0:0:0:0:
402,192,150124,1,0,0:0:0:0:
475,192,150124,1,0,0:0:0:0:
109,192,150312,1,0,0:0:0:0:
402,192,150874,1,0,0:0:0:0:
475,192,150874,1,0,0:0:0:0:
402,192,150968,1,0,0:0:0:0:
228,192,151062,128,0,152562:0:0:0:0:
109,192,151062,1,0,0:0:0:0:
109,192,151343,1,0,0:0:0:0:
109,192,151624,1,0,0:0:0:0:
109,192,151812,1,0,0:0:0:0:
402,192,152562,1,0,0:0:0:0:
475,192,152562,1,0,0:0:0:0:
402,192,153124,1,0,0:0:0:0:
475,192,153124,1,0,0:0:0:0:
109,192,153874,1,0,0:0:0:0:
36,192,153874,1,0,0:0:0:0:
109,192,153968,1,0,0:0:0:0:
228,192,154062,128,0,155562:0:0:0:0:
402,192,154062,1,0,0:0:0:0:
475,192,154062,1,0,0:0:0:0:
36,192,154343,1,0,0:0:0:0:
402,192,154624,1,0,0:0:0:0:
475,192,154624,1,0,0:0:0:0:
36,192,154812,1,0,0:0:0:0:
402,192,155187,1,0,0:0:0:0:
475,192,155187,1,0,0:0:0:0:
36,192,155374,1,0,0:0:0:0:
109,192,155562,1,0,0:0:0:0:
402,192,155749,1,0,0:0:0:0:
109,192,155937,1,0,0:0:0:0:
109,192,156124,1,0,0:0:0:0:
228,192,156312,1,0,0:0:0:0:
402,192,156499,1,0,0:0:0:0:
109,192,156593,1,0,0:0:0:0:
36,192,156687,128,0,156780:0:0:0:0:
475,192,156687,1,0,0:0:0:0:
228,192,156780,128,0,156874:0:0:0:0:
109,192,156874,128,0,156968:0:0:0:0:
402,192,156874,1,0,0:0:0:0:
228,192,156968,128,0,157062:0:0:0:0:
402,192,157062,128,0,158374:0:0:0:0:
475,192,157062,1,0,0:0:0:0:
36,192,157062,1,4,0:0:0:0:
109,192,157437,1,0,0:0:0:0:
36,192,157437,1,0,0:0:0:0:
475,192,157812,1,0,0:0:0:0:
109,192,157812,1,0,0:0:0:0:
36,192,157812,1,0,0:0:0:0:
228,192,158374,128,0,158468:0:0:0:0:
109,192,158374,1,0,0:0:0:0:
36,192,158374,1,0,0:0:0:0:
475,192,158468,128,0,159780:0:0:0:0:
109,192,158749,1,0,0:0:0:0:
36,192,158749,1,0,0:0:0:0:
109,192,158937,1,0,0:0:0:0:
36,192,158937,1,0,0:0:0:0:
228,192,159312,128,0,159593:0:0:0:0:
109,192,159312,1,0,0:0:0:0:
36,192,159312,1,0,0:0:0:0:
402,192,159780,128,0,159874:0:0:0:0:
228,192,159874,128,0,159968:0:0:0:0:
109,192,159968,128,0,161374:0:0:0:0:
402,192,160062,1,0,0:0:0:0:
475,192,160062,1,0,0:0:0:0:
402,192,160437,1,0,0:0:0:0:
475,192,160437,1,0,0:0:0:0:
402,192,160812,1,0,0:0:0:0:
475,192,160812,1,0,0:0:0:0:
36,192,160812,1,0,0:0:0:0:
402,192,161374,128,0,161468:0:0:0:0:
228,192,161374,1,0,0:0:0:0:
475,192,161374,1,0,0:0:0:0:
36,192,161468,128,0,162593:0:0:0:0:
228,192,161749,1,0,0:0:0:0:
475,192,161749,1,0,0:0:0:0:
228,192,161937,1,0,0:0:0:0:
475,192,161937,1,0,0:0:0:0:
228,192,162124,128,0,162499:0:0:0:0:
402,192,162312,1,0,0:0:0:0:
475,192,162312,1,0,0:0:0:0:
109,192,162312,1,0,0:0:0:0:
36,192,162687,128,0,162780:0:0:0:0:
228,192,162780,128,0,162874:0:0:0:0:
109,192,162874,128,0,162968:0:0:0:0:
228,192,162968,128,0,163062:0:0:0:0:
402,192,163062,128,0,164374:0:0:0:0:
109,192,163062,1,0,0:0:0:0:
36,192,163062,1,0,0:0:0:0:
109,192,163437,1,0,0:0:0:0:
36,192,163437,1,0,0:0:0:0:
228,192,163812,1,0,0:0:0:0:
36,192,163812,1,0,0:0:0:0:
475,192,163812,1,0,0:0:0:0:
228,192,164374,128,0,164468:0:0:0:0:
109,192,164374,1,0,0:0:0:0:
36,192,164374,1,0,0:0:0:0:
475,192,164468,128,0,165780:0:0:0:0:
109,192,164749,1,0,0:0:0:0:
36,192,164749,1,0,0:0:0:0:
109,192,164937,1,0,0:0:0:0:
36,192,164937,1,0,0:0:0:0:
228,192,165312,128,0,165593:0:0:0:0:
402,192,165312,1,0,0:0:0:0:
109,192,165312,1,0,0:0:0:0:
109,192,165780,128,0,165874:0:0:0:0:
475,192,165874,128,0,165968:0:0:0:0:
402,192,165968,128,0,167187:0:0:0:0:
228,192,166062,1,0,0:0:0:0:
109,192,166062,1,0,0:0:0:0:
228,192,166437,1,0,0:0:0:0:
109,192,166437,1,0,0:0:0:0:
475,192,166812,1,0,0:0:0:0:
109,192,166812,1,0,0:0:0:0:
36,192,166812,1,0,0:0:0:0:
460,192,166999,128,0,167187:0:0:0:0:
228,192,167062,128,0,167187:0:0:0:0:
109,192,167124,128,0,167187:0:0:0:0:
36,192,167187,128,0,167562:0:0:0:0:
402,192,167374,1,0,0:0:0:0:
109,192,167374,1,0,0:0:0:0:
475,192,167562,128,0,167937:0:0:0:0:
228,192,167562,128,0,167655:0:0:0:0:
402,192,167749,1,0,0:0:0:0:
109,192,167749,1,0,0:0:0:0:
36,192,167937,128,0,168312:0:0:0:0:
402,192,167937,128,0,168030:0:0:0:0:
109,192,167937,1,0,0:0:0:0:
228,192,168312,128,0,168687:0:0:0:0:
109,192,168312,128,0,168405:0:0:0:0:
475,192,168312,1,0,0:0:0:0:
402,192,168312,1,0,0:0:0:0:
475,192,168687,128,0,169062:0:0:0:0:
402,192,168687,128,0,168780:0:0:0:0:
228,192,168874,1,0,0:0:0:0:
402,192,168874,1,0,0:0:0:0:
109,192,168968,1,0,0:0:0:0:
36,192,168968,1,0,0:0:0:0:
402,192,169062,128,0,169624:0:0:0:0:
228,192,169062,1,0,0:0:0:0:
109,192,169062,1,0,0:0:0:0:
36,192,169062,1,0,0:0:0:0:
109,192,169437,1,0,0:0:0:0:
36,192,169437,1,0,0:0:0:0:
36,192,169624,128,0,169812:0:0:0:0:
109,192,169624,128,0,169718:0:0:0:0:
228,192,169812,128,0,169905:0:0:0:0:
402,192,169812,128,0,169905:0:0:0:0:
475,192,169812,1,0,0:0:0:0:
109,192,169905,128,0,170093:0:0:0:0:
475,192,169905,128,0,169999:0:0:0:0:
228,192,170093,128,0,170280:0:0:0:0:
402,192,170093,128,0,170187:0:0:0:0:
109,192,170187,1,0,0:0:0:0:
36,192,170187,1,0,0:0:0:0:
475,192,170280,128,0,170468:0:0:0:0:
402,192,170280,128,0,170374:0:0:0:0:
109,192,170374,1,0,0:0:0:0:
36,192,170374,1,0,0:0:0:0:
402,192,170468,128,0,170749:0:0:0:0:
228,192,170468,128,0,170562:0:0:0:0:
36,192,170562,1,0,0:0:0:0:
475,192,170562,1,0,0:0:0:0:
36,192,170749,128,0,170937:0:0:0:0:
109,192,170749,128,0,170843:0:0:0:0:
402,192,170937,128,0,171124:0:0:0:0:
228,192,170937,128,0,171030:0:0:0:0:
475,192,170937,1,0,0:0:0:0:
36,192,171124,128,0,171312:0:0:0:0:
109,192,171124,128,0,171218:0:0:0:0:
228,192,171312,128,0,171499:0:0:0:0:
402,192,171312,128,0,171405:0:0:0:0:
475,192,171312,1,0,0:0:0:0:
36,192,171499,128,0,171687:0:0:0:0:
109,192,171499,128,0,171593:0:0:0:0:
109,192,171687,128,0,171874:0:0:0:0:
402,192,171687,128,0,171780:0:0:0:0:
475,192,171687,1,0,0:0:0:0:
36,192,171874,128,0,172062:0:0:0:0:
228,192,171874,128,0,171968:0:0:0:0:
402,192,172062,128,0,172624:0:0:0:0:
475,192,172062,128,0,172155:0:0:0:0:
109,192,172062,1,0,0:0:0:0:
228,192,172437,128,0,172624:0:0:0:0:
109,192,172437,1,0,0:0:0:0:
36,192,172624,128,0,172812:0:0:0:0:
109,192,172624,128,0,172718:0:0:0:0:
228,192,172812,128,0,172905:0:0:0:0:
475,192,172812,128,0,172905:0:0:0:0:
402,192,172812,1,0,0:0:0:0:
109,192,172905,128,0,173093:0:0:0:0:
402,192,172905,128,0,172999:0:0:0:0:
228,192,173093,128,0,173280:0:0:0:0:
475,192,173093,128,0,173187:0:0:0:0:
109,192,173187,1,0,0:0:0:0:
36,192,173187,1,0,0:0:0:0:
402,192,173280,128,0,173468:0:0:0:0:
475,192,173280,128,0,173374:0:0:0:0:
475,192,173468,128,0,173749:0:0:0:0:
36,192,173468,128,0,173562:0:0:0:0:
228,192,173562,1,0,0:0:0:0:
109,192,173562,1,0,0:0:0:0:
36,192,173749,128,0,173937:0:0:0:0:
228,192,173749,128,0,173843:0:0:0:0:
402,192,173749,1,0,0:0:0:0:
402,192,173937,128,0,174124:0:0:0:0:
475,192,173937,128,0,174030:0:0:0:0:
109,192,173937,1,0,0:0:0:0:
36,192,174124,128,0,174312:0:0:0:0:
109,192,174124,128,0,174218:0:0:0:0:
228,192,174312,128,0,174499:0:0:0:0:
402,192,174312,128,0,174405:0:0:0:0:
475,192,174312,1,0,0:0:0:0:
36,192,174499,128,0,174687:0:0:0:0:
109,192,174499,128,0,174593:0:0:0:0:
109,192,174687,128,0,174874:0:0:0:0:
475,192,174687,128,0,174780:0:0:0:0:
228,192,174687,1,0,0:0:0:0:
36,192,174874,128,0,175062:0:0:0:0:
402,192,174874,128,0,174968:0:0:0:0:
228,192,175062,128,0,175624:0:0:0:0:
402,192,175062,128,0,175155:0:0:0:0:
109,192,175062,1,0,0:0:0:0:
109,192,175437,1,0,0:0:0:0:
402,192,175437,1,0,0:0:0:0:
36,192,175624,128,0,175718:0:0:0:0:
402,192,175624,128,0,175718:0:0:0:0:
109,192,175718,128,0,175812:0:0:0:0:
228,192,175718,128,0,175812:0:0:0:0:
475,192,175812,128,0,175905:0:0:0:0:
402,192,175812,128,0,175905:0:0:0:0:
36,192,175812,1,0,0:0:0:0:
36,192,175905,128,0,176093:0:0:0:0:
228,192,175905,128,0,175999:0:0:0:0:
109,192,176093,128,0,176280:0:0:0:0:
402,192,176093,128,0,176187:0:0:0:0:
228,192,176187,1,0,0:0:0:0:
36,192,176187,1,0,0:0:0:0:
475,192,176280,128,0,176468:0:0:0:0:
402,192,176280,128,0,176374:0:0:0:0:
228,192,176468,128,0,177124:0:0:0:0:
36,192,176468,128,0,176562:0:0:0:0:
402,192,176562,1,0,0:0:0:0:
475,192,176562,1,0,0:0:0:0:
109,192,176562,1,0,0:0:0:0:
402,192,176749,1,0,0:0:0:0:
475,192,176749,1,0,0:0:0:0:
109,192,176749,1,0,0:0:0:0:
402,192,176937,1,0,0:0:0:0:
109,192,176937,1,0,0:0:0:0:
460,192,176937,1,0,0:0:0:0:
36,192,177124,128,0,177218:0:0:0:0:
475,192,177124,128,0,177218:0:0:0:0:
109,192,177218,128,0,177312:0:0:0:0:
402,192,177218,128,0,177312:0:0:0:0:
228,192,177312,128,0,177405:0:0:0:0:
475,192,177312,128,0,177405:0:0:0:0:
36,192,177312,1,0,0:0:0:0:
402,192,177405,128,0,177593:0:0:0:0:
109,192,177405,128,0,177499:0:0:0:0:
228,192,177499,1,0,0:0:0:0:
36,192,177499,1,0,0:0:0:0:
109,192,177593,128,0,177780:0:0:0:0:
475,192,177593,128,0,177687:0:0:0:0:
36,192,177687,1,0,0:0:0:0:
402,192,177687,1,0,0:0:0:0:
475,192,177780,128,0,177968:0:0:0:0:
228,192,177780,128,0,177874:0:0:0:0:
358,192,177874,1,0,0:0:0:0:
51,192,177874,1,0,0:0:0:0:
228,192,177968,128,0,180593:0:0:0:0:
36,192,178062,1,4,0:0:0:0:
109,192,178062,128,0,179468:0:0:0:0:
358,192,178062,128,0,179468:0:0:0:0:
460,192,178062,1,0,0:0:0:0:
402,192,179562,1,0,0:0:0:0:
109,192,179562,1,0,0:0:0:0:
402,192,179937,1,0,0:0:0:0:
109,192,179937,1,0,0:0:0:0:
402,192,180312,1,0,0:0:0:0:
109,192,180312,1,0,0:0:0:0:
402,192,180593,1,0,0:0:0:0:
475,192,180593,1,0,0:0:0:0:
228,192,180687,1,0,0:0:0:0:
109,192,180687,1,0,0:0:0:0:
36,192,180687,1,0,0:0:0:0:
36,192,180780,1,0,0:0:0:0:
109,192,180780,1,0,0:0:0:0:
402,192,180874,1,0,0:0:0:0:
475,192,180874,1,0,0:0:0:0:
256,192,180874,1,0,0:0:0:0:
402,192,180968,1,0,0:0:0:0:
475,192,180968,1,0,0:0:0:0:
228,192,181062,1,0,0:0:0:0:
109,192,181062,1,0,0:0:0:0:
36,192,181062,1,4,0:0:0:0:
402,192,181155,1,0,0:0:0:0:
475,192,181249,1,0,0:0:0:0:
109,192,181343,1,0,0:0:0:0:
36,192,181437,1,0,0:0:0:0:
228,192,181437,1,0,0:0:0:0:
402,192,181530,1,0,0:0:0:0:
228,192,181624,1,0,0:0:0:0:
109,192,181718,1,0,0:0:0:0:
475,192,181812,1,0,0:0:0:0:
402,192,181905,1,0,0:0:0:0:
228,192,181999,1,0,0:0:0:0:
109,192,182093,1,0,0:0:0:0:
36,192,182187,1,0,0:0:0:0:
402,192,182280,1,0,0:0:0:0:
475,192,182374,1,0,0:0:0:0:
109,192,182374,1,0,0:0:0:0:
228,192,182468,1,0,0:0:0:0:
402,192,182562,1,0,0:0:0:0:
109,192,182655,1,0,0:0:0:0:
228,192,182749,1,0,0:0:0:0:
36,192,182843,1,0,0:0:0:0:
109,192,182937,1,0,0:0:0:0:
402,192,182937,1,0,0:0:0:0:
475,192,183030,1,0,0:0:0:0:
402,192,183124,1,0,0:0:0:0:
36,192,183218,1,0,0:0:0:0:
109,192,183312,1,0,0:0:0:0:
228,192,183405,1,0,0:0:0:0:
402,192,183499,1,0,0:0:0:0:
475,192,183593,1,0,0:0:0:0:
109,192,183687,1,0,0:0:0:0:
36,192,183687,1,0,0:0:0:0:
228,192,183780,1,0,0:0:0:0:
402,192,183874,1,0,0:0:0:0:
36,192,183968,1,0,0:0:0:0:
228,192,183968,1,0,0:0:0:0:
109,192,184062,1,0,0:0:0:0:
475,192,184155,1,0,0:0:0:0:
402,192,184249,1,0,0:0:0:0:
228,192,184343,1,0,0:0:0:0:
109,192,184437,1,0,0:0:0:0:
402,192,184437,1,0,0:0:0:0:
36,192,184530,1,0,0:0:0:0:
475,192,184624,1,0,0:0:0:0:
402,192,184718,1,0,0:0:0:0:
109,192,184812,1,0,0:0:0:0:
228,192,184905,1,0,0:0:0:0:
402,192,184999,1,0,0:0:0:0:
36,192,185093,1,0,0:0:0:0:
109,192,185187,1,0,0:0:0:0:
228,192,185280,1,0,0:0:0:0:
402,192,185374,1,0,0:0:0:0:
36,192,185374,1,0,0:0:0:0:
475,192,185468,1,0,0:0:0:0:
109,192,185562,1,0,0:0:0:0:
36,192,185655,1,0,0:0:0:0:
402,192,185749,1,0,0:0:0:0:
228,192,185843,1,0,0:0:0:0:
109,192,185937,1,0,0:0:0:0:
36,192,185937,1,0,0:0:0:0:
475,192,186030,1,0,0:0:0:0:
402,192,186124,1,0,0:0:0:0:
228,192,186218,1,0,0:0:0:0:
109,192,186312,1,0,0:0:0:0:
36,192,186405,1,0,0:0:0:0:
402,192,186499,1,0,0:0:0:0:
475,192,186593,1,0,0:0:0:0:
228,192,186687,1,0,0:0:0:0:
36,192,186687,1,0,0:0:0:0:
402,192,186780,1,0,0:0:0:0:
109,192,186874,1,0,0:0:0:0:
228,192,186968,1,0,0:0:0:0:
475,192,186968,1,0,0:0:0:0:
153,192,187062,1,0,0:0:0:0:
256,192,187155,1,0,0:0:0:0:
358,192,187249,1,0,0:0:0:0:
256,192,187343,1,0,0:0:0:0:
153,192,187437,1,0,0:0:0:0:
475,192,187437,1,0,0:0:0:0:
402,192,187530,1,0,0:0:0:0:
228,192,187624,1,0,0:0:0:0:
109,192,187718,1,0,0:0:0:0:
475,192,187812,1,0,0:0:0:0:
402,192,187905,1,0,0:0:0:0:
228,192,187999,1,0,0:0:0:0:
109,192,188093,1,0,0:0:0:0:
36,192,188187,1,0,0:0:0:0:
402,192,188280,1,0,0:0:0:0:
475,192,188374,1,0,0:0:0:0:
109,192,188374,1,0,0:0:0:0:
228,192,188468,1,0,0:0:0:0:
402,192,188562,1,0,0:0:0:0:
109,192,188655,1,0,0:0:0:0:
228,192,188749,1,0,0:0:0:0:
36,192,188843,1,0,0:0:0:0:
109,192,188937,1,0,0:0:0:0:
402,192,188937,1,0,0:0:0:0:
475,192,189030,1,0,0:0:0:0:
402,192,189124,1,0,0:0:0:0:
36,192,189218,1,0,0:0:0:0:
109,192,189312,1,0,0:0:0:0:
228,192,189405,1,0,0:0:0:0:
402,192,189499,1,0,0:0:0:0:
475,192,189593,1,0,0:0:0:0:
109,192,189687,1,0,0:0:0:0:
36,192,189687,1,0,0:0:0:0:
228,192,189780,1,0,0:0:0:0:
402,192,189874,1,0,0:0:0:0:
36,192,189968,1,0,0:0:0:0:
228,192,189968,1,0,0:0:0:0:
109,192,190062,1,0,0:0:0:0:
475,192,190155,1,0,0:0:0:0:
402,192,190249,1,0,0:0:0:0:
228,192,190343,1,0,0:0:0:0:
109,192,190437,1,0,0:0:0:0:
402,192,190437,1,0,0:0:0:0:
36,192,190530,1,0,0:0:0:0:
475,192,190624,1,0,0:0:0:0:
402,192,190718,1,0,0:0:0:0:
109,192,190812,1,0,0:0:0:0:
228,192,190905,1,0,0:0:0:0:
402,192,190999,1,0,0:0:0:0:
36,192,191093,1,0,0:0:0:0:
109,192,191187,1,0,0:0:0:0:
228,192,191280,1,0,0:0:0:0:
402,192,191374,1,0,0:0:0:0:
36,192,191374,1,0,0:0:0:0:
475,192,191468,1,0,0:0:0:0:
109,192,191562,1,0,0:0:0:0:
36,192,191655,1,0,0:0:0:0:
402,192,191749,1,0,0:0:0:0:
228,192,191843,1,0,0:0:0:0:
109,192,191937,1,0,0:0:0:0:
36,192,191937,1,0,0:0:0:0:
475,192,192030,1,0,0:0:0:0:
402,192,192124,1,0,0:0:0:0:
228,192,192218,1,0,0:0:0:0:
109,192,192312,1,0,0:0:0:0:
402,192,192312,1,0,0:0:0:0:
402,192,193062,1,0,0:0:0:0:
475,192,193062,1,0,0:0:0:0:
36,192,193062,1,0,0:0:0:0:
109,192,193155,1,0,0:0:0:0:
228,192,193249,1,0,0:0:0:0:
109,192,193343,1,0,0:0:0:0:
36,192,193437,1,0,0:0:0:0:
475,192,193437,1,0,0:0:0:0:
402,192,193437,1,0,0:0:0:0:
228,192,193530,1,0,0:0:0:0:
109,192,193624,1,0,0:0:0:0:
228,192,193718,1,0,0:0:0:0:
402,192,193812,1,0,0:0:0:0:
109,192,193812,1,0,0:0:0:0:
36,192,193812,1,0,0:0:0:0:
475,192,193905,1,0,0:0:0:0:
402,192,193999,1,0,0:0:0:0:
228,192,194093,1,0,0:0:0:0:
109,192,194187,1,0,0:0:0:0:
475,192,194187,1,0,0:0:0:0:
36,192,194187,1,0,0:0:0:0:
402,192,194280,1,0,0:0:0:0:
228,192,194374,1,0,0:0:0:0:
402,192,194468,1,0,0:0:0:0:
475,192,194562,1,0,0:0:0:0:
109,192,194562,1,0,0:0:0:0:
36,192,194562,1,0,0:0:0:0:
228,192,194655,1,0,0:0:0:0:
402,192,194749,1,0,0:0:0:0:
228,192,194843,1,0,0:0:0:0:
109,192,194937,1,0,0:0:0:0:
475,192,194937,1,0,0:0:0:0:
402,192,194937,1,0,0:0:0:0:
36,192,195030,1,0,0:0:0:0:
109,192,195124,1,0,0:0:0:0:
228,192,195218,1,0,0:0:0:0:
402,192,195312,1,0,0:0:0:0:
475,192,195312,1,0,0:0:0:0:
36,192,195312,1,0,0:0:0:0:
109,192,195405,1,0,0:0:0:0:
228,192,195499,1,0,0:0:0:0:
109,192,195593,1,0,0:0:0:0:
36,192,195687,1,0,0:0:0:0:
475,192,195687,1,0,0:0:0:0:
228,192,195687,1,0,0:0:0:0:
402,192,195780,1,0,0:0:0:0:
228,192,195874,1,0,0:0:0:0:
402,192,195968,1,0,0:0:0:0:
475,192,196062,1,0,0:0:0:0:
36,192,196062,1,0,0:0:0:0:
109,192,196062,1,0,0:0:0:0:
228,192,196155,1,0,0:0:0:0:
402,192,196249,1,0,0:0:0:0:
228,192,196343,1,0,0:0:0:0:
109,192,196437,1,0,0:0:0:0:
475,192,196437,1,0,0:0:0:0:
36,192,196437,1,0,0:0:0:0:
228,192,196530,1,0,0:0:0:0:
402,192,196624,1,0,0:0:0:0:
228,192,196718,1,0,0:0:0:0:
109,192,196812,1,0,0:0:0:0:
402,192,196812,1,0,0:0:0:0:
475,192,196812,1,0,0:0:0:0:
36,192,196905,1,0,0:0:0:0:
109,192,196999,1,0,0:0:0:0:
228,192,197093,1,0,0:0:0:0:
402,192,197187,1,0,0:0:0:0:
109,192,197187,1,0,0:0:0:0:
36,192,197187,1,0,0:0:0:0:
475,192,197280,1,0,0:0:0:0:
402,192,197374,1,0,0:0:0:0:
228,192,197468,1,0,0:0:0:0:
402,192,197562,1,0,0:0:0:0:
475,192,197562,1,0,0:0:0:0:
109,192,197562,1,0,0:0:0:0:
36,192,197655,1,0,0:0:0:0:
109,192,197749,1,0,0:0:0:0:
228,192,197843,1,0,0:0:0:0:
402,192,197937,1,0,0:0:0:0:
109,192,197937,1,0,0:0:0:0:
36,192,197937,1,0,0:0:0:0:
475,192,198030,1,0,0:0:0:0:
402,192,198124,1,0,0:0:0:0:
228,192,198218,1,0,0:0:0:0:
109,192,198312,1,0,0:0:0:0:
36,192,198312,1,0,0:0:0:0:
475,192,198312,1,0,0:0:0:0:
228,192,198405,1,0,0:0:0:0:
402,192,198499,1,0,0:0:0:0:
228,192,198593,1,0,0:0:0:0:
402,192,198687,1,0,0:0:0:0:
109,192,198687,1,0,0:0:0:0:
36,192,198687,1,0,0:0:0:0:
475,192,198780,1,0,0:0:0:0:
402,192,198874,1,0,0:0:0:0:
228,192,198968,1,0,0:0:0:0:
109,192,199062,1,0,0:0:0:0:
36,192,199062,1,0,0:0:0:0:
475,192,199062,1,0,0:0:0:0:
402,192,199155,1,0,0:0:0:0:
228,192,199155,1,0,0:0:0:0:
475,192,199249,1,0,0:0:0:0:
109,192,199249,1,0,0:0:0:0:
228,192,199343,1,0,0:0:0:0:
36,192,199343,1,0,0:0:0:0:
402,192,199437,1,0,0:0:0:0:
475,192,199437,1,0,0:0:0:0:
228,192,199530,1,0,0:0:0:0:
36,192,199530,1,0,0:0:0:0:
109,192,199624,1,0,0:0:0:0:
402,192,199624,1,0,0:0:0:0:
228,192,199718,1,0,0:0:0:0:
475,192,199718,1,0,0:0:0:0:
109,192,199812,1,0,0:0:0:0:
36,192,199812,1,0,0:0:0:0:
475,192,199905,1,0,0:0:0:0:
228,192,199905,1,0,0:0:0:0:
402,192,199999,1,0,0:0:0:0:
109,192,199999,1,0,0:0:0:0:
228,192,200093,1,0,0:0:0:0:
36,192,200093,1,0,0:0:0:0:
402,192,200187,1,0,0:0:0:0:
475,192,200187,1,0,0:0:0:0:
109,192,200280,1,0,0:0:0:0:
36,192,200280,1,0,0:0:0:0:
228,192,200374,1,0,0:0:0:0:
402,192,200374,1,0,0:0:0:0:
475,192,200468,1,0,0:0:0:0:
36,192,200468,1,0,0:0:0:0:
109,192,200562,1,0,0:0:0:0:
228,192,200562,1,0,0:0:0:0:
475,192,200655,1,0,0:0:0:0:
36,192,200655,1,0,0:0:0:0:
402,192,200749,1,0,0:0:0:0:
109,192,200749,1,0,0:0:0:0:
228,192,200843,1,0,0:0:0:0:
475,192,200843,1,0,0:0:0:0:
402,192,200937,1,0,0:0:0:0:
36,192,200937,1,0,0:0:0:0:
109,192,201030,1,0,0:0:0:0:
228,192,201030,1,0,0:0:0:0:
402,192,201124,1,0,0:0:0:0:
475,192,201124,1,0,0:0:0:0:
36,192,201218,1,0,0:0:0:0:
153,192,201218,1,0,0:0:0:0:
475,192,201312,1,0,0:0:0:0:
402,192,201312,1,0,0:0:0:0:
228,192,201405,1,0,0:0:0:0:
36,192,201405,1,0,0:0:0:0:
109,192,201499,1,0,0:0:0:0:
402,192,201499,1,0,0:0:0:0:
228,192,201593,1,0,0:0:0:0:
475,192,201593,1,0,0:0:0:0:
109,192,201687,1,0,0:0:0:0:
36,192,201687,1,0,0:0:0:0:
475,192,201780,1,0,0:0:0:0:
402,192,201780,1,0,0:0:0:0:
228,192,201874,1,0,0:0:0:0:
109,192,201874,1,0,0:0:0:0:
475,192,201968,1,0,0:0:0:0:
36,192,201968,1,0,0:0:0:0:
228,192,202062,1,0,0:0:0:0:
402,192,202062,1,0,0:0:0:0:
109,192,202155,1,0,0:0:0:0:
402,192,202249,1,0,0:0:0:0:
36,192,202249,1,0,0:0:0:0:
228,192,202343,1,0,0:0:0:0:
460,192,202437,1,0,0:0:0:0:
153,192,202437,1,0,0:0:0:0:
358,192,202530,1,0,0:0:0:0:
51,192,202624,1,0,0:0:0:0:
256,192,202624,1,0,0:0:0:0:
153,192,202718,1,0,0:0:0:0:
402,192,202812,1,0,0:0:0:0:
475,192,202812,1,0,0:0:0:0:
228,192,202858,1,0,0:0:0:0:
109,192,202905,1,0,0:0:0:0:
36,192,202952,1,0,0:0:0:0:
475,192,202999,1,0,0:0:0:0:
402,192,202999,1,0,0:0:0:0:
228,192,203046,1,0,0:0:0:0:
36,192,203093,1,0,0:0:0:0:
109,192,203140,1,0,0:0:0:0:
228,192,203187,1,0,0:0:0:0:
475,192,203187,1,0,0:0:0:0:
402,192,203233,1,0,0:0:0:0:
36,192,203280,1,0,0:0:0:0:
109,192,203327,1,0,0:0:0:0:
228,192,203374,128,0,203468:0:0:0:0:
228,192,203562,128,0,203655:0:0:0:0:
228,192,203749,128,0,203843:0:0:0:0:
402,192,203937,1,0,0:0:0:0:
228,192,203937,128,0,204030:0:0:0:0:
228,192,204124,128,0,204218:0:0:0:0:
109,192,204124,1,0,0:0:0:0:
228,192,204312,128,0,204687:0:0:0:0:
475,192,204312,1,0,0:0:0:0:
36,192,204312,1,8,0:0:0:0:
153,192,204499,1,0,0:0:0:0:
358,192,204593,1,0,0:0:0:0:
475,192,204687,1,0,0:0:0:0:
51,192,204687,1,0,0:0:0:0:
256,192,204780,1,0,0:0:0:0:
109,192,204874,1,0,0:0:0:0:
358,192,204874,1,0,0:0:0:0:
256,192,204968,1,0,0:0:0:0:
109,192,205062,1,0,0:0:0:0:
36,192,205062,1,4,0:0:0:0:
475,192,205062,1,0,0:0:0:0:
402,192,205155,1,0,0:0:0:0:
228,192,205249,1,0,0:0:0:0:
36,192,205249,1,0,0:0:0:0:
475,192,205343,1,0,0:0:0:0:
402,192,205343,1,0,0:0:0:0:
402,192,205437,1,0,0:0:0:0:
475,192,205437,1,0,0:0:0:0:
109,192,205437,1,0,0:0:0:0:
36,192,205530,1,0,0:0:0:0:
228,192,205530,1,0,0:0:0:0:
402,192,205624,1,0,0:0:0:0:
109,192,205624,1,0,0:0:0:0:
475,192,205718,1,0,0:0:0:0:
228,192,205718,1,0,0:0:0:0:
51,192,205812,1,0,0:0:0:0:
153,192,205905,1,0,0:0:0:0:
475,192,205905,1,0,0:0:0:0:
228,192,205999,1,0,0:0:0:0:
51,192,205999,1,0,0:0:0:0:
402,192,206093,1,0,0:0:0:0:
475,192,206093,1,0,0:0:0:0:
228,192,206187,1,0,0:0:0:0:
109,192,206187,1,0,0:0:0:0:
475,192,206280,1,0,0:0:0:0:
36,192,206280,1,0,0:0:0:0:
402,192,206374,1,0,0:0:0:0:
228,192,206374,1,0,0:0:0:0:
109,192,206374,1,0,0:0:0:0:
36,192,206468,1,0,0:0:0:0:
475,192,206562,1,0,0:0:0:0:
109,192,206655,1,0,0:0:0:0:
228,192,206655,1,0,0:0:0:0:
402,192,206749,1,0,0:0:0:0:
475,192,206749,1,0,0:0:0:0:
109,192,206843,1,0,0:0:0:0:
402,192,206843,1,0,0:0:0:0:
109,192,206937,1,0,0:0:0:0:
228,192,206937,1,0,0:0:0:0:
36,192,206937,1,0,0:0:0:0:
402,192,207030,1,0,0:0:0:0:
475,192,207030,1,0,0:0:0:0:
228,192,207124,1,0,0:0:0:0:
36,192,207124,1,0,0:0:0:0:
475,192,207218,1,0,0:0:0:0:
402,192,207218,1,0,0:0:0:0:
402,192,207312,1,0,0:0:0:0:
109,192,207312,1,0,0:0:0:0:
109,192,207405,1,0,0:0:0:0:
36,192,207405,1,0,0:0:0:0:
228,192,207499,1,0,0:0:0:0:
402,192,207593,1,0,0:0:0:0:
475,192,207593,1,0,0:0:0:0:
228,192,207687,1,0,0:0:0:0:
402,192,207687,1,0,0:0:0:0:
475,192,207687,1,0,0:0:0:0:
36,192,207780,1,0,0:0:0:0:
402,192,207874,1,0,0:0:0:0:
109,192,207874,1,0,0:0:0:0:
36,192,207968,1,0,0:0:0:0:
475,192,207968,1,0,0:0:0:0:
402,192,208062,1,0,0:0:0:0:
228,192,208062,1,0,0:0:0:0:
36,192,208155,1,0,0:0:0:0:
109,192,208249,1,0,0:0:0:0:
228,192,208249,1,0,0:0:0:0:
109,192,208343,1,0,0:0:0:0:
475,192,208343,1,0,0:0:0:0:
475,192,208437,1,0,0:0:0:0:
36,192,208437,1,0,0:0:0:0:
402,192,208437,1,0,0:0:0:0:
228,192,208530,1,0,0:0:0:0:
109,192,208624,1,0,0:0:0:0:
402,192,208624,1,0,0:0:0:0:
460,192,208718,1,0,0:0:0:0:
228,192,208718,1,0,0:0:0:0:
402,192,208812,1,0,0:0:0:0:
36,192,208905,1,0,0:0:0:0:
475,192,208905,1,0,0:0:0:0:
109,192,208999,1,0,0:0:0:0:
228,192,208999,1,0,0:0:0:0:
36,192,209093,1,0,0:0:0:0:
402,192,209093,1,0,0:0:0:0:
153,192,209187,1,0,0:0:0:0:
475,192,209187,1,0,0:0:0:0:
256,192,209280,1,0,0:0:0:0:
402,192,209374,1,0,0:0:0:0:
475,192,209374,1,0,0:0:0:0:
109,192,209374,1,0,0:0:0:0:
228,192,209468,1,0,0:0:0:0:
36,192,209468,1,0,0:0:0:0:
109,192,209562,1,0,0:0:0:0:
475,192,209562,1,0,0:0:0:0:
36,192,209655,1,0,0:0:0:0:
228,192,209655,1,0,0:0:0:0:
402,192,209655,1,0,0:0:0:0:
402,192,209749,1,0,0:0:0:0:
475,192,209749,1,0,0:0:0:0:
109,192,209812,1,0,0:0:0:0:
36,192,209812,1,0,0:0:0:0:
402,192,209874,1,0,0:0:0:0:
475,192,209874,1,0,0:0:0:0:
228,192,209937,1,0,0:0:0:0:
109,192,209937,1,0,0:0:0:0:
36,192,209937,1,0,0:0:0:0:
402,192,210030,1,0,0:0:0:0:
475,192,210124,1,0,0:0:0:0:
36,192,210124,1,0,0:0:0:0:
109,192,210218,1,0,0:0:0:0:
228,192,210218,1,0,0:0:0:0:
402,192,210312,1,0,0:0:0:0:
475,192,210312,1,0,0:0:0:0:
402,192,210405,1,0,0:0:0:0:
228,192,210405,1,0,0:0:0:0:
475,192,210499,1,0,0:0:0:0:
109,192,210593,1,0,0:0:0:0:
36,192,210593,1,0,0:0:0:0:
36,192,210687,1,0,0:0:0:0:
109,192,210687,1,0,0:0:0:0:
475,192,210687,1,0,0:0:0:0:
402,192,210780,1,0,0:0:0:0:
228,192,210780,1,0,0:0:0:0:
475,192,210780,1,0,0:0:0:0:
109,192,210874,1,0,0:0:0:0:
36,192,210874,1,0,0:0:0:0:
402,192,210968,1,0,0:0:0:0:
475,192,210968,1,0,0:0:0:0:
109,192,210968,1,0,0:0:0:0:
402,192,211062,1,0,0:0:0:0:
475,192,211062,1,0,0:0:0:0:
36,192,211062,1,0,0:0:0:0:
153,192,211124,1,0,0:0:0:0:
256,192,211187,1,0,0:0:0:0:
358,192,211249,1,0,0:0:0:0:
36,192,211343,1,0,0:0:0:0:
109,192,211343,1,0,0:0:0:0:
109,192,211437,1,0,0:0:0:0:
36,192,211437,1,0,0:0:0:0:
475,192,211437,1,0,0:0:0:0:
358,192,211499,1,0,0:0:0:0:
256,192,211562,1,0,0:0:0:0:
153,192,211624,1,0,0:0:0:0:
228,192,211718,1,0,0:0:0:0:
475,192,211718,1,0,0:0:0:0:
358,192,211812,1,0,0:0:0:0:
51,192,211812,1,0,0:0:0:0:
256,192,211874,1,0,0:0:0:0:
153,192,211937,1,0,0:0:0:0:
402,192,211999,1,0,0:0:0:0:
475,192,211999,1,0,0:0:0:0:
109,192,212093,1,0,0:0:0:0:
36,192,212187,1,0,0:0:0:0:
228,192,212187,1,0,0:0:0:0:
358,192,212249,1,0,0:0:0:0:
460,192,212312,1,0,0:0:0:0:
228,192,212374,1,0,0:0:0:0:
109,192,212374,1,0,0:0:0:0:
51,192,212374,1,0,0:0:0:0:
475,192,212468,1,0,0:0:0:0:
153,192,212562,1,0,0:0:0:0:
256,192,212624,1,0,0:0:0:0:
358,192,212687,1,0,0:0:0:0:
109,192,212749,1,0,0:0:0:0:
36,192,212749,1,0,0:0:0:0:
475,192,212843,1,0,0:0:0:0:
109,192,212843,1,0,0:0:0:0:
402,192,212937,1,0,0:0:0:0:
228,192,212937,1,0,0:0:0:0:
475,192,212937,1,0,0:0:0:0:
153,192,212999,1,0,0:0:0:0:
51,192,213062,1,0,0:0:0:0:
358,192,213124,1,0,0:0:0:0:
36,192,213218,1,0,0:0:0:0:
109,192,213218,1,0,0:0:0:0:
228,192,213312,1,0,0:0:0:0:
475,192,213312,1,0,0:0:0:0:
153,192,213374,1,0,0:0:0:0:
402,192,213405,1,0,0:0:0:0:
475,192,213405,1,0,0:0:0:0:
51,192,213437,1,0,0:0:0:0:
256,192,213499,1,0,0:0:0:0:
36,192,213593,1,0,0:0:0:0:
402,192,213593,1,0,0:0:0:0:
228,192,213687,1,0,0:0:0:0:
109,192,213687,1,0,0:0:0:0:
36,192,213687,1,0,0:0:0:0:
358,192,213749,1,0,0:0:0:0:
460,192,213812,1,0,0:0:0:0:
109,192,213874,1,0,0:0:0:0:
228,192,213874,1,0,0:0:0:0:
475,192,213968,1,0,0:0:0:0:
36,192,213968,1,0,0:0:0:0:
109,192,214062,1,0,0:0:0:0:
228,192,214062,1,0,0:0:0:0:
475,192,214155,1,0,0:0:0:0:
36,192,214249,1,0,0:0:0:0:
109,192,214249,1,0,0:0:0:0:
402,192,214343,1,0,0:0:0:0:
109,192,214343,1,0,0:0:0:0:
36,192,214437,1,0,0:0:0:0:
475,192,214437,1,0,0:0:0:0:
402,192,214437,1,0,0:0:0:0:
228,192,214530,1,0,0:0:0:0:
402,192,214624,1,0,0:0:0:0:
109,192,214624,1,0,0:0:0:0:
475,192,214718,1,0,0:0:0:0:
228,192,214718,1,0,0:0:0:0:
109,192,214812,1,0,0:0:0:0:
36,192,214905,1,0,0:0:0:0:
475,192,214905,1,0,0:0:0:0:
402,192,214999,1,0,0:0:0:0:
228,192,214999,1,0,0:0:0:0:
109,192,215093,1,0,0:0:0:0:
475,192,215093,1,0,0:0:0:0:
36,192,215187,1,0,0:0:0:0:
228,192,215187,1,0,0:0:0:0:
475,192,215280,1,0,0:0:0:0:
109,192,215374,1,0,0:0:0:0:
36,192,215374,1,0,0:0:0:0:
402,192,215374,1,0,0:0:0:0:
228,192,215468,1,0,0:0:0:0:
475,192,215468,1,0,0:0:0:0:
402,192,215562,1,0,0:0:0:0:
109,192,215562,1,0,0:0:0:0:
36,192,215562,1,0,0:0:0:0:
109,192,215655,1,0,0:0:0:0:
36,192,215655,1,0,0:0:0:0:
228,192,215749,1,0,0:0:0:0:
402,192,215843,1,0,0:0:0:0:
109,192,215843,1,0,0:0:0:0:
475,192,215937,1,0,0:0:0:0:
228,192,216030,1,0,0:0:0:0:
109,192,216030,1,0,0:0:0:0:
475,192,216124,1,0,0:0:0:0:
402,192,216218,1,0,0:0:0:0:
228,192,216218,1,0,0:0:0:0:
109,192,216312,1,0,0:0:0:0:
475,192,216312,1,0,0:0:0:0:
36,192,216312,1,0,0:0:0:0:
358,192,216374,1,0,0:0:0:0:
256,192,216437,1,0,0:0:0:0:
153,192,216499,1,0,0:0:0:0:
460,192,216562,1,0,0:0:0:0:
358,192,216624,1,0,0:0:0:0:
256,192,216687,1,0,0:0:0:0:
51,192,216749,1,0,0:0:0:0:
153,192,216812,1,0,0:0:0:0:
256,192,216874,1,0,0:0:0:0:
460,192,216937,1,0,0:0:0:0:
358,192,216999,1,0,0:0:0:0:
109,192,217062,1,0,0:0:0:0:
36,192,217062,1,4,0:0:0:0:
228,192,217062,1,0,0:0:0:0:
402,192,217155,1,0,0:0:0:0:
228,192,217249,1,0,0:0:0:0:
36,192,217249,1,0,0:0:0:0:
475,192,217343,1,0,0:0:0:0:
402,192,217343,1,0,0:0:0:0:
402,192,217437,1,0,0:0:0:0:
475,192,217437,1,0,0:0:0:0:
109,192,217437,1,0,0:0:0:0:
36,192,217530,1,0,0:0:0:0:
228,192,217530,1,0,0:0:0:0:
402,192,217624,1,0,0:0:0:0:
109,192,217624,1,0,0:0:0:0:
475,192,217718,1,0,0:0:0:0:
228,192,217718,1,0,0:0:0:0:
109,192,217812,1,0,0:0:0:0:
36,192,217905,1,0,0:0:0:0:
475,192,217905,1,0,0:0:0:0:
228,192,217999,1,0,0:0:0:0:
109,192,217999,1,0,0:0:0:0:
402,192,218093,1,0,0:0:0:0:
475,192,218093,1,0,0:0:0:0:
228,192,218187,1,0,0:0:0:0:
109,192,218187,1,0,0:0:0:0:
475,192,218280,1,0,0:0:0:0:
36,192,218280,1,0,0:0:0:0:
402,192,218374,1,0,0:0:0:0:
228,192,218374,1,0,0:0:0:0:
109,192,218374,1,0,0:0:0:0:
36,192,218468,1,0,0:0:0:0:
475,192,218562,1,0,0:0:0:0:
109,192,218655,1,0,0:0:0:0:
228,192,218655,1,0,0:0:0:0:
402,192,218749,1,0,0:0:0:0:
475,192,218749,1,0,0:0:0:0:
109,192,218843,1,0,0:0:0:0:
402,192,218843,1,0,0:0:0:0:
109,192,218937,1,0,0:0:0:0:
228,192,218937,1,0,0:0:0:0:
36,192,218937,1,0,0:0:0:0:
402,192,219030,1,0,0:0:0:0:
475,192,219030,1,0,0:0:0:0:
228,192,219124,1,0,0:0:0:0:
36,192,219124,1,0,0:0:0:0:
475,192,219218,1,0,0:0:0:0:
402,192,219218,1,0,0:0:0:0:
402,192,219312,1,0,0:0:0:0:
109,192,219312,1,0,0:0:0:0:
109,192,219405,1,0,0:0:0:0:
36,192,219405,1,0,0:0:0:0:
228,192,219499,1,0,0:0:0:0:
402,192,219593,1,0,0:0:0:0:
475,192,219593,1,0,0:0:0:0:
228,192,219687,1,0,0:0:0:0:
402,192,219687,1,0,0:0:0:0:
475,192,219687,1,0,0:0:0:0:
36,192,219780,1,0,0:0:0:0:
402,192,219874,1,0,0:0:0:0:
109,192,219874,1,0,0:0:0:0:
36,192,219968,1,0,0:0:0:0:
475,192,219968,1,0,0:0:0:0:
402,192,220062,1,0,0:0:0:0:
228,192,220062,1,0,0:0:0:0:
109,192,220155,1,0,0:0:0:0:
36,192,220249,1,0,0:0:0:0:
475,192,220249,1,0,0:0:0:0:
402,192,220343,1,0,0:0:0:0:
475,192,220343,1,0,0:0:0:0:
402,192,220437,1,0,0:0:0:0:
36,192,220437,1,0,0:0:0:0:
109,192,220437,1,0,0:0:0:0:
228,192,220530,1,0,0:0:0:0:
109,192,220624,1,0,0:0:0:0:
402,192,220624,1,0,0:0:0:0:
36,192,220718,1,0,0:0:0:0:
228,192,220718,1,0,0:0:0:0:
402,192,220812,1,0,0:0:0:0:
475,192,220905,1,0,0:0:0:0:
153,192,220905,1,0,0:0:0:0:
51,192,220999,1,0,0:0:0:0:
228,192,220999,1,0,0:0:0:0:
402,192,221093,1,0,0:0:0:0:
153,192,221093,1,0,0:0:0:0:
475,192,221187,1,0,0:0:0:0:
51,192,221187,1,0,0:0:0:0:
256,192,221280,1,0,0:0:0:0:
402,192,221374,1,0,0:0:0:0:
475,192,221374,1,0,0:0:0:0:
109,192,221374,1,0,0:0:0:0:
228,192,221468,1,0,0:0:0:0:
36,192,221468,1,0,0:0:0:0:
109,192,221562,1,0,0:0:0:0:
475,192,221562,1,0,0:0:0:0:
36,192,221655,1,0,0:0:0:0:
228,192,221655,1,0,0:0:0:0:
402,192,221655,1,0,0:0:0:0:
402,192,221749,1,0,0:0:0:0:
475,192,221749,1,0,0:0:0:0:
109,192,221812,1,0,0:0:0:0:
36,192,221812,1,0,0:0:0:0:
402,192,221874,1,0,0:0:0:0:
475,192,221874,1,0,0:0:0:0:
228,192,221937,1,0,0:0:0:0:
109,192,221937,1,0,0:0:0:0:
36,192,221937,1,0,0:0:0:0:
402,192,222030,1,0,0:0:0:0:
475,192,222124,1,0,0:0:0:0:
36,192,222124,1,0,0:0:0:0:
109,192,222218,1,0,0:0:0:0:
228,192,222218,1,0,0:0:0:0:
402,192,222312,1,0,0:0:0:0:
475,192,222312,1,0,0:0:0:0:
402,192,222405,1,0,0:0:0:0:
228,192,222405,1,0,0:0:0:0:
475,192,222499,1,0,0:0:0:0:
109,192,222593,1,0,0:0:0:0:
36,192,222593,1,0,0:0:0:0:
36,192,222687,1,0,0:0:0:0:
109,192,222687,1,0,0:0:0:0:
475,192,222687,1,0,0:0:0:0:
402,192,222780,1,0,0:0:0:0:
228,192,222780,1,0,0:0:0:0:
475,192,222780,1,0,0:0:0:0:
109,192,222874,1,0,0:0:0:0:
36,192,222874,1,0,0:0:0:0:
228,192,222968,1,0,0:0:0:0:
402,192,222968,1,0,0:0:0:0:
109,192,222968,1,0,0:0:0:0:
402,192,223062,1,0,0:0:0:0:
475,192,223062,1,0,0:0:0:0:
36,192,223062,1,0,0:0:0:0:
109,192,223155,1,0,0:0:0:0:
228,192,223249,1,0,0:0:0:0:
475,192,223249,1,0,0:0:0:0:
36,192,223343,1,0,0:0:0:0:
109,192,223343,1,0,0:0:0:0:
109,192,223437,1,0,0:0:0:0:
36,192,223437,1,0,0:0:0:0:
402,192,223437,1,0,0:0:0:0:
475,192,223530,1,0,0:0:0:0:
228,192,223530,1,0,0:0:0:0:
109,192,223624,1,0,0:0:0:0:
402,192,223624,1,0,0:0:0:0:
36,192,223718,1,0,0:0:0:0:
228,192,223718,1,0,0:0:0:0:
402,192,223812,1,0,0:0:0:0:
475,192,223905,1,0,0:0:0:0:
36,192,223905,1,0,0:0:0:0:
228,192,223999,1,0,0:0:0:0:
402,192,223999,1,0,0:0:0:0:
109,192,224093,1,0,0:0:0:0:
36,192,224093,1,0,0:0:0:0:
228,192,224187,1,0,0:0:0:0:
402,192,224187,1,0,0:0:0:0:
36,192,224280,1,0,0:0:0:0:
475,192,224280,1,0,0:0:0:0:
109,192,224374,1,0,0:0:0:0:
228,192,224374,1,0,0:0:0:0:
402,192,224374,1,0,0:0:0:0:
475,192,224468,1,0,0:0:0:0:
36,192,224562,1,0,0:0:0:0:
402,192,224655,1,0,0:0:0:0:
228,192,224655,1,0,0:0:0:0:
109,192,224749,1,0,0:0:0:0:
36,192,224749,1,0,0:0:0:0:
475,192,224843,1,0,0:0:0:0:
109,192,224843,1,0,0:0:0:0:
402,192,224937,1,0,0:0:0:0:
228,192,224937,1,0,0:0:0:0:
475,192,224937,1,0,0:0:0:0:
109,192,225030,1,0,0:0:0:0:
36,192,225030,1,0,0:0:0:0:
228,192,225124,1,0,0:0:0:0:
475,192,225124,1,0,0:0:0:0:
36,192,225218,1,0,0:0:0:0:
109,192,225218,1,0,0:0:0:0:
36,192,225312,1,0,0:0:0:0:
475,192,225312,1,0,0:0:0:0:
402,192,225405,1,0,0:0:0:0:
475,192,225405,1,0,0:0:0:0:
228,192,225499,1,0,0:0:0:0:
109,192,225593,1,0,0:0:0:0:
36,192,225593,1,0,0:0:0:0:
228,192,225687,1,0,0:0:0:0:
109,192,225687,1,0,0:0:0:0:
36,192,225687,1,0,0:0:0:0:
475,192,225780,1,0,0:0:0:0:
109,192,225874,1,0,0:0:0:0:
402,192,225874,1,0,0:0:0:0:
475,192,225968,1,0,0:0:0:0:
36,192,225968,1,0,0:0:0:0:
153,192,226062,128,0,226155:0:0:0:0:
256,192,226062,128,0,226155:0:0:0:0:
358,192,226062,128,0,226155:0:0:0:0:
153,192,226249,1,0,0:0:0:0:
51,192,226249,1,0,0:0:0:0:
51,192,226343,128,0,226437:0:0:0:0:
153,192,226343,128,0,226437:0:0:0:0:
256,192,226343,128,0,226437:0:0:0:0:
402,192,226530,1,0,0:0:0:0:
460,192,226530,1,0,0:0:0:0:
256,192,226624,128,0,226718:0:0:0:0:
460,192,226624,128,0,226718:0:0:0:0:
358,192,226624,128,0,226718:0:0:0:0:
228,192,226812,1,0,0:0:0:0:
153,192,226812,1,0,0:0:0:0:
153,192,226905,128,0,226999:0:0:0:0:
256,192,226905,128,0,226999:0:0:0:0:
358,192,226905,128,0,226999:0:0:0:0:
460,192,227093,1,0,0:0:0:0:
358,192,227093,1,0,0:0:0:0:
256,192,227187,128,0,227280:0:0:0:0:
460,192,227187,128,0,227280:0:0:0:0:
358,192,227187,128,0,227280:0:0:0:0:
153,192,227374,1,0,0:0:0:0:
256,192,227374,1,0,0:0:0:0:
475,192,227468,1,0,0:0:0:0:
51,192,227468,1,0,0:0:0:0:
51,192,227562,128,0,227655:0:0:0:0:
153,192,227562,128,0,227655:0:0:0:0:
256,192,227562,128,0,227655:0:0:0:0:
153,192,227749,1,0,0:0:0:0:
256,192,227749,1,0,0:0:0:0:
153,192,227843,128,0,227937:0:0:0:0:
256,192,227843,128,0,227937:0:0:0:0:
358,192,227843,128,0,227937:0:0:0:0:
358,192,228030,1,0,0:0:0:0:
460,192,228030,1,0,0:0:0:0:
358,192,228124,128,0,228218:0:0:0:0:
460,192,228124,128,0,228218:0:0:0:0:
256,192,228124,128,0,228218:0:0:0:0:
109,192,228312,128,0,228499:0:0:0:0:
228,192,228499,128,0,228562:0:0:0:0:
402,192,228562,128,0,228749:0:0:0:0:
228,192,228749,128,0,228812:0:0:0:0:
109,192,228812,128,0,229062:0:0:0:0:
475,192,229062,128,4,229249:0:0:0:0:
402,192,229062,128,0,229249:0:0:0:0:
228,192,229062,128,0,229249:0:0:0:0:
109,192,229249,1,0,0:0:0:0:
36,192,229249,1,0,0:0:0:0:
228,192,229343,1,0,0:0:0:0:
402,192,229343,1,0,0:0:0:0:
460,192,229437,1,0,0:0:0:0:
153,192,229437,1,0,0:0:0:0:
402,192,229530,1,0,0:0:0:0:
228,192,229530,1,0,0:0:0:0:
475,192,229624,1,0,0:0:0:0:
109,192,229624,1,0,0:0:0:0:
36,192,229624,1,0,0:0:0:0:
228,192,229718,1,0,0:0:0:0:
402,192,229718,1,0,0:0:0:0:
109,192,229812,1,0,0:0:0:0:
36,192,229812,1,0,0:0:0:0:
402,192,229905,1,0,0:0:0:0:
475,192,229905,1,0,0:0:0:0:
228,192,229999,1,0,0:0:0:0:
109,192,229999,1,0,0:0:0:0:
402,192,230093,1,0,0:0:0:0:
475,192,230093,1,0,0:0:0:0:
228,192,230187,1,0,0:0:0:0:
109,192,230187,1,0,0:0:0:0:
36,192,230187,1,0,0:0:0:0:
402,192,230280,1,0,0:0:0:0:
475,192,230280,1,0,0:0:0:0:
228,192,230374,1,0,0:0:0:0:
109,192,230374,1,0,0:0:0:0:
36,192,230374,1,0,0:0:0:0:
256,192,230468,1,0,0:0:0:0:
358,192,230468,1,0,0:0:0:0:
109,192,230562,1,0,0:0:0:0:
36,192,230562,1,0,0:0:0:0:
475,192,230562,1,0,0:0:0:0:
228,192,230655,1,0,0:0:0:0:
402,192,230655,1,0,0:0:0:0:
109,192,230749,1,0,0:0:0:0:
36,192,230749,1,0,0:0:0:0:
402,192,230843,1,0,0:0:0:0:
475,192,230843,1,0,0:0:0:0:
228,192,230937,1,0,0:0:0:0:
109,192,230937,1,0,0:0:0:0:
36,192,231030,1,0,0:0:0:0:
475,192,231030,1,0,0:0:0:0:
402,192,231124,1,0,0:0:0:0:
228,192,231124,1,0,0:0:0:0:
109,192,231124,1,0,0:0:0:0:
475,192,231218,1,0,0:0:0:0:
36,192,231218,1,0,0:0:0:0:
228,192,231312,1,0,0:0:0:0:
402,192,231312,1,0,0:0:0:0:
109,192,231405,1,0,0:0:0:0:
36,192,231405,1,0,0:0:0:0:
475,192,231405,1,0,0:0:0:0:
228,192,231499,1,0,0:0:0:0:
402,192,231499,1,0,0:0:0:0:
475,192,231593,1,0,0:0:0:0:
36,192,231593,1,0,0:0:0:0:
402,192,231687,1,0,0:0:0:0:
228,192,231687,1,0,0:0:0:0:
109,192,231687,1,0,0:0:0:0:
475,192,231780,1,0,0:0:0:0:
36,192,231874,128,0,231968:0:0:0:0:
109,192,231874,128,0,231968:0:0:0:0:
228,192,231874,128,0,231968:0:0:0:0:
402,192,231874,128,0,231968:0:0:0:0:
475,192,232062,128,0,232343:0:0:0:0:
402,192,232062,128,0,232343:0:0:0:0:
109,192,232062,128,0,232343:0:0:0:0:
228,192,232062,128,0,232343:0:0:0:0:
402,192,232437,1,0,0:0:0:0:
475,192,232437,1,0,0:0:0:0:
228,192,232530,1,0,0:0:0:0:
109,192,232530,1,0,0:0:0:0:
402,192,232624,1,0,0:0:0:0:
475,192,232624,1,0,0:0:0:0:
36,192,232624,1,0,0:0:0:0:
109,192,232718,1,0,0:0:0:0:
228,192,232718,1,0,0:0:0:0:
402,192,232812,1,0,0:0:0:0:
36,192,232812,1,0,0:0:0:0:
475,192,232905,1,0,0:0:0:0:
228,192,232905,1,0,0:0:0:0:
402,192,232999,1,0,0:0:0:0:
36,192,232999,1,0,0:0:0:0:
109,192,233093,1,0,0:0:0:0:
228,192,233093,1,0,0:0:0:0:
402,192,233187,1,0,0:0:0:0:
475,192,233187,1,0,0:0:0:0:
36,192,233187,1,0,0:0:0:0:
228,192,233280,1,0,0:0:0:0:
109,192,233280,1,0,0:0:0:0:
402,192,233374,1,0,0:0:0:0:
475,192,233374,1,0,0:0:0:0:
36,192,233374,1,0,0:0:0:0:
228,192,233468,1,0,0:0:0:0:
109,192,233468,1,0,0:0:0:0:
402,192,233562,1,0,0:0:0:0:
475,192,233562,1,0,0:0:0:0:
36,192,233562,1,0,0:0:0:0:
228,192,233655,1,0,0:0:0:0:
109,192,233655,1,0,0:0:0:0:
402,192,233749,1,0,0:0:0:0:
475,192,233749,1,0,0:0:0:0:
109,192,233843,1,0,0:0:0:0:
36,192,233843,1,0,0:0:0:0:
228,192,233937,1,0,0:0:0:0:
402,192,233937,1,0,0:0:0:0:
36,192,234030,1,0,0:0:0:0:
109,192,234030,1,0,0:0:0:0:
228,192,234124,1,0,0:0:0:0:
402,192,234124,1,0,0:0:0:0:
475,192,234124,1,0,0:0:0:0:
402,192,234218,1,0,0:0:0:0:
475,192,234218,1,0,0:0:0:0:
109,192,234218,1,0,0:0:0:0:
228,192,234312,1,0,0:0:0:0:
36,192,234312,1,0,0:0:0:0:
402,192,234405,1,0,0:0:0:0:
475,192,234405,1,0,0:0:0:0:
109,192,234405,1,0,0:0:0:0:
402,192,234499,1,0,0:0:0:0:
475,192,234499,1,0,0:0:0:0:
228,192,234499,1,0,0:0:0:0:
109,192,234593,1,0,0:0:0:0:
36,192,234593,1,0,0:0:0:0:
228,192,234687,1,0,0:0:0:0:
402,192,234687,1,0,0:0:0:0:
475,192,234687,1,0,0:0:0:0:
228,192,234780,1,0,0:0:0:0:
109,192,234780,1,0,0:0:0:0:
36,192,234780,1,0,0:0:0:0:
402,192,234874,1,0,0:0:0:0:
475,192,234874,1,0,0:0:0:0:
109,192,234968,1,0,0:0:0:0:
36,192,234968,1,0,0:0:0:0:
256,192,234968,1,0,0:0:0:0:
402,192,235062,1,0,0:0:0:0:
228,192,235062,1,0,0:0:0:0:
109,192,235062,1,0,0:0:0:0:
475,192,235062,1,0,0:0:0:0:
109,192,235249,1,0,0:0:0:0:
228,192,235249,1,0,0:0:0:0:
402,192,235249,1,0,0:0:0:0:
475,192,235249,1,0,0:0:0:0:
475,192,235437,1,0,0:0:0:0:
228,192,235437,1,0,0:0:0:0:
402,192,235437,1,0,0:0:0:0:
109,192,235437,1,0,0:0:0:0:
109,192,235624,1,0,0:0:0:0:
228,192,235624,1,0,0:0:0:0:
402,192,235624,1,0,0:0:0:0:
475,192,235624,1,0,0:0:0:0:
475,192,235812,1,0,0:0:0:0:
402,192,235812,1,0,0:0:0:0:
36,192,235812,1,0,0:0:0:0:
228,192,235812,1,0,0:0:0:0:
228,192,235999,1,0,0:0:0:0:
36,192,235999,1,0,0:0:0:0:
402,192,235999,1,0,0:0:0:0:
475,192,235999,1,0,0:0:0:0:
228,192,236187,1,0,0:0:0:0:
36,192,236187,1,0,0:0:0:0:
402,192,236187,1,0,0:0:0:0:
475,192,236187,1,0,0:0:0:0:
402,192,236374,1,0,0:0:0:0:
475,192,236374,1,0,0:0:0:0:
228,192,236374,1,0,0:0:0:0:
36,192,236374,1,0,0:0:0:0:
475,192,236562,1,0,0:0:0:0:
228,192,236562,1,0,0:0:0:0:
109,192,236562,1,0,0:0:0:0:
36,192,236562,1,0,0:0:0:0:
36,192,236749,1,0,0:0:0:0:
109,192,236749,1,0,0:0:0:0:
228,192,236749,1,0,0:0:0:0:
475,192,236749,1,0,0:0:0:0:
36,192,236937,1,0,0:0:0:0:
109,192,236937,1,0,0:0:0:0:
228,192,236937,1,0,0:0:0:0:
475,192,236937,1,0,0:0:0:0:
36,192,237124,1,0,0:0:0:0:
109,192,237124,1,0,0:0:0:0:
228,192,237124,1,0,0:0:0:0:
475,192,237124,1,0,0:0:0:0:
109,192,237312,1,0,0:0:0:0:
36,192,237312,1,0,0:0:0:0:
228,192,237312,1,0,0:0:0:0:
402,192,237312,1,0,0:0:0:0:
109,192,237499,1,0,0:0:0:0:
36,192,237499,1,0,0:0:0:0:
228,192,237499,1,0,0:0:0:0:
402,192,237499,1,0,0:0:0:0:
109,192,237687,1,0,0:0:0:0:
36,192,237687,1,0,0:0:0:0:
228,192,237687,1,0,0:0:0:0:
402,192,237687,1,0,0:0:0:0:
109,192,237874,1,0,0:0:0:0:
36,192,237874,1,0,0:0:0:0:
402,192,237874,1,0,0:0:0:0:
228,192,237874,1,0,0:0:0:0:
36,192,238062,1,0,0:0:0:0:
228,192,238062,1,0,0:0:0:0:
109,192,238155,1,0,0:0:0:0:
402,192,238155,1,0,0:0:0:0:
228,192,238249,1,0,0:0:0:0:
475,192,238249,1,0,0:0:0:0:
109,192,238343,1,0,0:0:0:0:
36,192,238343,1,0,0:0:0:0:
228,192,238437,1,0,0:0:0:0:
475,192,238437,1,0,0:0:0:0:
402,192,238530,1,0,0:0:0:0:
109,192,238530,1,0,0:0:0:0:
228,192,238624,1,0,0:0:0:0:
36,192,238624,1,0,0:0:0:0:
402,192,238718,1,0,0:0:0:0:
475,192,238718,1,0,0:0:0:0:
36,192,238812,1,0,0:0:0:0:
228,192,238812,1,0,0:0:0:0:
109,192,238905,1,0,0:0:0:0:
402,192,238905,1,0,0:0:0:0:
228,192,238999,1,0,0:0:0:0:
475,192,238999,1,0,0:0:0:0:
109,192,239093,1,0,0:0:0:0:
36,192,239093,1,0,0:0:0:0:
228,192,239187,1,0,0:0:0:0:
475,192,239187,1,0,0:0:0:0:
402,192,239280,1,0,0:0:0:0:
109,192,239280,1,0,0:0:0:0:
228,192,239374,128,0,239468:0:0:0:0:
228,192,239562,128,0,239655:0:0:0:0:
228,192,239749,128,0,239843:0:0:0:0:
228,192,239937,128,0,240030:0:0:0:0:
109,192,239937,1,0,0:0:0:0:
228,192,240124,128,0,240218:0:0:0:0:
402,192,240124,1,0,0:0:0:0:
228,192,240312,128,0,240687:0:0:0:0:
475,192,240312,1,0,0:0:0:0:
36,192,240312,1,8,0:0:0:0:
153,192,240499,1,0,0:0:0:0:
402,192,240593,1,0,0:0:0:0:
460,192,240687,1,0,0:0:0:0:
51,192,240687,1,0,0:0:0:0:
358,192,240780,1,0,0:0:0:0:
153,192,240780,1,0,0:0:0:0:
228,192,240874,1,0,0:0:0:0:
36,192,240968,1,0,0:0:0:0:
109,192,240968,1,0,0:0:0:0:
475,192,241062,1,4,0:0:0:0:
402,192,241062,1,0,0:0:0:0:
228,192,241062,1,0,0:0:0:0:
402,192,241155,1,0,0:0:0:0:
475,192,241155,1,0,0:0:0:0:
109,192,241249,1,0,0:0:0:0:
36,192,241249,1,0,0:0:0:0:
402,192,241343,1,0,0:0:0:0:
475,192,241343,1,0,0:0:0:0:
109,192,241437,1,0,0:0:0:0:
228,192,241437,1,0,0:0:0:0:
402,192,241530,1,0,0:0:0:0:
475,192,241530,1,0,0:0:0:0:
228,192,241624,1,0,0:0:0:0:
36,192,241624,1,0,0:0:0:0:
475,192,241718,1,0,0:0:0:0:
109,192,241718,1,0,0:0:0:0:
402,192,241812,1,0,0:0:0:0:
228,192,241812,1,0,0:0:0:0:
36,192,241812,1,0,0:0:0:0:
475,192,241905,1,0,0:0:0:0:
109,192,241905,1,0,0:0:0:0:
402,192,241999,1,0,0:0:0:0:
228,192,241999,1,0,0:0:0:0:
109,192,242093,1,0,0:0:0:0:
36,192,242093,1,0,0:0:0:0:
402,192,242187,1,0,0:0:0:0:
475,192,242187,1,0,0:0:0:0:
228,192,242280,1,0,0:0:0:0:
109,192,242280,1,0,0:0:0:0:
402,192,242374,1,0,0:0:0:0:
475,192,242374,1,0,0:0:0:0:
109,192,242468,1,0,0:0:0:0:
36,192,242468,1,0,0:0:0:0:
228,192,242562,1,0,0:0:0:0:
402,192,242562,1,0,0:0:0:0:
109,192,242655,1,0,0:0:0:0:
36,192,242655,1,0,0:0:0:0:
402,192,242749,1,0,0:0:0:0:
475,192,242749,1,0,0:0:0:0:
228,192,242843,1,0,0:0:0:0:
109,192,242843,1,0,0:0:0:0:
402,192,242937,1,0,0:0:0:0:
475,192,242937,1,0,0:0:0:0:
109,192,243030,1,0,0:0:0:0:
36,192,243030,1,0,0:0:0:0:
228,192,243124,1,0,0:0:0:0:
402,192,243124,1,0,0:0:0:0:
109,192,243218,1,0,0:0:0:0:
36,192,243218,1,0,0:0:0:0:
228,192,243312,1,0,0:0:0:0:
402,192,243312,1,0,0:0:0:0:
475,192,243312,1,0,0:0:0:0:
109,192,243405,1,0,0:0:0:0:
36,192,243405,1,0,0:0:0:0:
228,192,243499,1,0,0:0:0:0:
402,192,243499,1,0,0:0:0:0:
475,192,243593,1,0,0:0:0:0:
109,192,243593,1,0,0:0:0:0:
402,192,243687,1,0,0:0:0:0:
36,192,243687,1,0,0:0:0:0:
228,192,243780,1,0,0:0:0:0:
109,192,243780,1,0,0:0:0:0:
402,192,243874,1,0,0:0:0:0:
475,192,243874,1,0,0:0:0:0:
109,192,243968,1,0,0:0:0:0:
36,192,243968,1,0,0:0:0:0:
228,192,244062,1,0,0:0:0:0:
475,192,244062,1,0,0:0:0:0:
402,192,244155,1,0,0:0:0:0:
109,192,244155,1,0,0:0:0:0:
228,192,244249,1,0,0:0:0:0:
36,192,244249,1,0,0:0:0:0:
402,192,244343,1,0,0:0:0:0:
475,192,244343,1,0,0:0:0:0:
36,192,244437,1,0,0:0:0:0:
228,192,244437,1,0,0:0:0:0:
109,192,244530,1,0,0:0:0:0:
402,192,244530,1,0,0:0:0:0:
228,192,244624,1,0,0:0:0:0:
475,192,244624,1,0,0:0:0:0:
109,192,244718,1,0,0:0:0:0:
36,192,244718,1,0,0:0:0:0:
228,192,244812,1,0,0:0:0:0:
402,192,244812,1,0,0:0:0:0:
475,192,244812,1,0,0:0:0:0:
109,192,244905,1,0,0:0:0:0:
36,192,244905,1,0,0:0:0:0:
228,192,244999,1,0,0:0:0:0:
402,192,244999,1,0,0:0:0:0:
475,192,245093,1,0,0:0:0:0:
109,192,245093,1,0,0:0:0:0:
36,192,245187,1,0,0:0:0:0:
402,192,245187,1,0,0:0:0:0:
228,192,245280,1,0,0:0:0:0:
475,192,245280,1,0,0:0:0:0:
109,192,245374,1,0,0:0:0:0:
402,192,245374,1,0,0:0:0:0:
36,192,245468,1,0,0:0:0:0:
475,192,245468,1,0,0:0:0:0:
402,192,245562,1,0,0:0:0:0:
228,192,245562,1,0,0:0:0:0:
109,192,245655,1,0,0:0:0:0:
36,192,245655,1,0,0:0:0:0:
228,192,245749,1,0,0:0:0:0:
402,192,245749,1,0,0:0:0:0:
475,192,245843,1,0,0:0:0:0:
36,192,245843,1,0,0:0:0:0:
109,192,245937,1,0,0:0:0:0:
228,192,245937,1,0,0:0:0:0:
402,192,246030,1,0,0:0:0:0:
475,192,246030,1,0,0:0:0:0:
109,192,246124,1,0,0:0:0:0:
36,192,246124,1,0,0:0:0:0:
228,192,246218,1,0,0:0:0:0:
402,192,246218,1,0,0:0:0:0:
475,192,246312,1,0,0:0:0:0:
109,192,246312,1,0,0:0:0:0:
36,192,246312,1,0,0:0:0:0:
228,192,246405,1,0,0:0:0:0:
402,192,246405,1,0,0:0:0:0:
109,192,246499,1,0,0:0:0:0:
36,192,246499,1,0,0:0:0:0:
402,192,246593,1,0,0:0:0:0:
475,192,246593,1,0,0:0:0:0:
228,192,246687,1,0,0:0:0:0:
109,192,246687,1,0,0:0:0:0:
475,192,246780,1,0,0:0:0:0:
402,192,246780,1,0,0:0:0:0:
109,192,246874,1,0,0:0:0:0:
228,192,246874,1,0,0:0:0:0:
36,192,246874,1,0,0:0:0:0:
109,192,246968,1,0,0:0:0:0:
36,192,246968,1,0,0:0:0:0:
228,192,247062,1,0,0:0:0:0:
402,192,247062,1,0,0:0:0:0:
475,192,247062,1,0,0:0:0:0:
402,192,247155,1,0,0:0:0:0:
475,192,247155,1,0,0:0:0:0:
228,192,247249,1,0,0:0:0:0:
109,192,247249,1,0,0:0:0:0:
402,192,247343,1,0,0:0:0:0:
36,192,247343,1,0,0:0:0:0:
475,192,247437,1,0,0:0:0:0:
228,192,247437,1,0,0:0:0:0:
109,192,247530,1,0,0:0:0:0:
402,192,247530,1,0,0:0:0:0:
228,192,247624,1,0,0:0:0:0:
36,192,247624,1,0,0:0:0:0:
402,192,247718,1,0,0:0:0:0:
475,192,247718,1,0,0:0:0:0:
228,192,247812,1,0,0:0:0:0:
109,192,247812,1,0,0:0:0:0:
36,192,247812,1,0,0:0:0:0:
402,192,247905,1,0,0:0:0:0:
475,192,247905,1,0,0:0:0:0:
36,192,247999,1,0,0:0:0:0:
228,192,247999,1,0,0:0:0:0:
109,192,248093,1,0,0:0:0:0:
402,192,248093,1,0,0:0:0:0:
228,192,248187,1,0,0:0:0:0:
475,192,248187,1,0,0:0:0:0:
109,192,248280,1,0,0:0:0:0:
36,192,248280,1,0,0:0:0:0:
228,192,248374,1,0,0:0:0:0:
402,192,248374,1,0,0:0:0:0:
475,192,248468,1,0,0:0:0:0:
36,192,248468,1,0,0:0:0:0:
109,192,248562,1,0,0:0:0:0:
402,192,248562,1,0,0:0:0:0:
228,192,248655,1,0,0:0:0:0:
36,192,248655,1,0,0:0:0:0:
402,192,248749,1,0,0:0:0:0:
475,192,248749,1,0,0:0:0:0:
228,192,248843,1,0,0:0:0:0:
36,192,248843,1,0,0:0:0:0:
109,192,248937,1,0,0:0:0:0:
402,192,248937,1,0,0:0:0:0:
228,192,249030,1,0,0:0:0:0:
475,192,249030,1,0,0:0:0:0:
109,192,249124,1,0,0:0:0:0:
36,192,249124,1,0,0:0:0:0:
228,192,249218,1,0,0:0:0:0:
475,192,249218,1,0,0:0:0:0:
402,192,249312,1,0,0:0:0:0:
109,192,249312,1,0,0:0:0:0:
36,192,249312,1,0,0:0:0:0:
228,192,249405,1,0,0:0:0:0:
475,192,249405,1,0,0:0:0:0:
36,192,249499,1,0,0:0:0:0:
402,192,249499,1,0,0:0:0:0:
109,192,249593,1,0,0:0:0:0:
228,192,249593,1,0,0:0:0:0:
402,192,249687,1,0,0:0:0:0:
475,192,249687,1,0,0:0:0:0:
109,192,249780,1,0,0:0:0:0:
36,192,249780,1,0,0:0:0:0:
228,192,249874,1,0,0:0:0:0:
402,192,249874,1,0,0:0:0:0:
475,192,249968,1,0,0:0:0:0:
109,192,249968,1,0,0:0:0:0:
402,192,250062,1,0,0:0:0:0:
36,192,250062,1,0,0:0:0:0:
228,192,250155,1,0,0:0:0:0:
475,192,250155,1,0,0:0:0:0:
402,192,250249,1,0,0:0:0:0:
36,192,250249,1,0,0:0:0:0:
109,192,250343,1,0,0:0:0:0:
228,192,250343,1,0,0:0:0:0:
36,192,250437,1,0,0:0:0:0:
402,192,250437,1,0,0:0:0:0:
228,192,250530,1,0,0:0:0:0:
475,192,250530,1,0,0:0:0:0:
402,192,250624,1,0,0:0:0:0:
36,192,250624,1,0,0:0:0:0:
228,192,250718,1,0,0:0:0:0:
109,192,250718,1,0,0:0:0:0:
402,192,250812,1,0,0:0:0:0:
36,192,250812,1,0,0:0:0:0:
475,192,250812,1,0,0:0:0:0:
228,192,250905,1,0,0:0:0:0:
109,192,250905,1,0,0:0:0:0:
402,192,250999,1,0,0:0:0:0:
475,192,250999,1,0,0:0:0:0:
109,192,251093,1,0,0:0:0:0:
36,192,251093,1,0,0:0:0:0:
228,192,251187,1,0,0:0:0:0:
402,192,251187,1,0,0:0:0:0:
109,192,251280,1,0,0:0:0:0:
36,192,251280,1,0,0:0:0:0:
228,192,251374,1,0,0:0:0:0:
475,192,251374,1,0,0:0:0:0:
402,192,251468,1,0,0:0:0:0:
109,192,251468,1,0,0:0:0:0:
228,192,251562,1,0,0:0:0:0:
36,192,251562,1,0,0:0:0:0:
109,192,251655,1,0,0:0:0:0:
402,192,251655,1,0,0:0:0:0:
228,192,251749,1,0,0:0:0:0:
475,192,251749,1,0,0:0:0:0:
109,192,251843,1,0,0:0:0:0:
36,192,251843,1,0,0:0:0:0:
228,192,251937,1,0,0:0:0:0:
402,192,251937,1,0,0:0:0:0:
475,192,252030,1,0,0:0:0:0:
36,192,252030,1,0,0:0:0:0:
109,192,252124,1,0,0:0:0:0:
228,192,252124,1,0,0:0:0:0:
402,192,252218,1,0,0:0:0:0:
475,192,252218,1,0,0:0:0:0:
228,192,252312,1,0,0:0:0:0:
109,192,252312,1,0,0:0:0:0:
36,192,252312,1,0,0:0:0:0:
109,192,252405,1,0,0:0:0:0:
36,192,252405,1,0,0:0:0:0:
475,192,252499,1,0,0:0:0:0:
228,192,252499,1,0,0:0:0:0:
402,192,252593,1,0,0:0:0:0:
109,192,252593,1,0,0:0:0:0:
228,192,252687,1,0,0:0:0:0:
475,192,252687,1,0,0:0:0:0:
36,192,252687,1,0,0:0:0:0:
460,192,252780,1,0,0:0:0:0:
358,192,252780,1,0,0:0:0:0:
228,192,252874,1,0,0:0:0:0:
402,192,252874,1,0,0:0:0:0:
109,192,252874,1,0,0:0:0:0:
153,192,252968,1,0,0:0:0:0:
51,192,252968,1,0,0:0:0:0:
228,192,253062,1,0,0:0:0:0:
475,192,253062,1,0,0:0:0:0:
36,192,253062,1,4,0:0:0:0:
402,192,253155,1,0,0:0:0:0:
475,192,253155,1,0,0:0:0:0:
36,192,253249,1,0,0:0:0:0:
228,192,253249,1,0,0:0:0:0:
109,192,253249,1,0,0:0:0:0:
402,192,253343,1,0,0:0:0:0:
475,192,253343,1,0,0:0:0:0:
228,192,253437,1,0,0:0:0:0:
109,192,253437,1,0,0:0:0:0:
36,192,253530,1,0,0:0:0:0:
475,192,253530,1,0,0:0:0:0:
402,192,253624,1,0,0:0:0:0:
228,192,253624,1,0,0:0:0:0:
109,192,253624,1,0,0:0:0:0:
475,192,253718,1,0,0:0:0:0:
36,192,253718,1,0,0:0:0:0:
109,192,253812,1,0,0:0:0:0:
228,192,253812,1,0,0:0:0:0:
402,192,253905,1,0,0:0:0:0:
475,192,253905,1,0,0:0:0:0:
109,192,253999,1,0,0:0:0:0:
36,192,253999,1,0,0:0:0:0:
228,192,253999,1,0,0:0:0:0:
402,192,254093,1,0,0:0:0:0:
475,192,254093,1,0,0:0:0:0:
228,192,254187,1,0,0:0:0:0:
109,192,254187,1,0,0:0:0:0:
36,192,254280,1,0,0:0:0:0:
402,192,254280,1,0,0:0:0:0:
475,192,254374,1,0,0:0:0:0:
228,192,254374,1,0,0:0:0:0:
109,192,254374,1,0,0:0:0:0:
402,192,254468,1,0,0:0:0:0:
36,192,254468,1,0,0:0:0:0:
228,192,254562,1,0,0:0:0:0:
475,192,254562,1,0,0:0:0:0:
109,192,254655,1,0,0:0:0:0:
36,192,254655,1,0,0:0:0:0:
402,192,254749,1,0,0:0:0:0:
228,192,254749,1,0,0:0:0:0:
475,192,254749,1,0,0:0:0:0:
109,192,254843,1,0,0:0:0:0:
36,192,254843,1,0,0:0:0:0:
228,192,254937,1,0,0:0:0:0:
402,192,254937,1,0,0:0:0:0:
475,192,255030,1,0,0:0:0:0:
36,192,255030,1,0,0:0:0:0:
109,192,255124,1,0,0:0:0:0:
228,192,255124,1,0,0:0:0:0:
402,192,255124,1,0,0:0:0:0:
475,192,255218,1,0,0:0:0:0:
36,192,255218,1,0,0:0:0:0:
109,192,255312,1,0,0:0:0:0:
228,192,255312,1,0,0:0:0:0:
475,192,255405,1,0,0:0:0:0:
36,192,255405,1,0,0:0:0:0:
402,192,255405,1,0,0:0:0:0:
402,192,255499,1,0,0:0:0:0:
475,192,255499,1,0,0:0:0:0:
228,192,255593,1,0,0:0:0:0:
109,192,255593,1,0,0:0:0:0:
36,192,255593,1,0,0:0:0:0:
109,192,255687,1,0,0:0:0:0:
36,192,255687,1,0,0:0:0:0:
228,192,255780,1,0,0:0:0:0:
402,192,255780,1,0,0:0:0:0:
475,192,255780,1,0,0:0:0:0:
475,192,255874,1,0,0:0:0:0:
402,192,255874,1,0,0:0:0:0:
228,192,255968,1,0,0:0:0:0:
109,192,255968,1,0,0:0:0:0:
36,192,255968,1,0,0:0:0:0:
402,192,256062,1,0,0:0:0:0:
475,192,256062,1,0,0:0:0:0:
109,192,256155,1,0,0:0:0:0:
36,192,256155,1,0,0:0:0:0:
475,192,256249,1,0,0:0:0:0:
228,192,256249,1,0,0:0:0:0:
402,192,256249,1,0,0:0:0:0:
109,192,256343,1,0,0:0:0:0:
36,192,256343,1,0,0:0:0:0:
228,192,256437,1,0,0:0:0:0:
402,192,256437,1,0,0:0:0:0:
475,192,256530,1,0,0:0:0:0:
36,192,256530,1,0,0:0:0:0:
109,192,256624,1,0,0:0:0:0:
228,192,256624,1,0,0:0:0:0:
402,192,256624,1,0,0:0:0:0:
36,192,256718,1,0,0:0:0:0:
475,192,256718,1,0,0:0:0:0:
402,192,256812,1,0,0:0:0:0:
228,192,256812,1,0,0:0:0:0:
109,192,256905,1,0,0:0:0:0:
36,192,256905,1,0,0:0:0:0:
402,192,256999,1,0,0:0:0:0:
475,192,256999,1,0,0:0:0:0:
228,192,256999,1,0,0:0:0:0:
109,192,257093,1,0,0:0:0:0:
36,192,257093,1,0,0:0:0:0:
228,192,257187,1,0,0:0:0:0:
402,192,257187,1,0,0:0:0:0:
475,192,257280,1,0,0:0:0:0:
109,192,257280,1,0,0:0:0:0:
36,192,257374,1,0,0:0:0:0:
228,192,257374,1,0,0:0:0:0:
402,192,257374,1,0,0:0:0:0:
109,192,257468,1,0,0:0:0:0:
475,192,257468,1,0,0:0:0:0:
228,192,257562,1,0,0:0:0:0:
36,192,257562,1,0,0:0:0:0:
402,192,257655,1,0,0:0:0:0:
475,192,257655,1,0,0:0:0:0:
109,192,257749,1,0,0:0:0:0:
228,192,257749,1,0,0:0:0:0:
36,192,257749,1,0,0:0:0:0:
402,192,257843,1,0,0:0:0:0:
475,192,257843,1,0,0:0:0:0:
228,192,257937,1,0,0:0:0:0:
109,192,257937,1,0,0:0:0:0:
36,192,258030,1,0,0:0:0:0:
475,192,258030,1,0,0:0:0:0:
402,192,258124,1,0,0:0:0:0:
228,192,258124,1,0,0:0:0:0:
109,192,258124,1,0,0:0:0:0:
36,192,258218,1,0,0:0:0:0:
475,192,258218,1,0,0:0:0:0:
402,192,258312,1,0,0:0:0:0:
228,192,258312,1,0,0:0:0:0:
36,192,258405,1,0,0:0:0:0:
475,192,258405,1,0,0:0:0:0:
109,192,258405,1,0,0:0:0:0:
109,192,258499,1,0,0:0:0:0:
36,192,258499,1,0,0:0:0:0:
228,192,258593,1,0,0:0:0:0:
402,192,258593,1,0,0:0:0:0:
475,192,258593,1,0,0:0:0:0:
402,192,258687,1,0,0:0:0:0:
475,192,258687,1,0,0:0:0:0:
36,192,258780,1,0,0:0:0:0:
228,192,258780,1,0,0:0:0:0:
109,192,258780,1,0,0:0:0:0:
109,192,258874,1,0,0:0:0:0:
36,192,258874,1,0,0:0:0:0:
402,192,258968,1,0,0:0:0:0:
475,192,258968,1,0,0:0:0:0:
475,192,259062,1,0,0:0:0:0:
228,192,259062,1,4,0:0:0:0:
402,192,259062,1,0,0:0:0:0:
109,192,259155,1,0,0:0:0:0:
36,192,259155,1,0,0:0:0:0:
475,192,259249,1,0,0:0:0:0:
228,192,259249,1,0,0:0:0:0:
402,192,259249,1,0,0:0:0:0:
109,192,259343,1,0,0:0:0:0:
36,192,259343,1,0,0:0:0:0:
228,192,259437,1,0,0:0:0:0:
402,192,259437,1,0,0:0:0:0:
36,192,259530,1,0,0:0:0:0:
475,192,259530,1,0,0:0:0:0:
402,192,259624,1,0,0:0:0:0:
228,192,259624,1,0,0:0:0:0:
109,192,259624,1,0,0:0:0:0:
475,192,259718,1,0,0:0:0:0:
36,192,259718,1,0,0:0:0:0:
109,192,259812,1,0,0:0:0:0:
228,192,259812,1,0,0:0:0:0:
402,192,259905,1,0,0:0:0:0:
475,192,259905,1,0,0:0:0:0:
109,192,259999,1,0,0:0:0:0:
36,192,259999,1,0,0:0:0:0:
228,192,259999,1,0,0:0:0:0:
402,192,260093,1,0,0:0:0:0:
475,192,260093,1,0,0:0:0:0:
228,192,260187,1,0,0:0:0:0:
109,192,260187,1,0,0:0:0:0:
36,192,260280,1,0,0:0:0:0:
402,192,260280,1,0,0:0:0:0:
475,192,260374,1,0,0:0:0:0:
228,192,260374,1,0,0:0:0:0:
109,192,260374,1,0,0:0:0:0:
402,192,260468,1,0,0:0:0:0:
36,192,260468,1,0,0:0:0:0:
228,192,260562,1,0,0:0:0:0:
475,192,260562,1,0,0:0:0:0:
109,192,260655,1,0,0:0:0:0:
36,192,260655,1,0,0:0:0:0:
402,192,260749,1,0,0:0:0:0:
228,192,260749,1,0,0:0:0:0:
475,192,260749,1,0,0:0:0:0:
109,192,260843,1,0,0:0:0:0:
36,192,260843,1,0,0:0:0:0:
228,192,260937,1,0,0:0:0:0:
402,192,260937,1,0,0:0:0:0:
475,192,261030,1,0,0:0:0:0:
36,192,261030,1,0,0:0:0:0:
109,192,261124,1,0,0:0:0:0:
228,192,261124,1,0,0:0:0:0:
402,192,261124,1,0,0:0:0:0:
475,192,261218,1,0,0:0:0:0:
36,192,261218,1,0,0:0:0:0:
109,192,261312,1,0,0:0:0:0:
228,192,261312,1,0,0:0:0:0:
475,192,261405,1,0,0:0:0:0:
36,192,261405,1,0,0:0:0:0:
402,192,261405,1,0,0:0:0:0:
402,192,261499,1,0,0:0:0:0:
475,192,261499,1,0,0:0:0:0:
228,192,261593,1,0,0:0:0:0:
109,192,261593,1,0,0:0:0:0:
36,192,261593,1,0,0:0:0:0:
109,192,261687,1,0,0:0:0:0:
36,192,261687,1,0,0:0:0:0:
228,192,261780,1,0,0:0:0:0:
402,192,261780,1,0,0:0:0:0:
475,192,261780,1,0,0:0:0:0:
475,192,261874,1,0,0:0:0:0:
402,192,261874,1,0,0:0:0:0:
153,192,261874,1,0,0:0:0:0:
51,192,261968,1,0,0:0:0:0:
153,192,261968,1,0,0:0:0:0:
256,192,262062,1,0,0:0:0:0:
460,192,262062,1,0,0:0:0:0:
51,192,262062,1,0,0:0:0:0:
402,192,262155,1,0,0:0:0:0:
228,192,262249,1,0,0:0:0:0:
36,192,262249,1,0,0:0:0:0:
475,192,262249,1,0,0:0:0:0:
109,192,262343,1,0,0:0:0:0:
228,192,262437,1,0,0:0:0:0:
402,192,262437,1,0,0:0:0:0:
475,192,262437,1,0,0:0:0:0:
109,192,262530,1,0,0:0:0:0:
36,192,262624,1,0,0:0:0:0:
402,192,262624,1,0,0:0:0:0:
475,192,262624,1,0,0:0:0:0:
228,192,262718,1,0,0:0:0:0:
109,192,262812,1,0,0:0:0:0:
36,192,262812,1,0,0:0:0:0:
475,192,262812,1,0,0:0:0:0:
402,192,262905,1,0,0:0:0:0:
228,192,262999,1,0,0:0:0:0:
36,192,262999,1,0,0:0:0:0:
475,192,262999,1,0,0:0:0:0:
402,192,263093,1,0,0:0:0:0:
109,192,263187,1,0,0:0:0:0:
36,192,263187,1,0,0:0:0:0:
228,192,263187,1,0,0:0:0:0:
402,192,263280,1,0,0:0:0:0:
475,192,263374,1,0,0:0:0:0:
109,192,263374,1,0,0:0:0:0:
36,192,263374,1,0,0:0:0:0:
228,192,263468,1,0,0:0:0:0:
402,192,263562,1,0,0:0:0:0:
475,192,263562,1,0,0:0:0:0:
36,192,263562,1,0,0:0:0:0:
402,192,263655,1,0,0:0:0:0:
475,192,263655,1,0,0:0:0:0:
228,192,263749,1,0,0:0:0:0:
109,192,263749,1,0,0:0:0:0:
36,192,263749,1,0,0:0:0:0:
109,192,263843,1,0,0:0:0:0:
36,192,263843,1,0,0:0:0:0:
228,192,263937,1,0,0:0:0:0:
402,192,263937,1,0,0:0:0:0:
475,192,263937,1,0,0:0:0:0:
475,192,264030,1,0,0:0:0:0:
402,192,264030,1,0,0:0:0:0:
228,192,264124,1,0,0:0:0:0:
109,192,264124,1,0,0:0:0:0:
36,192,264124,1,0,0:0:0:0:
109,192,264218,1,0,0:0:0:0:
36,192,264218,1,0,0:0:0:0:
228,192,264312,128,0,264499:0:0:0:0:
475,192,264312,128,0,264499:0:0:0:0:
109,192,264687,1,0,0:0:0:0:
402,192,264687,1,0,0:0:0:0:
256,192,264780,1,0,0:0:0:0:
109,192,264874,1,0,0:0:0:0:
402,192,264874,1,0,0:0:0:0:
51,192,264968,1,0,0:0:0:0:
475,192,264968,1,0,0:0:0:0:
109,192,265062,128,0,265437:0:0:0:0:
256,192,265062,128,4,265437:0:0:0:0:
402,192,265062,128,0,265437:0:0:0:0:
475,192,265249,1,0,0:0:0:0:
51,192,265343,1,0,0:0:0:0:
475,192,265530,1,0,0:0:0:0:
228,192,265624,1,0,0:0:0:0:
402,192,265812,1,0,0:0:0:0:
475,192,265999,1,0,0:0:0:0:
228,192,266093,1,0,0:0:0:0:
475,192,266280,1,0,0:0:0:0:
228,192,266374,1,0,0:0:0:0:
402,192,266562,1,0,0:0:0:0:
475,192,266562,1,0,0:0:0:0:
228,192,266655,1,0,0:0:0:0:
109,192,266749,1,0,0:0:0:0:
402,192,266843,1,0,0:0:0:0:
228,192,266937,1,0,0:0:0:0:
475,192,266937,1,0,0:0:0:0:
109,192,267030,1,0,0:0:0:0:
36,192,267124,1,0,0:0:0:0:
402,192,267218,1,0,0:0:0:0:
228,192,267312,1,0,0:0:0:0:
475,192,267312,1,0,0:0:0:0:
109,192,267405,1,0,0:0:0:0:
36,192,267499,1,0,0:0:0:0:
402,192,267593,1,0,0:0:0:0:
475,192,267687,1,0,0:0:0:0:
36,192,267687,1,0,0:0:0:0:
109,192,267733,1,0,0:0:0:0:
228,192,267780,1,0,0:0:0:0:
402,192,267827,1,0,0:0:0:0:
475,192,267874,1,0,0:0:0:0:
109,192,267921,1,0,0:0:0:0:
228,192,267968,1,0,0:0:0:0:
402,192,268015,1,0,0:0:0:0:
475,192,268062,1,0,0:0:0:0:
109,192,268062,1,0,0:0:0:0:
36,192,268062,1,4,0:0:0:0:
402,192,268249,1,0,0:0:0:0:
475,192,268249,1,0,0:0:0:0:
402,192,268343,1,0,0:0:0:0:
475,192,268343,1,0,0:0:0:0:
228,192,268437,1,0,0:0:0:0:
109,192,268437,1,0,0:0:0:0:
36,192,268437,1,0,0:0:0:0:
402,192,268530,1,0,0:0:0:0:
475,192,268530,1,0,0:0:0:0:
402,192,268624,1,0,0:0:0:0:
475,192,268624,1,0,0:0:0:0:
402,192,268812,1,0,0:0:0:0:
475,192,268812,1,0,0:0:0:0:
36,192,268812,1,0,0:0:0:0:
109,192,268905,1,0,0:0:0:0:
228,192,268999,1,0,0:0:0:0:
109,192,269093,1,0,0:0:0:0:
36,192,269187,1,0,0:0:0:0:
402,192,269187,1,0,0:0:0:0:
475,192,269187,1,0,0:0:0:0:
228,192,269280,1,0,0:0:0:0:
36,192,269374,1,0,0:0:0:0:
109,192,269421,1,0,0:0:0:0:
228,192,269468,1,0,0:0:0:0:
402,192,269515,1,0,0:0:0:0:
475,192,269562,1,0,0:0:0:0:
36,192,269562,1,0,0:0:0:0:
109,192,269562,1,0,0:0:0:0:
402,192,269608,1,0,0:0:0:0:
228,192,269655,1,0,0:0:0:0:
109,192,269702,1,0,0:0:0:0:
36,192,269749,1,0,0:0:0:0:
475,192,269796,1,0,0:0:0:0:
402,192,269843,1,0,0:0:0:0:
228,192,269890,1,0,0:0:0:0:
109,192,269937,1,0,0:0:0:0:
36,192,269937,1,0,0:0:0:0:
475,192,269937,1,0,0:0:0:0:
228,192,269983,1,0,0:0:0:0:
402,192,270030,1,0,0:0:0:0:
475,192,270077,1,0,0:0:0:0:
36,192,270124,1,0,0:0:0:0:
109,192,270171,1,0,0:0:0:0:
228,192,270218,1,0,0:0:0:0:
402,192,270265,1,0,0:0:0:0:
475,192,270312,1,0,0:0:0:0:
109,192,270312,1,0,0:0:0:0:
36,192,270312,1,0,0:0:0:0:
402,192,270358,1,0,0:0:0:0:
228,192,270405,1,0,0:0:0:0:
109,192,270452,1,0,0:0:0:0:
36,192,270499,1,0,0:0:0:0:
475,192,270546,1,0,0:0:0:0:
402,192,270593,1,0,0:0:0:0:
228,192,270640,1,0,0:0:0:0:
109,192,270687,1,0,0:0:0:0:
475,192,270687,1,0,0:0:0:0:
36,192,270687,1,0,0:0:0:0:
402,192,270780,1,0,0:0:0:0:
228,192,270874,1,0,0:0:0:0:
475,192,270874,1,0,0:0:0:0:
109,192,270968,1,0,0:0:0:0:
402,192,271062,1,0,0:0:0:0:
36,192,271062,1,0,0:0:0:0:
475,192,271062,1,0,0:0:0:0:
109,192,271249,1,0,0:0:0:0:
36,192,271249,1,0,0:0:0:0:
109,192,271343,1,0,0:0:0:0:
36,192,271343,1,0,0:0:0:0:
228,192,271437,1,0,0:0:0:0:
402,192,271437,1,0,0:0:0:0:
475,192,271437,1,0,0:0:0:0:
109,192,271530,1,0,0:0:0:0:
36,192,271530,1,0,0:0:0:0:
109,192,271624,1,0,0:0:0:0:
36,192,271624,1,0,0:0:0:0:
228,192,271812,1,0,0:0:0:0:
109,192,271812,1,0,0:0:0:0:
36,192,271812,1,0,0:0:0:0:
402,192,271905,1,0,0:0:0:0:
475,192,271999,1,0,0:0:0:0:
36,192,272093,1,0,0:0:0:0:
109,192,272187,1,0,0:0:0:0:
402,192,272187,1,0,0:0:0:0:
475,192,272187,1,0,0:0:0:0:
36,192,272280,1,0,0:0:0:0:
475,192,272374,1,0,0:0:0:0:
402,192,272374,1,0,0:0:0:0:
228,192,272468,1,0,0:0:0:0:
475,192,272468,1,0,0:0:0:0:
36,192,272562,1,0,0:0:0:0:
109,192,272562,1,0,0:0:0:0:
402,192,272562,1,0,0:0:0:0:
109,192,272655,1,0,0:0:0:0:
36,192,272655,1,0,0:0:0:0:
402,192,272749,1,0,0:0:0:0:
475,192,272749,1,0,0:0:0:0:
228,192,272843,1,0,0:0:0:0:
475,192,272843,1,0,0:0:0:0:
36,192,272937,1,0,0:0:0:0:
109,192,272937,1,0,0:0:0:0:
402,192,272937,1,0,0:0:0:0:
475,192,273030,1,0,0:0:0:0:
228,192,273030,1,0,0:0:0:0:
402,192,273124,1,0,0:0:0:0:
36,192,273124,1,0,0:0:0:0:
109,192,273218,1,0,0:0:0:0:
475,192,273218,1,0,0:0:0:0:
228,192,273312,1,0,0:0:0:0:
402,192,273312,1,0,0:0:0:0:
36,192,273312,1,0,0:0:0:0:
475,192,273405,1,0,0:0:0:0:
402,192,273499,1,0,0:0:0:0:
36,192,273499,1,0,0:0:0:0:
109,192,273499,1,0,0:0:0:0:
36,192,273593,1,0,0:0:0:0:
109,192,273593,1,0,0:0:0:0:
228,192,273687,1,0,0:0:0:0:
402,192,273687,1,0,0:0:0:0:
475,192,273687,1,0,0:0:0:0:
36,192,273780,1,0,0:0:0:0:
228,192,273874,1,0,0:0:0:0:
402,192,273874,1,0,0:0:0:0:
475,192,273874,1,0,0:0:0:0:
109,192,273968,1,0,0:0:0:0:
36,192,274062,1,0,0:0:0:0:
402,192,274062,1,0,0:0:0:0:
475,192,274062,1,0,0:0:0:0:
402,192,274155,1,0,0:0:0:0:
475,192,274155,1,0,0:0:0:0:
228,192,274155,1,0,0:0:0:0:
109,192,274249,1,0,0:0:0:0:
36,192,274249,1,0,0:0:0:0:
475,192,274343,1,0,0:0:0:0:
402,192,274343,1,0,0:0:0:0:
109,192,274343,1,0,0:0:0:0:
228,192,274437,1,0,0:0:0:0:
402,192,274437,1,0,0:0:0:0:
475,192,274437,1,0,0:0:0:0:
109,192,274530,1,0,0:0:0:0:
36,192,274530,1,0,0:0:0:0:
109,192,274624,1,0,0:0:0:0:
36,192,274624,1,0,0:0:0:0:
109,192,274812,1,0,0:0:0:0:
36,192,274812,1,0,0:0:0:0:
475,192,274812,1,0,0:0:0:0:
402,192,274905,1,0,0:0:0:0:
228,192,274999,1,0,0:0:0:0:
402,192,275093,1,0,0:0:0:0:
475,192,275187,1,0,0:0:0:0:
109,192,275187,1,0,0:0:0:0:
36,192,275187,1,0,0:0:0:0:
228,192,275280,1,0,0:0:0:0:
475,192,275374,1,0,0:0:0:0:
402,192,275421,1,0,0:0:0:0:
228,192,275468,1,0,0:0:0:0:
109,192,275515,1,0,0:0:0:0:
36,192,275562,1,0,0:0:0:0:
475,192,275562,1,0,0:0:0:0:
402,192,275562,1,0,0:0:0:0:
109,192,275608,1,0,0:0:0:0:
228,192,275655,1,0,0:0:0:0:
402,192,275702,1,0,0:0:0:0:
475,192,275749,1,0,0:0:0:0:
36,192,275796,1,0,0:0:0:0:
109,192,275843,1,0,0:0:0:0:
228,192,275890,1,0,0:0:0:0:
402,192,275937,1,0,0:0:0:0:
475,192,275937,1,0,0:0:0:0:
36,192,275937,1,0,0:0:0:0:
228,192,275983,1,0,0:0:0:0:
109,192,276030,1,0,0:0:0:0:
36,192,276077,1,0,0:0:0:0:
475,192,276124,1,0,0:0:0:0:
402,192,276171,1,0,0:0:0:0:
228,192,276218,1,0,0:0:0:0:
109,192,276265,1,0,0:0:0:0:
36,192,276312,1,0,0:0:0:0:
402,192,276312,1,0,0:0:0:0:
475,192,276312,1,0,0:0:0:0:
109,192,276358,1,0,0:0:0:0:
228,192,276405,1,0,0:0:0:0:
402,192,276452,1,0,0:0:0:0:
475,192,276499,1,0,0:0:0:0:
36,192,276546,1,0,0:0:0:0:
109,192,276593,1,0,0:0:0:0:
228,192,276640,1,0,0:0:0:0:
402,192,276687,1,0,0:0:0:0:
36,192,276687,1,0,0:0:0:0:
475,192,276687,1,0,0:0:0:0:
109,192,276780,1,0,0:0:0:0:
228,192,276874,1,0,0:0:0:0:
36,192,276874,1,0,0:0:0:0:
402,192,276968,1,0,0:0:0:0:
109,192,277062,1,0,0:0:0:0:
475,192,277062,1,0,0:0:0:0:
36,192,277062,1,0,0:0:0:0:
402,192,277249,1,0,0:0:0:0:
475,192,277249,1,0,0:0:0:0:
402,192,277343,1,0,0:0:0:0:
475,192,277343,1,0,0:0:0:0:
228,192,277437,1,0,0:0:0:0:
109,192,277437,1,0,0:0:0:0:
36,192,277437,1,0,0:0:0:0:
402,192,277530,1,0,0:0:0:0:
475,192,277530,1,0,0:0:0:0:
402,192,277624,1,0,0:0:0:0:
475,192,277624,1,0,0:0:0:0:
228,192,277812,1,0,0:0:0:0:
402,192,277812,1,0,0:0:0:0:
475,192,277812,1,0,0:0:0:0:
109,192,277905,1,0,0:0:0:0:
36,192,277999,1,0,0:0:0:0:
475,192,278093,1,0,0:0:0:0:
402,192,278187,1,0,0:0:0:0:
109,192,278187,1,0,0:0:0:0:
36,192,278187,1,0,0:0:0:0:
475,192,278280,1,0,0:0:0:0:
36,192,278374,1,0,0:0:0:0:
109,192,278374,1,0,0:0:0:0:
228,192,278468,1,0,0:0:0:0:
36,192,278468,1,0,0:0:0:0:
402,192,278562,1,0,0:0:0:0:
475,192,278562,1,0,0:0:0:0:
109,192,278562,1,0,0:0:0:0:
228,192,278655,1,0,0:0:0:0:
402,192,278749,1,0,0:0:0:0:
109,192,278749,1,0,0:0:0:0:
36,192,278749,1,0,0:0:0:0:
228,192,278843,1,0,0:0:0:0:
402,192,278937,1,0,0:0:0:0:
475,192,278937,1,0,0:0:0:0:
109,192,278937,1,0,0:0:0:0:
228,192,279030,1,0,0:0:0:0:
402,192,279124,1,0,0:0:0:0:
36,192,279312,1,0,0:0:0:0:
475,192,279499,1,0,0:0:0:0:
402,192,279687,1,0,0:0:0:0:
228,192,279874,1,0,0:0:0:0:
36,192,280062,1,4,0:0:0:0:
402,192,280062,1,0,0:0:0:0:
475,192,280062,1,0,0:0:0:0:
109,192,280249,1,0,0:0:0:0:
36,192,280249,1,0,0:0:0:0:
402,192,280249,1,0,0:0:0:0:
109,192,280343,1,0,0:0:0:0:
36,192,280343,1,0,0:0:0:0:
228,192,280437,1,0,0:0:0:0:
402,192,280437,1,0,0:0:0:0:
475,192,280437,1,0,0:0:0:0:
109,192,280530,1,0,0:0:0:0:
36,192,280530,1,0,0:0:0:0:
109,192,280624,1,0,0:0:0:0:
36,192,280624,1,0,0:0:0:0:
475,192,280624,1,0,0:0:0:0:
109,192,280812,1,0,0:0:0:0:
36,192,280812,1,0,0:0:0:0:
358,192,280812,1,0,0:0:0:0:
460,192,280905,1,0,0:0:0:0:
153,192,280999,1,0,0:0:0:0:
51,192,280999,1,0,0:0:0:0:
256,192,281093,1,0,0:0:0:0:
460,192,281093,1,0,0:0:0:0:
358,192,281093,1,0,0:0:0:0:
153,192,281187,1,0,0:0:0:0:
51,192,281187,1,0,0:0:0:0:
256,192,281280,1,0,0:0:0:0:
475,192,281374,1,0,0:0:0:0:
402,192,281421,1,0,0:0:0:0:
228,192,281468,1,0,0:0:0:0:
109,192,281515,1,0,0:0:0:0:
36,192,281562,1,0,0:0:0:0:
475,192,281562,1,0,0:0:0:0:
402,192,281562,1,0,0:0:0:0:
109,192,281608,1,0,0:0:0:0:
228,192,281655,1,0,0:0:0:0:
402,192,281702,1,0,0:0:0:0:
475,192,281749,1,0,0:0:0:0:
153,192,281796,1,0,0:0:0:0:
256,192,281843,1,0,0:0:0:0:
51,192,281843,1,0,0:0:0:0:
358,192,281890,1,0,0:0:0:0:
36,192,281937,1,0,0:0:0:0:
153,192,281937,1,0,0:0:0:0:
475,192,281937,1,0,0:0:0:0:
358,192,281983,1,0,0:0:0:0:
256,192,282030,1,0,0:0:0:0:
153,192,282077,1,0,0:0:0:0:
475,192,282124,1,0,0:0:0:0:
402,192,282124,1,0,0:0:0:0:
228,192,282171,1,0,0:0:0:0:
109,192,282218,1,0,0:0:0:0:
36,192,282265,1,0,0:0:0:0:
402,192,282312,1,0,0:0:0:0:
475,192,282312,1,0,0:0:0:0:
228,192,282312,1,0,0:0:0:0:
36,192,282358,1,0,0:0:0:0:
109,192,282405,1,0,0:0:0:0:
228,192,282452,1,0,0:0:0:0:
402,192,282499,1,0,0:0:0:0:
36,192,282546,1,0,0:0:0:0:
109,192,282593,1,0,0:0:0:0:
475,192,282593,1,0,0:0:0:0:
228,192,282640,1,0,0:0:0:0:
402,192,282687,1,0,0:0:0:0:
36,192,282687,1,0,0:0:0:0:
475,192,282687,1,0,0:0:0:0:
109,192,282780,1,0,0:0:0:0:
228,192,282874,1,0,0:0:0:0:
36,192,282874,1,0,0:0:0:0:
402,192,282968,1,0,0:0:0:0:
109,192,283062,1,0,0:0:0:0:
475,192,283062,1,0,0:0:0:0:
36,192,283062,1,0,0:0:0:0:
109,192,283249,1,0,0:0:0:0:
36,192,283249,1,0,0:0:0:0:
475,192,283296,1,0,0:0:0:0:
109,192,283343,1,0,0:0:0:0:
36,192,283343,1,0,0:0:0:0:
402,192,283390,1,0,0:0:0:0:
228,192,283437,1,0,0:0:0:0:
109,192,283437,1,0,0:0:0:0:
36,192,283437,1,0,0:0:0:0:
402,192,283530,1,0,0:0:0:0:
475,192,283530,1,0,0:0:0:0:
402,192,283624,1,0,0:0:0:0:
475,192,283624,1,0,0:0:0:0:
36,192,283624,1,0,0:0:0:0:
228,192,283812,1,0,0:0:0:0:
402,192,283812,1,0,0:0:0:0:
475,192,283812,1,0,0:0:0:0:
460,192,283937,1,0,0:0:0:0:
358,192,283937,1,0,0:0:0:0:
256,192,283937,1,0,0:0:0:0:
228,192,284062,1,0,0:0:0:0:
109,192,284062,1,0,0:0:0:0:
36,192,284062,1,0,0:0:0:0:
475,192,284093,1,0,0:0:0:0:
256,192,284187,1,0,0:0:0:0:
109,192,284187,1,0,0:0:0:0:
36,192,284187,1,0,0:0:0:0:
475,192,284280,1,0,0:0:0:0:
36,192,284374,1,0,0:0:0:0:
109,192,284374,1,0,0:0:0:0:
228,192,284468,1,0,0:0:0:0:
36,192,284468,1,0,0:0:0:0:
475,192,284562,1,0,0:0:0:0:
402,192,284562,1,0,0:0:0:0:
109,192,284562,1,0,0:0:0:0:
402,192,284655,1,0,0:0:0:0:
475,192,284655,1,0,0:0:0:0:
109,192,284749,1,0,0:0:0:0:
36,192,284749,1,0,0:0:0:0:
228,192,284843,1,0,0:0:0:0:
36,192,284843,1,0,0:0:0:0:
475,192,284937,1,0,0:0:0:0:
402,192,284937,1,0,0:0:0:0:
109,192,284937,1,0,0:0:0:0:
36,192,285030,1,0,0:0:0:0:
228,192,285030,1,0,0:0:0:0:
109,192,285124,1,0,0:0:0:0:
475,192,285124,1,0,0:0:0:0:
402,192,285218,1,0,0:0:0:0:
36,192,285218,1,0,0:0:0:0:
228,192,285312,1,0,0:0:0:0:
109,192,285312,1,0,0:0:0:0:
475,192,285312,1,0,0:0:0:0:
36,192,285405,1,0,0:0:0:0:
228,192,285405,1,0,0:0:0:0:
109,192,285405,1,0,0:0:0:0:
402,192,285499,1,0,0:0:0:0:
475,192,285593,1,0,0:0:0:0:
109,192,285593,1,0,0:0:0:0:
36,192,285593,1,0,0:0:0:0:
228,192,285687,1,0,0:0:0:0:
475,192,285780,1,0,0:0:0:0:
402,192,285780,1,0,0:0:0:0:
109,192,285780,1,0,0:0:0:0:
228,192,285874,1,0,0:0:0:0:
109,192,285874,1,0,0:0:0:0:
36,192,285874,1,0,0:0:0:0:
402,192,285968,1,0,0:0:0:0:
475,192,286062,1,0,0:0:0:0:
109,192,286062,1,0,0:0:0:0:
36,192,286062,1,0,0:0:0:0:
228,192,286155,1,0,0:0:0:0:
402,192,286249,1,0,0:0:0:0:
475,192,286249,1,0,0:0:0:0:
402,192,286343,1,0,0:0:0:0:
475,192,286343,1,0,0:0:0:0:
228,192,286343,1,0,0:0:0:0:
109,192,286437,1,0,0:0:0:0:
402,192,286530,1,0,0:0:0:0:
475,192,286530,1,0,0:0:0:0:
402,192,286624,1,0,0:0:0:0:
475,192,286624,1,0,0:0:0:0:
36,192,286624,1,0,0:0:0:0:
109,192,286718,1,0,0:0:0:0:
228,192,286718,1,0,0:0:0:0:
36,192,286718,1,0,0:0:0:0:
402,192,286812,1,0,0:0:0:0:
475,192,286812,1,0,0:0:0:0:
228,192,286812,1,0,0:0:0:0:
109,192,286905,1,0,0:0:0:0:
36,192,286999,1,0,0:0:0:0:
109,192,287093,1,0,0:0:0:0:
402,192,287093,1,0,0:0:0:0:
475,192,287093,1,0,0:0:0:0:
228,192,287187,1,0,0:0:0:0:
36,192,287187,1,0,0:0:0:0:
475,192,287280,1,0,0:0:0:0:
402,192,287374,1,0,0:0:0:0:
36,192,287374,1,0,0:0:0:0:
228,192,287421,1,0,0:0:0:0:
109,192,287468,1,0,0:0:0:0:
475,192,287468,1,0,0:0:0:0:
402,192,287515,1,0,0:0:0:0:
36,192,287562,1,0,0:0:0:0:
228,192,287562,1,0,0:0:0:0:
402,192,287608,1,0,0:0:0:0:
475,192,287655,1,0,0:0:0:0:
36,192,287702,1,0,0:0:0:0:
109,192,287749,1,0,0:0:0:0:
228,192,287796,1,0,0:0:0:0:
402,192,287843,1,0,0:0:0:0:
36,192,287843,1,0,0:0:0:0:
475,192,287890,1,0,0:0:0:0:
109,192,287937,1,0,0:0:0:0:
228,192,287983,1,0,0:0:0:0:
402,192,288030,1,0,0:0:0:0:
475,192,288077,1,0,0:0:0:0:
153,192,288124,1,0,0:0:0:0:
36,192,288124,1,0,0:0:0:0:
228,192,288171,1,0,0:0:0:0:
460,192,288218,1,0,0:0:0:0:
358,192,288218,1,0,0:0:0:0:
36,192,288265,1,0,0:0:0:0:
402,192,288312,1,0,0:0:0:0:
475,192,288312,1,0,0:0:0:0:
228,192,288358,1,0,0:0:0:0:
109,192,288405,1,0,0:0:0:0:
36,192,288452,1,0,0:0:0:0:
109,192,288499,1,0,0:0:0:0:
228,192,288546,1,0,0:0:0:0:
402,192,288593,1,0,0:0:0:0:
475,192,288593,1,0,0:0:0:0:
36,192,288640,1,0,0:0:0:0:
109,192,288687,1,0,0:0:0:0:
358,192,288780,1,0,0:0:0:0:
256,192,288874,1,0,0:0:0:0:
153,192,288874,1,0,0:0:0:0:
51,192,288874,1,0,0:0:0:0:
109,192,288968,1,0,0:0:0:0:
36,192,288968,1,0,0:0:0:0:
228,192,289062,1,0,0:0:0:0:
402,192,289062,1,0,0:0:0:0:
475,192,289062,1,0,0:0:0:0:
402,192,289155,1,0,0:0:0:0:
475,192,289155,1,0,0:0:0:0:
228,192,289249,1,0,0:0:0:0:
109,192,289249,1,0,0:0:0:0:
36,192,289249,1,0,0:0:0:0:
109,192,289343,1,0,0:0:0:0:
36,192,289343,1,0,0:0:0:0:
402,192,289437,1,0,0:0:0:0:
475,192,289437,1,0,0:0:0:0:
228,192,289437,1,0,0:0:0:0:
402,192,289530,1,0,0:0:0:0:
475,192,289530,1,0,0:0:0:0:
228,192,289624,1,0,0:0:0:0:
109,192,289624,1,0,0:0:0:0:
36,192,289624,1,0,0:0:0:0:
109,192,289718,1,0,0:0:0:0:
36,192,289718,1,0,0:0:0:0:
228,192,289812,1,0,0:0:0:0:
402,192,289812,1,0,0:0:0:0:
475,192,289812,1,0,0:0:0:0:
475,192,289905,1,0,0:0:0:0:
402,192,289905,1,0,0:0:0:0:
228,192,289999,1,0,0:0:0:0:
109,192,289999,1,0,0:0:0:0:
36,192,289999,1,0,0:0:0:0:
109,192,290093,1,0,0:0:0:0:
36,192,290093,1,0,0:0:0:0:
475,192,290187,1,0,0:0:0:0:
402,192,290233,1,0,0:0:0:0:
36,192,290280,1,0,0:0:0:0:
109,192,290327,1,0,0:0:0:0:
402,192,290374,1,0,0:0:0:0:
228,192,290421,1,0,0:0:0:0:
153,192,290468,1,0,0:0:0:0:
51,192,290515,1,0,0:0:0:0:
475,192,290655,1,0,0:0:0:0:
402,192,290749,1,0,0:0:0:0:
475,192,290843,1,0,0:0:0:0:
228,192,291030,1,0,0:0:0:0:
402,192,291124,1,0,0:0:0:0:
228,192,291218,1,0,0:0:0:0:
36,192,291499,1,0,0:0:0:0:
109,192,291593,1,0,0:0:0:0:
402,192,291593,1,0,0:0:0:0:
228,192,291687,1,0,0:0:0:0:
475,192,291687,1,0,0:0:0:0:
36,192,291687,1,8,0:0:0:0:
402,192,291874,1,0,0:0:0:0:
109,192,291874,1,0,0:0:0:0:
228,192,291968,1,0,0:0:0:0:
402,192,292062,1,0,0:0:0:0:
109,192,292062,128,0,293562:0:0:0:0:
475,192,292062,128,0,293562:0:0:0:0:
36,192,292062,128,4,293562:0:0:0:0:
358,192,292437,1,0,0:0:0:0:
402,192,293374,128,0,293749:0:0:0:0:
228,192,293562,128,0,295062:0:0:0:0:
358,192,293937,1,0,0:0:0:0:
358,192,294687,1,0,0:0:0:0:
358,192,294968,1,0,0:0:0:0:
475,192,295062,128,0,296562:0:0:0:0:
36,192,295062,128,0,296562:0:0:0:0:
109,192,295062,128,0,296562:0:0:0:0:
256,192,295437,1,0,0:0:0:0:
402,192,296374,128,0,296749:0:0:0:0:
228,192,296562,128,0,298062:0:0:0:0:
358,192,296937,1,0,0:0:0:0:
358,192,297687,1,0,0:0:0:0:
358,192,297968,1,0,0:0:0:0:
475,192,298062,128,0,299562:0:0:0:0:
109,192,298062,128,0,299562:0:0:0:0:
36,192,298062,128,0,299562:0:0:0:0:
256,192,298437,1,0,0:0:0:0:
402,192,299374,128,0,299749:0:0:0:0:
228,192,299562,128,0,301062:0:0:0:0:
358,192,299937,1,0,0:0:0:0:
358,192,300687,1,0,0:0:0:0:
358,192,300968,1,0,0:0:0:0:
475,192,301062,128,0,302562:0:0:0:0:
109,192,301062,128,0,302562:0:0:0:0:
36,192,301062,128,0,302562:0:0:0:0:
256,192,301437,1,0,0:0:0:0:
402,192,302374,128,0,302749:0:0:0:0:
228,192,302562,128,0,304062:0:0:0:0:
358,192,302937,1,0,0:0:0:0:
358,192,303687,1,0,0:0:0:0:
153,192,303968,1,0,0:0:0:0:
402,192,304062,1,0,0:0:0:0:
475,192,304062,1,0,0:0:0:0:
36,192,304062,1,4,0:0:0:0:
