osu file format v14

[General]
AudioFilename: audio.mp3
AudioLeadIn: 0
PreviewTime: 153534
Countdown: 0
SampleSet: Normal
StackLeniency: 0.7
Mode: 1
LetterboxInBreaks: 0
WidescreenStoryboard: 0

[Editor]
Bookmarks: 10887,28341,44055,58491,72927,89168,103604,118040,132476,146912,154130,168566,183002,199248,213684,228120,240752,256992,271428,280446,287274
DistanceSpacing: 1.3
BeatDivisor: 4
GridSize: 32
TimelineZoom: 3.899999

[Metadata]
Title:[ns]
TitleUnicode:[ns]
Artist:Camellia
ArtistUnicode:かめりあ
Creator:_DUSK_
Version:[o]
Source:osu!
Tags:KamelCamellia Cametek Heart of Android Speedcore Melodic Dubstep Hardcore 電鬼 かめるかめりあ 大箭将也 masaya oya CTCD-018 C95 psycore featured artist fa
BeatmapID:2196393
BeatmapSetID:1045786

[Difficulty]
HPDrainRate:5
CircleSize:5
OverallDifficulty:6
ApproachRate:9
SliderMultiplier:1.4
SliderTickRate:1

[Events]
//Background and Video events
0,0,"nsbg.jpg",0,0
//Break Periods
2,92982,95791
//Storyboard Layer 0 (Background)
//Storyboard Layer 1 (Fail)
//Storyboard Layer 2 (Pass)
//Storyboard Layer 3 (Foreground)
//Storyboard Layer 4 (Overlay)
//Storyboard Sound Samples

[TimingPoints]
10892,545.454545454546,4,1,0,50,1,0
28346,539.325842696629,4,1,0,50,1,0
29424,532.150776053215,4,1,0,50,1,8
30488,528.63436123348,4,1,0,50,1,8
31545,516.129032258065,4,1,0,50,1,8
32577,511.727078891258,4,1,0,50,1,0
33600,502.092050209205,4,1,0,50,1,8
34604,497.92531120332,4,1,0,50,1,8
35599,495.867768595041,4,1,0,50,1,8
36590,489.795918367347,4,1,0,50,1,0
37569,476.190476190476,4,1,0,50,1,8
38521,472.44094488189,4,1,0,50,1,8
39465,466.926070038911,4,1,0,50,1,8
40398,465.116279069767,4,1,0,50,1,0
42256,451.127819548872,4,1,0,50,1,8
42481,-97.0873786407767,4,1,0,50,0,0
42594,-94.3396226415094,4,1,0,50,0,0
42707,-91.743119266055,4,1,0,50,0,0
42819,-89.2857142857143,4,1,0,50,0,0
42932,-86.9565217391304,4,1,0,50,0,0
43045,-84.7457627118644,4,1,0,50,0,0
43158,-82.6446280991736,4,1,0,100,0,0
43271,-80.6451612903226,4,1,0,100,0,0
43383,-78.7401574803149,4,1,0,100,0,0
43496,-76.9230769230769,4,1,0,100,0,0
43609,-75.187969924812,4,1,0,100,0,0
43722,-73.5294117647059,4,1,0,100,0,0
43834,-71.9424460431655,4,1,0,100,0,0
43947,-70.4225352112676,4,1,0,100,0,0
44060,-68.9655172413793,4,1,0,100,0,0
44173,-68.9655172413793,4,1,0,70,0,0
45865,-71.4285714285714,4,1,0,70,0,0
47669,-74.0740740740741,4,1,0,70,0,0
49474,-76.9230769230769,4,1,0,70,0,0
51278,-83.3333333333333,4,1,0,70,0,0
51616,-82.6446280991736,4,1,0,70,0,0
51842,-81.9672131147541,4,1,0,70,0,0
52068,-81.3008130081301,4,1,0,70,0,0
52293,-80.6451612903226,4,1,0,70,0,0
52406,-80,4,1,0,70,0,0
52631,-79.3650793650794,4,1,0,70,0,0
52857,-78.7401574803149,4,1,0,70,0,0
52932,-78.125,4,1,0,70,0,0
53007,-77.5193798449612,4,1,0,70,0,0
53083,-76.9230769230769,4,1,0,70,0,0
53308,-76.3358778625954,4,1,0,70,0,0
53421,-75.7575757575758,4,1,0,70,0,0
53646,-75.187969924812,4,1,0,70,0,0
53872,-74.6268656716418,4,1,0,70,0,0
54098,-74.0740740740741,4,1,0,70,0,0
54210,-73.5294117647059,4,1,0,70,0,0
54436,-72.992700729927,4,1,0,70,0,0
54662,-72.463768115942,4,1,0,70,0,0
54887,-71.4285714285714,4,1,0,70,0,0
55000,-70.4225352112676,4,1,0,70,0,0
55113,-69.4444444444444,4,1,0,70,0,0
55225,-68.4931506849315,4,1,0,70,0,0
55338,-67.5675675675676,4,1,0,70,0,0
55451,-66.6666666666667,4,1,0,70,0,0
55564,-65.7894736842105,4,1,0,70,0,0
55677,-64.9350649350649,4,1,0,70,0,0
55789,-64.1025641025641,4,1,0,70,0,0
55902,-63.2911392405063,4,1,0,70,0,0
56015,-62.5,4,1,0,70,0,0
56128,-61.7283950617284,4,1,0,70,0,0
56240,-60.9756097560976,4,1,0,70,0,0
56353,-60.2409638554217,4,1,0,70,0,0
56466,-59.5238095238095,4,1,0,70,0,0
56579,-58.8235294117647,4,1,0,70,0,0
56692,-58.1395348837209,4,1,0,70,0,0
56748,-57.4712643678161,4,1,0,70,0,0
56804,-56.8181818181818,4,1,0,70,0,0
56861,-56.1797752808989,4,1,0,70,0,0
56917,-55.5555555555556,4,1,0,70,0,0
56974,-54.9450549450549,4,1,0,70,0,0
57030,-54.3478260869565,4,1,0,70,0,0
57086,-53.763440860215,4,1,0,70,0,0
57143,-53.1914893617021,4,1,0,70,0,0
57199,-52.6315789473684,4,1,0,70,0,0
57255,-52.0833333333333,4,1,0,70,0,0
57312,-51.5463917525773,4,1,0,70,0,0
57368,-51.0204081632653,4,1,0,70,0,0
57425,-50.5050505050505,4,1,0,70,0,0
57481,-50,4,1,0,70,0,0
57537,-49.5049504950495,4,1,0,70,0,0
58158,-66.6666666666667,4,1,0,70,0,0
58496,-55.5555555555556,4,1,0,100,0,0
72199,-57.1428571428571,4,1,0,100,0,0
72340,-58.8235294117647,4,1,0,100,0,0
72481,-60.6060606060606,4,1,0,100,0,0
72631,-62.5,4,1,0,100,0,0
72782,-64.5161290322581,4,1,0,100,0,0
72932,-54.054054054054,4,1,0,100,0,0
86128,-53.763440860215,4,1,0,100,0,0
86184,-53.475935828877,4,1,0,100,0,0
86240,-53.1914893617021,4,1,0,100,0,0
86297,-52.9100529100529,4,1,0,100,0,0
86353,-52.6315789473684,4,1,0,100,0,0
86579,-52.3560209424084,4,1,0,100,0,0
86692,-52.0833333333333,4,1,0,100,0,0
86917,-51.8134715025907,4,1,0,100,0,0
87030,-51.5463917525773,4,1,0,100,0,0
87255,-51.2820512820513,4,1,0,100,0,0
87368,-51.0204081632653,4,1,0,100,0,0
87594,-50.761421319797,4,1,0,100,0,0
87707,-50.5050505050505,4,1,0,100,0,0
87932,-50.251256281407,4,1,0,100,0,0
88045,-50,4,1,0,100,0,0
88271,-49.7512437810945,4,1,0,100,0,0
88383,-49.5049504950495,4,1,0,100,0,0
88496,-49.2610837438424,4,1,0,100,0,0
88609,-49.0196078431373,4,1,0,100,0,0
88665,-48.780487804878,4,1,0,100,0,0
88722,-48.5436893203883,4,1,0,100,0,0
89173,-48.3091787439614,4,1,0,100,0,0
90977,-55.5555555555556,4,1,0,70,0,0
92782,-62.5,4,1,0,70,0,0
94586,-71.4285714285714,4,1,0,70,0,0
96391,-83.3333333333333,4,1,0,70,0,0
96729,-82.6446280991736,4,1,0,70,0,0
96842,-81.9672131147541,4,1,0,70,0,0
97068,-80.6451612903226,4,1,0,70,0,0
97406,-80,4,1,0,70,0,0
97519,-79.3650793650794,4,1,0,70,0,0
97744,-78.7401574803149,4,1,0,70,0,0
97970,-78.125,4,1,0,70,0,0
98195,-77.5193798449612,4,1,0,70,0,0
98421,-76.9230769230769,4,1,0,70,0,0
98534,-76.3358778625954,4,1,0,70,0,0
98646,-75.7575757575758,4,1,0,70,0,0
98872,-75.187969924812,4,1,0,70,0,0
98985,-74.6268656716418,4,1,0,70,0,0
99210,-74.0740740740741,4,1,0,70,0,0
99323,-73.5294117647059,4,1,0,70,0,0
99549,-72.992700729927,4,1,0,70,0,0
99774,-72.463768115942,4,1,0,70,0,0
99887,-71.9424460431655,4,1,0,70,0,0
100000,-71.4285714285714,4,1,0,70,0,0
100225,-70.9219858156028,4,1,0,70,0,0
100451,-70.4225352112676,4,1,0,70,0,0
100677,-69.9300699300699,4,1,0,70,0,0
100902,-69.4444444444444,4,1,0,70,0,0
101128,-68.9655172413793,4,1,0,70,0,0
101353,-68.4931506849315,4,1,0,70,0,0
101579,-68.0272108843537,4,1,0,70,0,0
101804,-67.1140939597315,4,1,0,70,0,0
101917,-66.2251655629139,4,1,0,70,0,0
102030,-65.359477124183,4,1,0,70,0,0
102143,-64.5161290322581,4,1,0,70,0,0
102255,-63.6942675159236,4,1,0,70,0,0
102368,-62.8930817610063,4,1,0,70,0,0
102481,-62.111801242236,4,1,0,70,0,0
102594,-61.3496932515337,4,1,0,70,0,0
102707,-60.6060606060606,4,1,0,70,0,0
103271,-66.6666666666667,4,1,0,70,0,0
103609,-55.5555555555556,4,1,0,100,0,0
116353,-55.2486187845304,4,1,0,100,0,0
116466,-54.9450549450549,4,1,0,100,0,0
116579,-54.6448087431694,4,1,0,100,0,0
116635,-54.3478260869565,4,1,0,100,0,0
116692,-54.054054054054,4,1,0,100,0,0
116804,-53.763440860215,4,1,0,100,0,0
116917,-53.475935828877,4,1,0,100,0,0
116974,-53.1914893617021,4,1,0,100,0,0
117030,-52.9100529100529,4,1,0,100,0,0
117086,-52.6315789473684,4,1,0,100,0,0
117143,-52.3560209424084,4,1,0,100,0,0
117255,-52.0833333333333,4,1,0,100,0,0
117312,-51.8134715025907,4,1,0,100,0,0
117368,-51.5463917525773,4,1,0,100,0,0
117481,-51.2820512820513,4,1,0,100,0,0
117537,-51.0204081632653,4,1,0,100,0,0
117594,-50.761421319797,4,1,0,100,0,0
117707,-50.5050505050505,4,1,0,100,0,0
117763,-50.251256281407,4,1,0,100,0,0
118045,-58.8235294117647,4,1,0,100,0,0
121428,-58.1395348837209,4,1,0,100,0,0
121485,-57.4712643678161,4,1,0,100,0,0
121541,-56.8181818181818,4,1,0,100,0,0
121598,-56.1797752808989,4,1,0,100,0,0
121654,-55.5555555555556,4,1,0,100,0,0
130789,-55.2486187845304,4,1,0,100,0,0
130846,-54.9450549450549,4,1,0,100,0,0
130902,-54.6448087431694,4,1,0,100,0,0
130959,-54.3478260869565,4,1,0,100,0,0
131015,-54.054054054054,4,1,0,100,0,0
131071,-53.763440860215,4,1,0,100,0,0
131128,-53.475935828877,4,1,0,100,0,0
131184,-53.1914893617021,4,1,0,100,0,0
131240,-52.9100529100529,4,1,0,100,0,0
131297,-52.6315789473684,4,1,0,100,0,0
131353,-52.3560209424084,4,1,0,100,0,0
131410,-52.0833333333333,4,1,0,100,0,0
131466,-51.8134715025907,4,1,0,100,0,0
131522,-51.5463917525773,4,1,0,100,0,0
131579,-51.2820512820513,4,1,0,100,0,0
132481,-66.6666666666667,4,1,0,100,0,0
134286,-71.4285714285714,4,1,0,100,0,0
136090,-76.9230769230769,4,1,0,100,0,0
137895,-83.3333333333333,4,1,0,100,0,0
141504,-90.9090909090909,4,1,0,100,0,0
143308,-100,4,1,0,100,0,0
146917,-98.0392156862745,4,1,0,100,0,0
147255,-96.1538461538461,4,1,0,100,0,0
147368,-94.3396226415094,4,1,0,100,0,0
147594,-92.5925925925926,4,1,0,100,0,0
147707,-90.9090909090909,4,1,0,100,0,0
147819,-89.2857142857143,4,1,0,100,0,0
147932,-87.719298245614,4,1,0,100,0,0
148158,-86.2068965517241,4,1,0,100,0,0
148271,-84.7457627118644,4,1,0,100,0,0
148496,-83.3333333333333,4,1,0,100,0,0
148722,-81.9672131147541,4,1,0,100,0,0
149060,-80.6451612903226,4,1,0,100,0,0
149173,-79.3650793650794,4,1,0,100,0,0
149398,-78.125,4,1,0,100,0,0
149511,-76.9230769230769,4,1,0,100,0,0
149624,-75.7575757575758,4,1,0,100,0,0
149737,-74.6268656716418,4,1,0,100,0,0
150075,-73.5294117647059,4,1,0,100,0,0
150188,-72.463768115942,4,1,0,100,0,0
150301,-71.4285714285714,4,1,0,100,0,0
150413,-70.4225352112676,4,1,0,100,0,0
150526,-69.4444444444444,4,1,0,100,0,0
150583,-68.4931506849315,4,1,0,100,0,0
150639,-67.5675675675676,4,1,0,100,0,0
150695,-66.6666666666667,4,1,0,100,0,0
150752,-65.7894736842105,4,1,0,100,0,0
150808,-64.9350649350649,4,1,0,100,0,0
150865,-64.1025641025641,4,1,0,100,0,0
150921,-63.2911392405063,4,1,0,100,0,0
150977,-62.5,4,1,0,100,0,0
151034,-61.7283950617284,4,1,0,100,0,0
151090,-60.9756097560976,4,1,0,100,0,0
151146,-60.2409638554217,4,1,0,100,0,0
151203,-59.5238095238095,4,1,0,100,0,0
151259,-58.8235294117647,4,1,0,100,0,0
151316,-58.1395348837209,4,1,0,100,0,0
151372,-57.4712643678161,4,1,0,100,0,0
151428,-56.8181818181818,4,1,0,100,0,0
151485,-56.1797752808989,4,1,0,100,0,0
151541,-55.5555555555556,4,1,0,100,0,0
151598,-54.9450549450549,4,1,0,100,0,0
151654,-54.3478260869565,4,1,0,100,0,0
151710,-53.763440860215,4,1,0,100,0,0
151767,-53.1914893617021,4,1,0,100,0,0
151823,-52.6315789473684,4,1,0,100,0,0
151880,-52.0833333333333,4,1,0,100,0,0
151936,-51.5463917525773,4,1,0,100,0,0
151992,-51.0204081632653,4,1,0,100,0,0
152049,-50.5050505050505,4,1,0,100,0,0
152105,-50,4,1,0,100,0,0
152162,-49.5049504950495,4,1,0,100,0,0
152218,-49.0196078431373,4,1,0,100,0,0
152274,-48.5436893203883,4,1,0,100,0,0
152331,-48.0769230769231,4,1,0,100,0,0
153571,-60.2409638554217,4,1,0,100,0,0
153684,-59.5238095238095,4,1,0,100,0,0
153797,-58.8235294117647,4,1,0,100,0,0
153853,-58.1395348837209,4,1,0,100,0,0
153910,-57.4712643678161,4,1,0,100,0,0
153985,-56.8181818181818,4,1,0,100,0,0
154060,-56.1797752808989,4,1,0,100,0,0
154135,-54.054054054054,4,1,0,100,0,1
168571,-54.054054054054,4,1,0,100,0,0
168910,-66.6666666666667,4,1,0,100,0,0
175225,-65.7894736842105,4,1,0,100,0,0
175282,-64.9350649350649,4,1,0,100,0,0
175338,-64.1025641025641,4,1,0,100,0,0
175395,-63.2911392405063,4,1,0,100,0,0
175451,-62.5,4,1,0,100,0,0
175507,-61.7283950617284,4,1,0,100,0,0
175564,-60.9756097560976,4,1,0,100,0,0
175677,-60.2409638554217,4,1,0,100,0,0
175789,-54.054054054054,4,1,0,100,0,1
188421,-54.054054054054,4,1,0,100,0,0
188477,-54.054054054054,4,1,0,70,0,0
190000,-50,4,1,0,100,0,0
190225,-54.054054054054,4,1,0,100,0,1
195639,-54.054054054054,4,1,0,100,0,0
195695,-54.054054054054,4,1,0,70,0,0
197443,-71.4285714285714,4,1,0,70,0,0
199248,-58.8235294117647,4,1,0,100,0,0
206466,-52.6315789473684,4,1,0,100,0,1
213684,-52.6315789473684,4,1,0,100,0,0
213910,-66.6666666666667,4,1,0,100,0,0
220902,-51.2820512820513,4,1,0,100,0,1
228120,-51.2820512820513,4,1,0,100,0,0
228459,-64.5161290322581,4,1,0,100,0,0
235338,-58.8235294117647,4,1,0,100,0,0
235677,-64.5161290322581,4,1,0,100,0,0
240301,-62.8930817610063,4,1,0,100,0,0
240376,-61.3496932515337,4,1,0,100,0,0
240451,-59.8802395209581,4,1,0,100,0,0
240526,-58.4795321637427,4,1,0,100,0,0
240601,-57.1428571428571,4,1,0,100,0,0
240677,-55.8659217877095,4,1,0,100,0,0
240752,-54.054054054054,4,1,0,100,0,1
246165,-54.054054054054,4,1,0,70,0,1
246222,-54.054054054054,4,1,0,70,0,0
247970,-66.6666666666667,4,1,0,70,0,0
249210,-64.5161290322581,4,1,0,70,0,0
249774,-58.8235294117647,4,1,0,100,0,0
256767,-58.1395348837209,4,1,0,100,0,0
256823,-57.4712643678161,4,1,0,100,0,0
256880,-56.8181818181818,4,1,0,100,0,0
256936,-56.1797752808989,4,1,0,100,0,0
256992,-55.5555555555556,4,1,0,100,0,0
264436,-54.054054054054,4,1,0,100,0,0
277857,-53.763440860215,4,1,0,100,0,0
278195,-53.475935828877,4,1,0,100,0,0
278308,-53.1914893617021,4,1,0,100,0,0
278534,-52.9100529100529,4,1,0,100,0,0
278646,-52.6315789473684,4,1,0,100,0,0
278872,-52.3560209424084,4,1,0,100,0,0
278985,-52.0833333333333,4,1,0,100,0,0
279210,-51.8134715025907,4,1,0,100,0,0
279323,-51.5463917525773,4,1,0,100,0,0
279549,-51.2820512820513,4,1,0,100,0,0
279662,-51.0204081632653,4,1,0,100,0,0
279774,-50.761421319797,4,1,0,100,0,0
279887,-50.761421319797,4,1,0,100,0,0
280000,-50.5050505050505,4,1,0,100,0,0
280451,-54.054054054054,4,1,0,100,0,0
286992,-53.763440860215,4,1,0,100,0,0
287068,-53.475935828877,4,1,0,100,0,0
287143,-53.1914893617021,4,1,0,100,0,0
287218,-52.9100529100529,4,1,0,100,0,0

[HitObjects]
256,192,28346,5,8,0:0:0:0:
256,192,29424,1,8,0:0:0:0:
256,192,30488,1,8,0:0:0:0:
256,192,31545,1,8,0:0:0:0:
256,192,32577,1,8,0:0:0:0:
256,192,33600,1,8,0:0:0:0:
256,192,34604,1,8,0:0:0:0:
256,192,35599,1,8,0:0:0:0:
256,192,36590,1,8,0:0:0:0:
256,192,37569,1,8,0:0:0:0:
256,192,38521,1,8,0:0:0:0:
256,192,39465,1,8,0:0:0:0:
256,192,40398,1,8,0:0:0:0:
256,192,41328,1,8,0:0:0:0:
256,192,42256,1,8,0:0:0:0:
256,192,42481,1,0,0:0:0:0:
256,192,42594,1,0,0:0:0:0:
256,192,42707,1,0,0:0:0:0:
256,192,42932,1,0,0:0:0:0:
256,192,43045,1,0,0:0:0:0:
256,192,43158,1,8,0:0:0:0:
256,192,43383,1,0,0:0:0:0:
256,192,43496,1,8,0:0:0:0:
256,192,43609,1,0,0:0:0:0:
256,192,43722,1,0,0:0:0:0:
256,192,43834,1,8,0:0:0:0:
256,192,44060,1,4,0:0:0:0:
256,192,44286,12,0,47669,0:0:0:0:
256,192,51278,5,0,0:0:0:0:
256,192,51616,1,8,0:0:0:0:
256,192,51842,1,0,0:0:0:0:
256,192,52068,1,8,0:0:0:0:
256,192,52293,1,0,0:0:0:0:
256,192,52406,1,8,0:0:0:0:
256,192,52631,1,0,0:0:0:0:
256,192,52857,1,8,0:0:0:0:
256,192,53083,1,0,0:0:0:0:
256,192,53308,1,8,0:0:0:0:
256,192,53421,1,0,0:0:0:0:
256,192,53646,1,8,0:0:0:0:
256,192,53872,1,0,0:0:0:0:
256,192,54098,1,0,0:0:0:0:
256,192,54210,1,8,0:0:0:0:
256,192,54436,1,0,0:0:0:0:
256,192,54662,1,8,0:0:0:0:
256,192,54887,5,0,0:0:0:0:
256,192,55113,1,0,0:0:0:0:
256,192,55225,1,0,0:0:0:0:
256,192,55338,1,0,0:0:0:0:
256,192,55564,1,0,0:0:0:0:
256,192,55677,1,0,0:0:0:0:
256,192,55789,1,0,0:0:0:0:
256,192,56015,1,0,0:0:0:0:
256,192,56128,1,0,0:0:0:0:
256,192,56240,1,0,0:0:0:0:
256,192,56353,1,0,0:0:0:0:
256,192,56466,1,0,0:0:0:0:
256,192,56579,1,0,0:0:0:0:
256,192,56692,1,0,0:0:0:0:
256,192,56748,1,0,0:0:0:0:
256,192,56804,1,0,0:0:0:0:
256,192,56861,1,0,0:0:0:0:
256,192,56917,1,8,0:0:0:0:
256,192,57030,1,8,0:0:0:0:
256,192,57143,1,0,0:0:0:0:
256,192,57199,1,0,0:0:0:0:
256,192,57255,1,0,0:0:0:0:
256,192,57312,1,0,0:0:0:0:
256,192,57368,1,8,0:0:0:0:
256,192,57481,1,8,0:0:0:0:
256,192,58158,1,0,0:0:0:0:
256,192,58271,1,8,0:0:0:0:
256,192,58496,1,4,0:0:0:0:
256,192,58722,1,8,0:0:0:0:
256,192,58834,1,0,0:0:0:0:
256,192,59060,1,8,0:0:0:0:
256,192,59173,1,8,0:0:0:0:
256,192,59286,1,0,0:0:0:0:
256,192,59511,1,0,0:0:0:0:
256,192,59624,1,8,0:0:0:0:
256,192,59849,1,8,0:0:0:0:
256,192,59962,1,0,0:0:0:0:
256,192,60075,1,0,0:0:0:0:
256,192,60188,1,8,0:0:0:0:
256,192,60413,1,8,0:0:0:0:
256,192,60526,1,0,0:0:0:0:
256,192,60639,1,0,0:0:0:0:
256,192,60752,1,8,0:0:0:0:
256,192,60808,1,8,0:0:0:0:
256,192,60865,1,8,0:0:0:0:
256,192,61090,1,0,0:0:0:0:
256,192,61316,1,0,0:0:0:0:
256,192,61428,1,8,0:0:0:0:
256,192,61541,1,0,0:0:0:0:
256,192,61654,1,0,0:0:0:0:
256,192,61880,1,8,0:0:0:0:
256,192,62105,1,4,0:0:0:0:
256,192,62331,1,8,0:0:0:0:
256,192,62443,1,0,0:0:0:0:
256,192,62669,1,8,0:0:0:0:
256,192,62782,1,0,0:0:0:0:
256,192,62895,1,8,0:0:0:0:
256,192,63120,1,0,0:0:0:0:
256,192,63233,1,8,0:0:0:0:
256,192,63346,1,0,0:0:0:0:
256,192,63459,1,8,0:0:0:0:
256,192,63571,1,0,0:0:0:0:
256,192,63684,1,0,0:0:0:0:
256,192,63797,1,8,0:0:0:0:
256,192,64022,1,8,0:0:0:0:
256,192,64135,1,0,0:0:0:0:
256,192,64248,1,0,0:0:0:0:
256,192,64474,1,8,0:0:0:0:
256,192,64586,1,8,0:0:0:0:
256,192,64699,1,0,0:0:0:0:
256,192,64925,1,0,0:0:0:0:
256,192,65037,1,8,0:0:0:0:
256,192,65150,1,0,0:0:0:0:
256,192,65263,1,8,0:0:0:0:
256,192,65376,1,0,0:0:0:0:
256,192,65489,1,8,0:0:0:0:
256,192,65545,1,8,0:0:0:0:
256,192,65601,1,8,0:0:0:0:
256,192,65714,1,4,0:0:0:0:
256,192,65940,1,0,0:0:0:0:
256,192,66052,1,12,0:0:0:0:
256,192,66278,1,8,0:0:0:0:
256,192,66391,1,8,0:0:0:0:
256,192,66588,1,8,0:0:0:0:
256,192,66729,1,0,0:0:0:0:
256,192,66842,1,8,0:0:0:0:
256,192,67068,1,0,0:0:0:0:
256,192,67180,1,0,0:0:0:0:
256,192,67293,1,0,0:0:0:0:
256,192,67406,1,8,0:0:0:0:
256,192,67631,1,8,0:0:0:0:
256,192,67744,1,0,0:0:0:0:
256,192,67857,1,0,0:0:0:0:
256,192,67970,1,8,0:0:0:0:
256,192,68026,1,8,0:0:0:0:
256,192,68083,1,8,0:0:0:0:
256,192,68308,1,8,0:0:0:0:
256,192,68421,1,0,0:0:0:0:
256,192,68646,1,8,0:0:0:0:
256,192,68759,1,8,0:0:0:0:
256,192,68872,1,8,0:0:0:0:
256,192,68985,1,0,0:0:0:0:
256,192,69098,1,8,0:0:0:0:
256,192,69323,1,4,0:0:0:0:
256,192,69549,1,0,0:0:0:0:
256,192,69662,1,12,0:0:0:0:
256,192,69887,1,8,0:0:0:0:
256,192,70000,1,0,0:0:0:0:
256,192,70113,1,8,0:0:0:0:
256,192,70225,1,8,0:0:0:0:
256,192,70338,1,0,0:0:0:0:
256,192,70451,1,8,0:0:0:0:
256,192,70564,1,8,0:0:0:0:
256,192,70677,1,4,0:0:0:0:
256,192,70902,1,0,0:0:0:0:
256,192,71015,1,12,0:0:0:0:
256,192,71240,1,0,0:0:0:0:
256,192,71353,1,8,0:0:0:0:
256,192,71466,1,8,0:0:0:0:
256,192,71579,1,0,0:0:0:0:
256,192,71635,1,0,0:0:0:0:
256,192,71692,1,8,0:0:0:0:
256,192,71804,1,8,0:0:0:0:
256,192,71917,1,4,0:0:0:0:
256,192,72255,1,8,0:0:0:0:
256,192,72481,1,8,0:0:0:0:
256,192,72707,1,8,0:0:0:0:
256,192,72932,1,4,0:0:0:0:
256,192,73158,1,0,0:0:0:0:
256,192,73271,1,12,0:0:0:0:
256,192,73496,1,8,0:0:0:0:
256,192,73722,1,0,0:0:0:0:
256,192,73834,1,8,0:0:0:0:
256,192,73947,1,0,0:0:0:0:
256,192,74060,1,8,0:0:0:0:
256,192,74173,1,8,0:0:0:0:
256,192,74286,1,0,0:0:0:0:
256,192,74398,1,0,0:0:0:0:
256,192,74511,1,8,0:0:0:0:
256,192,74624,1,0,0:0:0:0:
256,192,74737,1,8,0:0:0:0:
256,192,74962,1,8,0:0:0:0:
256,192,75188,1,0,0:0:0:0:
256,192,75301,1,8,0:0:0:0:
256,192,75413,1,8,0:0:0:0:
256,192,75470,1,8,0:0:0:0:
256,192,75526,1,8,0:0:0:0:
256,192,75639,1,0,0:0:0:0:
256,192,75752,1,0,0:0:0:0:
256,192,75865,1,8,0:0:0:0:
256,192,75977,1,0,0:0:0:0:
256,192,76090,1,0,0:0:0:0:
256,192,76316,1,8,0:0:0:0:
256,192,76372,1,8,0:0:0:0:
256,192,76428,1,8,0:0:0:0:
256,192,76485,1,8,0:0:0:0:
256,192,76541,1,4,0:0:0:0:
256,192,76767,1,0,0:0:0:0:
256,192,76880,1,12,0:0:0:0:
256,192,77105,1,8,0:0:0:0:
256,192,77218,1,0,0:0:0:0:
256,192,77331,1,8,0:0:0:0:
256,192,77443,1,0,0:0:0:0:
256,192,77556,1,8,0:0:0:0:
256,192,77669,1,8,0:0:0:0:
256,192,77895,1,8,0:0:0:0:
256,192,78007,1,0,0:0:0:0:
256,192,78120,1,0,0:0:0:0:
256,192,78233,1,8,0:0:0:0:
256,192,78289,1,8,0:0:0:0:
256,192,78346,1,0,0:0:0:0:
256,192,78459,1,8,0:0:0:0:
256,192,78571,1,0,0:0:0:0:
256,192,78684,1,8,0:0:0:0:
256,192,78910,1,0,0:0:0:0:
256,192,79022,1,8,0:0:0:0:
256,192,79135,1,8,0:0:0:0:
256,192,79248,1,0,0:0:0:0:
256,192,79304,1,8,0:0:0:0:
256,192,79361,1,0,0:0:0:0:
256,192,79474,1,8,0:0:0:0:
256,192,79586,1,8,0:0:0:0:
256,192,79643,1,8,0:0:0:0:
256,192,79699,1,0,0:0:0:0:
256,192,79812,1,8,0:0:0:0:
256,192,79925,1,8,0:0:0:0:
256,192,80000,1,8,0:0:0:0:
256,192,80075,1,8,0:0:0:0:
256,192,80150,1,4,0:0:0:0:
256,192,80376,1,0,0:0:0:0:
256,192,80489,1,8,0:0:0:0:
256,192,80714,1,8,0:0:0:0:
256,192,80940,1,0,0:0:0:0:
256,192,81052,1,8,0:0:0:0:
256,192,81165,1,8,0:0:0:0:
256,192,81222,1,8,0:0:0:0:
256,192,81278,1,8,0:0:0:0:
256,192,81391,1,0,0:0:0:0:
256,192,81504,1,8,0:0:0:0:
256,192,81729,1,8,0:0:0:0:
256,192,81842,1,8,0:0:0:0:
256,192,82068,1,8,0:0:0:0:
256,192,82124,1,8,0:0:0:0:
256,192,82180,1,8,0:0:0:0:
256,192,82293,1,0,0:0:0:0:
256,192,82406,1,8,0:0:0:0:
256,192,82519,1,0,0:0:0:0:
256,192,82631,1,0,0:0:0:0:
256,192,82744,1,8,0:0:0:0:
256,192,82970,1,8,0:0:0:0:
256,192,83083,1,8,0:0:0:0:
256,192,83195,1,0,0:0:0:0:
256,192,83308,1,0,0:0:0:0:
256,192,83421,1,0,0:0:0:0:
256,192,83534,1,8,0:0:0:0:
256,192,83609,1,8,0:0:0:0:
256,192,83684,1,8,0:0:0:0:
256,192,83759,1,4,0:0:0:0:
256,192,83985,1,0,0:0:0:0:
256,192,84098,1,12,0:0:0:0:
256,192,84323,1,8,0:0:0:0:
256,192,84436,1,0,0:0:0:0:
256,192,84549,1,8,0:0:0:0:
256,192,84662,1,8,0:0:0:0:
256,192,84887,1,8,0:0:0:0:
256,192,85000,1,8,0:0:0:0:
256,192,85113,1,4,0:0:0:0:
256,192,85338,1,0,0:0:0:0:
256,192,85451,1,12,0:0:0:0:
256,192,85677,1,0,0:0:0:0:
256,192,85789,1,8,0:0:0:0:
256,192,85902,1,8,0:0:0:0:
256,192,86015,1,0,0:0:0:0:
256,192,86128,1,8,0:0:0:0:
256,192,86184,1,0,0:0:0:0:
256,192,86240,1,8,0:0:0:0:
256,192,86353,1,4,0:0:0:0:
256,192,86579,1,0,0:0:0:0:
256,192,86692,1,0,0:0:0:0:
256,192,86917,1,0,0:0:0:0:
256,192,87030,1,0,0:0:0:0:
256,192,87255,1,0,0:0:0:0:
256,192,87368,1,0,0:0:0:0:
256,192,87594,1,0,0:0:0:0:
256,192,87707,1,0,0:0:0:0:
256,192,87932,1,0,0:0:0:0:
256,192,88045,1,0,0:0:0:0:
256,192,88271,1,0,0:0:0:0:
256,192,88383,1,0,0:0:0:0:
256,192,88496,1,8,0:0:0:0:
256,192,88609,1,0,0:0:0:0:
256,192,88722,1,8,0:0:0:0:
256,192,89173,1,4,0:0:0:0:
256,192,89398,12,0,92782,0:0:0:0:
256,192,96391,5,8,0:0:0:0:
256,192,96729,1,8,0:0:0:0:
256,192,96842,1,0,0:0:0:0:
256,192,97068,1,0,0:0:0:0:
256,192,97406,1,0,0:0:0:0:
256,192,97519,1,8,0:0:0:0:
256,192,97744,1,0,0:0:0:0:
256,192,97970,1,8,0:0:0:0:
256,192,98195,1,0,0:0:0:0:
256,192,98421,1,0,0:0:0:0:
256,192,98534,1,8,0:0:0:0:
256,192,98646,1,8,0:0:0:0:
256,192,98872,1,8,0:0:0:0:
256,192,98985,1,0,0:0:0:0:
256,192,99210,1,0,0:0:0:0:
256,192,99323,1,8,0:0:0:0:
256,192,99549,1,0,0:0:0:0:
256,192,99774,1,8,0:0:0:0:
256,192,99887,1,0,0:0:0:0:
256,192,100000,5,8,0:0:0:0:
256,192,100225,1,8,0:0:0:0:
256,192,100451,1,8,0:0:0:0:
256,192,100677,1,8,0:0:0:0:
256,192,100902,1,8,0:0:0:0:
256,192,101128,1,8,0:0:0:0:
256,192,101353,1,8,0:0:0:0:
256,192,101579,1,8,0:0:0:0:
256,192,101804,1,0,0:0:0:0:
256,192,101917,1,0,0:0:0:0:
256,192,102030,1,0,0:0:0:0:
256,192,102255,1,0,0:0:0:0:
256,192,102368,1,0,0:0:0:0:
256,192,102481,1,0,0:0:0:0:
256,192,102594,1,0,0:0:0:0:
256,192,102707,1,8,0:0:0:0:
256,192,103271,1,0,0:0:0:0:
256,192,103383,1,8,0:0:0:0:
256,192,103609,1,4,0:0:0:0:
256,192,103834,1,8,0:0:0:0:
256,192,103947,1,0,0:0:0:0:
256,192,104060,1,8,0:0:0:0:
256,192,104173,1,0,0:0:0:0:
256,192,104286,1,8,0:0:0:0:
256,192,104511,1,0,0:0:0:0:
256,192,104624,1,0,0:0:0:0:
256,192,104737,1,8,0:0:0:0:
256,192,104849,1,0,0:0:0:0:
256,192,104906,1,0,0:0:0:0:
256,192,104962,1,8,0:0:0:0:
256,192,105075,1,0,0:0:0:0:
256,192,105188,1,8,0:0:0:0:
256,192,105413,1,0,0:0:0:0:
256,192,105526,1,0,0:0:0:0:
256,192,105639,1,8,0:0:0:0:
256,192,105752,1,0,0:0:0:0:
256,192,105865,1,8,0:0:0:0:
256,192,105977,1,0,0:0:0:0:
256,192,106090,1,8,0:0:0:0:
256,192,106316,1,0,0:0:0:0:
256,192,106428,1,0,0:0:0:0:
256,192,106541,1,8,0:0:0:0:
256,192,106654,1,0,0:0:0:0:
256,192,106710,1,0,0:0:0:0:
256,192,106767,1,8,0:0:0:0:
256,192,106880,1,0,0:0:0:0:
256,192,106992,1,8,0:0:0:0:
256,192,107218,1,0,0:0:0:0:
256,192,107331,1,0,0:0:0:0:
256,192,107443,1,8,0:0:0:0:
256,192,107556,1,8,0:0:0:0:
256,192,107669,1,8,0:0:0:0:
256,192,107782,1,0,0:0:0:0:
256,192,107895,1,8,0:0:0:0:
256,192,108120,1,8,0:0:0:0:
256,192,108233,1,0,0:0:0:0:
256,192,108346,1,8,0:0:0:0:
256,192,108459,1,8,0:0:0:0:
256,192,108515,1,8,0:0:0:0:
256,192,108571,1,0,0:0:0:0:
256,192,108684,1,0,0:0:0:0:
256,192,108797,1,8,0:0:0:0:
256,192,109022,1,0,0:0:0:0:
256,192,109135,1,8,0:0:0:0:
256,192,109248,1,8,0:0:0:0:
256,192,109361,1,0,0:0:0:0:
256,192,109474,1,8,0:0:0:0:
256,192,109699,1,0,0:0:0:0:
256,192,109812,1,0,0:0:0:0:
256,192,109925,1,0,0:0:0:0:
256,192,110037,1,8,0:0:0:0:
256,192,110094,1,8,0:0:0:0:
256,192,110150,1,0,0:0:0:0:
256,192,110263,1,8,0:0:0:0:
256,192,110319,1,8,0:0:0:0:
256,192,110376,1,0,0:0:0:0:
256,192,110489,1,8,0:0:0:0:
256,192,110601,1,0,0:0:0:0:
256,192,110714,1,8,0:0:0:0:
256,192,110827,1,0,0:0:0:0:
256,192,111052,1,0,0:0:0:0:
256,192,111165,1,8,0:0:0:0:
256,192,111278,1,0,0:0:0:0:
256,192,111391,1,0,0:0:0:0:
256,192,111504,1,8,0:0:0:0:
256,192,111729,1,0,0:0:0:0:
256,192,111842,1,8,0:0:0:0:
256,192,111955,1,0,0:0:0:0:
256,192,112068,1,8,0:0:0:0:
256,192,112180,1,0,0:0:0:0:
256,192,112237,1,0,0:0:0:0:
256,192,112293,1,8,0:0:0:0:
256,192,112406,1,0,0:0:0:0:
256,192,112631,1,0,0:0:0:0:
256,192,112707,1,0,0:0:0:0:
256,192,112782,1,0,0:0:0:0:
256,192,112857,1,8,0:0:0:0:
256,192,112970,1,0,0:0:0:0:
256,192,113083,1,8,0:0:0:0:
256,192,113308,1,8,0:0:0:0:
256,192,113421,1,8,0:0:0:0:
256,192,113534,1,0,0:0:0:0:
256,192,113646,1,8,0:0:0:0:
256,192,113759,1,0,0:0:0:0:
256,192,113872,1,8,0:0:0:0:
256,192,113985,1,0,0:0:0:0:
256,192,114210,1,0,0:0:0:0:
256,192,114323,1,8,0:0:0:0:
256,192,114436,1,0,0:0:0:0:
256,192,114662,1,0,0:0:0:0:
256,192,114774,1,0,0:0:0:0:
256,192,114887,1,8,0:0:0:0:
256,192,115000,1,0,0:0:0:0:
256,192,115113,1,8,0:0:0:0:
256,192,115225,1,8,0:0:0:0:
256,192,115282,1,8,0:0:0:0:
256,192,115338,1,0,0:0:0:0:
256,192,115564,1,8,0:0:0:0:
256,192,115639,1,8,0:0:0:0:
256,192,115714,1,8,0:0:0:0:
256,192,115789,1,0,0:0:0:0:
256,192,115902,1,0,0:0:0:0:
256,192,116015,1,0,0:0:0:0:
256,192,116128,1,8,0:0:0:0:
256,192,116353,1,0,0:0:0:0:
256,192,116466,1,0,0:0:0:0:
256,192,116579,1,0,0:0:0:0:
256,192,116635,1,0,0:0:0:0:
256,192,116692,1,8,0:0:0:0:
256,192,116804,1,8,0:0:0:0:
256,192,116917,1,0,0:0:0:0:
256,192,117030,1,8,0:0:0:0:
256,192,117086,1,8,0:0:0:0:
256,192,117143,1,0,0:0:0:0:
256,192,117255,1,8,0:0:0:0:
256,192,117368,1,0,0:0:0:0:
256,192,117481,1,8,0:0:0:0:
256,192,117594,1,0,0:0:0:0:
256,192,117707,1,8,0:0:0:0:
256,192,118045,1,4,0:0:0:0:
256,192,118271,1,8,0:0:0:0:
256,192,118383,1,0,0:0:0:0:
256,192,118609,1,8,0:0:0:0:
256,192,118722,1,8,0:0:0:0:
256,192,118834,1,0,0:0:0:0:
256,192,118947,1,0,0:0:0:0:
256,192,119060,1,0,0:0:0:0:
256,192,119173,1,8,0:0:0:0:
256,192,119398,1,0,0:0:0:0:
256,192,119568,1,8,0:0:0:0:
256,192,119737,1,8,0:0:0:0:
256,192,119849,1,0,0:0:0:0:
256,192,119962,1,8,0:0:0:0:
256,192,120075,1,0,0:0:0:0:
256,192,120188,1,8,0:0:0:0:
256,192,120244,1,8,0:0:0:0:
256,192,120301,1,0,0:0:0:0:
256,192,120526,1,8,0:0:0:0:
256,192,120639,1,0,0:0:0:0:
256,192,120752,1,8,0:0:0:0:
256,192,120865,1,0,0:0:0:0:
256,192,120921,1,0,0:0:0:0:
256,192,120977,1,8,0:0:0:0:
256,192,121090,1,8,0:0:0:0:
256,192,121203,1,0,0:0:0:0:
256,192,121428,1,8,0:0:0:0:
256,192,121485,1,8,0:0:0:0:
256,192,121541,1,8,0:0:0:0:
256,192,121654,1,4,0:0:0:0:
256,192,121880,1,0,0:0:0:0:
256,192,121992,1,8,0:0:0:0:
256,192,122105,1,0,0:0:0:0:
256,192,122218,1,8,0:0:0:0:
256,192,122274,1,8,0:0:0:0:
256,192,122331,1,0,0:0:0:0:
256,192,122443,1,8,0:0:0:0:
256,192,122556,1,0,0:0:0:0:
256,192,122782,1,0,0:0:0:0:
256,192,122895,1,8,0:0:0:0:
256,192,123007,1,8,0:0:0:0:
256,192,123120,1,0,0:0:0:0:
256,192,123233,1,0,0:0:0:0:
256,192,123346,1,8,0:0:0:0:
256,192,123459,1,0,0:0:0:0:
256,192,123684,1,8,0:0:0:0:
256,192,123797,1,8,0:0:0:0:
256,192,123910,1,0,0:0:0:0:
256,192,124022,1,8,0:0:0:0:
256,192,124079,1,8,0:0:0:0:
256,192,124135,1,0,0:0:0:0:
256,192,124248,1,8,0:0:0:0:
256,192,124361,1,0,0:0:0:0:
256,192,124586,1,8,0:0:0:0:
256,192,124699,1,0,0:0:0:0:
256,192,124812,1,0,0:0:0:0:
256,192,124868,1,0,0:0:0:0:
256,192,124925,1,8,0:0:0:0:
256,192,125037,1,0,0:0:0:0:
256,192,125150,1,8,0:0:0:0:
256,192,125263,1,0,0:0:0:0:
256,192,125432,1,0,0:0:0:0:
256,192,125601,1,0,0:0:0:0:
256,192,125771,1,8,0:0:0:0:
256,192,125940,1,8,0:0:0:0:
256,192,125996,1,8,0:0:0:0:
256,192,126052,1,8,0:0:0:0:
256,192,126109,1,8,0:0:0:0:
256,192,126165,1,0,0:0:0:0:
256,192,126278,1,0,0:0:0:0:
256,192,126391,1,0,0:0:0:0:
256,192,126504,1,8,0:0:0:0:
256,192,126560,1,0,0:0:0:0:
256,192,126616,1,8,0:0:0:0:
256,192,126842,1,8,0:0:0:0:
256,192,126955,1,0,0:0:0:0:
256,192,127068,1,8,0:0:0:0:
256,192,127180,1,4,0:0:0:0:
256,192,127406,1,8,0:0:0:0:
256,192,127519,1,4,0:0:0:0:
256,192,127744,1,8,0:0:0:0:
256,192,127857,1,8,0:0:0:0:
256,192,127913,1,8,0:0:0:0:
256,192,127970,1,8,0:0:0:0:
256,192,128083,1,0,0:0:0:0:
256,192,128195,1,0,0:0:0:0:
256,192,128308,1,8,0:0:0:0:
256,192,128421,1,8,0:0:0:0:
256,192,128534,1,0,0:0:0:0:
256,192,128759,1,8,0:0:0:0:
256,192,128816,1,8,0:0:0:0:
256,192,128872,1,8,0:0:0:0:
256,192,129098,1,0,0:0:0:0:
256,192,129210,1,8,0:0:0:0:
256,192,129323,1,0,0:0:0:0:
256,192,129436,1,8,0:0:0:0:
256,192,129549,1,0,0:0:0:0:
256,192,129624,1,0,0:0:0:0:
256,192,129699,1,0,0:0:0:0:
256,192,129774,1,0,0:0:0:0:
256,192,130000,1,8,0:0:0:0:
256,192,130075,1,8,0:0:0:0:
256,192,130150,1,8,0:0:0:0:
256,192,130225,1,0,0:0:0:0:
256,192,130338,1,8,0:0:0:0:
256,192,130451,1,0,0:0:0:0:
256,192,130564,1,8,0:0:0:0:
256,192,130677,1,0,0:0:0:0:
256,192,130789,1,0,0:0:0:0:
256,192,130846,1,0,0:0:0:0:
256,192,130902,1,8,0:0:0:0:
256,192,131015,1,8,0:0:0:0:
256,192,131128,1,0,0:0:0:0:
256,192,131184,1,0,0:0:0:0:
256,192,131240,1,8,0:0:0:0:
256,192,131297,1,8,0:0:0:0:
256,192,131353,1,0,0:0:0:0:
256,192,131466,1,8,0:0:0:0:
256,192,131579,1,0,0:0:0:0:
256,192,132481,1,4,0:0:0:0:
256,192,134286,1,0,0:0:0:0:
256,192,136090,1,0,0:0:0:0:
256,192,137895,1,0,0:0:0:0:
256,192,138571,1,0,0:0:0:0:
256,192,138684,1,8,0:0:0:0:
256,192,138797,1,8,0:0:0:0:
256,192,139248,1,8,0:0:0:0:
256,192,139699,1,0,0:0:0:0:
256,192,141504,1,0,0:0:0:0:
256,192,143308,1,0,0:0:0:0:
256,192,145113,1,0,0:0:0:0:
256,192,146917,1,8,0:0:0:0:
256,192,147255,1,8,0:0:0:0:
256,192,147368,1,0,0:0:0:0:
256,192,147594,1,8,0:0:0:0:
256,192,147819,1,0,0:0:0:0:
256,192,147932,1,8,0:0:0:0:
256,192,148158,1,0,0:0:0:0:
256,192,148271,1,8,0:0:0:0:
256,192,148496,1,0,0:0:0:0:
256,192,148722,1,8,0:0:0:0:
256,192,149060,1,8,0:0:0:0:
256,192,149173,1,0,0:0:0:0:
256,192,149398,1,8,0:0:0:0:
256,192,149624,1,0,0:0:0:0:
256,192,149737,1,8,0:0:0:0:
256,192,149962,1,8,0:0:0:0:
256,192,150075,1,0,0:0:0:0:
256,192,150301,1,8,0:0:0:0:
256,192,150413,1,0,0:0:0:0:
256,192,150526,1,8,0:0:0:0:
256,192,150583,1,8,0:0:0:0:
256,192,150639,1,0,0:0:0:0:
256,192,150752,1,8,0:0:0:0:
256,192,150865,1,0,0:0:0:0:
256,192,150977,1,8,0:0:0:0:
256,192,151034,1,0,0:0:0:0:
256,192,151090,1,8,0:0:0:0:
256,192,151203,1,8,0:0:0:0:
256,192,151316,1,0,0:0:0:0:
256,192,151428,1,0,0:0:0:0:
256,192,151485,1,0,0:0:0:0:
256,192,151541,1,8,0:0:0:0:
256,192,151654,1,0,0:0:0:0:
256,192,151767,1,8,0:0:0:0:
256,192,151880,1,8,0:0:0:0:
256,192,151936,1,8,0:0:0:0:
256,192,151992,1,0,0:0:0:0:
256,192,152105,1,8,0:0:0:0:
256,192,152162,1,8,0:0:0:0:
256,192,152218,1,8,0:0:0:0:
256,192,152274,1,8,0:0:0:0:
256,192,152331,1,0,0:0:0:0:
256,192,153571,1,0,0:0:0:0:
256,192,153684,1,8,0:0:0:0:
256,192,153797,1,0,0:0:0:0:
256,192,153910,1,8,0:0:0:0:
256,192,154022,1,8,0:0:0:0:
256,192,154135,1,4,0:0:0:0:
256,192,154361,1,0,0:0:0:0:
256,192,154474,1,8,0:0:0:0:
256,192,154586,1,0,0:0:0:0:
256,192,154699,1,0,0:0:0:0:
256,192,154812,1,8,0:0:0:0:
256,192,154925,1,8,0:0:0:0:
256,192,155037,1,0,0:0:0:0:
256,192,155263,1,0,0:0:0:0:
256,192,155376,1,8,0:0:0:0:
256,192,155432,1,8,0:0:0:0:
256,192,155489,1,0,0:0:0:0:
256,192,155601,1,8,0:0:0:0:
256,192,155714,1,0,0:0:0:0:
256,192,155827,1,8,0:0:0:0:
256,192,155940,1,0,0:0:0:0:
256,192,156165,1,8,0:0:0:0:
256,192,156278,1,8,0:0:0:0:
256,192,156391,1,0,0:0:0:0:
256,192,156504,1,8,0:0:0:0:
256,192,156616,1,0,0:0:0:0:
256,192,156673,1,0,0:0:0:0:
256,192,156729,1,8,0:0:0:0:
256,192,156842,1,0,0:0:0:0:
256,192,157068,1,0,0:0:0:0:
256,192,157180,1,8,0:0:0:0:
256,192,157293,1,8,0:0:0:0:
256,192,157406,1,8,0:0:0:0:
256,192,157519,1,0,0:0:0:0:
256,192,157631,1,8,0:0:0:0:
256,192,157744,1,0,0:0:0:0:
256,192,157970,1,0,0:0:0:0:
256,192,158083,1,8,0:0:0:0:
256,192,158195,1,0,0:0:0:0:
256,192,158308,1,8,0:0:0:0:
256,192,158365,1,8,0:0:0:0:
256,192,158421,1,0,0:0:0:0:
256,192,158534,1,8,0:0:0:0:
256,192,158646,1,0,0:0:0:0:
256,192,158872,1,0,0:0:0:0:
256,192,158985,1,8,0:0:0:0:
256,192,159098,1,0,0:0:0:0:
256,192,159210,1,0,0:0:0:0:
256,192,159267,1,0,0:0:0:0:
256,192,159323,1,8,0:0:0:0:
256,192,159436,1,8,0:0:0:0:
256,192,159549,1,8,0:0:0:0:
256,192,159662,1,0,0:0:0:0:
256,192,159774,1,0,0:0:0:0:
256,192,159887,1,8,0:0:0:0:
256,192,160000,1,0,0:0:0:0:
256,192,160113,1,0,0:0:0:0:
256,192,160225,1,8,0:0:0:0:
256,192,160338,1,8,0:0:0:0:
256,192,160451,1,0,0:0:0:0:
256,192,160677,1,0,0:0:0:0:
256,192,160789,1,8,0:0:0:0:
256,192,160902,1,8,0:0:0:0:
256,192,161015,1,0,0:0:0:0:
256,192,161128,1,8,0:0:0:0:
256,192,161353,1,0,0:0:0:0:
256,192,161466,1,0,0:0:0:0:
256,192,161579,1,8,0:0:0:0:
256,192,161692,1,0,0:0:0:0:
256,192,161804,1,8,0:0:0:0:
256,192,162030,1,8,0:0:0:0:
256,192,162143,1,0,0:0:0:0:
256,192,162255,1,8,0:0:0:0:
256,192,162368,1,0,0:0:0:0:
256,192,162425,1,0,0:0:0:0:
256,192,162481,1,8,0:0:0:0:
256,192,162594,1,0,0:0:0:0:
256,192,162707,1,8,0:0:0:0:
256,192,162819,1,8,0:0:0:0:
256,192,162932,1,0,0:0:0:0:
256,192,163045,1,8,0:0:0:0:
256,192,163158,1,0,0:0:0:0:
256,192,163383,1,8,0:0:0:0:
256,192,163496,1,0,0:0:0:0:
256,192,163609,1,8,0:0:0:0:
256,192,163722,1,0,0:0:0:0:
256,192,163778,1,0,0:0:0:0:
256,192,163834,1,8,0:0:0:0:
256,192,163947,1,8,0:0:0:0:
256,192,164060,1,0,0:0:0:0:
256,192,164173,1,0,0:0:0:0:
256,192,164286,1,0,0:0:0:0:
256,192,164398,1,8,0:0:0:0:
256,192,164624,1,0,0:0:0:0:
256,192,164737,1,8,0:0:0:0:
256,192,164849,1,8,0:0:0:0:
256,192,164962,1,0,0:0:0:0:
256,192,165075,1,0,0:0:0:0:
256,192,165188,1,0,0:0:0:0:
256,192,165413,1,8,0:0:0:0:
256,192,165526,1,0,0:0:0:0:
256,192,165639,1,8,0:0:0:0:
256,192,165865,1,0,0:0:0:0:
256,192,165977,1,0,0:0:0:0:
256,192,166090,1,0,0:0:0:0:
256,192,166316,1,8,0:0:0:0:
256,192,166372,1,0,0:0:0:0:
256,192,166428,1,8,0:0:0:0:
256,192,166541,1,8,0:0:0:0:
256,192,166654,1,0,0:0:0:0:
256,192,166767,1,8,0:0:0:0:
256,192,166880,1,0,0:0:0:0:
256,192,166936,1,0,0:0:0:0:
256,192,166992,1,0,0:0:0:0:
256,192,167105,1,0,0:0:0:0:
256,192,167218,1,8,0:0:0:0:
256,192,167443,1,8,0:0:0:0:
256,192,167556,1,0,0:0:0:0:
256,192,167669,1,8,0:0:0:0:
256,192,167895,1,0,0:0:0:0:
256,192,167951,1,0,0:0:0:0:
256,192,168007,1,8,0:0:0:0:
256,192,168233,1,0,0:0:0:0:
256,192,168289,1,0,0:0:0:0:
256,192,168346,1,8,0:0:0:0:
256,192,168402,1,8,0:0:0:0:
256,192,168459,1,0,0:0:0:0:
256,192,168571,1,4,0:0:0:0:
256,192,168910,1,8,0:0:0:0:
256,192,169022,1,0,0:0:0:0:
256,192,169248,1,8,0:0:0:0:
256,192,169361,1,8,0:0:0:0:
256,192,169474,1,0,0:0:0:0:
256,192,169586,1,8,0:0:0:0:
256,192,169812,1,8,0:0:0:0:
256,192,169925,1,0,0:0:0:0:
256,192,170150,1,8,0:0:0:0:
256,192,170263,1,8,0:0:0:0:
256,192,170376,1,0,0:0:0:0:
256,192,170714,1,8,0:0:0:0:
256,192,170827,1,0,0:0:0:0:
256,192,171052,1,8,0:0:0:0:
256,192,171165,1,8,0:0:0:0:
256,192,171278,1,0,0:0:0:0:
256,192,171391,1,8,0:0:0:0:
256,192,171616,1,8,0:0:0:0:
256,192,171729,1,0,0:0:0:0:
256,192,171955,1,0,0:0:0:0:
256,192,172068,1,8,0:0:0:0:
256,192,172180,1,0,0:0:0:0:
256,192,172519,1,8,0:0:0:0:
256,192,172631,1,0,0:0:0:0:
256,192,172857,1,8,0:0:0:0:
256,192,172970,1,8,0:0:0:0:
256,192,173083,1,0,0:0:0:0:
256,192,173195,1,8,0:0:0:0:
256,192,173421,1,8,0:0:0:0:
256,192,173534,1,0,0:0:0:0:
256,192,173759,1,8,0:0:0:0:
256,192,173872,1,8,0:0:0:0:
256,192,173985,1,0,0:0:0:0:
256,192,174323,1,8,0:0:0:0:
256,192,174436,1,0,0:0:0:0:
256,192,174662,1,8,0:0:0:0:
256,192,174774,1,8,0:0:0:0:
256,192,174887,1,0,0:0:0:0:
256,192,175225,1,8,0:0:0:0:
256,192,175282,1,8,0:0:0:0:
256,192,175338,1,0,0:0:0:0:
256,192,175395,1,0,0:0:0:0:
256,192,175451,1,0,0:0:0:0:
256,192,175564,1,8,0:0:0:0:
256,192,175789,1,4,0:0:0:0:
256,192,176015,1,8,0:0:0:0:
256,192,176128,1,0,0:0:0:0:
256,192,176240,1,8,0:0:0:0:
256,192,176353,1,0,0:0:0:0:
256,192,176410,1,0,0:0:0:0:
256,192,176466,1,8,0:0:0:0:
256,192,176579,1,0,0:0:0:0:
256,192,176692,1,8,0:0:0:0:
256,192,176917,1,8,0:0:0:0:
256,192,177030,1,0,0:0:0:0:
256,192,177143,1,8,0:0:0:0:
256,192,177255,1,8,0:0:0:0:
256,192,177368,1,0,0:0:0:0:
256,192,177481,1,8,0:0:0:0:
256,192,177594,1,0,0:0:0:0:
256,192,177819,1,8,0:0:0:0:
256,192,177932,1,0,0:0:0:0:
256,192,177989,1,8,0:0:0:0:
256,192,178045,1,0,0:0:0:0:
256,192,178158,1,0,0:0:0:0:
256,192,178271,1,8,0:0:0:0:
256,192,178383,1,8,0:0:0:0:
256,192,178496,1,0,0:0:0:0:
256,192,178609,1,0,0:0:0:0:
256,192,178722,1,0,0:0:0:0:
256,192,178834,1,8,0:0:0:0:
256,192,178891,1,0,0:0:0:0:
256,192,178947,1,8,0:0:0:0:
256,192,179060,1,0,0:0:0:0:
256,192,179173,1,8,0:0:0:0:
256,192,179398,1,0,0:0:0:0:
256,192,179455,1,0,0:0:0:0:
256,192,179511,1,0,0:0:0:0:
256,192,179624,1,12,0:0:0:0:
256,192,179737,1,8,0:0:0:0:
256,192,179849,1,0,0:0:0:0:
256,192,180075,1,8,0:0:0:0:
256,192,180188,1,8,0:0:0:0:
256,192,180301,1,0,0:0:0:0:
256,192,180413,1,0,0:0:0:0:
256,192,180526,1,12,0:0:0:0:
256,192,180639,1,8,0:0:0:0:
256,192,180752,1,0,0:0:0:0:
256,192,180977,1,0,0:0:0:0:
256,192,181090,1,8,0:0:0:0:
256,192,181203,1,0,0:0:0:0:
256,192,181259,1,0,0:0:0:0:
256,192,181316,1,0,0:0:0:0:
256,192,181428,1,8,0:0:0:0:
256,192,181541,1,8,0:0:0:0:
256,192,181654,1,0,0:0:0:0:
256,192,181767,1,0,0:0:0:0:
256,192,181880,1,8,0:0:0:0:
256,192,182105,1,0,0:0:0:0:
256,192,182331,1,8,0:0:0:0:
256,192,182387,1,8,0:0:0:0:
256,192,182443,1,8,0:0:0:0:
256,192,182556,1,0,0:0:0:0:
256,192,182707,5,0,0:0:0:0:
256,192,182782,1,0,0:0:0:0:
256,192,182932,1,0,0:0:0:0:
256,192,183007,1,8,0:0:0:0:
256,192,183233,1,8,0:0:0:0:
256,192,183346,1,0,0:0:0:0:
256,192,183459,1,8,0:0:0:0:
256,192,183571,1,0,0:0:0:0:
256,192,183684,1,8,0:0:0:0:
256,192,183797,1,0,0:0:0:0:
256,192,183910,1,0,0:0:0:0:
256,192,184022,1,8,0:0:0:0:
256,192,184248,1,8,0:0:0:0:
256,192,184361,1,0,0:0:0:0:
256,192,184474,1,8,0:0:0:0:
256,192,184586,1,0,0:0:0:0:
256,192,184643,1,0,0:0:0:0:
256,192,184699,1,0,0:0:0:0:
256,192,184812,1,8,0:0:0:0:
256,192,184925,1,0,0:0:0:0:
256,192,185037,1,8,0:0:0:0:
256,192,185150,1,0,0:0:0:0:
256,192,185263,1,8,0:0:0:0:
256,192,185376,1,0,0:0:0:0:
256,192,185601,1,8,0:0:0:0:
256,192,185714,1,0,0:0:0:0:
256,192,185827,1,8,0:0:0:0:
256,192,185940,1,0,0:0:0:0:
256,192,186052,1,8,0:0:0:0:
256,192,186165,1,4,0:0:0:0:
256,192,186278,1,4,0:0:0:0:
256,192,186616,1,0,0:0:0:0:
256,192,186729,1,0,0:0:0:0:
256,192,186842,1,8,0:0:0:0:
256,192,186955,1,0,0:0:0:0:
256,192,187068,1,8,0:0:0:0:
256,192,187180,1,0,0:0:0:0:
256,192,187293,1,8,0:0:0:0:
256,192,187406,1,0,0:0:0:0:
256,192,187462,1,0,0:0:0:0:
256,192,187519,1,0,0:0:0:0:
256,192,187631,1,8,0:0:0:0:
256,192,187857,1,8,0:0:0:0:
256,192,187970,1,0,0:0:0:0:
256,192,188083,1,8,0:0:0:0:
256,192,188195,1,0,0:0:0:0:
256,192,188308,1,8,0:0:0:0:
256,192,188421,5,0,0:0:0:0:
256,192,188534,12,0,189775,0:0:0:0:
256,192,190000,5,12,0:0:0:0:
256,192,190225,1,8,0:0:0:0:
256,192,190338,1,0,0:0:0:0:
256,192,190451,1,8,0:0:0:0:
256,192,190563,1,0,0:0:0:0:
256,192,190676,1,8,0:0:0:0:
256,192,190789,1,0,0:0:0:0:
256,192,190846,1,0,0:0:0:0:
256,192,190902,1,0,0:0:0:0:
256,192,191014,1,8,0:0:0:0:
256,192,191240,1,8,0:0:0:0:
256,192,191353,1,0,0:0:0:0:
256,192,191466,1,8,0:0:0:0:
256,192,191578,1,0,0:0:0:0:
256,192,191635,1,0,0:0:0:0:
256,192,191691,1,0,0:0:0:0:
256,192,191804,1,8,0:0:0:0:
256,192,191917,1,0,0:0:0:0:
256,192,192029,1,8,0:0:0:0:
256,192,192142,1,0,0:0:0:0:
256,192,192255,1,8,0:0:0:0:
256,192,192368,1,0,0:0:0:0:
256,192,192593,1,8,0:0:0:0:
256,192,192706,1,0,0:0:0:0:
256,192,192819,1,8,0:0:0:0:
256,192,192932,1,0,0:0:0:0:
256,192,193044,1,8,0:0:0:0:
256,192,193157,1,0,0:0:0:0:
256,192,193270,1,8,0:0:0:0:
256,192,193383,1,4,0:0:0:0:
256,192,193496,1,4,0:0:0:0:
256,192,193834,1,0,0:0:0:0:
256,192,193947,1,0,0:0:0:0:
256,192,194060,1,8,0:0:0:0:
256,192,194173,1,0,0:0:0:0:
256,192,194286,1,8,0:0:0:0:
256,192,194398,1,0,0:0:0:0:
256,192,194511,1,8,0:0:0:0:
256,192,194624,1,0,0:0:0:0:
256,192,194680,1,0,0:0:0:0:
256,192,194737,1,0,0:0:0:0:
256,192,194849,1,8,0:0:0:0:
256,192,195075,1,8,0:0:0:0:
256,192,195188,1,0,0:0:0:0:
256,192,195301,1,8,0:0:0:0:
256,192,195413,1,0,0:0:0:0:
256,192,195526,1,8,0:0:0:0:
256,192,195639,5,0,0:0:0:0:
256,192,195752,12,0,198797,0:0:0:0:
256,192,199248,5,4,0:0:0:0:
256,192,199586,1,8,0:0:0:0:
256,192,199699,1,0,0:0:0:0:
256,192,199812,1,0,0:0:0:0:
256,192,199925,1,0,0:0:0:0:
256,192,200150,1,8,0:0:0:0:
256,192,200263,1,0,0:0:0:0:
256,192,200319,1,0,0:0:0:0:
256,192,200376,1,8,0:0:0:0:
256,192,200489,1,0,0:0:0:0:
256,192,200601,1,8,0:0:0:0:
256,192,200827,1,8,0:0:0:0:
256,192,200940,1,8,0:0:0:0:
256,192,201052,1,0,0:0:0:0:
256,192,201278,1,8,0:0:0:0:
256,192,201391,1,0,0:0:0:0:
256,192,201447,1,0,0:0:0:0:
256,192,201504,1,8,0:0:0:0:
256,192,201616,1,8,0:0:0:0:
256,192,201673,1,8,0:0:0:0:
256,192,201729,1,0,0:0:0:0:
256,192,201842,1,8,0:0:0:0:
256,192,201955,1,0,0:0:0:0:
256,192,202011,1,0,0:0:0:0:
256,192,202068,1,0,0:0:0:0:
256,192,202180,1,0,0:0:0:0:
256,192,202293,1,8,0:0:0:0:
256,192,202519,1,0,0:0:0:0:
256,192,202631,1,8,0:0:0:0:
256,192,202744,1,8,0:0:0:0:
256,192,202857,1,0,0:0:0:0:
256,192,202970,1,0,0:0:0:0:
256,192,203083,1,8,0:0:0:0:
256,192,203139,1,8,0:0:0:0:
256,192,203195,1,0,0:0:0:0:
256,192,203308,1,0,0:0:0:0:
256,192,203421,1,8,0:0:0:0:
256,192,203477,1,8,0:0:0:0:
256,192,203534,1,8,0:0:0:0:
256,192,203646,1,8,0:0:0:0:
256,192,203703,1,8,0:0:0:0:
256,192,203759,1,0,0:0:0:0:
256,192,203872,1,0,0:0:0:0:
256,192,203985,1,8,0:0:0:0:
256,192,204210,1,8,0:0:0:0:
256,192,204323,1,0,0:0:0:0:
256,192,204380,1,0,0:0:0:0:
256,192,204436,1,8,0:0:0:0:
256,192,204549,1,8,0:0:0:0:
256,192,204662,1,0,0:0:0:0:
256,192,204887,1,8,0:0:0:0:
256,192,205000,1,0,0:0:0:0:
256,192,205113,1,8,0:0:0:0:
256,192,205225,1,0,0:0:0:0:
256,192,205338,1,8,0:0:0:0:
256,192,205451,1,8,0:0:0:0:
256,192,205564,1,0,0:0:0:0:
256,192,205789,1,0,0:0:0:0:
256,192,205902,1,8,0:0:0:0:
256,192,206128,1,8,0:0:0:0:
256,192,206240,1,0,0:0:0:0:
256,192,206316,1,0,0:0:0:0:
256,192,206391,1,0,0:0:0:0:
256,192,206466,1,12,0:0:0:0:
256,192,206692,1,8,0:0:0:0:
256,192,206804,1,0,0:0:0:0:
256,192,206861,1,0,0:0:0:0:
256,192,206917,1,8,0:0:0:0:
256,192,207030,1,0,0:0:0:0:
256,192,207143,1,8,0:0:0:0:
256,192,207255,1,8,0:0:0:0:
256,192,207312,1,8,0:0:0:0:
256,192,207368,1,0,0:0:0:0:
256,192,207481,1,0,0:0:0:0:
256,192,207594,1,8,0:0:0:0:
256,192,207819,1,8,0:0:0:0:
256,192,207932,1,0,0:0:0:0:
256,192,208045,1,8,0:0:0:0:
256,192,208158,1,8,0:0:0:0:
256,192,208271,1,0,0:0:0:0:
256,192,208383,1,0,0:0:0:0:
256,192,208496,1,8,0:0:0:0:
256,192,208722,1,8,0:0:0:0:
256,192,208834,1,0,0:0:0:0:
256,192,208947,1,8,0:0:0:0:
256,192,209004,1,8,0:0:0:0:
256,192,209060,1,0,0:0:0:0:
256,192,209173,1,8,0:0:0:0:
256,192,209286,1,0,0:0:0:0:
256,192,209398,1,8,0:0:0:0:
256,192,209511,1,8,0:0:0:0:
256,192,209624,1,0,0:0:0:0:
256,192,209737,1,0,0:0:0:0:
256,192,209849,1,8,0:0:0:0:
256,192,209962,1,0,0:0:0:0:
256,192,210019,1,8,0:0:0:0:
256,192,210075,1,0,0:0:0:0:
256,192,210188,1,0,0:0:0:0:
256,192,210301,1,0,0:0:0:0:
256,192,210526,1,0,0:0:0:0:
256,192,210639,1,8,0:0:0:0:
256,192,210752,1,8,0:0:0:0:
256,192,210865,1,0,0:0:0:0:
256,192,210921,1,0,0:0:0:0:
256,192,210977,1,0,0:0:0:0:
256,192,211090,1,0,0:0:0:0:
256,192,211203,1,8,0:0:0:0:
256,192,211316,1,8,0:0:0:0:
256,192,211428,1,0,0:0:0:0:
256,192,211654,1,0,0:0:0:0:
256,192,211710,1,0,0:0:0:0:
256,192,211767,1,0,0:0:0:0:
256,192,211823,1,0,0:0:0:0:
256,192,211880,1,8,0:0:0:0:
256,192,211992,1,0,0:0:0:0:
256,192,212105,1,8,0:0:0:0:
256,192,212218,1,8,0:0:0:0:
256,192,212331,1,0,0:0:0:0:
256,192,212387,1,0,0:0:0:0:
256,192,212443,1,0,0:0:0:0:
256,192,212500,1,0,0:0:0:0:
256,192,212556,1,8,0:0:0:0:
256,192,212669,1,0,0:0:0:0:
256,192,212782,1,8,0:0:0:0:
256,192,213007,5,0,0:0:0:0:
256,192,213064,1,0,0:0:0:0:
256,192,213120,1,8,0:0:0:0:
256,192,213346,1,0,0:0:0:0:
256,192,213402,1,0,0:0:0:0:
256,192,213459,1,8,0:0:0:0:
256,192,213571,1,8,0:0:0:0:
256,192,213684,1,4,0:0:0:0:
256,192,213910,1,8,0:0:0:0:
256,192,214135,1,0,0:0:0:0:
256,192,214248,1,0,0:0:0:0:
256,192,214361,1,0,0:0:0:0:
256,192,214699,1,0,0:0:0:0:
256,192,214755,1,0,0:0:0:0:
256,192,214812,1,8,0:0:0:0:
256,192,215150,1,0,0:0:0:0:
256,192,215263,1,8,0:0:0:0:
256,192,215376,1,8,0:0:0:0:
256,192,215489,1,0,0:0:0:0:
256,192,215714,1,8,0:0:0:0:
256,192,215827,1,0,0:0:0:0:
256,192,216052,1,0,0:0:0:0:
256,192,216165,1,8,0:0:0:0:
256,192,216278,1,8,0:0:0:0:
256,192,216391,1,8,0:0:0:0:
256,192,216447,1,0,0:0:0:0:
256,192,216504,1,8,0:0:0:0:
256,192,216616,1,8,0:0:0:0:
256,192,216729,1,0,0:0:0:0:
256,192,216842,1,0,0:0:0:0:
256,192,216955,1,0,0:0:0:0:
256,192,217068,1,8,0:0:0:0:
256,192,217180,1,8,0:0:0:0:
256,192,217237,1,8,0:0:0:0:
256,192,217293,1,0,0:0:0:0:
256,192,217519,1,8,0:0:0:0:
256,192,217631,1,0,0:0:0:0:
256,192,217744,1,8,0:0:0:0:
256,192,217857,1,0,0:0:0:0:
256,192,217913,1,0,0:0:0:0:
256,192,217970,1,0,0:0:0:0:
256,192,218083,1,8,0:0:0:0:
256,192,218195,1,0,0:0:0:0:
256,192,218308,1,0,0:0:0:0:
256,192,218365,1,0,0:0:0:0:
256,192,218421,1,8,0:0:0:0:
256,192,218534,1,8,0:0:0:0:
256,192,218646,1,0,0:0:0:0:
256,192,218759,1,0,0:0:0:0:
256,192,218872,1,8,0:0:0:0:
256,192,218928,1,0,0:0:0:0:
256,192,218985,1,8,0:0:0:0:
256,192,219041,1,8,0:0:0:0:
256,192,219098,1,0,0:0:0:0:
256,192,219323,1,8,0:0:0:0:
256,192,219436,1,8,0:0:0:0:
256,192,219549,1,0,0:0:0:0:
256,192,219662,1,0,0:0:0:0:
256,192,219774,1,8,0:0:0:0:
256,192,219887,1,8,0:0:0:0:
256,192,219943,1,8,0:0:0:0:
256,192,220000,1,8,0:0:0:0:
256,192,220113,1,8,0:0:0:0:
256,192,220169,1,8,0:0:0:0:
256,192,220225,1,8,0:0:0:0:
256,192,220338,1,8,0:0:0:0:
256,192,220677,1,8,0:0:0:0:
256,192,220902,1,4,0:0:0:0:
256,192,221015,1,0,0:0:0:0:
256,192,221071,1,0,0:0:0:0:
256,192,221128,1,8,0:0:0:0:
256,192,221184,1,8,0:0:0:0:
256,192,221240,1,0,0:0:0:0:
256,192,221353,1,8,0:0:0:0:
256,192,221466,1,0,0:0:0:0:
256,192,221579,1,8,0:0:0:0:
256,192,221635,1,8,0:0:0:0:
256,192,221692,1,0,0:0:0:0:
256,192,221804,1,0,0:0:0:0:
256,192,221917,1,8,0:0:0:0:
256,192,222030,1,0,0:0:0:0:
256,192,222086,1,0,0:0:0:0:
256,192,222143,1,8,0:0:0:0:
256,192,222255,1,0,0:0:0:0:
256,192,222368,1,8,0:0:0:0:
256,192,222481,1,8,0:0:0:0:
256,192,222594,1,0,0:0:0:0:
256,192,222650,1,0,0:0:0:0:
256,192,222707,1,0,0:0:0:0:
256,192,222932,1,8,0:0:0:0:
256,192,223045,1,0,0:0:0:0:
256,192,223101,1,0,0:0:0:0:
256,192,223158,1,8,0:0:0:0:
256,192,223271,1,0,0:0:0:0:
256,192,223383,1,8,0:0:0:0:
256,192,223496,1,8,0:0:0:0:
256,192,223609,1,0,0:0:0:0:
256,192,223722,1,8,0:0:0:0:
256,192,223834,1,0,0:0:0:0:
256,192,223947,1,0,0:0:0:0:
256,192,224004,1,0,0:0:0:0:
256,192,224060,1,0,0:0:0:0:
256,192,224229,1,0,0:0:0:0:
256,192,224286,1,8,0:0:0:0:
256,192,224398,1,8,0:0:0:0:
256,192,224511,1,0,0:0:0:0:
256,192,224568,1,0,0:0:0:0:
256,192,224624,1,0,0:0:0:0:
256,192,224680,1,0,0:0:0:0:
256,192,224737,1,8,0:0:0:0:
256,192,224849,1,8,0:0:0:0:
256,192,224962,1,0,0:0:0:0:
256,192,225075,1,8,0:0:0:0:
256,192,225188,1,0,0:0:0:0:
256,192,225301,1,8,0:0:0:0:
256,192,225413,1,0,0:0:0:0:
256,192,225526,1,0,0:0:0:0:
256,192,225639,1,8,0:0:0:0:
256,192,225865,1,0,0:0:0:0:
256,192,225977,1,8,0:0:0:0:
256,192,226090,1,0,0:0:0:0:
256,192,226203,1,8,0:0:0:0:
256,192,226316,1,0,0:0:0:0:
256,192,226372,1,0,0:0:0:0:
256,192,226428,1,0,0:0:0:0:
256,192,226485,1,0,0:0:0:0:
256,192,226541,1,8,0:0:0:0:
256,192,226654,1,8,0:0:0:0:
256,192,226767,1,0,0:0:0:0:
256,192,226880,1,0,0:0:0:0:
256,192,226992,1,8,0:0:0:0:
256,192,227049,1,8,0:0:0:0:
256,192,227105,1,0,0:0:0:0:
256,192,227218,1,8,0:0:0:0:
256,192,227331,1,0,0:0:0:0:
256,192,227443,1,8,0:0:0:0:
256,192,227500,1,8,0:0:0:0:
256,192,227556,1,0,0:0:0:0:
256,192,227669,1,0,0:0:0:0:
256,192,227782,1,8,0:0:0:0:
256,192,227838,1,8,0:0:0:0:
256,192,227895,1,0,0:0:0:0:
256,192,227970,1,8,0:0:0:0:
256,192,228045,1,8,0:0:0:0:
256,192,228120,5,0,0:0:0:0:
256,192,228459,1,0,0:0:0:0:
256,192,228571,1,8,0:0:0:0:
256,192,228910,1,8,0:0:0:0:
256,192,228966,1,8,0:0:0:0:
256,192,229022,1,0,0:0:0:0:
256,192,229135,1,0,0:0:0:0:
256,192,229248,1,0,0:0:0:0:
256,192,229474,1,8,0:0:0:0:
256,192,229643,1,8,0:0:0:0:
256,192,229699,1,0,0:0:0:0:
256,192,229812,1,8,0:0:0:0:
256,192,229925,1,0,0:0:0:0:
256,192,230037,1,0,0:0:0:0:
256,192,230150,1,8,0:0:0:0:
256,192,230263,1,0,0:0:0:0:
256,192,230319,1,0,0:0:0:0:
256,192,230376,1,8,0:0:0:0:
256,192,230601,1,8,0:0:0:0:
256,192,230714,1,0,0:0:0:0:
256,192,230827,1,0,0:0:0:0:
256,192,230940,1,8,0:0:0:0:
256,192,230996,1,8,0:0:0:0:
256,192,231052,1,0,0:0:0:0:
256,192,231165,1,0,0:0:0:0:
256,192,231278,1,8,0:0:0:0:
256,192,231504,1,8,0:0:0:0:
256,192,231616,1,8,0:0:0:0:
256,192,231729,1,0,0:0:0:0:
256,192,231842,1,0,0:0:0:0:
256,192,232068,1,8,0:0:0:0:
256,192,232180,1,8,0:0:0:0:
256,192,232293,1,8,0:0:0:0:
256,192,232406,1,0,0:0:0:0:
256,192,232481,1,0,0:0:0:0:
256,192,232556,1,0,0:0:0:0:
256,192,232631,1,8,0:0:0:0:
256,192,232688,1,8,0:0:0:0:
256,192,232857,1,0,0:0:0:0:
256,192,232913,1,0,0:0:0:0:
256,192,232970,1,0,0:0:0:0:
256,192,233083,1,8,0:0:0:0:
256,192,233308,1,8,0:0:0:0:
256,192,233365,1,0,0:0:0:0:
256,192,233421,1,8,0:0:0:0:
256,192,233534,1,8,0:0:0:0:
256,192,233646,1,8,0:0:0:0:
256,192,233872,1,0,0:0:0:0:
256,192,233985,1,8,0:0:0:0:
256,192,234154,1,8,0:0:0:0:
256,192,234210,1,0,0:0:0:0:
256,192,234323,1,0,0:0:0:0:
256,192,234436,1,8,0:0:0:0:
256,192,234549,1,8,0:0:0:0:
256,192,234605,1,8,0:0:0:0:
256,192,234718,1,8,0:0:0:0:
256,192,234774,1,8,0:0:0:0:
256,192,234887,1,0,0:0:0:0:
256,192,235000,1,8,0:0:0:0:
256,192,235113,1,8,0:0:0:0:
256,192,235225,1,0,0:0:0:0:
256,192,235338,1,4,0:0:0:0:
256,192,235677,1,0,0:0:0:0:
256,192,235789,1,8,0:0:0:0:
256,192,235902,1,8,0:0:0:0:
256,192,236015,1,0,0:0:0:0:
256,192,236128,1,0,0:0:0:0:
256,192,236184,1,0,0:0:0:0:
256,192,236240,1,0,0:0:0:0:
256,192,236466,1,8,0:0:0:0:
256,192,236579,1,0,0:0:0:0:
256,192,236635,1,0,0:0:0:0:
256,192,236692,1,8,0:0:0:0:
256,192,236861,1,8,0:0:0:0:
256,192,236974,1,8,0:0:0:0:
256,192,237030,1,0,0:0:0:0:
256,192,237143,1,8,0:0:0:0:
256,192,237255,1,8,0:0:0:0:
256,192,237312,1,8,0:0:0:0:
256,192,237368,1,0,0:0:0:0:
256,192,237425,1,0,0:0:0:0:
256,192,237481,1,8,0:0:0:0:
256,192,237594,1,0,0:0:0:0:
256,192,237707,1,8,0:0:0:0:
256,192,237819,1,8,0:0:0:0:
256,192,237932,1,8,0:0:0:0:
256,192,238045,1,0,0:0:0:0:
256,192,238158,1,0,0:0:0:0:
256,192,238214,1,0,0:0:0:0:
256,192,238271,1,8,0:0:0:0:
256,192,238383,1,0,0:0:0:0:
256,192,238496,1,8,0:0:0:0:
256,192,238609,1,8,0:0:0:0:
256,192,238665,1,8,0:0:0:0:
256,192,238722,1,8,0:0:0:0:
256,192,238834,1,8,0:0:0:0:
256,192,238891,1,8,0:0:0:0:
256,192,238947,1,0,0:0:0:0:
256,192,239004,1,0,0:0:0:0:
256,192,239060,1,0,0:0:0:0:
256,192,239286,1,0,0:0:0:0:
256,192,239398,1,8,0:0:0:0:
256,192,239511,1,0,0:0:0:0:
256,192,239624,1,0,0:0:0:0:
256,192,239737,1,8,0:0:0:0:
256,192,239849,1,8,0:0:0:0:
256,192,239962,1,0,0:0:0:0:
256,192,240075,1,0,0:0:0:0:
256,192,240188,1,8,0:0:0:0:
256,192,240301,1,0,0:0:0:0:
256,192,240376,1,8,0:0:0:0:
256,192,240451,1,8,0:0:0:0:
256,192,240526,1,0,0:0:0:0:
256,192,240677,1,8,0:0:0:0:
256,192,240752,1,4,0:0:0:0:
256,192,240978,1,8,0:0:0:0:
256,192,241091,1,0,0:0:0:0:
256,192,241204,1,8,0:0:0:0:
256,192,241316,1,0,0:0:0:0:
256,192,241429,1,8,0:0:0:0:
256,192,241542,1,0,0:0:0:0:
256,192,241655,1,0,0:0:0:0:
256,192,241767,1,8,0:0:0:0:
256,192,241993,1,8,0:0:0:0:
256,192,242106,1,0,0:0:0:0:
256,192,242219,1,8,0:0:0:0:
256,192,242331,1,0,0:0:0:0:
256,192,242388,1,0,0:0:0:0:
256,192,242444,1,0,0:0:0:0:
256,192,242557,1,8,0:0:0:0:
256,192,242670,1,0,0:0:0:0:
256,192,242782,1,8,0:0:0:0:
256,192,242895,1,0,0:0:0:0:
256,192,243008,1,8,0:0:0:0:
256,192,243121,1,0,0:0:0:0:
256,192,243346,1,8,0:0:0:0:
256,192,243459,1,0,0:0:0:0:
256,192,243572,1,8,0:0:0:0:
256,192,243685,1,0,0:0:0:0:
256,192,243797,1,8,0:0:0:0:
256,192,243910,1,4,0:0:0:0:
256,192,244023,1,4,0:0:0:0:
256,192,244361,1,0,0:0:0:0:
256,192,244474,1,0,0:0:0:0:
256,192,244587,1,8,0:0:0:0:
256,192,244700,1,0,0:0:0:0:
256,192,244813,1,8,0:0:0:0:
256,192,244925,1,0,0:0:0:0:
256,192,245038,1,8,0:0:0:0:
256,192,245151,1,0,0:0:0:0:
256,192,245207,1,0,0:0:0:0:
256,192,245264,1,0,0:0:0:0:
256,192,245376,1,8,0:0:0:0:
256,192,245602,1,8,0:0:0:0:
256,192,245715,1,0,0:0:0:0:
256,192,245828,1,8,0:0:0:0:
256,192,245940,1,0,0:0:0:0:
256,192,246053,1,8,0:0:0:0:
256,192,246166,5,0,0:0:0:0:
256,192,246279,12,0,248872,0:0:0:0:
256,192,249210,5,0,0:0:0:0:
256,192,249267,1,0,0:0:0:0:
256,192,249323,1,8,0:0:0:0:
256,192,249436,1,0,0:0:0:0:
256,192,249549,1,8,0:0:0:0:
256,192,249774,1,4,0:0:0:0:
256,192,249999,1,8,0:0:0:0:
256,192,250112,1,0,0:0:0:0:
256,192,250225,1,8,0:0:0:0:
256,192,250338,1,0,0:0:0:0:
256,192,250451,1,8,0:0:0:0:
256,192,250676,1,0,0:0:0:0:
256,192,250789,1,0,0:0:0:0:
256,192,250902,1,8,0:0:0:0:
256,192,251014,1,0,0:0:0:0:
256,192,251071,1,0,0:0:0:0:
256,192,251127,1,8,0:0:0:0:
256,192,251240,1,0,0:0:0:0:
256,192,251353,1,8,0:0:0:0:
256,192,251578,1,0,0:0:0:0:
256,192,251691,1,0,0:0:0:0:
256,192,251804,1,8,0:0:0:0:
256,192,251917,1,0,0:0:0:0:
256,192,252030,1,8,0:0:0:0:
256,192,252142,1,0,0:0:0:0:
256,192,252255,1,8,0:0:0:0:
256,192,252481,1,0,0:0:0:0:
256,192,252593,1,0,0:0:0:0:
256,192,252706,1,8,0:0:0:0:
256,192,252819,1,0,0:0:0:0:
256,192,252875,1,0,0:0:0:0:
256,192,252932,1,8,0:0:0:0:
256,192,253045,1,0,0:0:0:0:
256,192,253157,1,8,0:0:0:0:
256,192,253383,1,4,0:0:0:0:
256,192,253608,1,0,0:0:0:0:
256,192,253722,1,12,0:0:0:0:
256,192,253834,1,0,0:0:0:0:
256,192,253947,1,0,0:0:0:0:
256,192,254060,1,8,0:0:0:0:
256,192,254116,1,8,0:0:0:0:
256,192,254173,1,0,0:0:0:0:
256,192,254285,1,8,0:0:0:0:
256,192,254398,1,0,0:0:0:0:
256,192,254511,1,8,0:0:0:0:
256,192,254624,1,0,0:0:0:0:
256,192,254680,1,0,0:0:0:0:
256,192,254737,1,8,0:0:0:0:
256,192,254849,1,0,0:0:0:0:
256,192,254962,1,8,0:0:0:0:
256,192,255187,1,0,0:0:0:0:
256,192,255300,1,8,0:0:0:0:
256,192,255413,1,8,0:0:0:0:
256,192,255526,1,0,0:0:0:0:
256,192,255639,1,8,0:0:0:0:
256,192,255864,1,0,0:0:0:0:
256,192,255977,1,8,0:0:0:0:
256,192,256090,1,0,0:0:0:0:
256,192,256203,1,0,0:0:0:0:
256,192,256259,1,0,0:0:0:0:
256,192,256316,1,8,0:0:0:0:
256,192,256428,1,8,0:0:0:0:
256,192,256541,1,0,0:0:0:0:
256,192,256654,1,8,0:0:0:0:
256,192,256766,1,0,0:0:0:0:
256,192,256879,1,8,0:0:0:0:
256,192,256992,1,4,0:0:0:0:
256,192,257217,1,0,0:0:0:0:
256,192,257330,1,8,0:0:0:0:
256,192,257443,1,0,0:0:0:0:
256,192,257556,1,0,0:0:0:0:
256,192,257669,1,8,0:0:0:0:
256,192,257894,1,0,0:0:0:0:
256,192,258007,1,8,0:0:0:0:
256,192,258120,1,0,0:0:0:0:
256,192,258233,1,8,0:0:0:0:
256,192,258345,1,0,0:0:0:0:
256,192,258402,1,0,0:0:0:0:
256,192,258458,1,8,0:0:0:0:
256,192,258571,1,0,0:0:0:0:
256,192,258797,1,8,0:0:0:0:
256,192,258910,1,0,0:0:0:0:
256,192,259022,1,8,0:0:0:0:
256,192,259135,1,8,0:0:0:0:
256,192,259248,1,8,0:0:0:0:
256,192,259361,1,0,0:0:0:0:
256,192,259473,1,8,0:0:0:0:
256,192,259586,1,8,0:0:0:0:
256,192,259699,1,0,0:0:0:0:
256,192,259755,1,0,0:0:0:0:
256,192,259811,1,0,0:0:0:0:
256,192,259924,1,8,0:0:0:0:
256,192,260037,1,8,0:0:0:0:
256,192,260150,1,0,0:0:0:0:
256,192,260601,1,4,0:0:0:0:
256,192,260827,1,0,0:0:0:0:
256,192,260939,1,12,0:0:0:0:
256,192,261052,1,0,0:0:0:0:
256,192,261165,1,0,0:0:0:0:
256,192,261278,1,8,0:0:0:0:
256,192,261390,1,8,0:0:0:0:
256,192,261447,1,8,0:0:0:0:
256,192,261503,1,0,0:0:0:0:
256,192,261729,1,8,0:0:0:0:
256,192,261804,1,8,0:0:0:0:
256,192,261879,1,8,0:0:0:0:
256,192,261954,1,0,0:0:0:0:
256,192,262067,1,0,0:0:0:0:
256,192,262180,1,0,0:0:0:0:
256,192,262293,1,8,0:0:0:0:
256,192,262519,1,8,0:0:0:0:
256,192,262631,1,0,0:0:0:0:
256,192,262744,1,0,0:0:0:0:
256,192,262857,1,8,0:0:0:0:
256,192,262970,1,8,0:0:0:0:
256,192,263083,1,0,0:0:0:0:
256,192,263195,1,8,0:0:0:0:
256,192,263308,1,8,0:0:0:0:
256,192,263421,1,8,0:0:0:0:
256,192,263534,1,8,0:0:0:0:
256,192,263646,1,8,0:0:0:0:
256,192,263759,1,8,0:0:0:0:
256,192,263928,1,8,0:0:0:0:
256,192,264098,1,8,0:0:0:0:
256,192,264210,1,0,0:0:0:0:
256,192,264323,1,0,0:0:0:0:
256,192,264436,1,8,0:0:0:0:
256,192,264662,1,0,0:0:0:0:
256,192,264774,1,8,0:0:0:0:
256,192,264887,1,8,0:0:0:0:
256,192,265000,1,0,0:0:0:0:
256,192,265113,1,8,0:0:0:0:
256,192,265225,1,0,0:0:0:0:
256,192,265282,1,0,0:0:0:0:
256,192,265338,1,8,0:0:0:0:
256,192,265451,1,0,0:0:0:0:
256,192,265564,1,8,0:0:0:0:
256,192,265620,1,8,0:0:0:0:
256,192,265677,1,0,0:0:0:0:
256,192,265733,1,0,0:0:0:0:
256,192,265789,1,8,0:0:0:0:
256,192,266015,1,0,0:0:0:0:
256,192,266090,1,0,0:0:0:0:
256,192,266165,1,0,0:0:0:0:
256,192,266240,1,8,0:0:0:0:
256,192,266353,1,8,0:0:0:0:
256,192,266466,1,0,0:0:0:0:
256,192,266579,1,0,0:0:0:0:
256,192,266692,1,8,0:0:0:0:
256,192,266804,1,8,0:0:0:0:
256,192,266917,1,0,0:0:0:0:
256,192,267086,1,8,0:0:0:0:
256,192,267143,1,0,0:0:0:0:
256,192,267255,1,8,0:0:0:0:
256,192,267425,1,8,0:0:0:0:
256,192,267481,1,0,0:0:0:0:
256,192,267594,1,8,0:0:0:0:
256,192,267707,1,8,0:0:0:0:
256,192,267819,1,0,0:0:0:0:
256,192,267876,1,0,0:0:0:0:
256,192,267932,1,0,0:0:0:0:
256,192,268045,1,12,0:0:0:0:
256,192,268271,1,0,0:0:0:0:
256,192,268383,1,12,0:0:0:0:
256,192,268496,1,0,0:0:0:0:
256,192,268609,1,8,0:0:0:0:
256,192,268665,1,8,0:0:0:0:
256,192,268722,1,0,0:0:0:0:
256,192,268834,1,8,0:0:0:0:
256,192,268947,1,0,0:0:0:0:
256,192,269060,1,0,0:0:0:0:
256,192,269173,1,8,0:0:0:0:
256,192,269286,1,0,0:0:0:0:
256,192,269398,1,8,0:0:0:0:
256,192,269455,1,8,0:0:0:0:
256,192,269511,1,8,0:0:0:0:
256,192,269624,1,0,0:0:0:0:
256,192,269849,1,12,0:0:0:0:
256,192,270075,1,0,0:0:0:0:
256,192,270188,1,12,0:0:0:0:
256,192,270301,1,0,0:0:0:0:
256,192,270526,1,12,0:0:0:0:
256,192,270752,1,0,0:0:0:0:
256,192,270865,1,12,0:0:0:0:
256,192,270977,1,0,0:0:0:0:
256,192,271090,1,0,0:0:0:0:
256,192,271146,1,0,0:0:0:0:
256,192,271203,1,8,0:0:0:0:
256,192,271316,1,8,0:0:0:0:
256,192,271428,1,4,0:0:0:0:
256,192,271653,1,8,0:0:0:0:
256,192,271766,1,0,0:0:0:0:
256,192,271879,1,8,0:0:0:0:
256,192,271992,1,0,0:0:0:0:
256,192,272105,1,8,0:0:0:0:
256,192,272330,1,0,0:0:0:0:
256,192,272443,1,0,0:0:0:0:
256,192,272500,1,8,0:0:0:0:
256,192,272556,1,0,0:0:0:0:
256,192,272669,1,0,0:0:0:0:
256,192,272781,1,8,0:0:0:0:
256,192,272895,1,8,0:0:0:0:
256,192,272951,1,0,0:0:0:0:
256,192,273007,1,8,0:0:0:0:
256,192,273232,1,0,0:0:0:0:
256,192,273345,1,0,0:0:0:0:
256,192,273458,1,8,0:0:0:0:
256,192,273571,1,0,0:0:0:0:
256,192,273684,1,8,0:0:0:0:
256,192,273796,1,0,0:0:0:0:
256,192,273909,1,8,0:0:0:0:
256,192,274135,1,0,0:0:0:0:
256,192,274247,1,0,0:0:0:0:
256,192,274304,1,8,0:0:0:0:
256,192,274361,1,0,0:0:0:0:
256,192,274473,1,0,0:0:0:0:
256,192,274586,1,8,0:0:0:0:
256,192,274699,1,0,0:0:0:0:
256,192,274811,1,8,0:0:0:0:
256,192,275037,1,4,0:0:0:0:
256,192,275262,1,0,0:0:0:0:
256,192,275375,1,12,0:0:0:0:
256,192,275489,1,0,0:0:0:0:
256,192,275601,1,0,0:0:0:0:
256,192,275714,1,8,0:0:0:0:
256,192,275827,1,8,0:0:0:0:
256,192,275940,1,0,0:0:0:0:
256,192,276052,1,0,0:0:0:0:
256,192,276165,1,8,0:0:0:0:
256,192,276278,1,8,0:0:0:0:
256,192,276390,1,4,0:0:0:0:
256,192,276616,1,8,0:0:0:0:
256,192,276729,1,4,0:0:0:0:
256,192,276841,1,0,0:0:0:0:
256,192,276954,1,8,0:0:0:0:
256,192,277067,1,8,0:0:0:0:
256,192,277180,1,0,0:0:0:0:
256,192,277293,1,8,0:0:0:0:
256,192,277406,1,8,0:0:0:0:
256,192,277462,1,8,0:0:0:0:
256,192,277519,1,8,0:0:0:0:
256,192,277631,1,4,0:0:0:0:
256,192,277857,1,0,0:0:0:0:
256,192,278195,1,0,0:0:0:0:
256,192,278308,1,0,0:0:0:0:
256,192,278534,1,0,0:0:0:0:
256,192,278646,1,0,0:0:0:0:
256,192,278872,1,0,0:0:0:0:
256,192,278985,1,0,0:0:0:0:
256,192,279210,1,0,0:0:0:0:
256,192,279323,1,0,0:0:0:0:
256,192,279549,1,0,0:0:0:0:
256,192,279662,1,0,0:0:0:0:
256,192,279774,1,8,0:0:0:0:
256,192,279887,1,0,0:0:0:0:
256,192,280000,1,0,0:0:0:0:
256,192,280451,1,4,0:0:0:0:
256,192,280677,1,0,0:0:0:0:
256,192,280789,1,12,0:0:0:0:
256,192,281015,1,0,0:0:0:0:
256,192,281128,1,8,0:0:0:0:
256,192,281278,1,0,0:0:0:0:
256,192,281353,1,8,0:0:0:0:
256,192,281504,1,0,0:0:0:0:
256,192,281654,1,0,0:0:0:0:
256,192,281804,1,8,0:0:0:0:
256,192,281955,1,0,0:0:0:0:
256,192,282105,1,8,0:0:0:0:
256,192,282255,1,8,0:0:0:0:
256,192,282368,1,8,0:0:0:0:
256,192,282481,1,0,0:0:0:0:
256,192,282707,1,0,0:0:0:0:
256,192,282819,1,8,0:0:0:0:
256,192,283045,1,0,0:0:0:0:
256,192,283158,1,8,0:0:0:0:
256,192,283271,1,0,0:0:0:0:
256,192,283496,1,8,0:0:0:0:
256,192,283552,1,8,0:0:0:0:
256,192,283609,1,8,0:0:0:0:
256,192,283722,1,0,0:0:0:0:
256,192,283834,1,8,0:0:0:0:
256,192,283947,1,8,0:0:0:0:
256,192,284060,1,4,0:0:0:0:
256,192,284286,1,0,0:0:0:0:
256,192,284398,1,12,0:0:0:0:
256,192,284662,1,8,0:0:0:0:
256,192,284812,1,8,0:0:0:0:
256,192,284962,1,8,0:0:0:0:
256,192,285113,1,0,0:0:0:0:
256,192,285263,1,0,0:0:0:0:
256,192,285413,1,8,0:0:0:0:
256,192,285564,1,0,0:0:0:0:
256,192,285714,1,0,0:0:0:0:
256,192,285865,5,8,0:0:0:0:
256,192,286090,1,8,0:0:0:0:
256,192,286165,1,0,0:0:0:0:
256,192,286240,1,0,0:0:0:0:
256,192,286316,1,8,0:0:0:0:
256,192,286541,1,8,0:0:0:0:
256,192,286654,1,0,0:0:0:0:
256,192,286767,1,0,0:0:0:0:
256,192,286842,1,0,0:0:0:0:
256,192,286917,1,0,0:0:0:0:
256,192,286992,1,8,0:0:0:0:
256,192,287143,1,8,0:0:0:0:
256,192,287218,1,8,0:0:0:0:
