osu file format v14

[General]
AudioFilename: audio.mp3
AudioLeadIn: 0
PreviewTime: 155325
Countdown: 0
SampleSet: Normal
StackLeniency: 0.2
Mode: 1
LetterboxInBreaks: 0
WidescreenStoryboard: 1

[Editor]
Bookmarks: 27325,48658,69992,91325,112658,155325,197992,219325,240658,283325,304658,325992
DistanceSpacing: 1.3
BeatDivisor: 12
GridSize: 32
TimelineZoom: 2.7

[Metadata]
Title:[diffraction]
TitleUnicode:[diffraction]
Artist:Camellia
ArtistUnicode:かめりあ
Creator:Genjuro
Version:[oni]
Source:
Tags:electronic instrumental drumstep かめるかめりあ cametek kamelcamellia featured artist fa osu!
BeatmapID:2721982
BeatmapSetID:1312052

[Difficulty]
HPDrainRate:5
CircleSize:2
OverallDifficulty:6
ApproachRate:10
SliderMultiplier:2.8
SliderTickRate:1

[Events]
//Background and Video events
0,0,"bg.jpg",0,15
//Break Periods
//Storyboard Layer 0 (Background)
//Storyboard Layer 1 (Fail)
//Storyboard Layer 2 (Pass)
//Storyboard Layer 3 (Foreground)
//Storyboard Layer 4 (Overlay)
//Storyboard Sound Samples

[TimingPoints]
658,666.666666666667,1999,1,0,5,1,8
5992,666.666666666667,4,1,0,20,1,0
5992,-133.333333333333,4,1,0,20,0,0
68950,-114.285714285714,4,1,0,40,0,0
69117,-111.627948512725,4,1,0,40,0,0
69200,-110.344827586207,4,1,0,40,0,0
69283,-109.090869421502,4,1,0,40,0,0
69450,-106.666666666667,4,1,0,40,0,0
69617,-104.347862381865,4,1,0,40,0,0
69950,-100,4,1,0,60,0,0
91408,-133.333333333333,4,1,0,20,0,0
104617,-133.333333333333,4,1,0,25,0,0
107283,-114.285714285714,4,1,0,30,0,0
109950,-100,4,1,0,35,0,0
110617,-100,4,1,0,40,0,0
111283,-100,4,1,0,50,0,0
111617,-100,4,1,0,55,0,0
111950,-100,4,1,0,60,0,0
112575,-100,4,1,0,100,0,0
131631,-100,4,1,0,58,0,0
131687,-100,4,1,0,65,0,0
131742,-100,4,1,0,72,0,0
131798,-100,4,1,0,79,0,0
131853,-100,4,1,0,86,0,0
131909,-100,4,1,0,93,0,0
131965,-100,4,1,0,100,0,0
155325,-100,4,1,0,100,0,1
166158,-100,4,1,0,100,0,0
166658,-100,4,1,0,100,0,1
177325,-100,4,1,0,100,0,0
177658,-100,4,1,0,100,0,1
187297,-100,4,1,0,50,0,1
187325,-100,4,1,0,50,0,0
187630,-100,4,1,0,75,0,0
187964,-100,4,1,0,100,0,0
187992,-100,4,1,0,100,0,1
197992,-100,4,1,0,100,0,0
198075,-133.333333333333,4,1,0,20,0,0
232617,-133.333333333333,4,1,0,25,0,0
235283,-114.285714285714,4,1,0,30,0,0
237950,-100,4,1,0,35,0,0
238617,-100,4,1,0,40,0,0
239283,-100,4,1,0,50,0,0
239617,-100,4,1,0,55,0,0
239950,-100,4,1,0,60,0,0
240575,-100,4,1,0,100,0,0
241950,-114.285714285714,4,1,0,25,0,0
242617,-100,4,1,0,100,0,0
259631,-100,4,1,0,58,0,0
259687,-100,4,1,0,65,0,0
259742,-100,4,1,0,72,0,0
259798,-100,4,1,0,79,0,0
259853,-100,4,1,0,86,0,0
259909,-100,4,1,0,93,0,0
259965,-100,4,1,0,100,0,0
283408,-133.333333333333,4,1,0,20,0,0

[HitObjects]
256,192,27158,5,8,0:0:0:0:
256,192,27242,1,8,0:0:0:0:
256,192,27325,1,0,0:0:0:0:
256,192,28436,1,0,0:0:0:0:
256,192,28547,1,0,0:0:0:0:
256,192,28658,1,0,0:0:0:0:
256,192,29103,1,0,0:0:0:0:
256,192,29547,1,8,0:0:0:0:
256,192,29992,1,0,0:0:0:0:
256,192,31103,1,0,0:0:0:0:
256,192,31214,1,0,0:0:0:0:
256,192,31325,1,0,0:0:0:0:
256,192,31769,1,0,0:0:0:0:
256,192,32214,1,8,0:0:0:0:
256,192,32492,1,8,0:0:0:0:
256,192,32575,1,8,0:0:0:0:
256,192,32658,1,0,0:0:0:0:
256,192,33769,1,0,0:0:0:0:
256,192,33880,1,0,0:0:0:0:
256,192,33992,1,0,0:0:0:0:
256,192,34436,1,0,0:0:0:0:
256,192,34880,1,8,0:0:0:0:
256,192,35325,1,0,0:0:0:0:
256,192,36436,1,0,0:0:0:0:
256,192,36547,1,0,0:0:0:0:
256,192,36658,1,0,0:0:0:0:
256,192,37103,1,0,0:0:0:0:
256,192,37547,1,8,0:0:0:0:
256,192,37880,1,8,0:0:0:0:
256,192,37992,1,0,0:0:0:0:
256,192,39103,1,8,0:0:0:0:
256,192,39214,1,8,0:0:0:0:
256,192,39325,1,0,0:0:0:0:
256,192,39769,1,0,0:0:0:0:
256,192,40103,1,0,0:0:0:0:
256,192,40214,1,8,0:0:0:0:
256,192,40658,1,0,0:0:0:0:
256,192,41325,1,0,0:0:0:0:
256,192,41992,1,8,0:0:0:0:
256,192,42658,1,8,0:0:0:0:
256,192,43158,1,8,0:0:0:0:
256,192,43242,1,8,0:0:0:0:
256,192,43325,1,0,0:0:0:0:
256,192,44492,1,8,0:0:0:0:
256,192,44575,1,0,0:0:0:0:
256,192,44658,1,0,0:0:0:0:
256,192,45825,1,0,0:0:0:0:
256,192,45908,1,0,0:0:0:0:
256,192,45992,1,0,0:0:0:0:
256,192,48492,1,8,0:0:0:0:
256,192,48575,1,8,0:0:0:0:
256,192,48658,1,0,0:0:0:0:
256,192,48992,1,0,0:0:0:0:
256,192,49325,1,8,0:0:0:0:
256,192,49769,1,0,0:0:0:0:
256,192,49880,1,0,0:0:0:0:
256,192,49992,1,0,0:0:0:0:
256,192,50436,1,0,0:0:0:0:
256,192,50658,1,8,0:0:0:0:
256,192,50880,1,0,0:0:0:0:
256,192,51325,1,0,0:0:0:0:
256,192,51658,1,0,0:0:0:0:
256,192,51992,1,8,0:0:0:0:
256,192,52436,1,0,0:0:0:0:
256,192,52547,1,0,0:0:0:0:
256,192,52658,1,0,0:0:0:0:
256,192,53103,1,0,0:0:0:0:
256,192,53325,1,8,0:0:0:0:
256,192,53547,1,0,0:0:0:0:
256,192,53825,1,8,0:0:0:0:
256,192,53908,1,8,0:0:0:0:
256,192,53992,1,0,0:0:0:0:
256,192,54325,1,0,0:0:0:0:
256,192,54658,1,8,0:0:0:0:
256,192,55103,1,0,0:0:0:0:
256,192,55214,1,0,0:0:0:0:
256,192,55325,1,0,0:0:0:0:
256,192,55769,1,0,0:0:0:0:
256,192,55992,1,8,0:0:0:0:
256,192,56214,1,0,0:0:0:0:
256,192,56658,1,0,0:0:0:0:
256,192,56992,1,0,0:0:0:0:
256,192,57325,1,8,0:0:0:0:
256,192,57769,1,0,0:0:0:0:
256,192,57880,1,0,0:0:0:0:
256,192,57992,1,0,0:0:0:0:
256,192,58436,1,0,0:0:0:0:
256,192,58658,1,8,0:0:0:0:
256,192,58880,1,0,0:0:0:0:
256,192,59214,1,8,0:0:0:0:
256,192,59325,1,0,0:0:0:0:
256,192,59658,1,0,0:0:0:0:
256,192,59992,1,8,0:0:0:0:
256,192,60436,1,8,0:0:0:0:
256,192,60547,1,8,0:0:0:0:
256,192,60658,1,0,0:0:0:0:
256,192,61103,1,0,0:0:0:0:
256,192,61325,1,8,0:0:0:0:
256,192,61436,1,0,0:0:0:0:
256,192,61547,1,8,0:0:0:0:
256,192,61992,1,0,0:0:0:0:
256,192,62325,1,0,0:0:0:0:
256,192,62658,1,8,0:0:0:0:
256,192,63325,1,0,0:0:0:0:
256,192,63992,1,8,0:0:0:0:
256,192,64492,1,8,0:0:0:0:
256,192,64575,1,8,0:0:0:0:
256,192,64658,1,0,0:0:0:0:
256,192,64992,1,0,0:0:0:0:
256,192,65325,1,8,0:0:0:0:
256,192,65825,1,8,0:0:0:0:
256,192,65908,1,0,0:0:0:0:
256,192,65992,1,0,0:0:0:0:
256,192,66658,1,8,0:0:0:0:
256,192,67658,1,0,0:0:0:0:
256,192,67992,1,8,0:0:0:0:
256,192,68992,1,0,0:0:0:0:
256,192,69158,1,8,0:0:0:0:
256,192,69242,1,8,0:0:0:0:
256,192,69325,1,8,0:0:0:0:
256,192,69492,1,0,0:0:0:0:
256,192,69658,1,0,0:0:0:0:
256,192,69992,1,4,0:0:0:0:
256,192,70492,1,0,0:0:0:0:
256,192,70658,1,8,0:0:0:0:
256,192,70825,1,0,0:0:0:0:
256,192,71158,1,8,0:0:0:0:
256,192,71325,1,0,0:0:0:0:
256,192,71492,1,8,0:0:0:0:
256,192,71658,1,0,0:0:0:0:
256,192,71825,1,0,0:0:0:0:
256,192,71992,1,8,0:0:0:0:
256,192,72658,1,0,0:0:0:0:
256,192,72825,1,0,0:0:0:0:
256,192,73158,1,8,0:0:0:0:
256,192,73242,1,0,0:0:0:0:
256,192,73325,1,8,0:0:0:0:
256,192,73492,1,0,0:0:0:0:
256,192,73825,1,8,0:0:0:0:
256,192,73992,1,0,0:0:0:0:
256,192,74158,1,8,0:0:0:0:
256,192,74325,1,0,0:0:0:0:
256,192,74492,1,0,0:0:0:0:
256,192,74658,1,8,0:0:0:0:
256,192,74825,1,8,0:0:0:0:
256,192,74992,1,0,0:0:0:0:
256,192,75325,1,0,0:0:0:0:
256,192,75492,1,0,0:0:0:0:
256,192,75825,1,0,0:0:0:0:
256,192,75908,1,0,0:0:0:0:
256,192,75992,1,8,0:0:0:0:
256,192,76158,1,0,0:0:0:0:
256,192,76492,1,8,0:0:0:0:
256,192,76658,1,0,0:0:0:0:
256,192,76825,1,8,0:0:0:0:
256,192,76992,1,0,0:0:0:0:
256,192,77158,1,0,0:0:0:0:
256,192,77325,1,8,0:0:0:0:
256,192,77992,1,0,0:0:0:0:
256,192,78158,1,0,0:0:0:0:
256,192,78492,1,8,0:0:0:0:
256,192,78575,1,0,0:0:0:0:
256,192,78658,1,8,0:0:0:0:
256,192,78825,1,0,0:0:0:0:
256,192,79158,1,8,0:0:0:0:
256,192,79325,1,0,0:0:0:0:
256,192,79492,1,8,0:0:0:0:
256,192,79658,1,0,0:0:0:0:
256,192,79825,1,0,0:0:0:0:
256,192,79992,1,8,0:0:0:0:
256,192,80158,1,8,0:0:0:0:
256,192,80325,1,0,0:0:0:0:
256,192,80492,1,8,0:0:0:0:
256,192,80658,1,4,0:0:0:0:
256,192,81158,1,0,0:0:0:0:
256,192,81242,1,0,0:0:0:0:
256,192,81325,1,8,0:0:0:0:
256,192,81492,1,0,0:0:0:0:
256,192,81825,1,8,0:0:0:0:
256,192,81992,1,0,0:0:0:0:
256,192,82158,1,8,0:0:0:0:
256,192,82325,1,0,0:0:0:0:
256,192,82492,1,0,0:0:0:0:
256,192,82658,1,8,0:0:0:0:
256,192,83325,1,0,0:0:0:0:
256,192,83492,1,0,0:0:0:0:
256,192,83825,1,8,0:0:0:0:
256,192,83908,1,0,0:0:0:0:
256,192,83992,1,8,0:0:0:0:
256,192,84158,1,0,0:0:0:0:
256,192,84492,1,8,0:0:0:0:
256,192,84658,1,0,0:0:0:0:
256,192,84825,1,8,0:0:0:0:
256,192,84908,1,8,0:0:0:0:
256,192,84992,1,0,0:0:0:0:
256,192,85158,1,0,0:0:0:0:
256,192,85325,1,8,0:0:0:0:
256,192,85492,1,8,0:0:0:0:
256,192,85658,1,0,0:0:0:0:
256,192,85992,1,0,0:0:0:0:
256,192,86158,1,0,0:0:0:0:
256,192,86492,1,0,0:0:0:0:
256,192,86575,1,0,0:0:0:0:
256,192,86658,1,8,0:0:0:0:
256,192,86825,1,0,0:0:0:0:
256,192,87158,1,8,0:0:0:0:
256,192,87325,1,0,0:0:0:0:
256,192,87492,1,8,0:0:0:0:
256,192,87658,1,0,0:0:0:0:
256,192,87825,1,0,0:0:0:0:
256,192,87992,1,8,0:0:0:0:
256,192,88658,1,0,0:0:0:0:
256,192,88825,1,0,0:0:0:0:
256,192,89158,1,8,0:0:0:0:
256,192,89242,1,0,0:0:0:0:
256,192,89325,1,8,0:0:0:0:
256,192,89492,1,0,0:0:0:0:
256,192,89825,1,8,0:0:0:0:
256,192,89992,1,0,0:0:0:0:
256,192,90158,1,8,0:0:0:0:
256,192,90325,1,8,0:0:0:0:
256,192,90492,1,0,0:0:0:0:
256,192,90658,1,8,0:0:0:0:
256,192,90769,1,8,0:0:0:0:
256,192,90880,1,8,0:0:0:0:
256,192,90992,1,0,0:0:0:0:
256,192,91158,1,8,0:0:0:0:
256,192,91325,1,4,0:0:0:0:
256,192,91992,1,8,0:0:0:0:
256,192,93325,1,8,0:0:0:0:
256,192,94325,1,0,0:0:0:0:
256,192,94658,1,8,0:0:0:0:
256,192,95992,1,8,0:0:0:0:
256,192,96658,1,0,0:0:0:0:
256,192,96992,1,0,0:0:0:0:
256,192,97325,1,8,0:0:0:0:
256,192,98658,1,8,0:0:0:0:
256,192,99325,1,0,0:0:0:0:
256,192,99658,1,0,0:0:0:0:
256,192,99992,1,8,0:0:0:0:
256,192,100658,1,0,0:0:0:0:
256,192,101325,1,8,0:0:0:0:
256,192,101992,1,0,0:0:0:0:
256,192,102325,1,0,0:0:0:0:
256,192,102658,1,8,0:0:0:0:
256,192,103158,1,0,0:0:0:0:
256,192,103658,1,0,0:0:0:0:
256,192,103992,1,8,0:0:0:0:
256,192,104658,1,0,0:0:0:0:
256,192,104992,1,0,0:0:0:0:
256,192,105325,1,8,0:0:0:0:
256,192,105825,1,0,0:0:0:0:
256,192,106158,1,8,0:0:0:0:
256,192,106325,1,0,0:0:0:0:
256,192,106658,1,8,0:0:0:0:
256,192,107325,1,0,0:0:0:0:
256,192,107658,1,0,0:0:0:0:
256,192,107992,1,8,0:0:0:0:
256,192,108325,1,0,0:0:0:0:
256,192,108492,1,0,0:0:0:0:
256,192,108658,1,0,0:0:0:0:
256,192,108825,1,8,0:0:0:0:
256,192,108992,1,0,0:0:0:0:
256,192,109325,1,8,0:0:0:0:
256,192,109658,1,0,0:0:0:0:
256,192,109992,1,8,0:0:0:0:
256,192,110158,1,8,0:0:0:0:
256,192,110325,1,8,0:0:0:0:
256,192,110492,1,8,0:0:0:0:
256,192,110658,1,0,0:0:0:0:
256,192,110825,1,0,0:0:0:0:
256,192,110992,1,0,0:0:0:0:
256,192,111158,1,0,0:0:0:0:
256,192,111325,1,8,0:0:0:0:
256,192,111408,1,8,0:0:0:0:
256,192,111492,1,8,0:0:0:0:
256,192,111658,1,0,0:0:0:0:
256,192,111742,1,0,0:0:0:0:
256,192,111825,1,0,0:0:0:0:
256,192,111992,1,8,0:0:0:0:
256,192,112658,1,4,0:0:0:0:
256,192,112825,1,8,0:0:0:0:
256,192,113158,1,0,0:0:0:0:
256,192,113242,1,0,0:0:0:0:
256,192,113325,1,8,0:0:0:0:
256,192,113492,1,8,0:0:0:0:
256,192,113742,1,8,0:0:0:0:
256,192,113992,1,8,0:0:0:0:
256,192,114214,1,0,0:0:0:0:
256,192,114325,1,8,0:0:0:0:
256,192,114436,1,0,0:0:0:0:
256,192,114547,1,0,0:0:0:0:
256,192,114658,1,8,0:0:0:0:
256,192,114825,1,0,0:0:0:0:
256,192,114992,1,8,0:0:0:0:
256,192,115075,1,0,0:0:0:0:
256,192,115158,1,8,0:0:0:0:
256,192,115325,1,0,0:0:0:0:
256,192,115658,1,8,0:0:0:0:
256,192,115825,1,0,0:0:0:0:
256,192,115908,1,0,0:0:0:0:
256,192,115992,1,8,0:0:0:0:
256,192,116075,1,8,0:0:0:0:
256,192,116158,1,0,0:0:0:0:
256,192,116325,1,8,0:0:0:0:
256,192,116408,1,8,0:0:0:0:
256,192,116492,1,0,0:0:0:0:
256,192,116658,1,8,0:0:0:0:
256,192,116742,1,8,0:0:0:0:
256,192,116825,1,8,0:0:0:0:
256,192,116992,1,0,0:0:0:0:
256,192,117158,1,0,0:0:0:0:
256,192,117325,1,8,0:0:0:0:
256,192,117492,1,0,0:0:0:0:
256,192,117658,1,8,0:0:0:0:
256,192,117992,1,0,0:0:0:0:
256,192,118158,1,8,0:0:0:0:
256,192,118492,1,0,0:0:0:0:
256,192,118575,1,0,0:0:0:0:
256,192,118658,1,8,0:0:0:0:
256,192,118880,1,0,0:0:0:0:
256,192,118992,1,8,0:0:0:0:
256,192,119103,1,0,0:0:0:0:
256,192,119325,1,8,0:0:0:0:
256,192,119408,1,8,0:0:0:0:
256,192,119492,1,8,0:0:0:0:
256,192,119575,1,8,0:0:0:0:
256,192,119658,1,0,0:0:0:0:
256,192,119742,1,0,0:0:0:0:
256,192,119825,1,0,0:0:0:0:
256,192,119908,1,0,0:0:0:0:
256,192,119992,1,8,0:0:0:0:
256,192,120158,1,0,0:0:0:0:
256,192,120325,1,8,0:0:0:0:
256,192,120408,1,0,0:0:0:0:
256,192,120492,1,8,0:0:0:0:
256,192,120658,1,0,0:0:0:0:
256,192,120992,1,8,0:0:0:0:
256,192,121075,1,8,0:0:0:0:
256,192,121158,1,0,0:0:0:0:
256,192,121242,1,0,0:0:0:0:
256,192,121325,1,8,0:0:0:0:
256,192,121492,1,0,0:0:0:0:
256,192,121575,1,0,0:0:0:0:
256,192,121658,1,0,0:0:0:0:
256,192,121825,1,8,0:0:0:0:
256,192,122075,1,8,0:0:0:0:
256,192,122325,1,0,0:0:0:0:
256,192,122408,1,8,0:0:0:0:
256,192,122492,1,0,0:0:0:0:
256,192,122658,1,8,0:0:0:0:
256,192,122825,1,0,0:0:0:0:
256,192,122908,1,8,0:0:0:0:
256,192,123158,1,8,0:0:0:0:
256,192,123325,1,4,0:0:0:0:
256,192,123492,1,8,0:0:0:0:
256,192,123825,1,0,0:0:0:0:
256,192,123908,1,0,0:0:0:0:
256,192,123992,1,8,0:0:0:0:
256,192,124158,1,8,0:0:0:0:
256,192,124408,1,8,0:0:0:0:
256,192,124658,1,8,0:0:0:0:
256,192,124880,1,0,0:0:0:0:
256,192,124992,1,8,0:0:0:0:
256,192,125103,1,0,0:0:0:0:
256,192,125214,1,0,0:0:0:0:
256,192,125325,1,8,0:0:0:0:
256,192,125492,1,0,0:0:0:0:
256,192,125658,1,8,0:0:0:0:
256,192,125742,1,0,0:0:0:0:
256,192,125825,1,8,0:0:0:0:
256,192,125992,1,0,0:0:0:0:
256,192,126325,1,8,0:0:0:0:
256,192,126492,1,0,0:0:0:0:
256,192,126575,1,0,0:0:0:0:
256,192,126658,1,8,0:0:0:0:
256,192,126825,1,0,0:0:0:0:
256,192,126992,1,8,0:0:0:0:
256,192,127075,1,8,0:0:0:0:
256,192,127158,1,8,0:0:0:0:
256,192,127242,1,8,0:0:0:0:
256,192,127325,1,8,0:0:0:0:
256,192,127408,1,8,0:0:0:0:
256,192,127492,1,8,0:0:0:0:
256,192,127658,1,0,0:0:0:0:
256,192,127825,1,0,0:0:0:0:
256,192,127992,1,8,0:0:0:0:
256,192,128158,1,0,0:0:0:0:
256,192,128325,1,8,0:0:0:0:
256,192,128658,1,0,0:0:0:0:
256,192,128825,1,8,0:0:0:0:
256,192,129158,1,0,0:0:0:0:
256,192,129242,1,0,0:0:0:0:
256,192,129325,1,8,0:0:0:0:
256,192,129575,1,8,0:0:0:0:
256,192,129658,1,0,0:0:0:0:
256,192,129992,1,8,0:0:0:0:
256,192,130075,1,8,0:0:0:0:
256,192,130158,1,8,0:0:0:0:
256,192,130242,1,8,0:0:0:0:
256,192,130325,1,0,0:0:0:0:
256,192,130408,1,0,0:0:0:0:
256,192,130492,1,0,0:0:0:0:
256,192,130575,1,0,0:0:0:0:
256,192,130658,1,8,0:0:0:0:
256,192,130825,1,0,0:0:0:0:
256,192,130992,1,8,0:0:0:0:
256,192,131075,1,0,0:0:0:0:
256,192,131158,1,8,0:0:0:0:
256,192,131325,1,0,0:0:0:0:
256,192,131658,1,0,0:0:0:0:
256,192,131742,1,0,0:0:0:0:
256,192,131825,1,0,0:0:0:0:
256,192,131908,1,0,0:0:0:0:
256,192,131992,1,8,0:0:0:0:
256,192,132158,1,0,0:0:0:0:
256,192,132242,1,0,0:0:0:0:
256,192,132325,1,0,0:0:0:0:
256,192,132492,1,8,0:0:0:0:
256,192,132742,1,8,0:0:0:0:
256,192,132992,1,0,0:0:0:0:
256,192,133075,1,8,0:0:0:0:
256,192,133158,1,0,0:0:0:0:
256,192,133325,1,8,0:0:0:0:
256,192,133492,1,0,0:0:0:0:
256,192,133575,1,8,0:0:0:0:
256,192,133825,1,8,0:0:0:0:
256,192,133992,1,4,0:0:0:0:
256,192,134158,1,8,0:0:0:0:
256,192,134492,1,0,0:0:0:0:
256,192,134575,1,0,0:0:0:0:
256,192,134658,1,8,0:0:0:0:
256,192,134825,1,8,0:0:0:0:
256,192,134908,1,8,0:0:0:0:
256,192,134992,1,0,0:0:0:0:
256,192,135158,1,8,0:0:0:0:
256,192,135325,1,0,0:0:0:0:
256,192,135408,1,8,0:0:0:0:
256,192,135492,1,0,0:0:0:0:
256,192,135658,1,8,0:0:0:0:
256,192,135825,1,8,0:0:0:0:
256,192,135908,1,8,0:0:0:0:
256,192,135992,1,0,0:0:0:0:
256,192,136075,1,0,0:0:0:0:
256,192,136158,1,8,0:0:0:0:
256,192,136325,1,0,0:0:0:0:
256,192,136492,1,0,0:0:0:0:
256,192,136658,1,0,0:0:0:0:
256,192,136825,1,8,0:0:0:0:
256,192,136908,1,0,0:0:0:0:
256,192,136992,1,8,0:0:0:0:
256,192,137158,1,0,0:0:0:0:
256,192,137242,1,0,0:0:0:0:
256,192,137325,1,8,0:0:0:0:
256,192,137658,1,0,0:0:0:0:
256,192,137825,1,8,0:0:0:0:
256,192,137908,1,8,0:0:0:0:
256,192,137992,1,0,0:0:0:0:
256,192,138325,1,0,0:0:0:0:
256,192,138492,1,0,0:0:0:0:
256,192,138658,1,8,0:0:0:0:
256,192,138825,1,0,0:0:0:0:
256,192,138992,1,8,0:0:0:0:
256,192,139325,1,0,0:0:0:0:
256,192,139492,1,8,0:0:0:0:
256,192,139658,1,0,0:0:0:0:
256,192,139825,1,8,0:0:0:0:
256,192,140325,1,0,0:0:0:0:
256,192,140492,1,8,0:0:0:0:
256,192,140575,1,8,0:0:0:0:
256,192,140658,1,8,0:0:0:0:
256,192,140742,1,8,0:0:0:0:
256,192,140825,1,0,0:0:0:0:
256,192,140992,1,8,0:0:0:0:
256,192,141325,1,0,0:0:0:0:
256,192,141492,1,8,0:0:0:0:
256,192,141575,1,0,0:0:0:0:
256,192,141742,1,0,0:0:0:0:
256,192,141825,1,8,0:0:0:0:
256,192,141992,1,0,0:0:0:0:
256,192,142158,1,0,0:0:0:0:
256,192,142325,1,8,0:0:0:0:
256,192,142408,1,8,0:0:0:0:
256,192,142492,1,0,0:0:0:0:
256,192,142575,1,0,0:0:0:0:
256,192,142658,1,8,0:0:0:0:
256,192,142825,1,8,0:0:0:0:
256,192,142908,1,8,0:0:0:0:
256,192,142992,1,0,0:0:0:0:
256,192,143158,1,8,0:0:0:0:
256,192,143408,1,8,0:0:0:0:
256,192,143658,1,0,0:0:0:0:
256,192,143742,1,8,0:0:0:0:
256,192,143825,1,0,0:0:0:0:
256,192,143992,1,8,0:0:0:0:
256,192,144158,1,0,0:0:0:0:
256,192,144242,1,8,0:0:0:0:
256,192,144492,1,8,0:0:0:0:
256,192,144658,1,4,0:0:0:0:
256,192,144825,1,8,0:0:0:0:
256,192,145158,1,0,0:0:0:0:
256,192,145242,1,0,0:0:0:0:
256,192,145325,1,8,0:0:0:0:
256,192,145492,1,8,0:0:0:0:
256,192,145575,1,8,0:0:0:0:
256,192,145658,1,0,0:0:0:0:
256,192,145825,1,8,0:0:0:0:
256,192,145992,1,0,0:0:0:0:
256,192,146075,1,8,0:0:0:0:
256,192,146158,1,0,0:0:0:0:
256,192,146325,1,8,0:0:0:0:
256,192,146492,1,0,0:0:0:0:
256,192,146575,1,8,0:0:0:0:
256,192,146742,1,0,0:0:0:0:
256,192,146825,1,8,0:0:0:0:
256,192,146992,1,0,0:0:0:0:
256,192,147075,1,8,0:0:0:0:
256,192,147158,1,0,0:0:0:0:
256,192,147325,1,0,0:0:0:0:
256,192,147492,1,8,0:0:0:0:
256,192,147575,1,0,0:0:0:0:
256,192,147658,1,8,0:0:0:0:
256,192,147825,1,0,0:0:0:0:
256,192,147908,1,0,0:0:0:0:
256,192,147992,1,8,0:0:0:0:
256,192,148325,1,0,0:0:0:0:
256,192,148492,1,8,0:0:0:0:
256,192,148575,1,8,0:0:0:0:
256,192,148658,1,0,0:0:0:0:
256,192,148992,1,0,0:0:0:0:
256,192,149158,1,0,0:0:0:0:
256,192,149325,1,8,0:0:0:0:
256,192,149492,1,0,0:0:0:0:
256,192,149658,1,8,0:0:0:0:
256,192,149992,1,0,0:0:0:0:
256,192,150158,1,8,0:0:0:0:
256,192,150325,1,0,0:0:0:0:
256,192,150492,1,8,0:0:0:0:
256,192,150992,1,0,0:0:0:0:
256,192,151158,1,8,0:0:0:0:
256,192,151242,1,8,0:0:0:0:
256,192,151325,1,8,0:0:0:0:
256,192,151408,1,8,0:0:0:0:
256,192,151492,1,0,0:0:0:0:
256,192,151658,1,8,0:0:0:0:
256,192,151992,1,0,0:0:0:0:
256,192,152158,1,8,0:0:0:0:
256,192,152242,1,0,0:0:0:0:
256,192,152408,1,0,0:0:0:0:
256,192,152492,1,8,0:0:0:0:
256,192,152658,1,0,0:0:0:0:
256,192,152825,1,0,0:0:0:0:
256,192,152992,1,8,0:0:0:0:
256,192,153075,1,8,0:0:0:0:
256,192,153158,1,0,0:0:0:0:
256,192,153242,1,0,0:0:0:0:
256,192,153325,1,8,0:0:0:0:
256,192,153492,1,8,0:0:0:0:
256,192,153575,1,8,0:0:0:0:
256,192,153658,1,0,0:0:0:0:
256,192,153825,1,8,0:0:0:0:
256,192,154075,1,8,0:0:0:0:
256,192,154325,1,0,0:0:0:0:
256,192,154408,1,8,0:0:0:0:
256,192,154492,1,0,0:0:0:0:
256,192,154658,1,8,0:0:0:0:
256,192,154825,1,0,0:0:0:0:
256,192,154908,1,8,0:0:0:0:
256,192,155158,1,8,0:0:0:0:
256,192,155325,1,4,0:0:0:0:
256,192,155825,1,0,0:0:0:0:
256,192,155908,1,0,0:0:0:0:
256,192,155992,1,8,0:0:0:0:
256,192,156825,1,0,0:0:0:0:
256,192,157158,1,0,0:0:0:0:
256,192,157325,1,8,0:0:0:0:
256,192,157492,1,0,0:0:0:0:
256,192,157992,1,0,0:0:0:0:
256,192,158158,1,0,0:0:0:0:
256,192,158325,1,0,0:0:0:0:
256,192,158492,1,12,0:0:0:0:
256,192,159325,1,0,0:0:0:0:
256,192,159575,1,0,0:0:0:0:
256,192,159825,1,8,0:0:0:0:
256,192,159992,1,0,0:0:0:0:
256,192,160075,1,8,0:0:0:0:
256,192,160158,1,0,0:0:0:0:
256,192,160325,1,8,0:0:0:0:
256,192,160658,1,0,0:0:0:0:
256,192,160742,1,0,0:0:0:0:
256,192,160825,1,8,0:0:0:0:
256,192,160992,1,8,0:0:0:0:
256,192,161075,1,8,0:0:0:0:
256,192,161158,1,0,0:0:0:0:
256,192,161325,1,12,0:0:0:0:
256,192,162075,1,0,0:0:0:0:
256,192,162408,1,0,0:0:0:0:
256,192,162658,1,8,0:0:0:0:
256,192,162825,1,0,0:0:0:0:
256,192,163325,1,0,0:0:0:0:
256,192,163658,1,8,0:0:0:0:
256,192,163769,1,8,0:0:0:0:
256,192,163880,1,0,0:0:0:0:
256,192,163992,1,0,0:0:0:0:
256,192,164103,1,8,0:0:0:0:
256,192,164214,1,8,0:0:0:0:
256,192,164325,1,0,0:0:0:0:
256,192,164492,1,8,0:0:0:0:
256,192,164742,1,8,0:0:0:0:
256,192,164992,1,0,0:0:0:0:
256,192,165075,1,8,0:0:0:0:
256,192,165158,1,0,0:0:0:0:
256,192,165325,1,8,0:0:0:0:
256,192,165492,1,0,0:0:0:0:
256,192,165575,1,8,0:0:0:0:
256,192,165825,1,8,0:0:0:0:
256,192,165992,1,0,0:0:0:0:
256,192,166158,1,8,0:0:0:0:
256,192,166242,1,8,0:0:0:0:
256,192,166325,1,8,0:0:0:0:
256,192,166408,1,8,0:0:0:0:
256,192,166492,1,0,0:0:0:0:
256,192,166658,1,12,0:0:0:0:
256,192,166825,1,0,0:0:0:0:
256,192,166908,1,8,0:0:0:0:
256,192,166992,1,0,0:0:0:0:
256,192,167075,1,8,0:0:0:0:
256,192,167158,1,0,0:0:0:0:
256,192,167547,1,0,0:0:0:0:
256,192,167825,1,0,0:0:0:0:
256,192,167992,1,8,0:0:0:0:
256,192,168158,1,0,0:0:0:0:
256,192,168658,1,0,0:0:0:0:
256,192,168825,1,0,0:0:0:0:
256,192,168992,1,8,0:0:0:0:
256,192,169075,1,8,0:0:0:0:
256,192,169158,1,0,0:0:0:0:
256,192,169325,1,8,0:0:0:0:
256,192,169492,1,8,0:0:0:0:
256,192,169575,1,8,0:0:0:0:
256,192,169658,1,8,0:0:0:0:
256,192,169825,1,0,0:0:0:0:
256,192,169992,1,8,0:0:0:0:
256,192,170325,1,0,0:0:0:0:
256,192,170492,1,0,0:0:0:0:
256,192,170658,1,8,0:0:0:0:
256,192,170825,1,0,0:0:0:0:
256,192,170992,1,8,0:0:0:0:
256,192,171325,1,8,0:0:0:0:
256,192,171575,1,0,0:0:0:0:
256,192,171825,1,0,0:0:0:0:
256,192,171908,1,0,0:0:0:0:
256,192,171992,1,12,0:0:0:0:
256,192,172742,1,0,0:0:0:0:
256,192,172992,1,0,0:0:0:0:
256,192,173158,1,8,0:0:0:0:
256,192,173242,1,0,0:0:0:0:
256,192,173325,1,8,0:0:0:0:
256,192,173492,1,0,0:0:0:0:
256,192,173992,1,0,0:0:0:0:
256,192,174325,1,8,0:0:0:0:
256,192,174408,1,8,0:0:0:0:
256,192,174492,1,0,0:0:0:0:
256,192,174575,1,0,0:0:0:0:
256,192,174658,1,8,0:0:0:0:
256,192,174825,1,0,0:0:0:0:
256,192,174992,1,8,0:0:0:0:
256,192,175075,1,8,0:0:0:0:
256,192,175158,1,0,0:0:0:0:
256,192,175325,1,8,0:0:0:0:
256,192,175408,1,8,0:0:0:0:
256,192,175658,1,0,0:0:0:0:
256,192,175742,1,8,0:0:0:0:
256,192,175825,1,0,0:0:0:0:
256,192,175992,1,8,0:0:0:0:
256,192,176158,1,0,0:0:0:0:
256,192,176242,1,8,0:0:0:0:
256,192,176492,1,8,0:0:0:0:
256,192,176658,1,8,0:0:0:0:
256,192,176908,1,8,0:0:0:0:
256,192,177158,1,8,0:0:0:0:
256,192,177325,1,0,0:0:0:0:
256,192,177575,1,0,0:0:0:0:
256,192,177658,1,12,0:0:0:0:
256,192,178158,1,0,0:0:0:0:
256,192,178492,1,0,0:0:0:0:
256,192,178658,1,8,0:0:0:0:
256,192,178825,1,0,0:0:0:0:
256,192,179325,1,0,0:0:0:0:
256,192,179492,1,0,0:0:0:0:
256,192,179658,1,0,0:0:0:0:
256,192,179825,1,8,0:0:0:0:
256,192,180158,1,0,0:0:0:0:
256,192,180658,1,0,0:0:0:0:
256,192,180908,1,0,0:0:0:0:
256,192,181158,1,8,0:0:0:0:
256,192,181325,1,0,0:0:0:0:
256,192,181408,1,8,0:0:0:0:
256,192,181492,1,0,0:0:0:0:
256,192,181658,1,8,0:0:0:0:
256,192,181992,1,0,0:0:0:0:
256,192,182075,1,0,0:0:0:0:
256,192,182158,1,8,0:0:0:0:
256,192,182492,1,0,0:0:0:0:
256,192,182658,1,12,0:0:0:0:
256,192,183408,1,0,0:0:0:0:
256,192,183742,1,0,0:0:0:0:
256,192,183992,1,8,0:0:0:0:
256,192,184158,1,0,0:0:0:0:
256,192,184658,1,0,0:0:0:0:
256,192,184992,1,8,0:0:0:0:
256,192,185103,1,8,0:0:0:0:
256,192,185214,1,0,0:0:0:0:
256,192,185325,1,0,0:0:0:0:
256,192,185547,1,8,0:0:0:0:
256,192,185658,1,0,0:0:0:0:
256,192,185825,1,8,0:0:0:0:
256,192,186075,1,8,0:0:0:0:
256,192,186325,1,0,0:0:0:0:
256,192,186408,1,8,0:0:0:0:
256,192,186492,1,0,0:0:0:0:
256,192,186658,1,8,0:0:0:0:
256,192,186825,1,0,0:0:0:0:
256,192,186908,1,8,0:0:0:0:
256,192,187158,1,8,0:0:0:0:
256,192,187325,1,0,0:0:0:0:
256,192,187408,1,0,0:0:0:0:
256,192,187492,1,0,0:0:0:0:
256,192,187575,1,0,0:0:0:0:
256,192,187658,1,8,0:0:0:0:
256,192,187742,1,8,0:0:0:0:
256,192,187825,1,8,0:0:0:0:
256,192,187992,1,12,0:0:0:0:
256,192,188880,1,0,0:0:0:0:
256,192,189325,1,0,0:0:0:0:
256,192,189408,1,8,0:0:0:0:
256,192,189492,1,8,0:0:0:0:
256,192,189658,1,0,0:0:0:0:
256,192,189742,1,0,0:0:0:0:
256,192,189825,1,8,0:0:0:0:
256,192,189908,1,0,0:0:0:0:
256,192,189992,1,0,0:0:0:0:
256,192,190325,1,8,0:0:0:0:
256,192,190492,1,0,0:0:0:0:
256,192,190658,1,8,0:0:0:0:
256,192,190825,1,0,0:0:0:0:
256,192,190908,1,0,0:0:0:0:
256,192,190992,1,8,0:0:0:0:
256,192,191075,1,8,0:0:0:0:
256,192,191158,1,0,0:0:0:0:
256,192,191325,1,8,0:0:0:0:
256,192,191658,1,0,0:0:0:0:
256,192,191825,1,0,0:0:0:0:
256,192,191992,1,8,0:0:0:0:
256,192,192158,1,0,0:0:0:0:
256,192,192325,1,8,0:0:0:0:
256,192,192658,1,8,0:0:0:0:
256,192,192908,1,0,0:0:0:0:
256,192,193158,1,0,0:0:0:0:
256,192,193242,1,0,0:0:0:0:
256,192,193325,1,12,0:0:0:0:
256,192,194075,1,0,0:0:0:0:
256,192,194325,1,0,0:0:0:0:
256,192,194492,1,8,0:0:0:0:
256,192,194575,1,0,0:0:0:0:
256,192,194658,1,8,0:0:0:0:
256,192,194825,1,0,0:0:0:0:
256,192,195325,1,0,0:0:0:0:
256,192,195658,1,8,0:0:0:0:
256,192,195742,1,8,0:0:0:0:
256,192,195825,1,0,0:0:0:0:
256,192,195908,1,0,0:0:0:0:
256,192,195992,1,8,0:0:0:0:
256,192,196492,1,8,0:0:0:0:
256,192,196658,1,8,0:0:0:0:
256,192,196825,1,0,0:0:0:0:
256,192,196908,1,8,0:0:0:0:
256,192,196992,1,0,0:0:0:0:
256,192,197158,1,8,0:0:0:0:
256,192,197325,1,0,0:0:0:0:
256,192,197408,1,8,0:0:0:0:
256,192,197492,1,0,0:0:0:0:
256,192,197575,1,0,0:0:0:0:
256,192,197658,1,8,0:0:0:0:
256,192,197825,1,8,0:0:0:0:
256,192,197992,1,4,0:0:0:0:
256,192,198658,1,8,0:0:0:0:
256,192,199103,1,0,0:0:0:0:
256,192,199214,1,0,0:0:0:0:
256,192,199325,1,0,0:0:0:0:
256,192,199769,1,0,0:0:0:0:
256,192,199992,1,8,0:0:0:0:
256,192,200214,1,0,0:0:0:0:
256,192,200658,1,0,0:0:0:0:
256,192,200992,1,0,0:0:0:0:
256,192,201325,1,8,0:0:0:0:
256,192,201769,1,0,0:0:0:0:
256,192,201880,1,0,0:0:0:0:
256,192,201992,1,0,0:0:0:0:
256,192,202436,1,0,0:0:0:0:
256,192,202658,1,8,0:0:0:0:
256,192,202880,1,0,0:0:0:0:
256,192,203158,1,8,0:0:0:0:
256,192,203242,1,8,0:0:0:0:
256,192,203325,1,0,0:0:0:0:
256,192,203658,1,0,0:0:0:0:
256,192,203992,1,8,0:0:0:0:
256,192,204436,1,0,0:0:0:0:
256,192,204547,1,0,0:0:0:0:
256,192,204658,1,0,0:0:0:0:
256,192,205103,1,0,0:0:0:0:
256,192,205325,1,8,0:0:0:0:
256,192,205547,1,0,0:0:0:0:
256,192,205992,1,0,0:0:0:0:
256,192,206325,1,0,0:0:0:0:
256,192,206658,1,8,0:0:0:0:
256,192,207103,1,0,0:0:0:0:
256,192,207214,1,0,0:0:0:0:
256,192,207325,1,0,0:0:0:0:
256,192,207769,1,0,0:0:0:0:
256,192,207992,1,8,0:0:0:0:
256,192,208214,1,0,0:0:0:0:
256,192,208547,1,8,0:0:0:0:
256,192,208658,1,0,0:0:0:0:
256,192,208992,1,0,0:0:0:0:
256,192,209325,1,8,0:0:0:0:
256,192,209769,1,8,0:0:0:0:
256,192,209880,1,8,0:0:0:0:
256,192,209992,1,0,0:0:0:0:
256,192,210436,1,0,0:0:0:0:
256,192,210658,1,8,0:0:0:0:
256,192,210769,1,0,0:0:0:0:
256,192,210880,1,8,0:0:0:0:
256,192,211325,1,0,0:0:0:0:
256,192,211658,1,0,0:0:0:0:
256,192,211992,1,8,0:0:0:0:
256,192,212658,1,0,0:0:0:0:
256,192,213325,1,8,0:0:0:0:
256,192,213825,1,8,0:0:0:0:
256,192,213908,1,8,0:0:0:0:
256,192,213992,1,0,0:0:0:0:
256,192,214325,1,0,0:0:0:0:
256,192,214658,1,8,0:0:0:0:
256,192,215158,1,8,0:0:0:0:
256,192,215242,1,0,0:0:0:0:
256,192,215325,1,0,0:0:0:0:
256,192,215992,1,8,0:0:0:0:
256,192,216492,1,0,0:0:0:0:
256,192,216575,1,0,0:0:0:0:
256,192,216658,1,0,0:0:0:0:
256,192,216992,1,0,0:0:0:0:
256,192,217325,1,8,0:0:0:0:
256,192,218658,1,8,0:0:0:0:
256,192,219325,1,0,0:0:0:0:
256,192,219658,1,0,0:0:0:0:
256,192,219992,1,8,0:0:0:0:
256,192,221325,1,8,0:0:0:0:
256,192,222325,1,0,0:0:0:0:
256,192,222658,1,8,0:0:0:0:
256,192,223992,1,8,0:0:0:0:
256,192,224658,1,0,0:0:0:0:
256,192,224992,1,0,0:0:0:0:
256,192,225325,1,8,0:0:0:0:
256,192,226658,1,8,0:0:0:0:
256,192,227325,1,0,0:0:0:0:
256,192,227658,1,0,0:0:0:0:
256,192,227992,1,8,0:0:0:0:
256,192,228658,1,0,0:0:0:0:
256,192,229325,1,8,0:0:0:0:
256,192,229992,1,0,0:0:0:0:
256,192,230325,1,0,0:0:0:0:
256,192,230658,1,8,0:0:0:0:
256,192,231158,1,0,0:0:0:0:
256,192,231658,1,0,0:0:0:0:
256,192,231992,1,8,0:0:0:0:
256,192,232658,1,0,0:0:0:0:
256,192,232992,1,0,0:0:0:0:
256,192,233325,1,8,0:0:0:0:
256,192,233825,1,0,0:0:0:0:
256,192,234158,1,8,0:0:0:0:
256,192,234325,1,0,0:0:0:0:
256,192,234658,1,8,0:0:0:0:
256,192,235325,1,0,0:0:0:0:
256,192,235658,1,0,0:0:0:0:
256,192,235992,1,8,0:0:0:0:
256,192,236325,1,0,0:0:0:0:
256,192,236492,1,0,0:0:0:0:
256,192,236658,1,0,0:0:0:0:
256,192,236825,1,8,0:0:0:0:
256,192,236992,1,0,0:0:0:0:
256,192,237325,1,8,0:0:0:0:
256,192,237658,1,0,0:0:0:0:
256,192,237992,1,8,0:0:0:0:
256,192,238158,1,8,0:0:0:0:
256,192,238325,1,8,0:0:0:0:
256,192,238492,1,8,0:0:0:0:
256,192,238658,1,0,0:0:0:0:
256,192,238825,1,0,0:0:0:0:
256,192,238992,1,0,0:0:0:0:
256,192,239158,1,0,0:0:0:0:
256,192,239325,1,8,0:0:0:0:
256,192,239408,1,8,0:0:0:0:
256,192,239492,1,8,0:0:0:0:
256,192,239658,1,0,0:0:0:0:
256,192,239742,1,0,0:0:0:0:
256,192,239825,1,0,0:0:0:0:
256,192,239992,1,8,0:0:0:0:
256,192,240658,1,4,0:0:0:0:
256,192,240825,1,8,0:0:0:0:
256,192,241158,1,0,0:0:0:0:
256,192,241242,1,0,0:0:0:0:
256,192,241325,1,8,0:0:0:0:
256,192,241992,8,0,242492,0:0:0:0:
256,192,242658,5,8,0:0:0:0:
256,192,242825,1,0,0:0:0:0:
256,192,242992,1,8,0:0:0:0:
256,192,243075,1,0,0:0:0:0:
256,192,243158,1,8,0:0:0:0:
256,192,243325,1,0,0:0:0:0:
256,192,243658,1,8,0:0:0:0:
256,192,243825,1,0,0:0:0:0:
256,192,243908,1,0,0:0:0:0:
256,192,243992,1,8,0:0:0:0:
256,192,244075,1,8,0:0:0:0:
256,192,244158,1,0,0:0:0:0:
256,192,244325,1,8,0:0:0:0:
256,192,244408,1,8,0:0:0:0:
256,192,244492,1,0,0:0:0:0:
256,192,244658,1,8,0:0:0:0:
256,192,244742,1,8,0:0:0:0:
256,192,244825,1,8,0:0:0:0:
256,192,244992,1,0,0:0:0:0:
256,192,245158,1,0,0:0:0:0:
256,192,245325,1,8,0:0:0:0:
256,192,245492,1,0,0:0:0:0:
256,192,245658,1,8,0:0:0:0:
256,192,245992,1,0,0:0:0:0:
256,192,246158,1,8,0:0:0:0:
256,192,246492,1,0,0:0:0:0:
256,192,246575,1,0,0:0:0:0:
256,192,246658,1,8,0:0:0:0:
256,192,246825,1,0,0:0:0:0:
256,192,246908,1,0,0:0:0:0:
256,192,246992,1,8,0:0:0:0:
256,192,247075,1,8,0:0:0:0:
256,192,247158,1,0,0:0:0:0:
256,192,247325,1,8,0:0:0:0:
256,192,247408,1,8,0:0:0:0:
256,192,247492,1,8,0:0:0:0:
256,192,247575,1,8,0:0:0:0:
256,192,247658,1,0,0:0:0:0:
256,192,247742,1,0,0:0:0:0:
256,192,247825,1,0,0:0:0:0:
256,192,247908,1,0,0:0:0:0:
256,192,247992,1,8,0:0:0:0:
256,192,248158,1,0,0:0:0:0:
256,192,248325,1,8,0:0:0:0:
256,192,248408,1,0,0:0:0:0:
256,192,248492,1,8,0:0:0:0:
256,192,248658,1,0,0:0:0:0:
256,192,248992,1,8,0:0:0:0:
256,192,249075,1,8,0:0:0:0:
256,192,249158,1,0,0:0:0:0:
256,192,249242,1,0,0:0:0:0:
256,192,249325,1,8,0:0:0:0:
256,192,249492,1,0,0:0:0:0:
256,192,249575,1,0,0:0:0:0:
256,192,249658,1,0,0:0:0:0:
256,192,249825,1,8,0:0:0:0:
256,192,250075,1,8,0:0:0:0:
256,192,250325,1,0,0:0:0:0:
256,192,250408,1,8,0:0:0:0:
256,192,250492,1,0,0:0:0:0:
256,192,250658,1,8,0:0:0:0:
256,192,250825,1,0,0:0:0:0:
256,192,250908,1,8,0:0:0:0:
256,192,251158,1,8,0:0:0:0:
256,192,251325,1,4,0:0:0:0:
256,192,251492,1,8,0:0:0:0:
256,192,251825,1,0,0:0:0:0:
256,192,251908,1,0,0:0:0:0:
256,192,251992,1,8,0:0:0:0:
256,192,252158,1,8,0:0:0:0:
256,192,252408,1,8,0:0:0:0:
256,192,252658,1,8,0:0:0:0:
256,192,252880,1,0,0:0:0:0:
256,192,252992,1,8,0:0:0:0:
256,192,253103,1,0,0:0:0:0:
256,192,253214,1,0,0:0:0:0:
256,192,253325,1,8,0:0:0:0:
256,192,253492,1,0,0:0:0:0:
256,192,253658,1,8,0:0:0:0:
256,192,253742,1,0,0:0:0:0:
256,192,253825,1,8,0:0:0:0:
256,192,253992,1,0,0:0:0:0:
256,192,254325,1,8,0:0:0:0:
256,192,254492,1,0,0:0:0:0:
256,192,254575,1,0,0:0:0:0:
256,192,254658,1,8,0:0:0:0:
256,192,254825,1,0,0:0:0:0:
256,192,254992,1,8,0:0:0:0:
256,192,255075,1,8,0:0:0:0:
256,192,255158,1,8,0:0:0:0:
256,192,255242,1,8,0:0:0:0:
256,192,255325,1,8,0:0:0:0:
256,192,255408,1,8,0:0:0:0:
256,192,255492,1,8,0:0:0:0:
256,192,255658,1,0,0:0:0:0:
256,192,255825,1,0,0:0:0:0:
256,192,255992,1,8,0:0:0:0:
256,192,256158,1,0,0:0:0:0:
256,192,256325,1,8,0:0:0:0:
256,192,256658,1,0,0:0:0:0:
256,192,256825,1,8,0:0:0:0:
256,192,257158,1,0,0:0:0:0:
256,192,257242,1,0,0:0:0:0:
256,192,257325,1,8,0:0:0:0:
256,192,257575,1,8,0:0:0:0:
256,192,257658,1,0,0:0:0:0:
256,192,257992,1,8,0:0:0:0:
256,192,258075,1,8,0:0:0:0:
256,192,258158,1,8,0:0:0:0:
256,192,258242,1,8,0:0:0:0:
256,192,258325,1,0,0:0:0:0:
256,192,258408,1,0,0:0:0:0:
256,192,258492,1,0,0:0:0:0:
256,192,258575,1,0,0:0:0:0:
256,192,258658,1,8,0:0:0:0:
256,192,258825,1,0,0:0:0:0:
256,192,258992,1,8,0:0:0:0:
256,192,259075,1,0,0:0:0:0:
256,192,259158,1,8,0:0:0:0:
256,192,259325,1,0,0:0:0:0:
256,192,259658,1,0,0:0:0:0:
256,192,259742,1,0,0:0:0:0:
256,192,259825,1,0,0:0:0:0:
256,192,259908,1,0,0:0:0:0:
256,192,259992,1,8,0:0:0:0:
256,192,260158,1,0,0:0:0:0:
256,192,260242,1,0,0:0:0:0:
256,192,260325,1,0,0:0:0:0:
256,192,260492,1,8,0:0:0:0:
256,192,260742,1,8,0:0:0:0:
256,192,260992,1,0,0:0:0:0:
256,192,261075,1,8,0:0:0:0:
256,192,261158,1,0,0:0:0:0:
256,192,261325,1,8,0:0:0:0:
256,192,261492,1,0,0:0:0:0:
256,192,261575,1,8,0:0:0:0:
256,192,261825,1,8,0:0:0:0:
256,192,261992,1,4,0:0:0:0:
256,192,262158,1,8,0:0:0:0:
256,192,262492,1,0,0:0:0:0:
256,192,262575,1,0,0:0:0:0:
256,192,262658,1,8,0:0:0:0:
256,192,262825,1,8,0:0:0:0:
256,192,262908,1,8,0:0:0:0:
256,192,262992,1,0,0:0:0:0:
256,192,263158,1,8,0:0:0:0:
256,192,263325,1,0,0:0:0:0:
256,192,263408,1,8,0:0:0:0:
256,192,263492,1,0,0:0:0:0:
256,192,263658,1,8,0:0:0:0:
256,192,263825,1,8,0:0:0:0:
256,192,263908,1,8,0:0:0:0:
256,192,263992,1,0,0:0:0:0:
256,192,264075,1,0,0:0:0:0:
256,192,264158,1,8,0:0:0:0:
256,192,264325,1,0,0:0:0:0:
256,192,264492,1,0,0:0:0:0:
256,192,264658,1,0,0:0:0:0:
256,192,264825,1,8,0:0:0:0:
256,192,264908,1,0,0:0:0:0:
256,192,264992,1,8,0:0:0:0:
256,192,265158,1,8,0:0:0:0:
256,192,265242,1,0,0:0:0:0:
256,192,265492,1,0,0:0:0:0:
256,192,265658,1,8,0:0:0:0:
256,192,265825,1,8,0:0:0:0:
256,192,265908,1,8,0:0:0:0:
256,192,265992,1,0,0:0:0:0:
256,192,266158,1,8,0:0:0:0:
256,192,266325,1,0,0:0:0:0:
256,192,266492,1,0,0:0:0:0:
256,192,266658,1,8,0:0:0:0:
256,192,266825,1,0,0:0:0:0:
256,192,266992,1,8,0:0:0:0:
256,192,267325,1,0,0:0:0:0:
256,192,267492,1,8,0:0:0:0:
256,192,267658,1,0,0:0:0:0:
256,192,267825,1,8,0:0:0:0:
256,192,268325,1,0,0:0:0:0:
256,192,268492,1,8,0:0:0:0:
256,192,268575,1,8,0:0:0:0:
256,192,268658,1,8,0:0:0:0:
256,192,268742,1,8,0:0:0:0:
256,192,268825,1,0,0:0:0:0:
256,192,268992,1,8,0:0:0:0:
256,192,269325,1,0,0:0:0:0:
256,192,269492,1,8,0:0:0:0:
256,192,269575,1,0,0:0:0:0:
256,192,269742,1,0,0:0:0:0:
256,192,269825,1,8,0:0:0:0:
256,192,269992,1,0,0:0:0:0:
256,192,270158,1,0,0:0:0:0:
256,192,270325,1,8,0:0:0:0:
256,192,270408,1,8,0:0:0:0:
256,192,270492,1,0,0:0:0:0:
256,192,270575,1,0,0:0:0:0:
256,192,270658,1,8,0:0:0:0:
256,192,270825,1,8,0:0:0:0:
256,192,270908,1,8,0:0:0:0:
256,192,270992,1,0,0:0:0:0:
256,192,271158,1,8,0:0:0:0:
256,192,271408,1,8,0:0:0:0:
256,192,271658,1,0,0:0:0:0:
256,192,271742,1,8,0:0:0:0:
256,192,271825,1,0,0:0:0:0:
256,192,271992,1,8,0:0:0:0:
256,192,272158,1,0,0:0:0:0:
256,192,272242,1,8,0:0:0:0:
256,192,272492,1,8,0:0:0:0:
256,192,272658,1,4,0:0:0:0:
256,192,272825,1,8,0:0:0:0:
256,192,273158,1,0,0:0:0:0:
256,192,273242,1,0,0:0:0:0:
256,192,273325,1,8,0:0:0:0:
256,192,273492,1,8,0:0:0:0:
256,192,273575,1,8,0:0:0:0:
256,192,273658,1,0,0:0:0:0:
256,192,273825,1,8,0:0:0:0:
256,192,273992,1,0,0:0:0:0:
256,192,274075,1,8,0:0:0:0:
256,192,274158,1,0,0:0:0:0:
256,192,274325,1,8,0:0:0:0:
256,192,274492,1,0,0:0:0:0:
256,192,274575,1,8,0:0:0:0:
256,192,274742,1,0,0:0:0:0:
256,192,274825,1,8,0:0:0:0:
256,192,274992,1,0,0:0:0:0:
256,192,275075,1,8,0:0:0:0:
256,192,275158,1,0,0:0:0:0:
256,192,275325,1,0,0:0:0:0:
256,192,275492,1,8,0:0:0:0:
256,192,275575,1,0,0:0:0:0:
256,192,275658,1,8,0:0:0:0:
256,192,275825,1,0,0:0:0:0:
256,192,275908,1,0,0:0:0:0:
256,192,275992,1,8,0:0:0:0:
256,192,276325,1,0,0:0:0:0:
256,192,276492,1,8,0:0:0:0:
256,192,276575,1,8,0:0:0:0:
256,192,276658,1,0,0:0:0:0:
256,192,276992,1,0,0:0:0:0:
256,192,277158,1,0,0:0:0:0:
256,192,277325,1,8,0:0:0:0:
256,192,277492,1,0,0:0:0:0:
256,192,277658,1,8,0:0:0:0:
256,192,277992,1,0,0:0:0:0:
256,192,278158,1,8,0:0:0:0:
256,192,278325,1,0,0:0:0:0:
256,192,278492,1,8,0:0:0:0:
256,192,278992,1,0,0:0:0:0:
256,192,279158,1,8,0:0:0:0:
256,192,279242,1,8,0:0:0:0:
256,192,279325,1,8,0:0:0:0:
256,192,279408,1,8,0:0:0:0:
256,192,279492,1,0,0:0:0:0:
256,192,279658,1,8,0:0:0:0:
256,192,279992,1,0,0:0:0:0:
256,192,280158,1,8,0:0:0:0:
256,192,280242,1,0,0:0:0:0:
256,192,280408,1,0,0:0:0:0:
256,192,280492,1,8,0:0:0:0:
256,192,280658,1,0,0:0:0:0:
256,192,280825,1,0,0:0:0:0:
256,192,280992,1,8,0:0:0:0:
256,192,281075,1,8,0:0:0:0:
256,192,281158,1,0,0:0:0:0:
256,192,281242,1,0,0:0:0:0:
256,192,281325,1,8,0:0:0:0:
256,192,281492,1,8,0:0:0:0:
256,192,281575,1,8,0:0:0:0:
256,192,281658,1,0,0:0:0:0:
256,192,281825,1,8,0:0:0:0:
256,192,282075,1,8,0:0:0:0:
256,192,282325,1,0,0:0:0:0:
256,192,282408,1,8,0:0:0:0:
256,192,282492,1,0,0:0:0:0:
256,192,282658,1,8,0:0:0:0:
256,192,282825,1,0,0:0:0:0:
256,192,282908,1,8,0:0:0:0:
256,192,283158,1,8,0:0:0:0:
256,192,283325,1,4,0:0:0:0:
256,192,283992,1,8,0:0:0:0:
256,192,284436,1,0,0:0:0:0:
256,192,284547,1,0,0:0:0:0:
256,192,284658,1,0,0:0:0:0:
256,192,285103,1,0,0:0:0:0:
256,192,285325,1,8,0:0:0:0:
256,192,285547,1,0,0:0:0:0:
256,192,285992,1,0,0:0:0:0:
256,192,286325,1,0,0:0:0:0:
256,192,286658,1,8,0:0:0:0:
256,192,287103,1,0,0:0:0:0:
256,192,287214,1,0,0:0:0:0:
256,192,287325,1,0,0:0:0:0:
256,192,287769,1,0,0:0:0:0:
256,192,287992,1,8,0:0:0:0:
256,192,288214,1,0,0:0:0:0:
256,192,288492,1,8,0:0:0:0:
256,192,288575,1,8,0:0:0:0:
256,192,288658,1,0,0:0:0:0:
256,192,288992,1,0,0:0:0:0:
256,192,289325,1,8,0:0:0:0:
256,192,289769,1,0,0:0:0:0:
256,192,289880,1,0,0:0:0:0:
256,192,289992,1,0,0:0:0:0:
256,192,290436,1,0,0:0:0:0:
256,192,290658,1,8,0:0:0:0:
256,192,290880,1,0,0:0:0:0:
256,192,291325,1,0,0:0:0:0:
256,192,291658,1,0,0:0:0:0:
256,192,291992,1,8,0:0:0:0:
256,192,292436,1,0,0:0:0:0:
256,192,292547,1,0,0:0:0:0:
256,192,292658,1,0,0:0:0:0:
256,192,293103,1,0,0:0:0:0:
256,192,293325,1,8,0:0:0:0:
256,192,293547,1,0,0:0:0:0:
256,192,293880,1,8,0:0:0:0:
256,192,293992,1,0,0:0:0:0:
256,192,294325,1,0,0:0:0:0:
256,192,294658,1,8,0:0:0:0:
256,192,295103,1,8,0:0:0:0:
256,192,295214,1,8,0:0:0:0:
256,192,295325,1,0,0:0:0:0:
256,192,295769,1,0,0:0:0:0:
256,192,295992,1,8,0:0:0:0:
256,192,296103,1,0,0:0:0:0:
256,192,296214,1,8,0:0:0:0:
256,192,296658,1,0,0:0:0:0:
256,192,296992,1,0,0:0:0:0:
256,192,297325,1,8,0:0:0:0:
256,192,297992,1,0,0:0:0:0:
256,192,298658,1,8,0:0:0:0:
256,192,299158,1,8,0:0:0:0:
256,192,299242,1,8,0:0:0:0:
256,192,299325,1,0,0:0:0:0:
256,192,299658,1,0,0:0:0:0:
256,192,299992,1,8,0:0:0:0:
256,192,300492,1,8,0:0:0:0:
256,192,300575,1,0,0:0:0:0:
256,192,300658,1,0,0:0:0:0:
256,192,301325,1,8,0:0:0:0:
256,192,301825,1,0,0:0:0:0:
256,192,301908,1,0,0:0:0:0:
256,192,301992,1,0,0:0:0:0:
256,192,302325,1,0,0:0:0:0:
256,192,302658,1,8,0:0:0:0:
256,192,303992,1,8,0:0:0:0:
256,192,304492,1,8,0:0:0:0:
256,192,304575,1,8,0:0:0:0:
256,192,304658,1,0,0:0:0:0:
256,192,305769,1,0,0:0:0:0:
256,192,305880,1,0,0:0:0:0:
256,192,305992,1,0,0:0:0:0:
256,192,306436,1,0,0:0:0:0:
256,192,306880,1,8,0:0:0:0:
256,192,307325,1,0,0:0:0:0:
256,192,308436,1,0,0:0:0:0:
256,192,308547,1,0,0:0:0:0:
256,192,308658,1,0,0:0:0:0:
256,192,309103,1,0,0:0:0:0:
256,192,309547,1,8,0:0:0:0:
256,192,309825,1,8,0:0:0:0:
256,192,309908,1,8,0:0:0:0:
256,192,309992,1,0,0:0:0:0:
256,192,311103,1,0,0:0:0:0:
256,192,311214,1,0,0:0:0:0:
256,192,311325,1,0,0:0:0:0:
256,192,311769,1,0,0:0:0:0:
256,192,312214,1,8,0:0:0:0:
256,192,312658,1,0,0:0:0:0:
256,192,313769,1,0,0:0:0:0:
256,192,313880,1,0,0:0:0:0:
256,192,313992,1,0,0:0:0:0:
256,192,314436,1,0,0:0:0:0:
256,192,314880,1,8,0:0:0:0:
256,192,315214,1,8,0:0:0:0:
256,192,315325,1,0,0:0:0:0:
256,192,316436,1,8,0:0:0:0:
256,192,316547,1,8,0:0:0:0:
256,192,316658,1,0,0:0:0:0:
256,192,317103,1,0,0:0:0:0:
256,192,317436,1,0,0:0:0:0:
256,192,317547,1,8,0:0:0:0:
256,192,317992,1,0,0:0:0:0:
256,192,318658,1,0,0:0:0:0:
256,192,319325,1,8,0:0:0:0:
256,192,319992,1,8,0:0:0:0:
256,192,320492,1,8,0:0:0:0:
256,192,320575,1,8,0:0:0:0:
256,192,320658,1,0,0:0:0:0:
256,192,321825,1,8,0:0:0:0:
256,192,321908,1,0,0:0:0:0:
256,192,321992,1,0,0:0:0:0:
256,192,325992,1,0,0:0:0:0:
