osu file format v14

[General]
AudioFilename: audio.mp3
AudioLeadIn: 0
PreviewTime: 105074
Countdown: 0
SampleSet: Soft
StackLeniency: 0.5
Mode: 0
LetterboxInBreaks: 0
WidescreenStoryboard: 1

[Editor]
Bookmarks: 7711,19347,30983,42620,65893,77529,89165,106620,129893,153165,164802,188074,199711,210983,220074,232074,243347,254983
DistanceSpacing: 0.3
BeatDivisor: 8
GridSize: 32
TimelineZoom: 3.105376

[Metadata]
Title:[BLEED BLOOD]
TitleUnicode:[ ⫖⌊∄∄◗ ⫖⌊⦰⦰ꗐ ]
Artist:Camellia
ArtistUnicode:かめりあ
Creator:Mir
Version:Insane
Source:
Tags:c96 comiket blackmagik blazing trap hardstyle edm dubstep Cametek KamelCamellia かめるかめりあ ctcd-019 bleed blood beast akeruyri kujinn reform electronic instrumental featured artist fa
BeatmapID:2142695
BeatmapSetID:1021338

[Difficulty]
HPDrainRate:5
CircleSize:4
OverallDifficulty:8
ApproachRate:9
SliderMultiplier:1.6
SliderTickRate:0.5

[Events]
//Background and Video events
0,0,"powerlines.jpg",0,0
//Break Periods
2,130093,146747
//Storyboard Layer 0 (Background)
//Storyboard Layer 1 (Fail)
//Storyboard Layer 2 (Pass)
//Storyboard Layer 3 (Foreground)
//Storyboard Layer 4 (Overlay)
//Storyboard Sound Samples

[TimingPoints]
1893,363.636363636364,4,2,1,20,1,0
7711,-500,4,2,1,20,0,0
14256,-500,4,2,1,20,0,0
14983,-250,4,2,1,30,0,0
15711,-166.666666666667,4,2,1,40,0,0
17893,-100,4,2,1,50,0,0
19347,-100,4,2,1,60,0,0
28074,-66.6666666666667,4,2,1,70,0,0
29347,-200,4,2,1,70,0,0
29529,-66.6666666666667,4,2,1,70,0,0
31347,-133.333333333333,4,2,1,70,0,0
31893,-66.6666666666667,4,2,1,70,0,0
32802,-133.333333333333,4,2,1,70,0,0
33347,-66.6666666666667,4,2,1,70,0,0
34256,-133.333333333333,4,2,1,70,0,0
34802,-66.6666666666667,4,2,1,70,0,0
36438,-500,4,2,1,70,0,0
37165,-250,4,2,1,70,0,0
37529,-166.666666666667,4,2,1,70,0,0
37893,-125,4,2,1,70,0,0
38256,-100,4,2,1,70,0,0
38620,-83.3333333333333,4,2,1,70,0,0
38983,-71.4285714285714,4,2,1,70,0,0
39347,-62.5,4,2,1,70,0,0
41165,-500,4,2,1,70,0,0
41347,-333.333333333333,4,2,1,70,0,0
41529,-250,4,2,1,70,0,0
41711,-200,4,2,1,70,0,0
41893,-133.333333333333,4,2,1,70,0,0
42256,-100,4,2,1,70,0,0
42620,-50,4,2,1,90,0,1
42983,-200,4,2,1,90,0,1
44074,-66.6666666666667,4,2,1,90,0,1
44802,-40,4,2,1,90,0,1
44983,-100,4,2,1,90,0,1
45529,-50,4,2,1,90,0,1
47711,-40,4,2,1,90,0,1
47802,-66.6666666666667,4,2,1,90,0,1
50620,-50,4,2,1,90,0,1
51165,-100,4,2,1,90,0,1
51347,-100,4,2,2,70,0,0
54256,-50,4,2,1,70,0,1
54620,-50,4,2,1,70,0,0
54802,-57.1428571428571,4,2,1,70,0,0
54983,-66.6666666666667,4,2,1,70,0,0
55165,-80,4,2,1,70,0,0
55347,-100,4,2,1,70,0,0
56620,-50,4,2,1,70,0,0
57165,-50,4,2,1,90,0,1
57302,-50,4,2,1,5,0,1
57346,-50,4,2,1,90,0,1
57347,-50,4,2,1,90,0,1
59347,-40,4,2,1,90,0,1
59529,-66.6666666666667,4,2,1,90,0,1
60074,-50,4,2,1,90,0,1
60559,-100,4,2,1,90,0,1
61165,-66.6666666666667,4,2,1,90,0,1
62256,-100,4,2,1,90,0,1
64438,-500,4,2,1,70,0,0
64620,-333.333333333333,4,2,1,70,0,0
64802,-250,4,2,1,70,0,0
64983,-200,4,2,1,70,0,0
65893,-66.6666666666667,4,2,1,90,0,1
70983,-55.5555555555556,4,2,1,90,0,1
71665,-66.6666666666667,4,2,1,90,0,1
71711,-66.6666666666667,4,2,1,90,0,1
76802,-133.333333333333,4,2,1,70,0,0
77165,-66.6666666666667,4,2,1,70,0,0
77529,-66.6666666666667,4,2,1,90,0,1
80074,-66.6666666666667,4,2,1,90,0,1
80438,-66.6666666666667,4,2,1,90,0,1
85893,-66.6666666666667,4,2,1,90,0,1
86256,-66.6666666666667,4,2,1,90,0,1
87711,-66.6666666666667,4,2,1,90,0,1
88438,-40,4,2,1,50,0,0
88802,-50,4,2,1,50,0,0
93893,-133.333333333333,4,2,1,70,0,0
93938,-133.333333333333,4,2,1,5,0,0
93983,-133.333333333333,4,2,1,70,0,0
94029,-133.333333333333,4,2,1,5,0,0
94074,-133.333333333333,4,2,1,70,0,0
94120,-133.333333333333,4,2,1,5,0,0
94165,-133.333333333333,4,2,1,70,0,0
94211,-133.333333333333,4,2,1,5,0,0
94256,-133.333333333333,4,2,1,70,0,0
94302,-133.333333333333,4,2,1,5,0,0
94347,-133.333333333333,4,2,1,70,0,0
94393,-133.333333333333,4,2,1,5,0,0
94438,-133.333333333333,4,2,1,70,0,0
94483,-133.333333333333,4,2,1,5,0,0
94528,-133.333333333333,4,2,1,70,0,0
94574,-133.333333333333,4,2,1,5,0,0
94619,-133.333333333333,4,2,1,70,0,0
94620,-66.6666666666667,4,2,1,70,0,0
95347,-133.333333333333,4,2,1,70,0,0
95893,-66.6666666666667,4,2,1,70,0,0
96802,-133.333333333333,4,2,1,70,0,0
97347,-66.6666666666667,4,2,1,70,0,0
98256,-133.333333333333,4,2,1,70,0,0
98802,-66.6666666666667,4,2,1,70,0,0
100438,-500,4,2,1,70,0,0
101165,-250,4,2,1,70,0,0
101529,-166.666666666667,4,2,1,70,0,0
101893,-125,4,2,1,70,0,0
102256,-100,4,2,1,70,0,0
102620,-83.3333333333333,4,2,1,70,0,0
102983,-71.4285714285714,4,2,1,70,0,0
103347,-62.5,4,2,1,70,0,0
105165,-500,4,2,1,70,0,0
105347,-333.333333333333,4,2,1,70,0,0
105529,-250,4,2,1,70,0,0
105711,-200,4,2,1,70,0,0
106256,-100,4,2,1,70,0,0
106620,-50,4,2,1,90,0,1
108983,-66.6666666666667,4,2,1,90,0,1
109893,-50,4,2,1,90,0,1
111893,-66.6666666666667,4,2,1,90,0,1
112438,-66.6666666666667,4,2,1,90,0,1
112802,-50,4,2,1,90,0,1
114620,-66.6666666666667,4,2,1,90,0,1
114983,-66.6666666666667,4,2,1,90,0,1
115347,-66.6666666666667,4,2,2,70,0,0
118256,-50,4,2,1,90,0,1
118620,-66.6666666666667,4,2,1,90,0,1
118983,-100,4,2,1,90,0,1
119347,-66.6666666666667,4,2,1,90,0,1
119711,-50,4,2,1,90,0,1
120074,-40,4,2,1,90,0,1
120620,-66.6666666666667,4,2,1,90,0,1
121529,-66.6666666666667,4,2,1,90,0,1
122620,-50,4,2,1,90,0,1
123529,-66.6666666666667,4,2,1,90,0,1
124074,-66.6666666666667,4,2,1,90,0,1
124438,-66.6666666666667,4,2,1,90,0,1
126620,-133.333333333333,4,2,1,90,0,1
126983,-66.6666666666667,4,2,1,90,0,1
128438,-333.333333333333,4,2,1,70,0,0
129529,-50,4,2,1,70,0,0
147347,-500,4,2,1,20,0,0
150256,-200,4,2,1,40,0,0
151711,-100,4,2,1,60,0,0
153165,-66.6666666666667,4,2,1,70,0,0
153529,-133.333333333333,4,2,1,70,0,0
154074,-66.6666666666667,4,2,1,70,0,0
154983,-133.333333333333,4,2,1,70,0,0
155528,-66.6666666666667,4,2,1,70,0,0
156438,-133.333333333333,4,2,1,70,0,0
156983,-66.6666666666667,4,2,1,70,0,0
157893,-133.333333333333,4,2,1,70,0,0
158074,-66.6666666666667,4,2,1,70,0,0
161893,-62.5,4,2,1,70,0,0
163347,-500,4,2,1,70,0,0
163529,-250,4,2,1,70,0,0
163711,-166.666666666667,4,2,1,70,0,0
163893,-125,4,2,1,70,0,0
164074,-66.6666666666667,4,2,1,70,0,0
164802,-50,4,2,1,90,0,1
176347,-50,4,2,1,70,0,0
176438,-50,4,2,1,90,0,1
177893,-100,4,2,1,90,0,1
179347,-50,4,2,1,90,0,1
181529,-100,4,2,1,90,0,1
182983,-100,4,2,2,90,0,1
183347,-50,4,2,2,90,0,1
184074,-100,4,2,2,90,0,1
186620,-83.3333333333333,4,2,2,90,0,1
187347,-133.333333333333,4,2,2,70,0,0
187711,-200,4,2,1,70,0,0
188074,-50,4,2,1,90,0,1
193893,-40,4,2,1,90,0,1
194256,-50,4,2,1,90,0,1
198074,-133.333333333333,4,2,1,90,0,1
198256,-50,4,2,1,90,0,1
198983,-50,4,2,1,70,0,0
199711,-66.6666666666667,4,2,1,70,0,0
202256,-133.333333333333,4,2,1,70,0,0
202620,-66.6666666666667,4,2,1,70,0,0
205165,-133.333333333333,4,2,1,70,0,0
205529,-100,4,2,1,70,0,0
206256,-80,4,2,1,70,0,0
206983,-66.6666666666667,4,2,1,70,0,0
207711,-57.1428571428571,4,2,1,70,0,0
208438,-50,4,2,1,70,0,0
209893,-400,4,2,1,70,0,0
210074,-200,4,2,1,70,0,0
210256,-133.333333333333,4,2,1,70,0,0
210438,-100,4,2,1,70,0,0
210620,-66.6666666666667,4,2,1,70,0,0
210983,-33.3333333333333,4,2,1,70,0,0
211005,-33.3333333333333,4,2,1,40,0,0
214256,-500,4,2,1,70,0,0
214529,-500,4,2,1,5,0,0
214620,-250,4,2,1,70,0,0
214893,-250,4,2,1,5,0,0
214983,-166.666666666667,4,2,1,70,0,0
215256,-166.666666666667,4,2,1,5,0,0
215347,-125,4,2,1,70,0,0
215620,-125,4,2,1,5,0,0
215711,-100,4,2,1,70,0,0
215983,-100,4,2,1,5,0,0
216074,-83.3333333333333,4,2,1,70,0,0
216347,-83.3333333333333,4,2,1,5,0,0
216438,-71.4285714285714,4,2,1,70,0,0
216711,-71.4285714285714,4,2,1,5,0,0
216802,-62.5,4,2,1,70,0,0
217074,-62.5,4,2,1,5,0,0
217165,-55.5555555555556,4,2,1,70,0,0
220074,-50,4,2,1,90,0,1
220438,-100,4,2,1,70,0,0
220620,-66.6666666666667,4,2,1,70,0,0
220802,-66.6666666666667,4,2,1,90,0,1
222256,-66.6666666666667,4,2,1,90,0,1
224438,-66.6666666666667,4,2,1,90,0,1
225165,-66.6666666666667,4,2,1,90,0,1
226256,-66.6666666666667,4,2,1,90,0,1
226438,-100,4,2,1,90,0,1
226620,-66.6666666666667,4,2,1,90,0,1
227347,-50,4,2,1,90,0,1
228802,-100,4,2,1,90,0,1
230256,-100,4,2,1,90,0,1
230983,-66.6666666666667,4,2,1,90,0,0
231256,-66.6666666666667,4,2,1,90,0,0
231347,-66.6666666666667,4,2,1,90,0,0
231711,-66.6666666666667,4,2,1,90,0,1
232074,-41.6666666666667,4,2,1,90,0,1
232620,-40,4,2,1,90,0,1
232802,-80,4,2,1,90,0,0
233165,-80,4,2,1,90,0,1
234074,-66.6666666666667,4,2,1,90,0,1
235347,-66.6666666666667,4,2,1,90,0,1
236983,-50,4,2,1,90,0,1
237893,-100,4,2,1,90,0,1
238802,-100,4,2,1,90,0,1
238983,-66.6666666666667,4,2,1,90,0,1
239711,-50,4,2,1,90,0,1
239893,-66.6666666666667,4,2,1,90,0,1
240802,-50,4,2,1,90,0,1
241893,-200,4,2,1,70,0,0
242620,-100,4,2,1,70,0,0
243347,-66.6666666666667,4,2,1,90,0,1
245892,-66.6666666666667,4,2,1,90,0,1
246256,-66.6666666666667,4,2,1,90,0,1
251711,-66.6666666666667,4,2,1,90,0,1
252074,-66.6666666666667,4,2,1,90,0,1
253529,-66.6666666666667,4,2,1,90,0,1
254256,-400,4,2,1,40,0,0

[Colours]
Combo1 : 175,164,200
Combo2 : 225,102,108
Combo3 : 219,125,160
Combo4 : 191,128,181

[HitObjects]
478,341,7711,6,0,B|422:325|422:325|368:338|368:338|361:336|361:336|286:357|286:357,1,192,6|0,0:2|0:0,0:2:0:0:
49,319,10620,5,2,0:2:0:0:
49,319,10711,1,2,0:2:0:0:
49,319,10802,1,2,0:2:0:0:
49,319,10893,2,0,B|115:298|163:196|55:153|27:212|30:241,1,232,2|2,0:2|0:2,0:2:0:0:
30,238,13711,5,2,0:2:0:0:
154,357,14256,6,0,L|157:344,7,8,0|0|0|0|0|0|0|0,3:2|3:2|3:2|3:2|3:2|3:2|3:2|3:2,3:2:0:0:
247,353,14983,6,0,L|243:337,7,16,0|0|0|0|0|0|0|0,3:2|3:2|3:2|3:2|3:2|3:2|3:2|3:2,3:2:0:0:
182,272,15711,6,0,L|188:243,7,23.9999992675781,0|0|0|0|0|0|0|0,3:2|3:2|3:2|3:2|3:2|3:2|3:2|3:2,3:2:0:0:
265,207,16438,5,0,3:2:0:0:
274,206,16529,1,0,3:2:0:0:
283,205,16620,1,0,3:2:0:0:
292,204,16711,1,0,3:2:0:0:
301,203,16802,1,0,3:2:0:0:
310,202,16893,1,0,3:2:0:0:
319,201,16983,1,0,3:2:0:0:
329,200,17074,1,0,3:2:0:0:
338,199,17165,1,0,3:2:0:0:
347,198,17256,1,0,3:2:0:0:
356,197,17347,1,0,3:2:0:0:
365,196,17438,1,0,3:2:0:0:
374,195,17529,1,0,3:2:0:0:
383,194,17620,1,0,3:2:0:0:
392,193,17711,1,0,3:2:0:0:
401,192,17802,1,0,3:2:0:0:
413,191,17893,6,0,L|451:186,20,20,0|0|0|0|0|0|0|0|0|0|0|0|0|0|0|0|0|0|0|0|0,3:2|3:2|3:2|3:2|3:2|3:2|3:2|3:2|3:2|3:2|3:2|3:2|3:2|3:2|3:2|3:2|3:2|3:2|3:2|3:2|3:2,3:2:0:0:
485,52,18983,6,0,B|487:38|487:38|491:31|491:31|495:10,5,26.6666666666667,0|0|0|0|0|0,1:2|1:2|1:2|1:2|1:2|1:2,0:0:0:0:
407,91,19347,6,0,L|300:73,1,80,6|2,3:2|0:0,0:2:0:0:
338,52,19620,2,0,L|231:34,1,80,2|0,0:2|0:2,0:2:0:0:
239,59,19893,1,2,0:2:0:0:
184,120,20074,6,0,L|77:102,1,80,2|2,0:2|0:0,0:2:0:0:
115,81,20347,2,0,L|8:63,1,80,2|0,0:2|0:2,0:2:0:0:
16,88,20620,1,2,0:2:0:0:
7,249,20802,6,0,P|47:236|79:204,1,80,2|2,0:2|0:0,0:2:0:0:
71,195,21074,2,0,L|149:219,1,80,2|0,0:2|0:2,0:2:0:0:
162,235,21347,1,2,0:2:0:0:
242,361,21529,6,0,L|259:275,1,80,2|2,0:2|0:0,0:2:0:0:
274,277,21802,2,0,P|265:222|248:191,1,80,2|0,0:2|0:2,0:2:0:0:
239,190,22074,1,2,0:2:0:0:
350,212,22256,6,0,P|426:207|446:203,1,80,2|2,0:2|0:0,0:2:0:0:
432,181,22529,2,2,P|508:186|528:190,1,80,2|2,0:2|0:2,0:2:0:0:
512,212,22802,1,2,0:2:0:0:
512,342,22983,6,0,P|436:337|416:333,1,80,2|2,0:2|0:0,0:2:0:0:
430,311,23256,2,2,P|354:316|334:320,1,80,2|2,0:2|0:2,0:2:0:0:
350,342,23529,1,2,0:2:0:0:
250,267,23711,6,0,L|235:357,1,80,2|2,0:2|0:0,0:2:0:0:
218,357,23983,2,0,L|204:278,1,80,2|0,0:2|0:2,0:2:0:0:
202,260,24256,1,2,0:2:0:0:
0,303,24438,6,0,L|55:288,1,40,2|0,0:2|0:0,0:2:0:0:
116,274,24620,1,0,0:2:0:0:
116,274,24711,2,0,L|127:179,1,80,2|0,0:2|0:2,0:2:0:0:
130,168,24983,1,0,0:0:0:0:
316,336,25165,6,0,L|423:320,1,80,6|2,3:2|0:0,0:2:0:0:
416,346,25438,2,0,P|425:302|434:248,1,80,2|0,0:2|0:2,0:2:0:0:
436,244,25711,1,2,0:2:0:0:
503,154,25893,6,0,L|396:138,1,80,2|0,0:2|0:0,0:2:0:0:
403,164,26166,2,0,P|394:120|385:66,1,80,2|2,0:2|0:2,0:0:0:0:
383,62,26439,1,2,0:2:0:0:
263,21,26620,5,0,1:2:0:0:
247,105,26802,1,4,0:3:0:0:
247,105,26893,1,0,1:2:0:0:
227,189,27074,1,4,0:3:0:0:
227,189,27165,1,0,1:2:0:0:
86,49,27347,6,0,L|47:56,5,26.6666666666667,8|8|8|8|8|8,0:3|0:3|0:3|0:3|0:3|0:3,0:0:0:0:
45,131,27711,2,0,L|6:138,5,26.6666666666667,4|4|4|4|4|4,0:3|0:3|0:3|0:3|0:3|0:3,0:0:0:0:
103,201,28074,6,0,P|107:267|124:365,1,120.000004577637,6|0,3:2|0:2,0:2:0:0:
130,340,28347,1,2,3:2:0:0:
130,340,28620,2,0,P|166:335|196:309,1,60.0000022888184,2|0,0:2|0:0,0:0:0:0:
353,268,28802,6,0,P|286:250|196:202,1,120.000004577637,6|0,3:2|0:2,0:2:0:0:
220,253,29074,2,0,P|241:177|253:98,1,120.000004577637,2|0,3:2|0:2,0:2:0:0:
238,53,29347,1,2,0:2:0:0:
238,53,29529,6,0,P|169:39|76:27,1,120.000004577637,6|0,3:2|0:2,0:2:0:0:
10,75,29802,2,0,P|79:61|172:49,1,120.000004577637,2|0,3:2|0:2,0:2:0:0:
128,53,30074,2,0,P|125:87|119:128,1,60.0000022888184,2|0,0:2|0:0,0:0:0:0:
78,230,30256,5,2,3:2:0:0:
78,195,30347,1,2,0:2:0:0:
108,212,30438,1,2,0:2:0:0:
67,212,30529,5,2,0:2:0:0:
98,195,30620,1,2,0:2:0:0:
98,230,30711,1,2,0:2:0:0:
88,213,30802,5,2,0:2:0:0:
25,350,30983,6,0,B|83:313|83:313|229:353,1,180.000006866455,4|0,3:2|0:2,0:2:0:0:
190,342,31347,5,2,0:2:0:0:
274,330,31529,1,2,0:2:0:0:
358,318,31711,1,2,0:2:0:0:
494,118,31893,6,0,B|446:108|446:108|341:147,1,120.000004577637,6|0,3:2|0:2,0:2:0:0:
343,210,32165,2,0,B|391:220|391:220|457:195,1,120.000004577637,6|0,3:2|0:2,0:2:0:0:
294,141,32438,1,6,3:2:0:0:
85,29,32802,5,2,0:2:0:0:
124,98,32983,1,2,0:2:0:0:
69,153,33165,1,2,0:2:0:0:
196,66,33347,6,0,L|340:50,1,120.000004577637,6|0,3:2|0:2,0:2:0:0:
413,127,33620,2,0,L|293:140,1,120.000004577637,6|0,3:2|0:2,0:2:0:0:
248,210,33893,1,6,3:2:0:0:
14,361,34256,5,2,0:2:0:0:
94,346,34438,1,2,0:2:0:0:
174,331,34620,1,2,0:2:0:0:
480,337,34802,6,0,P|386:326|383:276,1,120.000004577637,6|0,3:2|0:2,0:2:0:0:
229,259,35074,2,0,P|323:248|326:198,1,120.000004577637,6|0,3:2|0:2,0:2:0:0:
333,155,35347,1,6,3:2:0:0:
333,155,35711,1,2,0:2:0:0:
150,198,35893,6,0,L|7:184,1,120.000004577637,6|0,3:2|0:2,0:2:0:0:
0,111,36165,2,0,L|143:97,1,120.000004577637,6|0,3:2|0:2,0:2:0:0:
202,130,36438,6,0,L|207:104,1,24,2|0,3:2|0:2,0:2:0:0:
294,51,36802,6,0,L|306:50,3,8,8|0|0|0,3:2|3:2|3:2|3:2,0:0:0:0:
217,131,37165,6,0,L|200:129,3,16,8|0|0|0,3:2|3:2|3:2|3:2,0:0:0:0:
333,165,37529,6,0,L|361:162,3,23.9999992675781,8|0|0|0,3:2|3:2|3:2|3:2,0:0:0:0:
175,217,37893,6,0,L|137:213,3,32,8|0|0|0,3:2|3:2|3:2|3:2,0:0:0:0:
258,280,38256,5,8,3:2:0:0:
281,276,38347,1,0,3:2:0:0:
304,272,38438,1,0,3:2:0:0:
327,268,38529,1,0,3:2:0:0:
350,293,38620,5,8,3:2:0:0:
373,289,38711,1,0,3:2:0:0:
396,285,38802,1,0,3:2:0:0:
419,281,38893,1,0,3:2:0:0:
439,276,38983,6,0,L|427:343,1,55.9999982910157,8|0,3:2|3:2,0:0:0:0:
375,144,39165,1,0,3:2:0:0:
375,144,39256,1,0,3:2:0:0:
375,144,39347,2,0,L|387:211,1,64,8|0,3:2|3:2,0:0:0:0:
453,71,39529,1,0,3:2:0:0:
453,71,39620,1,0,3:2:0:0:
453,71,39711,5,8,3:2:0:0:
342,37,39893,1,8,3:2:0:0:
375,144,40074,5,8,3:2:0:0:
264,110,40256,1,8,3:2:0:0:
61,164,40438,5,8,3:2:0:0:
172,130,40620,1,8,3:2:0:0:
139,237,40801,5,8,3:2:0:0:
250,203,40983,1,8,3:2:0:0:
264,292,41165,6,0,L|262:306,1,8,2|0,3:2|0:2,0:2:0:0:
247,303,41347,2,0,L|249:317,1,11.9999996337891,2|0,0:2|0:2,0:2:0:0:
262,317,41529,2,0,L|259:333,1,16,2|0,0:2|0:2,0:2:0:0:
252,325,41711,2,0,L|255:346,1,20,2|0,0:2|0:2,0:2:0:0:
246,255,41893,6,0,L|256:360,1,90.0000034332277,2|0,0:2|0:2,0:2:0:0:
167,338,42256,6,0,L|128:350,5,26.6666666666667,4|4|4|4|4|4,0:3|0:3|0:3|0:3|0:3|0:3,0:0:0:0:
152,374,42620,6,0,L|175:110,1,240,6|0,3:2|0:2,0:2:0:0:
140,61,42983,6,0,P|119:52|137:71,1,60,2|0,0:2|0:2,0:2:0:0:
185,139,43347,5,10,0:2:0:0:
196,137,43438,1,2,0:2:0:0:
207,135,43529,1,2,0:2:0:0:
218,133,43620,1,2,0:2:0:0:
265,157,43711,5,2,3:2:0:0:
276,155,43802,1,2,0:2:0:0:
287,153,43893,1,2,0:2:0:0:
298,151,43984,1,2,0:2:0:0:
342,176,44074,6,0,L|356:105,1,60.0000022888184,2|0,0:2|0:2,0:2:0:0:
434,153,44256,2,0,L|448:82,1,60.0000022888184,2|0,0:2|0:2,0:2:0:0:
348,262,44438,2,0,L|362:191,1,60.0000022888184,2|0,3:2|0:2,0:2:0:0:
440,239,44620,2,0,L|454:168,1,60.0000022888184,2|0,0:2|0:2,0:2:0:0:
413,327,44802,5,10,0:2:0:0:
197,257,44983,6,0,L|90:271,1,80,2|0,0:2|0:2,0:2:0:0:
118,286,45256,2,0,L|197:275,1,80,2|0,0:2|0:2,0:2:0:0:
287,270,45529,5,6,3:2:0:0:
287,270,45711,1,2,0:2:0:0:
246,145,45893,6,0,B|101:114|177:220|-1:192,1,240,2|0,0:2|0:2,0:2:0:0:
25,68,46256,5,10,0:2:0:0:
40,64,46347,1,0,0:2:0:0:
55,60,46438,1,2,0:2:0:0:
71,57,46529,1,2,0:2:0:0:
116,72,46620,5,2,3:2:0:0:
131,68,46711,1,2,0:2:0:0:
146,64,46802,1,2,0:2:0:0:
162,61,46893,1,2,0:2:0:0:
248,77,46983,6,0,L|271:-7,1,80,2|0,0:2|0:2,0:2:0:0:
322,124,47165,2,0,L|345:40,1,80,2|0,0:2|0:2,0:2:0:0:
214,170,47347,2,0,L|237:86,1,80,2|0,3:2|0:2,0:2:0:0:
288,217,47529,2,0,L|311:133,1,80,2|0,0:2|0:2,0:2:0:0:
65,156,47711,5,10,0:2:0:0:
220,277,47893,6,0,P|162:259|93:241,1,120.000004577637,2|0,0:2|0:2,0:2:0:0:
3,294,48165,2,0,P|61:276|113:354,1,120.000004577637,2|0,0:2|0:2,0:2:0:0:
39,362,48438,6,0,B|78:332|138:340|116:377|173:395|257:367|244:310|185:261,1,240.000009155274,6|0,3:2|0:2,0:2:0:0:
216,297,48983,2,0,L|313:316,1,60.0000022888184,2|0,0:2|0:2,0:2:0:0:
355,323,49165,1,10,0:2:0:0:
264,197,49347,5,2,0:2:0:0:
261,179,49438,1,2,0:2:0:0:
258,162,49529,2,0,L|252:117,2,30.0000011444092,2|2|2,3:2|0:2|0:2,0:2:0:0:
357,233,49711,5,2,0:2:0:0:
360,215,49802,1,2,0:2:0:0:
362,198,49893,1,2,0:2:0:0:
372,110,50074,1,2,0:2:0:0:
442,165,50256,1,2,3:2:0:0:
453,177,50347,1,2,0:2:0:0:
466,190,50438,1,2,0:2:0:0:
254,132,50620,6,0,L|78:111,1,160,8|0,0:2|0:2,0:2:0:0:
256,116,50893,2,0,L|80:95,1,160,8|0,0:2|0:2,0:2:0:0:
257,100,51165,2,0,L|181:91,1,40,2|0,0:2|0:2,0:2:0:0:
3,143,51347,6,0,P|65:154|91:84,1,120,4|0,3:2|0:2,0:2:0:0:
174,201,51711,2,0,P|112:212|86:142,1,120,4|0,3:2|0:2,0:2:0:0:
43,307,52074,1,12,0:2:0:0:
173,201,52438,6,0,B|238:212|232:167|287:170,1,120,4|0,3:2|0:2,0:2:0:0:
234,100,52802,2,0,B|299:89|293:134|348:131,1,120,4|0,3:2|0:2,0:2:0:0:
445,146,53165,2,0,P|420:97|366:113,1,120,4|0,3:2|0:2,0:2:0:0:
284,260,53529,1,12,0:2:0:0:
297,361,54256,6,0,B|235:348|235:348|229:357|229:357|122:305|122:305|46:328,1,240,0|0,3:2|0:2,0:2:0:0:
58,225,54620,6,0,L|7:217,2,40,2|2|2,0:2|0:2|0:2,0:2:0:0:
232,267,54802,2,0,L|283:259,2,35.000000333786,2|2|2,0:2|0:2|0:2,0:2:0:0:
105,146,54983,2,0,L|54:138,2,30.0000011444092,2|2|2,0:2|0:2|0:2,0:2:0:0:
232,181,55165,2,0,L|260:176,2,25,2|2|2,0:2|0:2|0:2,0:2:0:0:
154,73,55347,2,0,L|125:68,2,20,2|2|2,0:2|0:2|0:2,0:2:0:0:
233,98,55529,2,0,L|261:93,2,20,2|2|2,0:2|0:2|0:2,0:2:0:0:
218,17,55711,5,2,0:2:0:0:
218,17,55802,1,2,0:2:0:0:
218,17,55893,1,2,0:2:0:0:
313,18,56074,5,2,0:2:0:0:
313,18,56165,1,2,0:2:0:0:
313,18,56256,1,2,0:2:0:0:
412,22,56438,5,2,0:2:0:0:
412,22,56529,1,2,0:2:0:0:
412,22,56620,2,0,L|457:16,2,40,0|0|0,3:2|3:2|3:2,3:2:0:0:
358,90,56802,5,8,0:2:0:0:
486,188,56983,1,2,3:2:0:0:
486,188,57074,1,2,3:2:0:0:
486,188,57165,6,0,L|289:218,1,160,6|2,3:2|0:2,0:2:0:0:
98,353,57529,2,0,P|203:369|228:241,1,240,2|0,0:2|0:2,0:2:0:0:
229,236,57893,6,0,L|117:226,1,80,8|0,0:2|0:2,0:2:0:0:
29,225,58074,2,0,L|15:281,2,40,2|2|2,0:2|0:2|0:2,0:2:0:0:
231,220,58256,6,0,L|119:210,1,80,2|0,3:2|0:2,0:2:0:0:
27,207,58438,2,0,L|13:263,2,40,2|2|2,0:2|0:2|0:2,0:2:0:0:
168,132,58620,6,0,B|181:100|181:100|152:65,1,80,0|0,0:2|0:2,0:2:0:0:
24,193,58802,2,0,L|8:271,1,80,2|0,0:2|0:2,0:2:0:0:
180,130,58983,6,0,B|193:98|193:98|164:63,1,80,2|0,3:2|0:2,0:2:0:0:
20,178,59165,2,0,L|4:256,1,80,2|0,0:2|0:2,0:2:0:0:
79,49,59347,1,8,0:2:0:0:
151,228,59529,6,0,L|285:206,1,120.000004577637,2|0,0:2|0:2,0:2:0:0:
280,165,59802,2,0,L|414:187,1,120.000004577637,2|0,0:2|0:2,0:2:0:0:
470,352,60074,6,0,B|410:402|336:396|277:354|262:216|419:243|400:315,1,320,6|0,3:2|0:2,0:2:0:0:
399,295,60559,6,0,P|431:279|443:260,1,53.3333333333333,2|2,0:2|0:2,0:2:0:0:
471,188,60802,2,0,P|502:204|514:223,2,53.3333333333333,10|2|2,0:2|0:2|0:2,0:0:0:0:
383,197,61165,5,0,3:2:0:0:
479,107,61347,2,0,L|524:97,2,30.0000011444092,2|2|2,0:2|0:2|0:2,0:2:0:0:
383,197,61529,5,2,0:2:0:0:
371,194,61620,1,2,0:2:0:0:
359,191,61711,1,2,0:2:0:0:
441,30,61893,5,2,3:2:0:0:
453,27,61984,1,2,0:2:0:0:
465,24,62075,1,2,0:2:0:0:
384,104,62256,6,0,B|311:135|220:113|296:15|190:-1|104:37|137:130|191:132,1,320,8|2,0:2|0:2,0:2:0:0:
206,359,63165,5,0,3:2:0:0:
206,359,63256,1,0,3:2:0:0:
206,359,63347,1,2,0:2:0:0:
113,355,63529,5,0,3:2:0:0:
113,355,63620,1,0,3:2:0:0:
113,355,63711,2,0,L|122:282,1,40,10|0,0:2|0:2,0:2:0:0:
23,348,63893,5,0,3:2:0:0:
23,348,63984,1,0,3:2:0:0:
23,348,64075,1,2,0:2:0:0:
191,277,64256,1,0,3:2:0:0:
191,277,64347,1,0,3:2:0:0:
191,277,64438,6,0,L|201:277,1,8,2|0,0:2|0:2,0:2:0:0:
269,312,64620,2,0,L|277:303,1,11.9999996337891,2|0,0:2|0:2,0:2:0:0:
350,267,64802,2,0,L|350:250,1,16,2|0,0:2|0:2,0:2:0:0:
376,179,64983,2,0,L|359:162,1,20,2|0,0:2|0:2,0:2:0:0:
265,152,65165,6,0,L|272:212,1,60,2|0,0:2|0:0,0:2:0:0:
350,267,65529,6,0,L|373:270,2,13.3333333333333,4|4|4,0:3|0:3|0:3,0:0:0:0:
344,345,65711,2,0,L|367:348,2,13.3333333333333,4|4|4,0:3|0:3|0:3,0:0:0:0:
266,300,65893,6,0,B|233:292|233:292|104:322,1,120.000004577637,6|0,3:2|0:2,0:2:0:0:
71,351,66165,2,0,L|60:257,1,60.0000022888184,2|8,0:2|3:2,0:2:0:0:
64,273,66347,1,0,0:2:0:0:
67,257,66438,2,0,L|-41:242,1,60.0000022888184,2|0,0:2|0:2,0:2:0:0:
145,228,66620,6,0,B|152:185|152:185|133:156|133:156|144:110,1,120.000004577637,2|0,3:2|0:2,0:2:0:0:
150,35,66893,2,0,L|70:51,1,60.0000022888184,2|8,0:2|3:2,0:2:0:0:
74,38,67074,1,0,0:2:0:0:
61,31,67165,2,0,L|2:19,1,60.0000022888184,2|0,0:2|0:2,0:2:0:0:
142,115,67347,6,0,L|297:96,1,120.000004577637,2|0,3:2|0:2,0:2:0:0:
325,153,67620,2,0,L|403:162,1,60.0000022888184,2|8,0:2|3:2,0:2:0:0:
401,164,67802,1,0,0:2:0:0:
418,167,67892,2,0,L|445:101,1,60.0000022888184,2|0,0:2|0:2,0:2:0:0:
325,153,68074,6,0,P|333:221|352:289,1,120.000004577637,2|0,3:2|0:2,0:2:0:0:
420,345,68347,2,0,P|441:319|437:277,1,60.0000022888184,2|8,0:2|3:2,0:2:0:0:
444,278,68529,1,0,0:2:0:0:
445,262,68620,2,0,L|519:269,1,60.0000022888184,2|0,0:2|0:2,0:2:0:0:
349,284,68802,6,0,P|262:308|224:321,1,120.000004577637,2|0,3:2|0:2,0:2:0:0:
167,361,69074,2,0,P|135:363|93:362,1,60.0000022888184,2|8,0:2|3:2,0:2:0:0:
93,350,69256,1,0,0:2:0:0:
80,338,69347,2,0,P|48:336|6:337,1,60.0000022888184,2|0,0:2|0:2,0:2:0:0:
144,286,69529,6,0,P|148:211|157:145,1,120.000004577637,2|0,3:2|0:2,0:2:0:0:
180,79,69802,2,0,L|110:67,1,60.0000022888184,2|8,0:2|3:2,0:2:0:0:
107,56,69983,1,0,0:2:0:0:
120,45,70074,2,0,L|190:33,1,60.0000022888184,2|0,0:2|0:2,0:2:0:0:
267,66,70256,6,0,B|310:67|310:67|342:94|342:94|432:79,1,120.000004577637,2|0,3:2|0:2,0:2:0:0:
488,47,70529,2,0,L|471:120,1,60.0000022888184,2|8,0:2|3:2,0:2:0:0:
486,118,70711,1,0,0:2:0:0:
498,134,70802,2,0,L|481:207,1,60.0000022888184,2|0,0:2|0:2,0:2:0:0:
260,214,70983,6,0,B|363:225|304:162|439:181,1,143.999995605469,2|0,3:2|0:2,0:2:0:0:
472,307,71256,2,0,P|429:301|399:249,1,71.9999978027344,2|8,0:2|3:2,0:2:0:0:
395,267,71438,1,0,0:2:0:0:
388,249,71529,2,0,L|396:149,1,71.9999978027344,2|0,0:2|0:2,0:2:0:0:
483,105,71711,6,0,L|324:85,1,120.000004577637,2|0,3:2|0:2,0:2:0:0:
291,33,71983,2,0,L|231:22,1,60.0000022888184,2|8,0:2|3:2,0:2:0:0:
215,21,72164,1,0,0:2:0:0:
197,19,72256,2,0,L|137:8,1,60.0000022888184,2|0,0:2|0:2,0:2:0:0:
16,76,72438,6,0,P|87:88|110:145,1,120.000004577637,2|0,3:2|0:2,0:2:0:0:
170,186,72711,2,0,P|162:221|143:254,1,60.0000022888184,2|8,0:2|3:2,0:2:0:0:
138,261,72893,1,0,0:2:0:0:
123,273,72983,2,0,L|36:258,1,60.0000022888184,2|0,0:2|0:2,0:2:0:0:
109,364,73165,6,0,L|243:342,1,120.000004577637,2|0,3:2|0:2,0:2:0:0:
321,359,73438,2,0,L|337:293,1,60.0000022888184,2|8,0:2|3:2,0:2:0:0:
342,281,73620,1,0,0:2:0:0:
348,267,73711,2,0,L|332:201,1,60.0000022888184,2|0,0:2|0:2,0:2:0:0:
434,328,73893,6,0,L|464:178,1,120.000004577637,2|0,3:2|0:2,0:2:0:0:
512,138,74165,2,0,P|486:125|437:125,1,60.0000022888184,2|8,0:2|3:2,0:2:0:0:
440,124,74347,1,0,0:2:0:0:
422,127,74438,2,0,P|392:123|365:110,1,60.0000022888184,2|0,0:2|0:2,0:2:0:0:
306,13,74620,6,0,L|252:150,1,120.000004577637,10|0,3:2|0:2,0:2:0:0:
288,16,74893,2,0,L|234:153,1,120.000004577637,10|0,3:2|0:2,0:2:0:0:
270,19,75165,2,0,L|216:156,1,120.000004577637,10|0,3:2|0:2,0:2:0:0:
252,22,75438,2,0,L|198:159,1,120.000004577637,10|0,3:2|0:2,0:2:0:0:
234,25,75711,2,0,L|196:120,1,60.0000022888184,10|0,3:2|0:2,0:2:0:0:
128,118,75893,5,0,3:2:0:0:
128,118,75983,1,0,3:2:0:0:
128,118,76074,2,0,B|59:135|73:77|-12:100,1,120.000004577637,10|0,3:2|0:2,0:2:0:0:
0,110,76347,2,0,P|4:137|19:243,1,120.000004577637,10|0,3:2|0:2,0:2:0:0:
26,249,76620,1,10,3:2:0:0:
118,339,76802,6,0,P|156:318|220:310,1,90.0000034332277,8|0,3:2|0:2,0:2:0:0:
221,338,77165,2,0,P|236:308|242:264,1,60.0000022888184,2|0,0:2|0:2,0:2:0:0:
333,293,77347,2,0,P|326:263|312:237,1,60.0000022888184,2|0,0:2|0:2,0:2:0:0:
187,144,77529,6,0,B|255:179|345:156|390:77|390:77|372:26|312:23|247:47,1,360.000013732911,6|0,3:2|0:0,0:2:0:0:
187,144,78256,6,0,P|162:67|151:3,1,120.000004577637,2|2,3:2|0:2,0:2:0:0:
72,169,78529,2,0,P|97:92|102:64,1,60.0000022888184,2|0,3:2|0:2,0:2:0:0:
174,258,78711,1,2,3:2:0:0:
166,265,78802,2,0,P|141:188|136:160,1,60.0000022888184,2|0,3:2|0:2,0:2:0:0:
55,311,78983,6,0,P|139:274|207:252,1,120.000004577637,2|2,3:2|0:2,0:2:0:0:
259,365,79256,2,0,P|219:349|176:340,1,60.0000022888184,2|0,3:2|0:2,0:2:0:0:
318,245,79438,1,2,3:2:0:0:
311,254,79529,2,0,P|271:270|228:279,1,60.0000022888184,2|0,3:2|0:2,0:2:0:0:
355,353,79711,6,0,P|368:323|394:273,1,60.0000022888184,2|0,3:2|0:2,0:2:0:0:
450,359,79893,2,0,P|463:329|489:279,1,60.0000022888184,2|0,3:2|0:2,0:2:0:0:
432,230,80074,6,0,L|478:217,6,30.0000011444092,2|0|0|0|2|0|0,0:2|0:2|0:2|0:0|0:2|0:2|0:2,0:2:0:0:
345,212,80438,6,0,B|326:102|407:155|367:17,1,180.000006866455,6|0,3:2|0:2,0:2:0:0:
299,2,80802,6,0,P|290:23|284:56,1,30.0000011444092,2|0,0:2|0:2,0:2:0:0:
267,5,80893,2,0,P|275:26|294:53,1,30.0000011444092,2|0,0:2|0:2,0:2:0:0:
246,29,80983,2,0,P|267:38|300:44,1,30.0000011444092,2|0,0:2|0:2,0:2:0:0:
248,60,81074,2,0,P|269:51|296:32,1,30.0000011444092,2|0,0:2|0:2,0:2:0:0:
264,84,81165,6,0,P|247:147|197:137,1,120.000004577637,2|2,3:2|0:2,0:2:0:0:
129,87,81438,2,0,L|115:145,1,60.0000022888184,2|0,3:2|0:2,0:2:0:0:
7,46,81620,1,2,3:2:0:0:
22,57,81711,2,0,L|35:115,1,60.0000022888184,2|0,3:2|0:2,0:2:0:0:
128,230,81893,6,0,B|191:229|170:168|261:182,1,120.000004577637,2|2,3:2|0:2,0:2:0:0:
309,219,82165,2,0,P|321:183|315:146,1,60.0000022888184,2|0,3:2|0:2,0:2:0:0:
261,309,82347,1,2,3:2:0:0:
248,322,82438,2,0,P|236:286|242:249,1,60.0000022888184,2|0,3:2|0:2,0:2:0:0:
172,375,82620,6,0,P|130:325|117:316,1,60.0000022888184,2|0,3:2|0:2,0:2:0:0:
104,251,82802,2,0,P|38:245|23:248,1,60.0000022888184,2|0,3:2|0:2,0:2:0:0:
49,329,82983,6,0,P|50:350|58:371,2,30.0000011444092,2|0|0,3:2|0:2|0:2,0:2:0:0:
125,163,83165,2,0,P|124:148|121:133,2,30.0000011444092,2|0|0,3:2|0:2|0:2,0:2:0:0:
188,222,83347,6,4,B|288:185|288:185|291:196|291:196|473:247|473:247|474:255|474:255|500:180|500:180|449:161,1,420.000016021729,6|0,3:2|0:2,0:2:0:0:
394,134,84074,6,0,P|414:107|469:35,1,120.000004577637,2|2,3:2|0:2,0:2:0:0:
323,32,84347,2,0,P|348:30|407:7,1,60.0000022888184,2|0,3:2|0:2,0:2:0:0:
234,110,84529,1,2,3:2:0:0:
252,100,84620,2,0,P|277:102|336:125,1,60.0000022888184,2|0,3:2|0:2,0:2:0:0:
236,16,84802,6,0,P|161:32|96:34,1,120.000004577637,2|2,3:2|0:2,0:2:0:0:
55,109,85074,2,0,L|25:34,1,60.0000022888184,2|0,3:2|0:2,0:2:0:0:
116,168,85256,1,2,3:2:0:0:
128,176,85347,2,0,L|158:101,1,60.0000022888184,2|0,3:2|0:2,0:2:0:0:
64,227,85529,6,0,P|37:228|4:232,1,60.0000022888184,2|0,3:2|0:2,0:2:0:0:
64,311,85711,2,0,P|37:312|4:316,1,60.0000022888184,2|0,3:2|0:2,0:2:0:0:
137,367,85893,6,0,L|152:321,6,30.0000011444092,2|0|0|0|2|0|0,0:2|0:2|0:2|0:0|0:2|0:2|0:2,0:2:0:0:
146,257,86256,6,0,B|193:239|193:239|270:263|270:263|371:227,1,180.000006866455,6|0,3:2|0:2,0:2:0:0:
456,284,86620,6,0,P|444:274|430:268,1,30.0000011444092,2|0,0:2|0:2,0:2:0:0:
459,261,86711,2,0,P|444:262|430:268,1,30.0000011444092,2|0,0:2|0:2,0:2:0:0:
445,243,86802,2,0,P|435:254|429:268,1,30.0000011444092,2|0,0:2|0:2,0:2:0:0:
423,240,86893,2,0,P|424:254|430:268,1,30.0000011444092,2|0,0:2|0:2,0:2:0:0:
403,245,86983,6,0,B|368:258|368:258|397:358,1,120.000004577637,2|2,3:2|0:2,0:2:0:0:
306,361,87256,2,0,L|222:345,1,60.0000022888184,2|0,3:2|0:2,0:2:0:0:
212,267,87438,1,2,3:2:0:0:
228,263,87529,2,0,L|312:247,1,60.0000022888184,2|0,3:2|0:2,0:2:0:0:
158,372,87711,6,0,P|125:292|108:241,1,120.000004577637,2|2,3:2|0:2,0:2:0:0:
32,220,87983,2,0,P|33:258|24:298,1,60.0000022888184,2|0,3:2|0:2,0:2:0:0:
114,116,88165,1,2,3:2:0:0:
103,128,88256,2,0,P|102:166|111:206,1,60.0000022888184,2|0,3:2|0:2,3:2:0:0:
105,187,88802,6,0,P|159:122|318:108,1,240,2|0,0:2|0:2,0:2:0:0:
378,153,89165,5,4,3:2:0:0:
256,192,89256,12,2,94620,0:2:0:0:
46,244,94802,5,4,0:3:0:0:
46,244,94893,1,4,0:3:0:0:
46,244,94983,6,0,L|262:225,1,180.000006866455,4|0,3:2|0:2,0:2:0:0:
225,228,95347,5,2,0:2:0:0:
246,150,95529,1,2,0:2:0:0:
264,68,95711,1,2,0:2:0:0:
494,92,95893,6,0,P|429:85|408:172,1,120.000004577637,4|0,3:2|0:2,0:2:0:0:
365,195,96165,2,0,L|398:323,1,120.000004577637,4|0,3:2|0:2,0:2:0:0:
415,384,96438,1,4,3:2:0:0:
38,327,96802,5,2,0:2:0:0:
120,314,96983,1,2,0:2:0:0:
202,301,97165,1,2,0:2:0:0:
23,242,97347,6,0,B|-6:213|-6:213|2:94,1,120.000004577637,4|0,3:2|0:2,0:2:0:0:
84,131,97620,2,0,B|113:102|113:102|105:-17,1,120.000004577637,4|0,3:2|0:2,0:2:0:0:
31,3,97893,1,4,3:2:0:0:
109,219,98256,5,2,0:2:0:0:
188,206,98438,1,2,0:2:0:0:
237,268,98620,1,2,0:2:0:0:
468,321,98802,6,0,P|491:253|448:217,1,120.000004577637,4|0,3:2|0:2,0:2:0:0:
388,188,99074,2,0,L|505:161,1,120.000004577637,4|0,3:2|0:2,0:2:0:0:
512,85,99347,1,4,3:2:0:0:
512,85,99711,1,2,0:2:0:0:
320,31,99893,6,0,L|296:162,1,120.000004577637,4|0,3:2|0:2,0:2:0:0:
221,130,100165,2,0,L|199:11,1,120.000004577637,4|0,3:2|0:2,0:2:0:0:
124,11,100438,6,0,L|96:15,1,24,2|0,3:2|0:2,0:2:0:0:
61,89,100802,6,0,L|49:86,3,8,8|0|0|0,3:2|3:2|3:2|3:2,0:0:0:0:
128,156,101165,6,0,L|143:152,3,16,8|0|0|0,3:2|3:2|3:2|3:2,0:0:0:0:
54,207,101529,6,0,L|26:200,3,23.9999992675781,8|0|0|0,3:2|3:2|3:2|3:2,0:0:0:0:
129,263,101893,6,0,L|178:250,3,32,8|0|0|0,3:2|3:2|3:2|3:2,0:0:0:0:
65,344,102256,5,8,3:2:0:0:
85,344,102347,1,0,3:2:0:0:
104,344,102438,1,0,3:2:0:0:
123,345,102529,1,0,3:2:0:0:
172,333,102620,5,8,3:2:0:0:
192,333,102711,1,0,3:2:0:0:
211,333,102802,1,0,3:2:0:0:
230,332,102893,1,0,3:2:0:0:
247,333,102983,6,0,L|236:395,1,55.9999982910157,8|0,3:2|3:2,0:0:0:0:
326,277,103165,1,0,3:2:0:0:
326,277,103256,1,0,3:2:0:0:
326,277,103347,2,0,L|337:344,1,64,8|0,3:2|3:2,0:0:0:0:
258,186,103529,1,0,3:2:0:0:
258,186,103620,1,0,3:2:0:0:
258,186,103711,5,8,0:2:0:0:
407,221,103893,1,8,0:2:0:0:
207,107,104074,5,8,0:2:0:0:
356,72,104256,1,8,0:2:0:0:
207,265,104438,5,8,0:2:0:0:
58,300,104620,1,8,0:2:0:0:
258,186,104801,5,8,0:2:0:0:
109,151,104983,1,8,0:2:0:0:
297,298,105165,6,0,L|296:308,1,8,2|0,0:2|0:2,0:2:0:0:
377,316,105347,2,0,L|384:324,1,11.9999996337891,2|0,0:2|0:2,0:2:0:0:
441,262,105529,2,0,L|457:263,1,16,2|0,0:2|0:2,0:2:0:0:
433,181,105711,2,0,L|449:167,1,20,2|0,0:2|0:2,0:2:0:0:
356,227,105893,6,0,L|345:155,1,60,2|0,0:2|0:0,0:2:0:0:
399,96,106256,6,0,L|410:67,5,26.6666666666667,4|4|4|4|4|4,0:3|0:3|0:3|0:3|0:3|0:3,0:0:0:0:
485,95,106620,6,0,B|395:72|395:72|347:93|347:93|202:57,1,240,4|0,3:2|0:2,0:2:0:0:
197,3,106983,2,0,P|171:35|173:89,1,80,2|2,3:2|0:2,0:2:0:0:
226,155,107165,1,2,0:2:0:0:
226,155,107256,1,2,0:2:0:0:
226,155,107347,6,0,L|108:171,1,80,2|0,3:2|0:2,0:2:0:0:
12,111,107529,2,0,L|91:100,1,80,2|0,0:3|0:2,0:2:0:0:
223,173,107711,6,0,L|105:189,1,80,2|0,3:2|0:2,0:2:0:0:
10,129,107893,2,0,L|89:118,1,80,2|0,0:3|0:2,0:2:0:0:
221,191,108074,6,0,L|103:207,1,80,2|0,3:2|0:2,0:2:0:0:
8,147,108256,2,0,L|87:136,1,80,2|0,0:3|0:0,0:0:0:0:
219,209,108438,6,0,L|101:225,1,80,2|0,3:2|0:2,0:2:0:0:
6,165,108620,2,0,L|85:154,1,80,2|0,0:3|0:2,0:2:0:0:
218,227,108802,2,0,L|100:243,1,80,2|0,3:2|0:2,0:2:0:0:
31,296,108983,6,0,B|101:287|43:334|160:327,1,120.000004577637,2|0,0:2|3:2,0:2:0:0:
248,357,109256,2,0,P|262:309|225:345,1,120.000004577637,2|0,0:2|0:2,0:2:0:0:
221,328,109529,6,0,P|242:240|243:141,1,180.000006866455,6|0,3:2|0:0,0:2:0:0:
243,151,109893,2,0,L|168:157,2,40,2|0|0,3:2|0:0|0:0,0:2:0:0:
287,82,110074,1,2,0:2:0:0:
287,82,110165,1,2,0:2:0:0:
287,82,110256,6,0,L|405:66,1,80,2|0,3:2|0:2,0:2:0:0:
501,126,110438,2,0,L|421:136,1,80,2|0,0:3|0:2,0:2:0:0:
290,64,110620,6,0,L|408:48,1,80,2|0,3:2|0:2,0:2:0:0:
503,108,110802,2,0,L|423:118,1,80,2|0,0:3|0:2,0:2:0:0:
245,159,110983,6,0,B|394:132|308:268|508:259,1,240,2|0,3:2|0:2,0:2:0:0:
512,212,111347,2,0,B|363:185|449:321|249:312,1,240,2|0,3:2|0:2,0:2:0:0:
232,270,111711,2,0,P|223:316|242:361,1,80,2|0,3:2|0:2,0:2:0:0:
306,202,111893,6,0,B|207:188|207:188|174:227,1,120.000004577637,2|0,0:2|3:2,0:2:0:0:
145,271,112165,2,0,B|132:286|132:286|33:272,1,120.000004577637,2|0,0:2|0:2,0:2:0:0:
0,186,112438,6,0,B|88:199|88:199|75:68,1,180.000006866455,6|0,3:2|0:2,0:2:0:0:
79,108,112802,2,0,L|6:88,2,40,2|0|2,3:2|0:2|0:2,0:2:0:0:
170,93,112983,1,2,0:2:0:0:
170,93,113074,1,2,0:2:0:0:
170,93,113165,6,0,L|154:-1,1,80,2|0,3:2|0:2,0:2:0:0:
245,185,113347,2,0,L|229:279,1,80,2|0,0:3|0:2,0:2:0:0:
186,90,113529,6,0,L|170:-4,1,80,2|0,3:2|0:2,0:2:0:0:
261,182,113711,2,0,L|245:276,1,80,2|0,0:3|0:2,0:2:0:0:
202,89,113893,6,0,L|186:-5,1,80,2|0,3:2|0:2,0:2:0:0:
277,181,114075,2,0,L|261:275,1,80,2|0,0:3|0:2,0:2:0:0:
219,88,114256,6,0,L|203:-6,1,80,2|0,3:2|0:2,0:2:0:0:
294,180,114438,2,0,L|278:274,1,80,2|0,0:3|0:2,0:2:0:0:
487,72,114620,6,0,L|266:91,1,180.000006866455,2|0,3:2|0:2,0:2:0:0:
399,218,114983,2,0,P|469:231|421:165,1,180.000006866455,2|0,3:2|0:2,0:2:0:0:
399,218,115347,6,0,B|329:239|329:239|303:222|303:222|221:247,1,180.000006866455,6|0,3:2|0:2,0:2:0:0:
109,332,115711,2,4,B|176:364|176:364|136:249,1,180.000006866455,6|0,3:2|0:2,0:2:0:0:
287,324,116074,1,12,0:2:0:0:
287,324,116256,1,0,3:2:0:0:
230,244,116438,6,0,P|253:153|248:53,1,180.000006866455,6|0,3:2|0:2,0:2:0:0:
194,3,116802,2,0,P|117:50|204:78,1,180.000006866455,6|0,3:2|0:2,0:2:0:0:
250,67,117165,2,0,L|429:38,1,180.000006866455,6|0,3:2|0:2,0:2:0:0:
283,166,117529,1,12,0:2:0:0:
400,332,118256,6,0,L|141:293,1,240,6|0,3:2|0:2,0:2:0:0:
162,296,118620,2,0,L|166:348,2,30.0000011444092,2|2|2,3:2|0:2|0:2,0:2:0:0:
157,211,118802,1,2,0:2:0:0:
157,211,118893,1,2,0:2:0:0:
157,211,118983,6,0,L|87:197,1,40,2|0,3:2|0:2,0:2:0:0:
67,115,119165,2,0,L|106:122,1,40,2|0,0:3|1:2,0:2:0:0:
162,222,119347,6,0,L|56:200,1,60.0000022888184,2|0,3:2|0:2,0:2:0:0:
57,103,119529,2,0,L|116:114,1,60.0000022888184,2|0,1:3|0:2,0:2:0:0:
194,99,119711,6,0,L|88:120,1,80,2|0,3:2|0:2,0:2:0:0:
24,225,119893,2,0,L|129:203,1,80,2|0,0:3|1:2,0:2:0:0:
197,86,120074,6,0,L|91:107,1,100,2|0,3:2|0:2,0:2:0:0:
20,242,120256,2,0,L|125:220,1,100,2|0,1:3|0:2,0:2:0:0:
200,71,120438,2,0,L|94:92,1,100,2|0,3:2|0:2,0:2:0:0:
249,187,120620,6,0,B|380:208,1,120.000004577637,2|0,0:3|3:2,0:2:0:0:
453,186,120893,2,0,B|497:144|497:144|472:213,1,120.000004577637,2|0,0:2|0:2,0:2:0:0:
511,306,121165,6,0,B|427:287|427:287|416:316|416:316|320:332,1,180.000006866455,6|0,3:2|0:0,0:2:0:0:
353,326,121529,2,0,L|347:371,2,30.0000011444092,2|0|2,3:2|0:2|0:2,0:2:0:0:
276,271,121711,1,2,0:2:0:0:
276,271,121802,1,2,0:2:0:0:
276,271,121893,6,0,B|226:272|226:272|226:277|226:277|150:273|150:273|150:278|150:278|75:274,1,180.000006866455,2|2,3:2|1:3,0:2:0:0:
106,262,122256,2,0,B|149:264|149:264|149:259|149:259|225:263|225:263|225:258|225:258|275:257,1,180.000006866455,2|0,3:2|0:2,0:2:0:0:
279,169,122620,6,0,B|347:170|347:170|347:177|347:177|452:171|452:171|452:178|452:178|555:173,1,240,2|2,3:2|1:3,0:2:0:0:
512,156,122983,2,0,B|451:159|451:159|451:152|451:152|347:157|347:157|347:150|347:150|278:149,1,240,2|0,3:2|0:2,0:2:0:0:
201,145,123347,1,2,3:2:0:0:
27,53,123529,6,0,B|113:49|113:49|130:113,1,120.000004577637,2|0,0:2|3:2,0:2:0:0:
114,170,123802,2,0,B|28:174|28:174|11:110,1,120.000004577637,2|0,0:2|0:2,0:2:0:0:
121,81,124074,6,0,B|180:62|180:62|231:79|231:79|314:51,1,180.000006866455,6|0,3:2|0:2,0:2:0:0:
291,58,124438,2,0,L|303:17,2,30.0000011444092,2|2|2,3:2|0:2|0:2,0:2:0:0:
276,151,124620,1,6,3:2:0:0:
429,186,124802,2,0,P|327:145|271:249,1,240.000009155274,6|8,3:2|0:2,0:2:0:0:
303,329,125256,2,0,P|394:305|438:300,1,120.000004577637,2|0,3:2|0:2,0:2:0:0:
496,372,125529,6,0,L|506:288,1,60.0000022888184,6|0,3:2|0:2,0:2:0:0:
439,156,125711,2,0,L|431:215,1,60.0000022888184,2|0,0:2|0:2,0:2:0:0:
477,368,125893,2,0,L|487:284,1,60.0000022888184,2|0,0:2|0:2,0:2:0:0:
420,152,126075,2,0,L|412:211,1,60.0000022888184,2|0,3:2|0:0,0:0:0:0:
384,301,126256,1,14,0:2:0:0:
384,301,126347,6,0,P|293:277|249:272,1,120.000004577637,2|0,3:2|0:2,0:2:0:0:
198,355,126620,2,0,P|237:345|212:335,1,90.0000034332277,2|0,3:2|0:0,0:2:0:0:
135,305,126983,5,6,3:2:0:0:
281,213,127165,1,2,3:2:0:0:
92,237,127347,5,2,3:2:0:0:
238,145,127529,1,2,3:2:0:0:
384,160,127711,5,2,3:2:0:0:
238,68,127893,1,2,3:2:0:0:
427,92,128075,5,2,3:2:0:0:
456,90,128165,1,2,3:2:0:0:
485,88,128256,1,2,3:2:0:0:
473,115,128347,1,2,3:2:0:0:
460,139,128438,1,2,3:2:0:0:
24,292,129529,6,0,B|65:276|181:288|99:348|168:379|301:347,1,240,2|0,0:2|0:2,0:2:0:0:
328,347,129893,1,6,3:2:0:0:
256,192,147347,12,0,151529,3:0:0:0:
146,314,151711,6,0,L|179:308,22,20,0|0|0|0|0|0|0|0|0|0|0|0|0|0|0|0|0|0|0|0|0|0|0,3:2|3:2|3:2|3:2|3:2|3:2|3:2|3:2|3:2|3:2|3:2|3:2|3:2|3:2|3:2|3:2|3:2|3:2|3:2|3:2|3:2|0:0|0:0,3:2:0:0:
58,342,152802,6,0,L|48:385,5,26.6666666666667,0|0|0|0|0|0,1:2|1:2|1:2|1:2|1:2|1:2,0:0:0:0:
66,247,153165,6,0,L|53:27,1,180.000006866455,6|2,3:2|0:2,0:2:0:0:
134,21,153529,2,0,L|206:38,1,60.0000022888184,2|2,0:2|0:2,0:2:0:0:
198,52,153802,1,2,0:2:0:0:
227,215,153983,1,0,0:2:0:0:
233,200,154074,6,0,L|384:170,1,120.000004577637,6|0,3:2|0:2,0:2:0:0:
464,181,154347,2,0,P|375:213|398:269,1,120.000004577637,6|0,3:2|0:2,0:2:0:0:
394,359,154620,2,0,P|406:283|311:277,1,180.000006866455,6|0,3:2|0:2,0:2:0:0:
261,338,154983,6,0,L|189:349,1,60.0000022888184,2|2,0:2|0:2,0:2:0:0:
191,362,155256,1,2,0:2:0:0:
0,178,155438,1,0,0:2:0:0:
15,192,155529,6,0,P|92:190|117:239,1,120.000004577637,6|0,3:2|0:2,0:2:0:0:
154,289,155802,2,0,L|180:150,1,120.000004577637,6|0,3:2|0:2,0:2:0:0:
93,98,156074,2,0,B|193:87|152:160|286:136,1,180.000006866455,6|0,3:2|0:2,0:2:0:0:
297,66,156438,6,0,P|279:56|228:77,1,60.0000022888184,2|2,0:2|0:2,0:2:0:0:
226,52,156711,1,2,0:2:0:0:
475,149,156893,1,0,0:2:0:0:
486,134,156983,6,0,P|390:154|380:204,1,120.000004577637,6|0,3:2|0:2,0:2:0:0:
312,203,157256,2,0,L|357:350,1,120.000004577637,6|0,3:2|0:2,0:2:0:0:
458,319,157529,2,0,B|336:292|415:388|264:380,1,180.000006866455,6|0,3:2|0:2,0:2:0:0:
223,337,157893,1,2,0:2:0:0:
223,337,158074,6,0,L|95:305,1,120.000004577637,4|0,3:2|0:2,0:2:0:0:
50,366,158347,2,0,P|57:323|64:206,1,120.000004577637,6|0,3:2|0:2,0:2:0:0:
53,159,158620,6,0,L|8:146,2,40.000001525879,2|2|2,0:2|0:2|0:2,0:0:0:0:
121,96,158802,1,2,0:2:0:0:
121,96,158893,1,2,0:2:0:0:
121,96,158983,6,0,L|201:104,3,60.0000022888184,4|0|0|0,3:2|3:2|3:2|3:2,0:0:0:0:
231,22,159347,2,0,L|311:14,3,60.0000022888184,0|0|0|0,3:2|3:2|3:2|3:2,0:0:0:0:
281,115,159711,2,0,L|361:123,3,60.0000022888184,0|0|0|0,3:2|3:2|3:2|3:2,0:0:0:0:
391,41,160075,2,0,L|471:33,3,60.0000022888184,0|0|0|0,3:2|3:2|3:2|3:2,0:0:0:0:
482,123,160438,5,0,3:2:0:0:
476,152,160529,1,0,3:2:0:0:
471,181,160620,1,0,3:2:0:0:
466,210,160711,1,0,3:2:0:0:
461,239,160802,2,0,L|449:323,1,60.0000022888184,0|0,3:2|3:2,0:0:0:0:
371,306,160983,2,0,L|362:365,1,60.0000022888184,0|0,3:2|3:2,0:0:0:0:
351,217,161165,5,0,3:2:0:0:
322,223,161256,1,0,3:2:0:0:
293,228,161347,1,0,3:2:0:0:
264,233,161438,1,0,3:2:0:0:
235,238,161529,2,0,L|151:250,1,60.0000022888184,0|0,3:2|3:2,0:0:0:0:
209,340,161711,2,0,L|268:331,1,60.0000022888184,0|0,3:2|3:2,0:0:0:0:
218,108,161893,5,0,3:2:0:0:
175,246,162074,1,0,3:2:0:0:
299,47,162256,5,0,3:2:0:0:
342,185,162437,1,0,3:2:0:0:
169,24,162620,5,0,3:2:0:0:
126,162,162801,1,0,3:2:0:0:
380,2,162983,5,0,3:2:0:0:
423,140,163164,1,0,3:2:0:0:
460,286,163347,6,0,L|448:283,1,8,2|0,0:2|0:2,0:2:0:0:
373,311,163529,2,0,L|357:307,1,16,2|0,0:2|0:2,0:2:0:0:
284,332,163711,2,0,L|261:326,1,23.9999992675781,2|0,0:2|0:2,0:2:0:0:
188,355,163893,2,0,L|143:343,1,32,2|0,0:2|0:2,0:2:0:0:
63,368,164074,6,0,P|78:243|74:165,1,180.000006866455,2|0,0:2|0:2,0:2:0:0:
34,118,164438,6,0,P|7:137|3:168,2,40.000001525879,6|6|6,0:3|0:3|0:3,0:0:0:0:
86,49,164620,2,0,P|91:16|72:-8,2,40.000001525879,6|6|6,0:3|0:3|0:3,0:0:0:0:
170,179,164802,6,0,P|300:170|329:103,1,160,6|0,3:2|0:2,3:2:0:0:
351,79,165074,1,2,0:2:0:0:
343,59,165165,2,2,B|442:37|442:37|438:120,1,160,0|2,3:2|0:2,0:2:0:0:
439,180,165438,2,0,L|531:219,1,80,2|0,0:2|3:0,0:2:0:0:
380,333,165711,1,2,0:2:0:0:
380,333,165802,1,2,0:2:0:0:
380,333,165893,2,0,L|392:384,2,53.3333333333333,2|2|2,3:2|0:2|0:2,0:0:0:0:
294,296,166074,1,2,0:2:0:0:
92,231,166256,6,0,B|144:207|144:207|194:217|194:217|261:172,1,160,2|0,3:2|0:2,0:2:0:0:
283,70,166529,1,2,0:2:0:0:
266,47,166620,2,0,P|178:68|189:136,1,160,2|2,3:2|0:2,0:2:0:0:
90,132,166893,2,0,P|66:113|6:103,1,80,2|0,0:2|3:0,0:2:0:0:
98,325,167165,1,2,0:2:0:0:
98,325,167256,1,2,0:2:0:0:
98,325,167347,2,0,L|86:387,2,53.3333333333333,2|2|2,3:2|0:2|0:2,0:0:0:0:
164,279,167529,1,2,0:2:0:0:
164,279,167620,1,2,0:2:0:0:
164,279,167711,6,0,B|211:313|211:313|335:273,1,160,2|0,3:2|0:2,0:2:0:0:
332,194,167983,1,2,0:2:0:0:
325,172,168074,2,0,P|410:147|447:213,1,160,2|2,3:2|0:2,0:2:0:0:
512,275,168347,2,0,P|473:280|466:332,1,80,2|0,0:2|3:2,0:2:0:0:
475,65,168620,1,2,0:2:0:0:
475,65,168711,1,0,0:2:0:0:
475,65,168802,2,0,L|490:4,2,53.3333333333333,2|2|2,3:2|0:2|0:2,0:0:0:0:
388,47,168983,1,2,0:2:0:0:
332,194,169165,6,0,P|288:192|137:171,1,160,2|0,3:2|0:2,0:2:0:0:
99,223,169438,1,2,0:2:0:0:
86,242,169529,2,0,P|39:162|77:102,1,160,2|2,3:2|0:2,0:2:0:0:
90,0,169802,2,0,P|55:27|-6:21,1,80,2|0,0:2|3:0,0:2:0:0:
249,127,170074,1,2,0:2:0:0:
249,127,170165,1,2,0:2:0:0:
249,127,170256,2,0,L|321:104,2,53.3333333333333,2|2|2,3:2|0:2|0:2,0:0:0:0:
172,178,170438,1,2,0:2:0:0:
172,178,170529,1,2,0:2:0:0:
172,178,170620,6,0,L|197:366,1,160,6|0,3:2|0:2,0:2:0:0:
288,352,170893,1,2,0:2:0:0:
290,331,170983,2,0,B|384:337|339:266|458:279,1,160,2|2,3:2|0:2,0:2:0:0:
505,345,171256,2,0,P|467:377|409:364,1,80,2|0,0:2|3:0,0:2:0:0:
452,194,171529,1,2,0:2:0:0:
452,194,171620,1,2,0:2:0:0:
452,194,171711,2,0,L|517:204,2,53.3333333333333,2|2|2,3:2|0:2|0:2,0:0:0:0:
403,263,171893,1,2,0:2:0:0:
451,102,172074,6,0,B|354:94|415:168|261:169,1,160,2|0,3:2|0:2,0:2:0:0:
224,84,172347,1,2,0:2:0:0:
235,68,172438,2,0,B|273:-3|273:-3|302:96,1,160,2|2,3:2|0:2,0:2:0:0:
310,165,172711,2,0,B|307:207|307:207|272:153,1,80,2|0,0:2|3:0,0:2:0:0:
82,87,172983,1,2,0:2:0:0:
82,87,173074,1,0,0:2:0:0:
82,87,173165,2,0,L|63:15,2,53.3333333333333,2|0|0,3:2|0:0|0:0,0:0:0:0:
40,157,173347,1,2,0:2:0:0:
40,157,173438,1,2,0:2:0:0:
40,157,173529,6,0,L|20:281,1,80,2|2,3:2|0:2,0:0:0:0:
56,325,173711,1,2,0:2:0:0:
56,325,173802,1,2,0:2:0:0:
56,325,173893,2,0,B|156:346|116:264|216:290,1,160,2|0,3:2|0:2,0:2:0:0:
299,276,174165,2,0,P|304:303|239:361,1,80,2|0,0:2|3:0,0:2:0:0:
131,145,174438,1,2,0:2:0:0:
131,145,174529,1,2,0:2:0:0:
131,145,174620,2,0,P|201:135|218:262,1,160,2|0,3:2|0:2,0:2:0:0:
299,276,174893,6,0,P|353:275|367:204,1,80,2|0,0:2|3:2,0:2:0:0:
490,88,175165,1,2,0:2:0:0:
490,88,175256,1,2,0:2:0:0:
486,140,175347,1,2,3:2:0:0:
486,140,175438,2,0,L|472:258,2,80,2|2|2,0:2|0:2|0:2,0:0:0:0:
400,18,175711,6,0,B|289:39|289:39|330:78,1,160,6|0,3:2|0:2,0:2:0:0:
366,171,175983,2,0,B|339:347,1,160,6|0,3:2|0:0,0:0:0:0:
465,330,176256,1,6,3:2:0:0:
465,330,176347,1,2,0:2:0:0:
465,330,176438,6,0,B|311:276|390:417|206:342,1,240,6|2,3:2|0:2,0:2:0:0:
95,384,176802,2,0,P|154:296|106:234,1,160,2|2,3:2|0:2,0:2:0:0:
71,196,177074,2,0,P|44:247|61:292,1,80,2|0,0:2|3:0,0:2:0:0:
225,192,177347,1,2,0:2:0:0:
225,192,177438,1,2,3:2:0:0:
212,152,177529,1,2,3:2:0:0:
212,152,177620,2,0,L|241:-9,1,160,2|2,3:2|3:2,0:2:0:0:
329,67,177893,6,0,L|234:87,1,80,6|0,3:2|0:2,0:2:0:0:
174,50,178165,1,2,0:2:0:0:
174,50,178256,2,0,P|128:63|116:120,1,80,2|2,0:2|0:2,0:2:0:0:
25,162,178529,2,0,P|33:108|30:71,1,80,2|2,0:2|0:2,0:2:0:0:
15,70,178802,1,2,0:2:0:0:
27,185,178983,2,0,P|91:185|134:253,1,120,2|2,0:2|0:2,0:0:0:0:
53,265,179347,6,0,B|152:220|91:320|263:238,1,160,6|0,3:2|0:2,0:2:0:0:
273,337,179620,1,2,0:2:0:0:
273,337,179711,2,0,P|361:289|414:325,1,160,2|2,3:2|0:2,0:2:0:0:
495,356,179983,2,0,P|500:318|525:274,1,80,2|2,0:2|3:2,0:0:0:0:
439,122,180256,1,2,3:2:0:0:
439,122,180347,1,2,3:2:0:0:
439,122,180438,2,0,L|496:115,2,40,2|0|0,3:2|3:2|3:2,3:2:0:0:
380,50,180620,1,2,3:2:0:0:
380,50,180711,1,2,3:2:0:0:
380,50,180802,5,6,3:2:0:0:
137,33,180983,1,6,0:2:0:0:
372,199,181165,1,6,3:2:0:0:
116,184,181347,6,0,L|68:178,2,40,2|0|0,0:2|0:2|0:2,0:2:0:0:
203,253,181529,2,0,P|224:190|236:157,1,80,2|2,0:2|0:2,0:2:0:0:
246,164,181802,1,0,0:2:0:0:
261,155,181893,2,0,B|314:160|316:194|383:200,1,120,2|0,0:2|0:2,0:2:0:0:
494,251,182256,6,0,P|433:212|413:358,1,280,0|0,0:0|0:2,0:0:0:0:
497,344,182983,5,8,0:2:0:0:
497,344,183347,6,0,B|382:312|382:312|339:348|339:348|241:314,1,240,6|0,3:2|0:2,0:2:0:0:
314,224,183711,2,0,B|331:235|331:235|311:253,2,40,0|0|0,0:2|0:2|0:2,0:2:0:0:
225,244,183893,1,2,0:2:0:0:
225,244,183983,1,2,0:2:0:0:
225,244,184074,6,0,L|175:251,1,40,2|0,3:3|0:2,0:2:0:0:
190,332,184256,2,0,L|150:337,1,40,2|0,0:2|0:2,0:2:0:0:
25,167,184438,6,0,L|75:174,1,40,10|0,0:2|0:2,0:2:0:0:
60,255,184620,2,0,L|99:260,1,40,2|0,0:2|0:2,0:2:0:0:
155,171,184802,6,0,L|144:115,1,40,2|0,0:3|0:2,0:2:0:0:
73,94,184983,2,0,L|62:38,1,40,2|0,0:2|0:2,0:2:0:0:
204,51,185165,6,0,L|150:46,1,40,2|0,3:2|0:2,0:2:0:0:
243,129,185347,2,0,L|265:178,1,40,2|0,0:2|0:2,0:2:0:0:
292,57,185529,2,0,B|319:17|319:17|411:49,1,120,2|0,0:3|0:2,0:2:0:0:
391,52,185893,6,0,L|478:37,1,80,10|2,0:2|0:2,0:2:0:0:
484,51,186165,1,2,0:2:0:0:
496,62,186256,2,0,L|486:112,1,40,2|0,3:3|0:2,0:2:0:0:
415,128,186438,2,0,L|405:178,1,40,2|0,3:2|0:2,0:2:0:0:
495,234,186620,6,0,L|367:258,1,95.9999970703126,2|0,3:2|0:2,0:2:0:0:
394,277,186893,1,2,3:2:0:0:
326,376,187074,1,2,3:2:0:0:
308,367,187165,2,0,P|284:299|286:289,1,47.9999985351563,2|0,3:2|0:2,0:2:0:0:
309,246,187347,1,10,0:2:0:0:
65,105,188074,6,0,L|292:77,1,160,6|0,3:2|0:2,0:2:0:0:
313,122,188347,2,0,P|330:83|314:33,1,80,2|8,0:2|3:2,0:2:0:0:
315,38,188529,1,0,0:2:0:0:
305,28,188620,2,0,L|408:57,1,80,2|0,0:2|0:2,0:2:0:0:
504,111,188802,6,0,P|427:162|414:272,1,160,2|0,3:2|0:2,0:2:0:0:
476,375,189074,2,0,P|488:347|465:301,1,80,2|8,0:2|3:2,0:2:0:0:
461,313,189256,1,0,0:2:0:0:
455,323,189347,2,0,P|410:334|333:339,1,80,2|0,0:2|0:2,0:2:0:0:
272,384,189529,6,0,L|293:190,1,160,2|0,3:2|0:2,0:2:0:0:
250,128,189802,2,0,L|170:149,1,80,2|8,0:2|3:2,0:2:0:0:
161,142,189983,1,0,0:2:0:0:
151,139,190074,2,0,L|71:160,1,80,2|0,0:2|0:2,0:2:0:0:
12,323,190256,6,0,B|65:366|65:366|111:263,1,160,2|0,3:2|0:2,0:2:0:0:
185,248,190529,2,0,B|221:233|221:233|256:253,1,80,2|8,0:2|3:2,0:2:0:0:
272,268,190711,1,0,0:2:0:0:
285,280,190802,2,0,L|266:366,1,80,2|0,0:2|0:2,0:2:0:0:
383,342,190983,6,0,P|466:285|428:210,1,160,2|0,3:2|0:2,0:2:0:0:
374,202,191256,2,0,B|361:161|361:161|392:122,1,80,2|8,0:2|3:2,0:2:0:0:
394,123,191438,1,0,0:2:0:0:
405,115,191529,2,0,L|496:135,1,80,2|0,0:2|0:2,0:2:0:0:
390,33,191711,6,0,B|342:45|323:82|323:82|327:42|299:13,1,160,2|0,3:2|0:2,0:2:0:0:
153,55,191983,2,0,P|184:76|248:67,1,80,2|8,0:2|3:2,0:2:0:0:
237,75,192165,1,0,0:2:0:0:
246,71,192256,2,0,L|226:189,1,80,2|0,0:2|0:2,0:2:0:0:
163,197,192438,6,0,B|36:167|36:167|6:206,1,160,2|0,3:2|0:2,0:2:0:0:
24,278,192711,2,0,L|47:403,1,80,2|8,0:2|3:2,0:2:0:0:
47,346,192892,1,0,0:2:0:0:
58,336,192983,2,0,P|89:312|127:303,1,80,2|0,0:2|0:2,0:2:0:0:
319,257,193165,6,0,P|282:357|236:332,1,160,2|0,3:2|0:2,0:2:0:0:
275,179,193438,2,0,P|359:237|415:176,1,160,2|0,3:2|0:2,0:2:0:0:
449,113,193711,2,0,P|427:94|448:116,1,80,2|0,3:2|0:2,0:2:0:0:
493,197,193893,5,2,3:2:0:0:
493,197,194074,1,2,3:2:0:0:
329,104,194256,6,0,L|202:85,1,80,14|0,3:2|0:0,0:2:0:0:
362,20,194438,2,0,L|489:1,1,80,0|2,0:2|0:2,0:0:0:0:
329,116,194620,6,0,L|95:81,1,160,2|0,3:2|0:2,0:2:0:0:
36,25,194893,2,0,P|60:41|75:99,1,80,2|8,0:2|3:2,0:2:0:0:
69,102,195074,1,0,0:2:0:0:
57,114,195165,2,0,L|73:223,1,80,2|0,0:2|0:2,0:2:0:0:
84,278,195347,5,2,3:2:0:0:
225,214,195529,1,2,3:2:0:0:
225,214,195620,1,2,3:2:0:0:
209,368,195802,1,2,3:2:0:0:
209,368,195893,1,2,3:2:0:0:
176,285,196074,6,0,L|102:278,2,53.3333333333333,8|8|8,3:3|0:3|0:3,0:0:0:0:
225,214,196256,2,0,L|299:207,2,53.3333333333333,8|8|8,3:3|0:3|0:3,0:0:0:0:
154,151,196438,2,0,L|80:144,2,53.3333333333333,4|4|4,3:3|0:3|0:3,0:0:0:0:
203,80,196620,2,0,L|277:73,2,53.3333333333333,4|4|4,3:3|0:3|0:3,0:0:0:0:
226,224,196802,6,0,L|403:212,1,160,4|0,3:2|0:2,0:2:0:0:
473,254,197074,2,0,P|355:282|364:333,1,160,4|0,3:2|0:2,0:2:0:0:
512,159,197347,1,2,0:2:0:0:
512,159,197529,6,0,B|414:170|457:86|301:128,1,160,4|0,3:2|0:2,0:2:0:0:
266,133,197802,2,0,P|327:62|257:19,1,160,4|0,3:2|0:2,0:2:0:0:
296,23,198074,2,0,L|250:41,1,30.0000011444092,2|0,0:2|0:2,0:2:0:0:
20,101,198256,6,0,B|133:71|133:71|166:126,1,160,4|0,3:2|0:2,0:2:0:0:
239,179,198529,2,0,B|126:149|126:149|93:204,1,160,4|0,3:2|0:2,0:2:0:0:
103,185,198802,1,2,0:2:0:0:
102,327,198983,5,2,3:2:0:0:
102,292,199074,1,2,0:2:0:0:
132,309,199165,1,2,0:2:0:0:
91,309,199256,5,2,0:2:0:0:
122,292,199347,1,2,0:2:0:0:
122,327,199438,1,2,0:2:0:0:
112,310,199529,5,2,0:2:0:0:
219,337,199711,5,0,3:2:0:0:
219,337,199802,1,0,3:2:0:0:
219,337,199893,2,0,L|387:306,1,120.000004577637,2|0,3:2|3:2,3:2:0:0:
358,335,200165,1,0,3:2:0:0:
379,355,200256,6,0,L|397:271,3,60.0000022888184,2|0|0|0,3:2|3:2|3:2|3:2,3:2:0:0:
307,229,200620,2,0,L|289:145,3,60.0000022888184,2|0|0|0,3:2|3:2|3:2|3:2,3:2:0:0:
414,199,200984,2,0,L|432:115,3,60.0000022888184,2|0|0|0,3:2|3:2|3:2|3:2,3:2:0:0:
341,86,201347,2,0,L|323:2,3,60.0000022888184,2|0|0|0,3:2|3:2|3:2|3:2,3:2:0:0:
294,170,201711,5,2,3:2:0:0:
264,166,201802,1,0,3:2:0:0:
234,162,201893,1,0,3:2:0:0:
204,158,201983,1,0,3:2:0:0:
174,153,202074,1,2,3:2:0:0:
144,148,202165,1,0,3:2:0:0:
114,144,202256,1,2,0:2:0:0:
398,335,202620,5,4,3:2:0:0:
398,335,202711,1,0,3:2:0:0:
398,335,202802,2,0,L|530:317,1,120.000004577637,2|0,3:2|3:2,3:2:0:0:
494,298,203074,1,0,3:2:0:0:
469,280,203165,6,0,L|513:217,3,60.0000022888184,2|0|0|0,3:2|3:2|3:2|3:2,3:2:0:0:
386,225,203529,2,0,L|372:149,3,60.0000022888184,2|2|0|0,3:2|3:2|3:2|3:2,3:2:0:0:
288,244,203893,2,0,L|224:199,3,60.0000022888184,2|2|0|0,3:2|3:2|3:2|3:2,3:2:0:0:
232,326,204256,2,0,L|156:339,3,60.0000022888184,2|0|0|0,3:2|3:2|3:2|3:2,3:2:0:0:
138,252,204620,1,2,3:2:0:0:
138,252,204711,1,0,3:2:0:0:
138,252,204802,6,0,L|121:198,3,40.000001525879,2|2|2|2,0:2|0:2|0:2|0:2,0:0:0:0:
72,345,205165,6,0,L|84:298,2,30.0000011444092,2|2|2,0:2|0:2|0:2,0:2:0:0:
81,57,205529,6,0,P|127:45|177:18,1,80,4|0,3:2|0:2,0:2:0:0:
243,5,205802,2,0,P|289:17|339:44,1,80,0|0,3:2|0:2,0:2:0:0:
374,92,206074,1,0,3:2:0:0:
189,114,206256,6,0,P|230:138|284:154,1,100,4|0,3:2|0:2,0:2:0:0:
354,191,206529,2,0,P|378:232|394:286,1,100,0|0,3:2|0:2,0:2:0:0:
365,360,206801,1,0,3:2:0:0:
43,343,206983,6,0,P|88:263|148:278,1,120.000004577637,4|0,3:2|0:2,3:2:0:0:
185,286,207256,2,0,P|195:342|247:368,1,120.000004577637,0|0,3:2|0:2,0:2:0:0:
302,311,207529,1,0,3:2:0:0:
471,286,207711,6,0,L|491:91,1,140.000001335144,4|0,3:2|0:2,0:2:0:0:
373,0,207983,2,0,L|387:139,1,140.000001335144,0|0,3:2|0:2,0:2:0:0:
396,227,208256,1,0,3:2:0:0:
60,97,208438,5,4,3:2:0:0:
260,48,208620,1,0,3:2:0:0:
74,180,208802,5,4,3:2:0:0:
274,131,208984,1,0,3:2:0:0:
88,263,209165,5,4,3:2:0:0:
288,214,209347,1,0,3:2:0:0:
102,346,209529,5,4,3:2:0:0:
302,297,209711,1,0,3:2:0:0:
206,365,209893,6,0,L|207:349,1,10,6|0,3:2|0:2,0:2:0:0:
193,275,210074,2,0,L|194:252,1,20,2|0,0:2|0:2,0:2:0:0:
177,182,210256,2,0,L|178:150,1,30.0000011444092,2|0,2:2|2:2,2:2:0:0:
145,79,210438,2,0,L|147:34,1,40,2|0,2:2|2:2,2:2:0:0:
177,182,210620,6,0,L|377:136,1,180.000006866455,2|0,0:2|0:2,0:2:0:0:
405,71,210983,6,0,L|441:81,140,30.0000011444092,2|0|0|0|0|0|0|0|0|0|0|0|0|0|0|0|0|0|0|0|0|0|0|0|0|0|0|0|0|0|0|0|0|0|0|0|0|0|0|0|0|0|0|0|0|0|0|0|0|0|0|0|0|0|0|0|0|0|0|0|0|0|0|0|0|0|0|0|0|0|0|0|0|0|0|0|0|0|0|0|0|0|0|0|0|0|0|0|0|0|0|0|0|0|0|0|0|0|0|0|0|0|0|0|0|0|0|0|0|0|0|0|0|0|0|0|0|0|0|0|0|0|0|0|0|0|0|0|0|0|0|0|0|0|0|0|0|0|0|0|0,0:2|0:2|0:2|0:2|0:2|0:2|0:2|0:2|0:2|0:2|0:2|0:2|0:2|0:2|0:2|0:2|0:2|0:2|0:2|0:2|0:2|0:2|0:2|0:2|0:2|0:2|0:2|0:2|0:2|0:2|0:2|0:2|0:2|0:2|0:2|0:2|0:2|0:2|0:2|0:2|0:2|0:2|0:2|0:2|0:2|0:2|0:2|0:2|0:2|0:2|0:2|0:2|0:2|0:2|0:2|0:2|0:2|0:2|0:2|0:2|0:2|0:2|0:2|0:2|0:2|0:2|0:2|0:2|0:2|0:2|0:2|0:2|0:2|0:2|0:2|0:2|0:2|0:2|0:2|0:2|0:2|0:2|0:2|0:2|0:2|0:2|0:2|0:2|0:2|0:2|0:2|0:2|0:2|0:2|0:2|0:2|0:2|0:2|0:2|0:2|0:2|0:2|0:2|0:2|0:2|0:2|0:2|0:2|0:2|0:2|0:2|0:2|0:2|0:2|0:2|0:2|0:2|0:2|0:2|0:2|0:2|0:2|0:2|0:2|0:2|0:2|0:2|0:2|0:2|0:2|0:2|0:2|0:2|0:2|0:2|0:2|0:2|0:2|0:2|0:2|0:2,0:2:0:0:
441,188,214256,6,0,L|437:158,1,24,2|0,0:2|0:2,0:2:0:0:
427,194,214620,2,0,L|407:144,1,48,2|0,0:2|0:2,0:2:0:0:
415,205,214983,2,0,L|367:142,1,71.9999978027344,2|0,0:2|0:2,0:2:0:0:
406,219,215347,2,0,L|320:152,1,96,2|0,0:2|0:2,0:2:0:0:
402,235,215711,2,0,L|263:177,1,120,2|0,0:2|0:2,0:2:0:0:
403,248,216074,2,0,L|254:228,1,143.999995605469,2|0,0:2|0:2,0:2:0:0:
406,262,216438,2,0,L|226:286,1,167.999994873047,2|0,0:2|0:2,0:2:0:0:
412,274,216802,2,0,L|218:354,1,192,2|0,0:2|0:2,0:2:0:0:
145,329,217165,5,4,3:2:0:0:
45,302,217347,1,0,3:2:0:0:
173,249,217529,5,0,3:2:0:0:
73,222,217711,1,0,3:2:0:0:
259,177,217893,5,0,3:2:0:0:
359,150,218075,1,0,3:2:0:0:
231,97,218257,5,0,3:2:0:0:
331,70,218439,1,0,3:2:0:0:
254,193,218620,5,0,3:2:0:0:
219,186,218711,1,0,3:2:0:0:
184,179,218802,1,0,3:2:0:0:
149,172,218893,1,0,3:2:0:0:
114,166,218983,2,0,B|95:144|95:144|104:83,1,71.9999978027344,0|0,3:2|3:2,0:0:0:0:
219,32,219165,2,0,B|238:54|238:54|229:115,1,71.9999978027344,0|0,3:2|3:2,0:0:0:0:
46,299,219893,6,0,L|59:352,2,47.9999985351563,4|4|4,0:3|0:3|0:3,0:0:0:0:
32,278,220074,6,0,B|116:267|116:267|150:301|150:301|287:281,1,240,4|0,3:2|0:2,0:2:0:0:
355,303,220438,2,0,B|397:284|397:284|338:276,1,80,2|0,0:2|3:2,0:2:0:0:
135,47,220802,5,2,3:2:0:0:
164,52,220893,1,2,0:2:0:0:
193,57,220983,1,2,0:3:0:0:
222,62,221074,1,2,0:2:0:0:
244,91,221165,5,2,3:2:0:0:
273,96,221256,1,2,0:2:0:0:
302,101,221346,1,2,0:3:0:0:
331,106,221437,1,2,0:2:0:0:
369,95,221529,6,0,L|387:24,1,60.0000022888184,2|0,3:2|0:2,0:2:0:0:
456,88,221711,2,0,L|474:17,1,60.0000022888184,2|0,0:3|0:2,0:2:0:0:
411,221,221893,6,0,L|429:150,1,60.0000022888184,2|0,3:2|0:2,0:2:0:0:
498,214,222075,2,0,L|516:143,1,60.0000022888184,2|0,0:3|0:2,0:2:0:0:
369,95,222256,1,2,3:2:0:0:
259,220,222438,6,0,P|161:272|138:251,1,120.000004577637,0|2,0:0|3:2,0:0:0:0:
77,243,222711,1,0,0:2:0:0:
86,255,222802,2,0,L|95:355,1,60.0000022888184,2|0,3:2|0:2,0:2:0:0:
126,170,222983,6,0,B|131:60|131:60|61:43,1,180.000006866455,6|0,3:2|0:0,0:2:0:0:
63,43,223347,2,0,B|168:81|114:-12|269:11,1,180.000006866455,2|0,3:2|0:2,0:2:0:0:
282,84,223711,5,2,3:2:0:0:
311,76,223802,1,2,0:2:0:0:
318,104,223893,1,2,0:3:0:0:
290,114,223983,1,2,0:2:0:0:
267,149,224074,5,2,3:2:0:0:
238,141,224165,1,2,0:2:0:0:
231,169,224256,1,2,0:3:0:0:
259,179,224346,1,2,0:2:0:0:
300,202,224438,6,0,L|377:215,1,60.0000022888184,2|0,3:2|0:2,0:2:0:0:
403,148,224620,2,0,L|480:161,1,60.0000022888184,2|0,0:3|0:2,0:2:0:0:
337,296,224802,6,0,L|414:309,1,60.0000022888184,2|0,3:2|0:2,0:2:0:0:
440,242,224984,2,0,L|517:255,1,60.0000022888184,2|0,3:3|0:2,0:2:0:0:
482,335,225165,1,2,3:2:0:0:
337,296,225347,6,0,B|310:290|310:290|259:323|259:323|222:312,1,120.000004577637,2|0,3:2|0:2,0:2:0:0:
94,376,225620,2,0,P|177:346|202:392,1,120.000004577637,2|0,3:2|0:2,0:2:0:0:
174,254,225893,1,6,3:2:0:0:
174,254,225983,1,2,3:2:0:0:
174,254,226074,1,2,3:2:0:0:
27,121,226256,6,0,L|187:99,1,120.000004577637,4|0,3:2|0:2,0:2:0:0:
159,81,226529,1,0,3:2:0:0:
169,62,226620,2,0,L|151:4,1,60.0000022888184,2|2,3:2|0:2,0:0:0:0:
224,159,226802,5,2,0:3:0:0:
252,150,226893,1,2,0:2:0:0:
280,142,226983,2,0,L|353:163,1,60.0000022888184,2|0,3:2|0:2,0:2:0:0:
418,182,227165,2,0,L|491:203,1,60.0000022888184,2|0,3:3|0:2,0:2:0:0:
436,0,227347,6,0,B|366:17|366:17|398:103,1,160,2|2,3:3|0:3,0:2:0:0:
321,364,227711,5,2,3:2:0:0:
369,338,227832,1,2,3:2:0:0:
378,291,227953,1,2,3:2:0:0:
353,250,228074,6,0,B|213:207|281:338|88:271,1,240,2|2,3:2|0:2,0:2:0:0:
78,135,228438,2,0,P|145:85|125:205,1,240,2|0,3:2|0:2,0:2:0:0:
172,195,228802,6,0,L|298:172,1,120,6|0,3:2|0:2,0:2:0:0:
392,95,229165,2,0,L|266:71,1,120,2|0,3:3|0:2,0:2:0:0:
478,151,229529,2,0,B|508:108|508:108|484:45,1,120,2|0,3:3|0:2,0:2:0:0:
388,195,229893,2,0,B|358:238|358:238|382:301,1,120,2|0,3:3|0:2,0:2:0:0:
464,356,230256,5,2,3:3:0:0:
464,356,230347,1,2,3:2:0:0:
161,258,230620,5,2,3:3:0:0:
161,258,230711,1,2,3:2:0:0:
237,384,230983,6,0,L|268:192,1,180.000006866455,2|0,3:2|0:2,0:2:0:0:
265,206,231347,1,0,0:0:0:0:
127,106,231711,6,0,P|164:63|76:30,1,180.000006866455,4|0,3:2|0:0,0:0:0:0:
83,23,232074,6,0,B|115:211|115:211|226:204|209:86|112:92|107:148,1,383.99998828125,2|0,0:2|3:2,0:2:0:0:
341,177,232620,6,0,L|420:159,2,50,0|0|0,3:2|3:2|3:2,3:2:0:0:
261,225,232802,6,0,L|250:312,1,50,0|0,3:2|0:2,0:2:0:0:
342,265,232983,2,0,L|331:352,1,50,0|0,3:2|0:2,0:2:0:0:
243,384,233165,5,6,3:2:0:0:
243,359,233256,1,2,0:2:0:0:
264,371,233347,1,2,0:3:0:0:
450,260,233529,5,2,3:2:0:0:
450,235,233620,1,2,0:2:0:0:
429,247,233711,1,2,0:3:0:0:
185,171,233893,5,2,3:2:0:0:
185,146,233984,1,2,0:2:0:0:
207,159,234074,2,0,L|46:142,1,120.000004577637,2|2,0:3|3:2,0:3:0:0:
76,154,234347,1,0,0:2:0:0:
63,164,234438,2,0,L|50:74,1,60.0000022888184,2|0,3:2|0:2,0:2:0:0:
180,11,234620,5,2,3:2:0:0:
189,39,234711,2,0,P|275:54|300:7,1,120.000004577637,2|2,3:3|3:2,0:2:0:0:
438,36,234983,2,0,B|381:4|381:4|400:119,1,180.000006866455,2|0,3:3|0:2,0:2:0:0:
363,201,235347,5,2,3:2:0:0:
361,254,235468,1,2,3:2:0:0:
393,291,235589,1,2,3:2:0:0:
393,338,235711,6,0,B|364:367|364:367|242:327,1,120.000004577637,2|2,3:2|0:2,0:2:0:0:
282,354,235983,1,2,0:2:0:0:
277,368,236074,2,0,L|263:261,1,60.0000022888184,0|0,3:2|0:2,0:2:0:0:
217,227,236256,6,0,L|263:217,3,40.000001525879,2|0|0|0,3:3|3:0|3:0|3:0,0:0:0:0:
98,355,236620,6,0,L|52:345,3,40.000001525879,2|0|0|0,3:3|3:0|3:0|3:0,0:0:0:0:
217,227,236983,6,0,P|241:148|177:84,1,160,2|0,0:2|0:2,0:2:0:0:
183,66,237256,2,0,B|242:61|242:61|272:98|272:98|365:85,1,160,2|0,0:2|3:2,0:2:0:0:
512,181,237529,6,0,B|476:248|476:248|324:185,1,240,4|0,3:2|0:0,0:2:0:0:
324,185,237893,6,0,L|408:176,2,53.3333333333333,2|2|2,0:2|0:2|0:2,0:0:0:0:
233,311,238256,2,0,L|149:301,2,53.3333333333333,6|2|2,3:2|0:2|0:2,0:0:0:0:
359,367,238620,5,2,0:2:0:0:
362,347,238711,1,2,0:2:0:0:
366,327,238802,1,2,0:2:0:0:
370,307,238893,1,2,3:2:0:0:
395,291,238983,6,0,L|479:310,2,60.0000022888184,4|0|0,3:2|0:2|0:2,0:2:0:0:
136,226,239347,2,0,L|52:245,2,60.0000022888184,4|0|0,3:2|0:2|0:2,0:2:0:0:
155,241,239711,1,2,0:2:0:0:
254,71,239893,6,0,L|230:335,1,240.000009155274,4|0,3:2|0:2,0:2:0:0:
380,181,240438,5,2,3:2:0:0:
406,172,240529,1,6,3:2:0:0:
434,163,240620,1,2,3:2:0:0:
508,86,240802,1,6,3:2:0:0:
508,86,241165,6,0,L|337:69,1,160,2|0,3:2|0:2,0:2:0:0:
297,0,241438,2,0,L|137:15,1,160,2|0,3:2|0:2,0:2:0:0:
58,25,241711,1,2,3:2:0:0:
8,247,241893,6,0,B|77:203|23:173|106:132,1,140,6|0,3:2|0:0,0:2:0:0:
106,148,242620,6,0,L|113:180,6,20,2|2|2|2|2|2|2,0:2|0:2|0:2|0:2|0:2|0:2|0:2,0:2:0:0:
169,222,242983,2,0,L|162:254,6,20,2|2|2|2|2|2|2,0:2|0:2|0:2|0:2|0:2|0:2|0:2,0:2:0:0:
207,151,243347,6,0,B|357:124|279:243|458:198|504:105|357:35|311:98|308:182,1,360.000013732911,6|0,3:2|0:0,0:2:0:0:
349,263,244074,6,0,B|362:343|362:343|405:356,1,120.000004577637,2|2,3:2|0:2,0:2:0:0:
485,370,244347,2,0,L|494:299,1,60.0000022888184,2|0,3:2|0:2,0:2:0:0:
433,236,244529,1,2,3:2:0:0:
455,238,244620,2,0,L|464:167,1,60.0000022888184,2|0,3:2|0:2,0:2:0:0:
507,85,244802,6,0,L|351:121,1,120.000004577637,2|2,3:2|0:2,0:2:0:0:
285,31,245074,2,0,L|364:44,1,60.0000022888184,2|0,3:2|0:2,0:2:0:0:
244,131,245256,1,2,3:2:0:0:
256,116,245347,2,0,L|335:129,1,60.0000022888184,2|0,3:2|0:2,0:2:0:0:
198,12,245529,6,0,L|185:91,1,60.0000022888184,2|0,3:2|0:2,0:2:0:0:
107,48,245711,2,0,L|94:127,1,60.0000022888184,2|0,3:2|0:2,0:2:0:0:
145,179,245893,6,0,L|189:173,6,30.0000011444092,2|0|0|0|2|0|0,0:2|0:2|0:2|0:0|0:2|0:2|0:2,0:2:0:0:
49,194,246256,6,0,B|22:224|44:278|44:278|98:303|150:262,1,180.000006866455,4|0,3:2|0:2,0:2:0:0:
222,260,246620,6,0,L|218:311,1,30.0000011444092,2|0,0:2|0:2,0:2:0:0:
233,260,246711,2,0,L|229:311,1,30.0000011444092,2|0,0:2|0:2,0:2:0:0:
244,260,246802,2,0,L|240:311,1,30.0000011444092,2|0,0:2|0:2,0:2:0:0:
255,260,246893,2,0,L|251:311,1,30.0000011444092,2|0,0:2|0:2,0:2:0:0:
264,260,246983,6,0,L|254:387,1,120.000004577637,2|2,3:2|0:2,0:2:0:0:
346,357,247256,2,0,L|352:288,1,60.0000022888184,2|0,3:2|0:2,0:2:0:0:
427,365,247438,1,2,3:2:0:0:
440,358,247529,2,0,L|446:289,1,60.0000022888184,2|0,3:2|0:2,0:2:0:0:
491,212,247711,6,0,B|450:199|450:199|416:209|416:209|343:183,1,120.000004577637,2|2,3:2|0:2,0:2:0:0:
305,123,247983,2,0,L|239:137,1,60.0000022888184,2|0,3:2|0:2,0:2:0:0:
176,186,248165,1,2,3:2:0:0:
169,199,248256,2,0,L|99:192,1,60.0000022888184,2|0,3:2|0:2,0:2:0:0:
152,106,248438,6,0,L|161:33,1,60.0000022888184,2|0,3:2|0:2,0:2:0:0:
62,122,248620,2,0,L|53:49,1,60.0000022888184,2|0,3:2|0:2,0:2:0:0:
168,198,248802,6,0,L|161:258,1,60.0000022888184,0|0,3:2|0:2,0:2:0:0:
63,214,248984,2,0,L|71:274,1,60.0000022888184,0|0,3:2|0:2,0:2:0:0:
152,106,249165,6,0,B|305:111|254:27|405:34|405:34|431:85|369:136,1,360.000013732911,4|0,3:2|0:0,0:2:0:0:
349,256,249893,6,0,P|393:210|458:225,1,120.000004577637,2|2,3:2|0:2,0:2:0:0:
493,318,250165,2,0,P|482:347|441:349,1,60.0000022888184,2|0,3:2|0:2,0:2:0:0:
374,329,250347,1,2,3:2:0:0:
356,315,250438,2,0,L|347:248,1,60.0000022888184,2|0,3:2|0:2,0:2:0:0:
272,324,250620,6,0,L|141:305,1,120.000004577637,0|2,3:2|0:2,0:2:0:0:
20,360,250893,2,0,L|87:339,1,60.0000022888184,2|0,3:2|0:2,0:2:0:0:
17,263,251074,1,2,3:2:0:0:
27,239,251165,2,0,L|94:260,1,60.0000022888184,2|0,3:2|0:2,0:2:0:0:
174,222,251347,6,0,L|188:151,1,60.0000022888184,2|0,3:2|0:2,0:2:0:0:
100,167,251529,2,0,L|86:96,1,60.0000022888184,2|0,3:2|0:2,0:2:0:0:
179,79,251711,6,0,L|222:69,6,30.0000011444092,2|0|0|0|2|0|0,0:2|0:2|0:2|0:0|0:2|0:2|0:2,0:2:0:0:
103,10,252074,6,0,B|40:1|40:1|99:133,1,180.000006866455,6|0,3:2|0:2,0:2:0:0:
185,163,252438,6,0,L|181:214,1,30.0000011444092,2|0,0:2|0:2,0:2:0:0:
196,163,252529,2,0,L|192:214,1,30.0000011444092,2|0,0:2|0:2,0:2:0:0:
207,163,252620,2,0,L|203:214,1,30.0000011444092,2|0,0:2|0:2,0:2:0:0:
218,163,252711,2,0,L|214:214,1,30.0000011444092,2|0,0:2|0:2,0:2:0:0:
227,163,252801,6,0,B|270:156|270:156|293:167|293:167|360:148,1,120.000004577637,2|2,3:2|0:2,0:2:0:0:
429,186,253074,2,0,L|441:119,1,60.0000022888184,2|0,3:2|0:2,0:2:0:0:
384,307,253256,1,2,3:2:0:0:
375,297,253347,2,0,L|363:230,1,60.0000022888184,2|0,3:2|0:2,0:2:0:0:
457,364,253529,6,0,P|485:292|520:251,1,120.000004577637,2|2,3:2|0:2,0:2:0:0:
375,297,253802,2,0,P|325:249|302:238,1,60.0000022888184,2|0,3:2|0:2,0:2:0:0:
247,285,253983,1,2,3:2:0:0:
233,279,254074,2,0,P|172:282|140:296,1,60.0000022888184,2|0,3:2|0:2,0:2:0:0:
115,345,254256,5,2,0:2:0:0:
