osu file format v14

[General]
AudioFilename: audio.mp3
AudioLeadIn: 0
PreviewTime: 105074
Countdown: 0
SampleSet: Soft
StackLeniency: 0.5
Mode: 0
LetterboxInBreaks: 0
WidescreenStoryboard: 1

[Editor]
Bookmarks: 7711,19347,30983,42620,65893,77529,89165,94983,106620,129893,153165,157256,164802,182256,188074,199711,210983,220074,232074,243347,254983
DistanceSpacing: 0.3
BeatDivisor: 4
GridSize: 32
TimelineZoom: 3.105376

[Metadata]
Title:[BLEED BLOOD]
TitleUnicode:[ ⫖⌊∄∄◗ ⫖⌊⦰⦰ꗐ ]
Artist:Camellia
ArtistUnicode:かめりあ
Creator:Mir
Version:Collab Hard
Source:
Tags:c96 comiket blackmagik blazing trap hardstyle edm dubstep Cametek KamelCamellia かめるかめりあ ctcd-019 bleed blood beast akeruyri kujinn reform electronic instrumental featured artist fa
BeatmapID:2861740
BeatmapSetID:1021338

[Difficulty]
HPDrainRate:4
CircleSize:4
OverallDifficulty:6
ApproachRate:8.2
SliderMultiplier:1.4
SliderTickRate:0.5

[Events]
//Background and Video events
0,0,"powerlines.jpg",0,0
//Break Periods
2,130093,149506
//Storyboard Layer 0 (Background)
//Storyboard Layer 1 (Fail)
//Storyboard Layer 2 (Pass)
//Storyboard Layer 3 (Foreground)
//Storyboard Layer 4 (Overlay)
//Storyboard Sound Samples

[TimingPoints]
1893,363.636363636364,4,2,1,20,1,0
7711,-100,4,2,1,20,0,0
14983,-100,4,2,1,30,0,0
15711,-100,4,2,1,40,0,0
17893,-100,4,2,1,50,0,0
19347,-76.9230769230769,4,2,1,60,0,0
28074,-62.5,4,2,1,70,0,0
41165,-71.4285714285714,4,2,1,70,0,0
42620,-71.4285714285714,4,2,1,90,0,1
42983,-133.333333333333,4,2,1,90,0,0
43347,-83.3333333333333,4,2,1,90,0,1
45529,-100,4,2,1,90,0,1
45892,-71.4285714285714,4,2,1,90,0,1
46256,-83.3333333333333,4,2,1,90,0,1
48438,-71.4285714285714,4,2,1,90,0,1
51347,-133.333333333333,4,2,2,70,0,0
54256,-71.4285714285714,4,2,1,70,0,1
54620,-71.4285714285714,4,2,1,70,0,0
57165,-71.4285714285714,4,2,1,90,0,1
57302,-71.4285714285714,4,2,1,5,0,1
57347,-71.4285714285714,4,2,1,90,0,1
57529,-83.3333333333333,4,2,1,90,0,1
60074,-71.4285714285714,4,2,1,90,0,1
60801,-83.3333333333333,4,2,1,90,0,1
64438,-83.3333333333333,4,2,1,70,0,0
65893,-100,4,2,1,90,0,1
76802,-100,4,2,1,70,0,0
77529,-71.4285714285714,4,2,1,90,0,1
88256,-166.666666666667,4,2,1,90,0,1
88438,-166.666666666667,4,2,1,50,0,0
89165,-62.5,4,2,1,50,0,0
93893,-62.5,4,2,1,70,0,0
93938,-62.5,4,2,1,5,0,0
93983,-62.5,4,2,1,70,0,0
94029,-62.5,4,2,1,5,0,0
94074,-62.5,4,2,1,70,0,0
94120,-62.5,4,2,1,5,0,0
94165,-62.5,4,2,1,70,0,0
94211,-62.5,4,2,1,5,0,0
94256,-62.5,4,2,1,70,0,0
94302,-62.5,4,2,1,5,0,0
94347,-62.5,4,2,1,70,0,0
94393,-62.5,4,2,1,5,0,0
94438,-62.5,4,2,1,70,0,0
94483,-62.5,4,2,1,5,0,0
94528,-62.5,4,2,1,70,0,0
94574,-62.5,4,2,1,5,0,0
94619,-62.5,4,2,1,70,0,0
94983,-100,4,2,1,70,0,0
106620,-71.4285714285714,4,2,1,90,0,1
115347,-100,4,2,2,70,0,0
118256,-83.3333333333333,4,2,1,90,0,1
121892,-71.4285714285714,4,2,1,90,0,1
124074,-83.3333333333333,4,2,1,90,0,1
126620,-133.333333333333,4,2,1,90,0,1
126983,-83.3333333333333,4,2,1,90,0,1
128438,-100,4,2,1,70,0,0
147347,-100,4,2,1,20,0,0
150256,-100,4,2,1,40,0,0
151711,-100,4,2,1,60,0,0
153165,-71.4285714285714,4,2,1,70,0,0
163347,-100,4,2,1,70,0,0
163711,-83.3333333333333,4,2,1,70,0,0
164074,-66.6666666666667,4,2,1,70,0,0
164802,-66.6666666666667,4,2,1,90,0,1
175711,-58.8235294117647,4,2,1,90,0,1
176347,-58.8235294117647,4,2,1,70,0,0
176438,-66.6666666666667,4,2,1,90,0,0
177893,-83.3333333333333,4,2,1,90,0,1
179347,-66.6666666666667,4,2,1,90,0,1
180802,-83.3333333333333,4,2,1,90,0,0
182256,-71.4285714285714,4,2,1,90,0,0
182983,-62.5,4,2,2,90,0,0
183347,-55.5555555555556,4,2,2,90,0,0
184620,-62.5,4,2,2,90,0,0
187347,-62.5,4,2,2,70,0,0
187711,-62.5,4,2,1,70,0,0
188074,-83.3333333333333,4,2,1,90,0,1
193711,-62.5,4,2,1,90,0,1
193893,-62.5,4,2,1,90,0,0
194074,-83.3333333333333,4,2,1,90,0,0
194256,-83.3333333333333,4,2,1,90,0,1
198983,-83.3333333333333,4,2,1,70,0,0
211006,-83.3333333333333,4,2,1,40,0,0
214256,-100,4,2,1,70,0,0
214529,-100,4,2,1,5,0,0
214620,-100,4,2,1,70,0,0
214893,-100,4,2,1,5,0,0
214983,-100,4,2,1,70,0,0
215256,-100,4,2,1,5,0,0
215347,-100,4,2,1,70,0,0
215620,-100,4,2,1,5,0,0
215711,-83.3333333333333,4,2,1,70,0,0
215983,-83.3333333333333,4,2,1,5,0,0
216074,-83.3333333333333,4,2,1,70,0,0
216347,-83.3333333333333,4,2,1,5,0,0
216438,-83.3333333333333,4,2,1,70,0,0
216711,-83.3333333333333,4,2,1,5,0,0
216802,-83.3333333333333,4,2,1,70,0,0
217074,-83.3333333333333,4,2,1,5,0,0
217165,-83.3333333333333,4,2,1,70,0,0
220074,-83.3333333333333,4,2,1,90,0,1
220438,-133.333333333333,4,2,1,70,0,0
220802,-83.3333333333333,4,2,1,90,0,1
232074,-66.6666666666667,4,2,1,90,0,0
233165,-83.3333333333333,4,2,1,90,0,1
234256,-71.4285714285714,4,2,1,90,0,1
235347,-83.3333333333333,4,2,1,90,0,1
241893,-83.3333333333333,4,2,1,70,0,0
243347,-83.3333333333333,4,2,1,90,0,1
245893,-125,4,2,1,90,0,1
246256,-71.4285714285714,4,2,1,90,0,1
246983,-83.3333333333333,4,2,1,90,0,1
254256,-100,4,2,1,40,0,0
254620,-71.4285714285714,4,2,1,40,0,0

[Colours]
Combo1 : 175,164,200
Combo2 : 225,102,108
Combo3 : 219,125,160
Combo4 : 191,128,181

[HitObjects]
43,279,19347,6,0,L|232:248,1,181.999991668702,6|2,3:2|0:0,0:2:0:0:
272,319,19893,1,2,0:2:0:0:
272,319,20074,2,0,P|333:349|402:331,1,136.499993751526,2|2,0:2|0:2,0:2:0:0:
400,313,20438,5,2,0:0:0:0:
492,284,20620,1,2,0:2:0:0:
492,284,20802,2,0,L|456:80,1,181.999991668702,2|2,0:2|0:0,0:2:0:0:
391,162,21347,5,2,0:2:0:0:
391,162,21529,2,0,B|376:89|376:89|257:108,1,181.999991668702,2|2,0:2|0:0,0:2:0:0:
154,266,22256,6,0,L|179:61,1,181.999991668702,2|2,0:2|0:0,0:2:0:0:
258,58,22802,1,2,0:2:0:0:
258,58,22983,2,0,B|207:70|207:70|182:68|182:68|125:83,1,136.499993751526,2|0,0:2|0:2,0:2:0:0:
109,67,23347,5,2,0:0:0:0:
184,117,23529,1,2,0:2:0:0:
250,43,23711,2,0,B|378:11|378:11|345:23|333:64,1,181.999991668702,2|2,0:2|0:0,0:2:0:0:
333,124,24256,5,2,0:2:0:0:
333,124,24438,2,0,B|408:125|378:85|468:87,2,136.499993751526,2|2|0,0:2|0:2|0:0,0:2:0:0:
254,172,25165,6,0,B|284:291|284:291|327:293|350:327,1,181.999991668702,6|2,3:2|0:0,0:2:0:0:
204,305,25711,1,2,0:2:0:0:
204,305,25893,2,0,P|265:277|331:290,1,136.499993751526,2|0,0:2|0:2,0:2:0:0:
377,366,26257,5,2,0:2:0:0:
377,366,26438,1,2,0:2:0:0:
482,270,26620,6,0,P|446:245|393:246,1,90.9999958343508,0|4,1:2|0:3,0:2:0:0:
391,226,26893,2,0,P|343:262|327:304,1,90.9999958343508,0|4,1:2|0:3,0:2:0:0:
308,288,27166,1,0,1:2:0:0:
385,335,27347,6,0,L|425:348,5,30.3333319447836,8|8|8|8|8|8,0:3|0:3|0:3|0:3|0:3|0:3,0:0:0:0:
431,331,27711,2,0,L|469:320,5,30.3333319447836,4|4|4|4|4|4,0:3|0:3|0:3|0:3|0:3|0:3,0:0:0:0:
450,291,28074,6,0,B|474:238|474:238|467:184,1,112,6|0,3:2|0:2,0:2:0:0:
449,183,28347,1,2,3:2:0:0:
269,268,28801,6,0,B|302:316|302:316|384:350,1,112,6|0,3:2|0:2,0:2:0:0:
362,325,29074,1,2,3:2:0:0:
382,124,29529,6,0,B|324:130|324:130|253:184,1,112,6|0,3:2|0:2,0:2:0:0:
286,177,29802,1,2,3:2:0:0:
363,225,30256,6,0,B|359:249|359:249|382:240|382:240|377:236,6,56,2|2|2|2|2|2|2,3:2|0:2|0:2|0:2|0:2|0:2|0:2,0:0:0:0:
479,223,30983,6,0,B|240:191,1,224,4|2,3:2|0:2,0:2:0:0:
50,147,31892,6,0,L|77:38,1,112,6|0,3:2|0:2,0:2:0:0:
92,36,32165,2,0,L|46:216,1,168,6|6,3:2|3:2,0:2:0:0:
286,244,33347,6,0,L|315:359,1,112,6|0,3:2|0:2,0:2:0:0:
304,370,33620,2,0,L|264:206,1,168,6|6,3:2|3:2,0:2:0:0:
433,47,34802,6,0,B|372:40|372:40|307:68,1,112,6|0,3:2|0:2,0:2:0:0:
299,86,35074,2,0,B|373:54|373:54|460:64,1,168,6|6,3:2|3:2,0:2:0:0:
99,185,35892,6,0,B|106:241|106:241|142:285,1,112,6|0,3:2|0:2,0:2:0:0:
157,277,36165,2,0,B|121:233|121:233|114:177,1,112,6|0,3:2|0:2,0:2:0:0:
324,250,36802,6,0,P|349:251|378:239,3,56,8|0|0|0,3:2|3:2|3:2|3:2,0:0:0:0:
401,235,37165,2,0,P|410:211|408:180,3,56,8|0|0|0,3:2|3:2|3:2|3:2,0:0:0:0:
421,159,37529,2,0,P|402:143|371:136,3,56,8|0|0|0,3:2|3:2|3:2|3:2,0:0:0:0:
353,118,37892,2,0,P|333:131|316:158,3,56,8|0|0|0,3:2|3:2|3:2|3:2,0:0:0:0:
266,221,38256,6,0,P|241:222|212:210,3,56,8|0|0|0,3:2|3:2|3:2|3:2,0:0:0:0:
189,206,38620,2,0,P|181:182|183:151,3,56,8|0|0|0,3:2|3:2|3:2|3:2,0:0:0:0:
169,130,38984,2,0,P|189:114|220:107,3,56,8|0|0|0,3:2|3:2|3:2|3:2,0:0:0:0:
237,89,39347,2,0,P|258:102|275:129,3,56,8|0|0|0,3:2|3:2|3:2|3:2,0:0:0:0:
242,202,39712,5,8,3:2:0:0:
207,270,39893,1,8,3:2:0:0:
252,343,40075,5,8,3:2:0:0:
199,278,40256,1,8,3:2:0:0:
248,212,40439,5,8,3:2:0:0:
215,126,40620,1,8,3:2:0:0:
284,26,40802,5,8,3:2:0:0:
219,104,40983,1,8,3:2:0:0:
115,88,41166,6,0,B|66:88|66:88|23:66,1,97.9999970092774,2|2,3:2|0:2,0:2:0:0:
111,104,41529,2,0,B|61:103|61:103|18:82,1,97.9999970092774,2|2,0:2|0:2,0:2:0:0:
191,130,41892,6,0,B|264:81|264:81|279:15|279:15|270:7|270:7|264:35,1,195.999994018555,2|4,0:2|0:3,0:2:0:0:
7,231,42620,6,0,L|194:199,1,146.999995513916,6|0,3:2|0:2,0:2:0:0:
166,225,42983,6,0,L|184:132,1,78.7500030040742,2|0,0:2|0:2,0:2:0:0:
229,79,43347,6,0,L|218:30,3,41.9999987182618,10|2|2|2,0:2|0:2|0:2|0:2,0:0:0:0:
313,60,43711,2,0,L|302:11,3,41.9999987182618,2|2|2|2,3:2|0:2|0:2|0:2,0:2:0:0:
401,83,44074,5,2,0:2:0:0:
482,108,44256,1,2,0:2:0:0:
481,195,44438,5,2,3:2:0:0:
400,220,44620,1,2,0:2:0:0:
449,314,44802,5,10,0:2:0:0:
449,314,44983,2,0,P|422:352|371:355,1,83.9999974365235,2|0,0:2|0:2,0:2:0:0:
372,374,45256,2,0,P|325:369|297:326,1,83.9999974365235,2|0,0:2|0:2,0:2:0:0:
283,266,45529,6,0,P|242:258|212:322,1,105,6|0,3:2|0:2,0:2:0:0:
208,304,45893,6,0,P|198:172|185:127,1,146.999995513916,2|0,0:2|0:2,0:2:0:0:
145,88,46256,6,0,P|149:68|151:34,2,41.9999987182618,10|0|2,0:2|0:2|0:2,0:2:0:0:
111,167,46620,5,2,3:2:0:0:
111,167,46711,1,2,0:2:0:0:
111,167,46802,1,2,0:2:0:0:
4,218,46983,5,2,0:2:0:0:
84,252,47165,1,2,0:2:0:0:
21,312,47347,5,2,3:2:0:0:
101,346,47529,1,2,0:2:0:0:
188,384,47711,1,10,0:2:0:0:
188,384,47893,6,0,P|216:338|266:323,1,83.9999974365235,2|0,0:2|0:2,0:2:0:0:
229,307,48165,2,0,P|281:294|327:319,1,83.9999974365235,2|0,0:2|0:2,0:2:0:0:
375,358,48438,6,0,P|457:356|414:279,1,195.999994018555,6|0,3:2|0:2,0:2:0:0:
422,279,48983,1,2,0:2:0:0:
400,193,49165,6,0,L|340:201,2,48.9999985046387,10|2|2,0:2|0:2|0:2,0:0:0:0:
461,137,49529,5,2,3:2:0:0:
464,122,49620,1,2,0:2:0:0:
467,107,49711,1,2,0:2:0:0:
471,93,49802,1,2,0:2:0:0:
475,78,49893,5,2,0:2:0:0:
407,27,50074,1,2,0:2:0:0:
325,60,50256,2,0,L|335:131,2,48.9999985046387,2|2|2,3:2|0:2|0:2,0:0:0:0:
234,32,50620,6,0,P|171:19|121:8,1,97.9999970092774,8|0,0:2|0:2,0:2:0:0:
115,30,50893,2,0,P|52:17|2:6,1,97.9999970092774,8|0,0:2|0:2,0:2:0:0:
0,32,51165,1,2,0:2:0:0:
1,128,51347,6,0,P|79:121|98:151,1,105.000004005432,4|4,3:2|3:2,0:2:0:0:
133,204,51893,1,0,0:0:0:0:
133,204,52074,1,12,0:2:0:0:
131,325,52438,2,0,P|156:312|185:312,1,52.5000020027161,4|0,3:2|0:0,0:2:0:0:
244,267,52802,2,0,P|281:274|314:294,1,52.5000020027161,4|0,3:2|0:0,0:2:0:0:
333,353,53165,1,4,3:2:0:0:
491,273,53529,5,12,0:2:0:0:
491,273,54256,6,0,L|382:251,1,97.9999970092774,0|0,3:2|0:0,0:2:0:0:
349,184,54620,6,0,L|345:144,6,24.4999992523194,2|2|2|0|2|2|2,0:2|0:2|0:2|0:0|0:2|0:2|0:2,0:2:0:0:
308,258,54983,6,0,P|287:274|254:273,1,48.9999985046387,2|2,0:2|0:2,0:2:0:0:
244,311,55165,2,0,P|217:307|195:283,1,48.9999985046387,2|2,0:2|0:2,0:2:0:0:
161,303,55347,2,0,P|144:282|145:249,1,48.9999985046387,2|2,0:2|0:2,0:2:0:0:
107,238,55529,2,0,P|110:211|134:189,1,48.9999985046387,2|2,0:2|0:2,0:2:0:0:
148,172,55711,6,0,P|157:138|156:108,2,48.9999985046387,2|2|2,0:2|0:2|0:2,0:0:0:0:
43,101,56074,2,0,P|34:135|35:165,2,48.9999985046387,2|2|2,0:2|0:2|0:2,0:0:0:0:
122,38,56438,5,2,0:2:0:0:
122,38,56529,1,2,0:2:0:0:
122,38,56620,2,0,L|130:0,4,24.4999992523194,0|0|0|0|8,3:2|3:2|3:2|3:2|0:2,3:2:0:0:
63,134,56983,5,2,3:2:0:0:
157,124,57165,2,0,L|271:111,1,97.9999970092774,6|2,3:2|0:2,0:2:0:0:
254,112,57529,6,0,P|299:63|358:82,1,125.999996154785,2|0,0:2|0:2,0:2:0:0:
415,128,57893,6,0,L|476:134,2,41.9999987182618,8|0|2,0:2|0:2|0:2,0:2:0:0:
352,193,58256,6,0,L|291:199,2,41.9999987182618,2|0|2,3:2|0:2|0:2,0:2:0:0:
447,237,58620,5,0,0:2:0:0:
480,247,58802,1,2,0:2:0:0:
380,300,58983,5,2,3:2:0:0:
347,310,59165,1,2,0:2:0:0:
436,376,59347,5,8,0:2:0:0:
436,376,59529,2,0,L|421:281,1,83.9999974365235,2|0,0:2|0:2,0:2:0:0:
422,293,59802,2,0,P|354:300|341:318,1,83.9999974365235,2|0,0:2|0:2,0:2:0:0:
293,369,60074,6,0,P|249:354|246:291,1,97.9999970092774,6|0,3:2|0:0,0:2:0:0:
237,307,60802,6,0,L|183:295,2,55.9999982910157,10|2|2,0:2|0:2|0:2,0:0:0:0:
291,244,61165,5,0,3:2:0:0:
291,244,61256,1,0,0:2:0:0:
291,244,61347,1,2,0:2:0:0:
219,169,61529,6,0,L|162:173,2,41.9999987182618,2|2|2,0:2|0:2|0:2,0:0:0:0:
281,98,61893,2,0,L|338:102,2,41.9999987182618,2|2|2,3:2|0:2|0:2,0:0:0:0:
232,27,62256,2,0,B|171:43|171:43|168:68|168:68|4:113,1,251.999992309571,8|0,0:2|0:2,0:2:0:0:
89,125,62983,1,2,0:2:0:0:
30,215,63165,5,0,3:2:0:0:
30,215,63256,1,0,3:2:0:0:
30,215,63347,2,0,P|68:236|79:293,1,83.9999974365235,2|0,0:2|3:2,0:2:0:0:
92,360,63711,2,0,L|175:385,1,83.9999974365235,10|0,0:2|3:2,0:2:0:0:
187,370,63983,2,0,L|270:345,1,83.9999974365235,0|0,3:2|0:2,0:0:0:0:
283,360,64256,1,0,3:2:0:0:
299,257,64438,6,0,B|290:217|290:217|324:147,1,83.9999974365235,2|2,0:2|0:2,0:2:0:0:
283,249,64802,2,0,B|274:209|274:209|308:139,1,83.9999974365235,2|2,0:2|0:2,0:2:0:0:
392,164,65165,2,0,B|415:232|415:232|390:288,1,125.999996154785,2|2,0:2|0:2,0:2:0:0:
378,290,65529,2,0,L|366:320,5,27.9999991455078,4|4|4|4|4|4,0:3|0:3|0:3|0:3|0:3|0:3,0:0:0:0:
350,338,65893,6,0,L|226:312,1,105,6|2,3:2|0:2,0:2:0:0:
162,299,66256,1,10,3:2:0:0:
162,299,66438,1,2,0:2:0:0:
76,356,66620,2,0,P|28:293|25:248,1,105,2|2,3:2|0:2,0:2:0:0:
8,268,66983,2,0,P|11:216|39:172,1,105,10|0,3:2|0:2,0:0:0:0:
42,156,67347,5,2,3:2:0:0:
9,72,67529,1,2,0:2:0:0:
21,67,67711,2,0,B|75:66|75:66|127:101,1,105,10|0,3:2|0:2,0:0:0:0:
127,116,68074,5,2,3:2:0:0:
210,95,68256,1,2,0:2:0:0:
294,73,68438,2,0,L|378:52,1,70,10|0,3:2|0:2,0:0:0:0:
264,189,68802,6,0,P|218:147|225:90,1,105,2|0,3:2|0:2,0:2:0:0:
230,102,69165,5,10,3:2:0:0:
278,34,69347,1,2,0:2:0:0:
288,40,69529,2,0,L|406:27,1,105,2|2,3:2|0:2,0:2:0:0:
393,45,69893,2,0,P|436:76|445:131,1,105,8|0,3:2|0:2,0:0:0:0:
427,128,70256,5,2,3:2:0:0:
349,173,70438,1,2,0:2:0:0:
338,176,70620,2,0,L|229:164,1,105,8|0,3:2|0:2,0:0:0:0:
207,146,70983,2,0,B|178:136|178:136|140:143,1,70,2|0,3:2|0:2,0:2:0:0:
32,130,71347,5,10,3:2:0:0:
37,142,71529,1,2,0:2:0:0:
53,219,71711,2,0,L|68:296,1,70,2|0,3:2|0:2,0:2:0:0:
147,258,72074,5,10,3:2:0:0:
191,328,72256,1,2,0:2:0:0:
185,334,72438,2,0,B|235:353|235:353|255:305,1,105,2|0,3:2|0:2,0:2:0:0:
275,232,72802,2,0,L|288:355,1,105,10|0,3:2|0:2,0:0:0:0:
303,343,73165,5,2,3:2:0:0:
383,367,73347,1,2,0:2:0:0:
437,300,73529,2,0,P|423:250|354:228,1,105,10|0,3:2|0:2,0:0:0:0:
351,216,73893,5,2,3:2:0:0:
372,122,74074,1,2,0:2:0:0:
456,175,74256,2,0,P|482:148|498:98,1,70,10|0,3:2|0:2,0:0:0:0:
428,51,74620,6,0,P|393:54|361:43,1,70,10|0,3:2|0:2,0:2:0:0:
345,122,74893,2,0,P|313:107|291:81,1,70,10|0,3:2|0:2,0:2:0:0:
238,139,75165,2,0,P|218:111|212:76,1,70,10|0,3:2|0:2,0:2:0:0:
141,35,75438,2,0,L|246:17,1,105,10|10,3:2|3:2,0:2:0:0:
363,34,75893,5,0,3:2:0:0:
369,44,75983,1,0,3:2:0:0:
376,55,76074,2,0,P|343:67|308:67,1,70,10|0,3:2|0:2,0:2:0:0:
303,147,76347,2,0,P|269:136|241:116,1,70,10|0,3:2|0:2,0:2:0:0:
184,166,76620,2,0,P|172:152|163:137,1,35,10|0,3:2|0:2,0:2:0:0:
86,124,76802,1,8,3:2:0:0:
90,314,77165,5,2,0:2:0:0:
26,237,77347,1,2,0:2:0:0:
128,223,77529,2,0,B|160:206|198:213|198:213|250:177|250:177|356:164|356:164|291:188,1,293.999991027832,6|0,3:2|0:0,0:2:0:0:
275,255,78256,6,0,L|255:149,1,97.9999970092774,2|2,3:2|0:2,0:2:0:0:
239,159,78529,2,0,L|219:53,1,97.9999970092774,2|2,3:2|3:2,0:2:0:0:
205,54,78801,1,2,3:2:0:0:
118,54,78983,6,0,L|138:160,1,97.9999970092774,2|2,3:2|0:2,0:2:0:0:
119,154,79256,2,0,L|139:260,1,97.9999970092774,2|2,3:2|3:2,0:2:0:0:
119,261,79528,1,2,3:2:0:0:
13,195,79711,6,0,B|61:169|61:169|141:181,1,97.9999970092774,2|2,3:2|3:2,0:2:0:0:
138,243,80074,6,0,B|151:236|112:259|112:259|74:258|74:258|50:276|50:276|2:271,1,146.999995513916,2|0,0:2|0:2,0:2:0:0:
50,319,80438,6,0,B|14:117|14:117|86:168,1,293.999991027832,6|2,3:2|0:2,0:2:0:0:
19,284,81165,6,0,L|115:264,1,97.9999970092774,2|2,3:2|0:2,0:2:0:0:
122,279,81438,2,0,L|218:259,1,97.9999970092774,2|2,3:2|3:2,0:2:0:0:
227,271,81711,1,2,3:2:0:0:
277,184,81893,6,0,L|373:204,1,97.9999970092774,2|2,3:2|0:2,0:2:0:0:
380,189,82166,2,0,L|476:209,1,97.9999970092774,2|2,3:2|3:2,0:2:0:0:
485,197,82439,1,2,3:2:0:0:
464,296,82620,6,0,P|411:310|365:285,1,97.9999970092775,2|2,3:2|3:2,0:2:0:0:
412,173,82983,2,0,B|386:192|386:192|418:205|418:205|413:169,1,97.9999970092774,2|2,3:2|3:2,0:2:0:0:
381,136,83347,6,4,B|354:185|372:241|372:241|428:234|466:194|466:194|434:145|378:134,1,293.999991027832,6|0,3:2|0:0,0:2:0:0:
292,131,84074,6,0,P|257:164|250:212,1,97.9999970092774,2|2,3:2|0:2,0:2:0:0:
234,213,84347,2,0,P|242:259|278:291,1,97.9999970092774,2|2,3:2|3:2,0:2:0:0:
275,311,84620,1,2,3:2:0:0:
373,274,84802,6,0,P|386:228|369:183,1,97.9999970092774,2|2,3:2|0:2,0:2:0:0:
383,173,85075,2,0,P|352:136|305:126,1,97.9999970092774,2|2,3:2|3:2,0:2:0:0:
298,109,85348,1,2,3:2:0:0:
239,183,85529,6,0,P|225:228|252:267,1,97.9999970092774,2|2,3:2|3:2,0:2:0:0:
342,269,85892,2,0,L|245:282,1,97.9999970092774,2|2,0:2|0:2,0:2:0:0:
183,331,86256,6,0,B|172:310|138:294|138:294|325:331|325:331|351:271,1,293.999991027832,6|2,3:2|0:2,0:2:0:0:
303,195,86983,6,0,P|351:193|391:220,1,97.9999970092774,2|2,3:2|0:2,0:2:0:0:
415,214,87256,2,0,P|419:165|397:122,1,97.9999970092774,2|2,3:2|3:2,0:2:0:0:
420,117,87529,1,2,3:2:0:0:
303,115,87711,6,0,P|299:67|321:23,1,97.9999970092774,2|2,3:2|0:2,0:2:0:0:
295,25,87983,2,0,P|248:38|214:73,1,97.9999970092774,2|2,3:2|3:2,0:2:0:0:
208,95,88256,6,0,B|153:106|153:106|106:70|106:70|40:82,1,167.999994873047,2|0,3:2|0:0,3:2:0:0:
54,79,89165,5,4,3:2:0:0:
256,192,89347,12,2,94620,0:2:0:0:
70,142,94983,6,0,P|139:124|151:37,1,140,4|2,3:2|0:2,0:2:0:0:
317,73,95893,6,0,L|398:53,1,70,4|0,3:2|0:2,0:2:0:0:
395,34,96165,2,0,L|462:50,1,70,4|0,3:2|0:2,0:2:0:0:
485,82,96438,1,4,3:2:0:0:
379,250,97347,6,0,P|353:207|311:188,1,70,4|0,3:2|0:2,0:2:0:0:
330,174,97620,2,0,P|279:175|242:201,1,70,4|0,3:2|0:2,0:2:0:0:
237,173,97893,1,4,3:2:0:0:
22,286,98802,6,0,P|22:231|33:197,1,70,4|0,3:2|0:2,0:2:0:0:
67,188,99074,2,0,P|67:133|56:99,1,70,4|0,3:2|0:2,0:2:0:0:
35,87,99347,1,4,3:2:0:0:
148,225,99893,6,0,L|232:203,1,70,4|0,3:2|0:2,0:2:0:0:
232,172,100165,2,0,L|299:189,1,70,4|0,3:2|0:2,0:2:0:0:
327,220,100438,6,0,L|357:94,1,105,2|0,3:2|0:2,0:2:0:0:
418,71,100802,6,0,L|469:44,3,35,8|0|0|0,3:2|3:2|3:2|3:2,0:0:0:0:
455,97,101165,2,0,L|510:113,3,35,8|0|0|0,3:2|3:2|3:2|3:2,0:0:0:0:
462,141,101529,2,0,L|489:191,3,35,8|0|0|0,3:2|3:2|3:2|3:2,0:0:0:0:
435,177,101893,2,0,L|418:232,3,35,8|0|0|0,3:2|3:2|3:2|3:2,0:0:0:0:
389,220,102256,6,0,L|338:193,3,35,8|0|0|0,3:2|3:2|3:2|3:2,0:0:0:0:
352,246,102620,2,0,L|296:262,3,35,8|0|0|0,3:2|3:2|3:2|3:2,0:0:0:0:
345,290,102983,2,0,L|318:340,3,35,8|0|0|0,3:2|3:2|3:2|3:2,0:0:0:0:
372,326,103347,2,0,L|388:381,3,35,8|0|0|0,3:2|3:2|3:2|3:2,0:0:0:0:
446,315,103711,6,0,P|495:306|531:300,1,70,8|8,0:2|0:2,0:2:0:0:
318,256,104074,2,0,P|269:247|233:241,1,70,8|8,0:2|0:2,0:2:0:0:
429,221,104438,5,8,0:2:0:0:
456,141,104620,1,8,0:2:0:0:
379,85,104802,5,8,0:2:0:0:
352,5,104984,1,8,0:2:0:0:
266,25,105165,2,0,L|282:95,1,70,2|2,0:2|0:2,0:2:0:0:
252,31,105529,2,0,L|269:104,1,70,2|2,0:2|0:2,0:2:0:0:
152,27,105893,6,0,P|136:58|199:91,1,105,2|0,0:2|0:0,0:2:0:0:
171,116,106256,2,0,P|185:137|192:151,5,23.3333333333333,4|4|4|4|4|4,0:3|0:3|0:3|0:3|0:3|0:3,0:0:0:0:
242,196,106620,6,0,L|77:171,1,146.999995513916,4|0,3:2|0:2,0:2:0:0:
84,186,106983,1,2,3:2:0:0:
44,275,107165,5,2,0:2:0:0:
44,275,107256,1,2,0:2:0:0:
44,275,107347,2,0,L|22:159,1,97.9999970092774,2|2,3:2|0:3,0:2:0:0:
127,260,107711,2,0,L|146:357,1,97.9999970092774,2|2,3:2|0:3,0:2:0:0:
220,323,108074,5,2,3:2:0:0:
220,323,108256,1,2,0:3:0:0:
306,316,108438,5,2,3:2:0:0:
306,316,108620,1,2,0:3:0:0:
394,310,108802,5,2,3:2:0:0:
467,370,108983,2,0,P|489:325|468:266,1,97.9999970092774,2|0,0:2|3:2,0:2:0:0:
461,255,109256,2,0,L|471:145,1,97.9999970092774,2|0,0:2|0:2,0:2:0:0:
475,128,109529,6,0,B|397:143|397:143|397:158|397:158|321:190,1,146.999995513916,6|0,3:2|0:0,0:2:0:0:
291,225,109893,2,0,L|298:112,1,97.9999970092774,2|2,3:2|0:2,0:2:0:0:
187,92,110256,5,2,3:2:0:0:
193,113,110438,1,2,0:3:0:0:
88,151,110620,1,2,3:2:0:0:
94,130,110802,1,2,0:3:0:0:
10,78,110983,6,0,P|59:45|79:127,1,146.999995513916,2|0,3:2|0:2,0:2:0:0:
114,49,111347,2,0,P|141:-10|199:20,1,146.999995513916,2|0,3:2|0:2,0:2:0:0:
206,45,111711,1,2,3:2:0:0:
278,92,111893,6,0,P|349:83|363:50,1,97.9999970092774,2|0,0:2|3:2,0:2:0:0:
363,47,112165,2,0,P|434:56|448:89,1,97.9999970092774,2|0,0:2|0:2,0:2:0:0:
459,99,112438,2,0,B|477:143|477:143|422:266,1,146.999995513916,6|0,3:2|0:2,0:2:0:0:
425,257,112802,1,2,3:2:0:0:
355,330,112983,5,2,0:2:0:0:
355,330,113074,1,2,0:2:0:0:
355,330,113165,2,0,L|333:227,1,97.9999970092774,2|2,3:2|0:3,0:2:0:0:
252,273,113529,2,0,L|272:368,1,97.9999970092774,2|2,3:2|0:3,0:2:0:0:
176,333,113893,5,2,3:2:0:0:
176,333,114074,1,2,0:3:0:0:
86,329,114256,5,2,3:2:0:0:
86,329,114437,1,2,0:3:0:0:
4,367,114620,6,0,P|51:304|38:212,1,146.999995513916,2|0,3:2|0:2,0:2:0:0:
38,225,114983,6,0,P|38:158|105:181,1,146.999995513916,2|0,3:2|0:2,0:2:0:0:
149,230,115347,6,0,L|277:214,1,105,6|0,3:2|0:2,0:2:0:0:
271,220,115711,2,4,L|399:204,1,105,6|0,3:2|0:2,0:2:0:0:
392,228,116074,5,12,0:2:0:0:
470,260,116256,1,0,3:2:0:0:
458,177,116438,2,0,P|469:110|481:61,1,105,6|0,3:2|0:2,0:2:0:0:
449,103,116802,2,0,P|438:36|426:-13,1,105,6|0,3:2|0:2,0:2:0:0:
451,0,117165,1,6,3:2:0:0:
254,52,117529,5,12,0:2:0:0:
15,352,118256,6,0,P|52:289|128:303,1,125.999996154785,6|0,3:2|0:2,0:2:0:0:
118,301,118620,1,2,3:2:0:0:
190,354,118802,5,2,0:2:0:0:
190,354,118893,1,2,0:2:0:0:
190,354,118983,2,0,L|204:267,1,83.9999974365235,2|2,3:2|0:3,0:2:0:0:
277,328,119347,2,0,L|291:241,1,83.9999974365235,2|2,3:2|1:3,0:2:0:0:
231,159,119711,5,2,3:2:0:0:
200,176,119893,1,2,0:3:0:0:
302,107,120074,5,2,3:2:0:0:
337,126,120256,1,2,1:3:0:0:
221,73,120438,5,2,3:2:0:0:
220,3,120620,2,0,P|199:58|149:73,1,83.9999974365235,2|0,0:3|3:2,0:2:0:0:
153,85,120893,2,0,P|94:94|56:58,1,83.9999974365235,2|0,0:2|0:2,0:2:0:0:
23,27,121165,6,0,P|36:102|48:172,1,125.999996154785,6|0,3:2|0:0,0:2:0:0:
50,171,121529,1,2,3:2:0:0:
11,254,121711,5,2,0:2:0:0:
11,254,121802,1,2,0:2:0:0:
11,254,121893,2,0,L|195:291,1,146.999995513916,2|2,3:2|1:3,0:2:0:0:
157,305,122256,2,0,L|275:281,1,97.9999970092774,2|0,3:2|0:0,0:2:0:0:
267,174,122620,6,0,L|451:137,1,146.999995513916,2|2,3:2|1:3,0:2:0:0:
413,123,122983,2,0,L|531:147,1,97.9999970092774,2|0,3:2|0:0,0:2:0:0:
512,230,123347,1,2,3:2:0:0:
491,350,123529,6,0,P|467:305|397:288,1,97.9999970092774,2|0,0:2|3:2,0:2:0:0:
415,270,123802,2,0,L|308:287,1,97.9999970092774,2|0,0:2|0:2,0:2:0:0:
291,302,124074,6,0,B|237:287|237:287|231:265|231:265|168:246,1,125.999996154785,6|0,3:2|0:2,0:2:0:0:
168,263,124438,1,2,3:2:0:0:
105,318,124620,5,6,3:2:0:0:
105,318,124802,2,0,P|53:303|2:292,1,83.9999974365235,6|0,3:2|0:0,0:2:0:0:
60,191,125165,5,8,0:2:0:0:
70,202,125256,2,0,P|122:187|173:176,1,83.9999974365235,2|0,3:2|0:2,0:2:0:0:
164,167,125529,2,0,L|181:69,1,83.9999974365235,6|2,3:2|0:2,0:2:0:0:
103,14,125893,2,0,L|88:96,1,83.9999974365235,2|2,0:2|3:2,0:2:0:0:
178,84,126256,5,14,0:2:0:0:
187,72,126347,2,0,P|230:66|251:127,1,83.9999974365235,2|0,3:2|0:2,0:2:0:0:
258,116,126620,2,0,L|271:199,1,78.7500030040742,2|0,3:2|0:0,0:2:0:0:
270,193,126983,6,0,L|380:220,1,83.9999974365235,6|2,3:2|3:2,0:2:0:0:
415,273,127347,2,0,L|525:300,1,83.9999974365235,2|2,3:2|3:2,0:2:0:0:
454,367,127711,5,2,3:2:0:0:
374,354,127893,1,2,3:2:0:0:
314,299,128074,5,2,3:2:0:0:
293,303,128165,1,2,3:2:0:0:
272,307,128256,1,2,3:2:0:0:
251,312,128347,1,2,3:2:0:0:
234,316,128438,1,2,3:2:0:0:
234,316,129529,6,0,L|248:198,1,105,2|0,0:2|0:2,0:2:0:0:
248,189,129893,1,6,3:2:0:0:
256,192,150256,12,0,152802,1:2:0:0:
152,315,153165,6,0,L|128:188,1,97.9999970092774,6|0,3:2|0:2,0:2:0:0:
133,218,153529,1,2,0:2:0:0:
122,135,153711,1,2,0:2:0:0:
120,125,153802,1,2,0:2:0:0:
0,76,154074,6,0,P|62:44|99:54,1,97.9999970092774,6|0,3:2|0:2,0:2:0:0:
101,32,154347,2,0,P|166:80|177:123,1,97.9999970092774,6|0,3:2|0:2,0:2:0:0:
169,113,154620,6,0,L|155:224,1,97.9999970092774,6|0,3:2|0:0,0:2:0:0:
156,210,154983,1,2,0:2:0:0:
147,311,155165,1,2,0:2:0:0:
143,326,155256,1,2,0:2:0:0:
293,294,155529,6,0,B|348:297|321:331|386:334,1,97.9999970092774,6|0,3:2|0:2,0:2:0:0:
380,319,155802,2,0,B|429:294|422:337|480:307,1,97.9999970092774,6|0,3:2|0:2,0:2:0:0:
484,292,156074,6,0,B|463:167,1,97.9999970092774,6|0,3:2|0:0,0:2:0:0:
466,197,156438,1,2,0:2:0:0:
388,141,156620,1,2,0:2:0:0:
382,126,156711,1,2,0:2:0:0:
512,0,156983,6,0,B|475:11|475:11|467:21|467:21|423:36,1,97.9999970092774,6|0,3:2|0:2,0:2:0:0:
420,57,157256,2,0,B|383:45|383:45|375:35|375:35|331:20,1,97.9999970092774,6|0,3:2|0:2,0:2:0:0:
315,30,157529,6,0,L|189:42,1,97.9999970092774,6|0,3:2|0:0,0:2:0:0:
217,39,157893,1,2,0:2:0:0:
197,148,158074,6,0,B|250:153|250:153|304:114,1,97.9999970092774,4|0,3:2|0:2,0:2:0:0:
288,142,158347,2,0,B|264:205|264:205|274:260,1,97.9999970092774,6|0,3:2|0:2,0:2:0:0:
225,316,158620,5,2,0:2:0:0:
209,322,158711,1,2,0:0:0:0:
192,328,158802,1,2,0:2:0:0:
175,334,158893,1,2,0:2:0:0:
157,341,158983,6,0,P|144:320|141:296,3,48.9999985046387,4|0|0|0,3:2|3:2|3:2|3:2,0:0:0:0:
117,308,159347,2,0,P|116:283|126:261,3,48.9999985046387,0|0|0|0,3:2|3:2|3:2|3:2,0:0:0:0:
97,257,159711,2,0,P|108:235|128:221,3,48.9999985046387,0|0|0|0,3:2|3:2|3:2|3:2,0:0:0:0:
86,210,160074,2,0,P|106:197|130:194,3,48.9999985046387,0|0|0|0,3:2|3:2|3:2|3:2,0:0:0:0:
146,170,160438,6,0,P|170:167|190:154,3,48.9999985046387,0|0|0|0,3:2|3:2|3:2|3:2,0:0:0:0:
148,143,160802,2,0,P|167:129|179:107,3,48.9999985046387,0|0|0|0,3:2|3:2|3:2|3:2,0:0:0:0:
150,103,161165,2,0,P|160:80|159:56,3,48.9999985046387,0|0|0|0,3:2|3:2|3:2|3:2,0:0:0:0:
134,68,161529,2,0,P|131:43|118:23,3,48.9999985046387,0|0|0|0,3:2|3:2|3:2|3:2,0:0:0:0:
55,71,161893,5,0,3:2:0:0:
147,86,162074,1,0,3:2:0:0:
222,36,162256,5,0,3:2:0:0:
250,128,162437,1,0,3:2:0:0:
343,66,162620,5,0,3:2:0:0:
338,177,162802,1,0,3:2:0:0:
422,156,162983,5,0,3:2:0:0:
318,164,163165,1,0,3:2:0:0:
385,67,163347,6,0,L|406:156,1,70,2|2,0:2|0:2,0:2:0:0:
400,63,163711,2,0,L|420:148,1,83.9999974365235,2|2,0:2|0:2,0:2:0:0:
398,222,163983,1,0,0:2:0:0:
410,240,164074,2,0,B|460:254|460:254|505:190|505:190|495:153,1,157.500006008148,2|0,0:2|0:2,0:2:0:0:
406,132,164438,6,0,L|351:143,3,52.5000020027161,6|0|6|0,0:3|0:0|0:3|0:0,0:0:0:0:
347,153,164802,6,0,B|322:48|322:48|269:34,1,157.500006008148,6|2,3:2|0:2,3:2:0:0:
259,33,165165,1,0,3:2:0:0:
158,18,165347,1,2,0:2:0:0:
140,22,165438,1,2,0:2:0:0:
126,25,165529,2,0,B|93:32|93:32|77:115,1,105.000004005432,0|2,3:0|0:2,0:0:0:0:
64,183,165893,1,2,3:2:0:0:
64,183,166074,1,2,0:2:0:0:
143,181,166256,2,0,B|75:193|75:193|49:219,2,105.000004005432,2|0|2,3:2|0:2|3:2,0:2:0:0:
224,201,166802,5,2,0:2:0:0:
233,209,166893,1,2,0:2:0:0:
242,217,166983,2,0,B|261:334|261:334|245:310|216:303,1,157.500006008148,0|2,3:2|0:2,0:0:0:0:
211,304,167347,5,2,3:2:0:0:
128,304,167529,1,2,0:2:0:0:
50,303,167711,2,0,B|99:292|99:292|119:274|119:274|146:281|146:281|196:270,1,157.500006008148,2|2,3:2|0:2,0:2:0:0:
205,245,168074,6,0,L|217:124,1,105.000004005432,2|2,3:2|0:2,0:2:0:0:
296,131,168347,1,2,0:2:0:0:
310,142,168438,2,0,B|435:119|435:119|467:151,1,157.500006008148,0|0,3:2|0:2,0:0:0:0:
458,163,168802,5,2,3:2:0:0:
439,239,168983,1,2,0:2:0:0:
420,316,169165,2,0,P|368:318|326:288,1,105.000004005432,2|0,3:2|0:2,0:2:0:0:
249,239,169529,6,0,P|213:281|212:336,1,105.000004005432,2|2,3:2|0:2,0:2:0:0:
227,341,169802,1,2,0:2:0:0:
333,353,170074,6,0,L|320:301,1,52.5000020027161,2|2,0:2|0:2,0:0:0:0:
330,287,170256,2,0,L|314:227,1,52.5000020027161,2|0,3:2|0:0,0:0:0:0:
377,187,170438,1,2,0:2:0:0:
392,182,170528,1,2,0:2:0:0:
403,177,170620,2,0,L|430:75,1,105.000004005432,6|0,3:2|0:2,0:2:0:0:
365,22,170983,6,0,B|298:35|298:35|275:19|224:21,1,105.000004005432,2|2,3:2|0:2,0:2:0:0:
256,102,171256,1,2,0:2:0:0:
268,108,171347,2,0,L|243:7,1,105.000004005432,0|2,3:0|0:2,0:0:0:0:
155,17,171711,2,0,P|157:68|187:110,1,105.000004005432,2|2,3:2|0:2,0:0:0:0:
154,187,172074,2,0,B|60:115|60:115|8:126,1,157.500006008148,2|2,3:2|0:2,0:2:0:0:
11,133,172438,1,2,3:2:0:0:
19,225,172620,1,2,0:2:0:0:
34,226,172711,2,0,P|53:275|42:331,1,105.000004005432,2|0,0:2|0:2,0:2:0:0:
58,331,172983,1,2,0:2:0:0:
149,328,173165,1,2,3:2:0:0:
149,328,173347,1,2,0:2:0:0:
129,241,173529,6,0,L|262:224,1,105.000004005432,2|2,3:2|0:2,0:0:0:0:
292,289,173802,1,2,0:2:0:0:
298,277,173893,2,0,B|317:256|316:220|316:220|326:198|347:187,1,105.000004005432,2|2,3:2|0:2,0:2:0:0:
360,196,174165,2,0,P|403:223|426:282,1,105.000004005432,2|0,0:2|0:2,0:2:0:0:
376,335,174438,5,2,0:2:0:0:
364,345,174529,1,2,0:2:0:0:
357,361,174620,2,0,B|431:348|431:348|441:369|457:382,1,105.000004005432,2|0,3:2|0:2,0:2:0:0:
512,321,174983,2,0,B|493:270|435:261|435:261|361:275,1,157.500006008148,0|2,3:2|0:2,0:0:0:0:
359,260,175347,5,2,3:2:0:0:
343,178,175529,1,2,0:2:0:0:
328,94,175711,2,0,B|206:33,1,119.000002269745,6|0,3:2|0:2,0:2:0:0:
202,74,175983,2,0,B|80:135,1,119.000002269745,6|0,3:2|0:0,0:0:0:0:
56,107,176256,1,6,3:2:0:0:
115,22,176438,6,0,B|78:26|67:63|67:63|89:186,1,157.500006008148,6|2,3:2|0:2,0:2:0:0:
41,228,176802,2,0,B|59:306|59:306|68:257,1,105.000004005432,2|2,3:2|0:2,0:2:0:0:
125,215,177165,2,0,B|146:265|146:265|136:337,1,105.000004005432,0|2,3:0|0:2,0:0:0:0:
152,319,177438,5,2,3:2:0:0:
168,324,177529,1,2,3:2:0:0:
182,328,177620,1,2,3:2:0:0:
283,324,177802,5,2,3:2:0:0:
294,328,177893,2,0,B|374:305|295:160|192:230|201:384|95:381|92:283|172:307,1,335.999989746094,6|0,3:2|0:2,0:2:0:0:
57,362,178802,6,0,P|37:354|21:340,1,41.9999987182618,2|0,0:2|0:2,0:2:0:0:
8,342,178983,2,0,P|-4:280|33:231,1,125.999996154785,2|2,0:2|0:2,0:0:0:0:
70,207,179347,6,0,B|147:218|147:218|221:179,1,157.500006008148,6|2,3:2|0:2,0:2:0:0:
237,190,179711,2,0,B|344:143|344:143|296:141,1,157.500006008148,2|2,3:2|0:2,0:2:0:0:
304,118,180074,1,2,3:2:0:0:
350,37,180256,5,2,3:2:0:0:
347,27,180347,1,2,3:2:0:0:
344,17,180438,6,0,L|300:14,2,26.2500010013581,2|0|0,3:2|3:2|3:2,3:2:0:0:
435,71,180802,5,6,3:2:0:0:
341,99,180983,1,6,3:2:0:0:
252,126,181165,2,0,B|340:119|301:62|407:51,2,167.999994873047,6|2|2,3:2|0:2|0:2,0:2:0:0:
118,122,182256,6,0,P|105:51|198:76,1,195.999994018555
14,194,182983,6,0,B|-1:181|-1:181|76:191|76:191|110:212|149:198,1,168,8|0,0:2|0:0,0:0:0:0:
118,123,183347,6,0,B|127:255|127:255|136:272|136:272|139:337|139:337|120:298,1,251.999992309571,6|0,3:2|0:2,0:2:0:0:
27,273,183893,1,2,0:2:0:0:
24,262,183983,1,2,0:2:0:0:
21,250,184074,1,2,3:3:0:0:
103,239,184256,1,2,0:2:0:0:
160,176,184438,1,10,0:2:0:0:
235,231,184620,2,0,L|213:358,2,112,2|2|2,0:2|0:3|0:2,0:2:0:0:
337,212,185165,6,0,B|347:190|347:190|315:83,2,112,2|2|2,3:2|0:2|0:3,0:2:0:0:
251,230,185711,1,0,0:0:0:0:
176,173,185893,2,0,B|166:151|166:151|198:44,1,112,10|2,0:2|0:2,0:2:0:0:
278,33,186256,5,2,3:3:0:0:
352,22,186438,1,2,3:2:0:0:
431,7,186620,2,0,B|451:18|451:18|465:105,1,112,2|0,3:2|0:2,0:2:0:0:
455,116,186893,5,2,3:2:0:0:
378,83,187074,1,2,3:2:0:0:
361,79,187165,1,2,3:2:0:0:
282,147,187347,6,0,B|259:120|259:120|272:24,1,112,10|0,0:2|0:0,0:2:0:0:
269,44,187711,1,2,0:3:0:0:
380,149,188074,6,0,P|387:83|448:59,1,125.999996154785,6|2,3:2|0:2,0:2:0:0:
456,62,188438,2,0,L|481:157,1,83.9999974365235,8|2,3:2|0:2,0:0:0:0:
500,225,188802,5,2,3:2:0:0:
503,315,188983,1,0,0:2:0:0:
498,336,189074,2,0,L|411:317,1,83.9999974365235,2|2,0:2|0:2,0:2:0:0:
400,333,189347,1,2,0:2:0:0:
298,384,189529,6,0,L|289:292,1,83.9999974365235,2|0,3:2|0:2,0:2:0:0:
268,296,189802,2,0,L|277:204,1,83.9999974365235,2|2,0:2|0:2,0:2:0:0:
280,191,190074,1,2,0:2:0:0:
268,43,190256,2,0,P|227:63|172:62,1,83.9999974365235,2|0,3:2|0:2,0:2:0:0:
170,50,190529,2,0,P|129:30|74:31,1,83.9999974365235,2|2,0:2|0:2,0:2:0:0:
77,43,190802,1,2,0:2:0:0:
22,128,190983,6,0,L|9:266,1,125.999996154785,2|2,3:2|0:2,0:2:0:0:
10,274,191347,2,0,P|48:333|61:332,1,83.9999974365235,8|2,3:2|0:2,0:0:0:0:
157,354,191711,2,0,P|171:311|217:295,1,83.9999974365235,2|0,3:2|0:2,0:2:0:0:
202,273,191983,2,0,P|246:263|283:295,1,83.9999974365235,2|2,0:2|0:2,0:2:0:0:
287,302,192256,1,2,0:2:0:0:
373,376,192438,2,0,L|465:366,1,83.9999974365235,2|0,3:2|0:2,0:2:0:0:
465,352,192711,2,0,L|475:260,1,83.9999974365235,2|2,0:2|0:2,0:2:0:0:
460,252,192983,1,2,0:2:0:0:
388,205,193165,6,0,P|438:206|466:178,1,83.9999974365235,2|0,3:2|0:2,0:2:0:0:
468,159,193438,2,0,P|456:127|413:104,1,83.9999974365235,2|0,3:2|0:2,0:2:0:0:
395,106,193711,1,2,3:2:0:0:
312,39,193893,6,0,B|289:37|268:47|268:47|282:8|282:8|311:37,1,112,2|2,3:2|3:2,0:2:0:0:
312,122,194256,5,6,3:2:0:0:
315,130,194347,1,2,0:0:0:0:
319,139,194438,1,2,0:2:0:0:
267,204,194620,2,0,P|217:203|197:240,1,83.9999974365235,2|0,3:2|0:2,0:2:0:0:
203,248,194893,2,0,P|174:277|134:271,1,83.9999974365235,2|2,0:2|0:2,0:2:0:0:
122,252,195165,1,2,0:2:0:0:
30,284,195347,6,0,B|20:254|20:254|13:245|13:245|15:231|15:231|6:197,1,83.9999974365235,2|2,3:2|3:2,0:2:0:0:
38,201,195620,6,0,B|47:171|47:171|54:161|54:161|53:147|53:147|59:122,1,83.9999974365235,2|2,3:2|3:2,0:2:0:0:
49,108,195893,5,2,3:2:0:0:
152,102,196074,6,0,L|146:66,5,27.9999991455078,8|8|8|8|8|8,3:3|0:3|0:3|3:3|0:3|0:3,0:0:0:0:
172,56,196438,2,0,L|178:20,5,27.9999991455078,4|4|4|4|4|4,3:3|0:3|0:3|3:3|0:3|0:3,0:0:0:0:
200,18,196802,6,0,L|53:37,1,125.999996154785,4|4,3:2|3:2,0:2:0:0:
313,99,197529,2,0,L|460:118,1,125.999996154785,4|4,3:2|3:2,0:2:0:0:
139,233,198256,2,0,L|-8:252,1,125.999996154785,4|4,3:2|3:2,0:2:0:0:
365,378,198983,6,0,L|375:325,6,41.9999987182618,2|2|2|2|2|2|2,3:2|0:2|0:2|0:2|0:2|0:2|0:2,0:0:0:0:
486,284,199711,6,0,L|433:268,3,41.9999987182618,0|0|2|0,3:2|3:2|3:2|3:2,0:0:0:0:
468,251,200074,2,0,L|415:235,3,41.9999987182618,0|0|2|0,3:2|3:2|3:2|3:2,0:0:0:0:
450,218,200438,2,0,L|397:202,3,41.9999987182618,0|0|2|0,3:2|3:2|3:2|3:2,0:0:0:0:
432,185,200802,2,0,L|379:169,3,41.9999987182618,0|0|2|0,3:2|3:2|3:2|3:2,0:0:0:0:
417,137,201165,6,0,L|470:121,3,41.9999987182618,0|0|2|0,3:2|3:2|3:2|3:2,0:0:0:0:
435,104,201529,2,0,L|488:88,3,41.9999987182618,0|0|2|0,3:2|3:2|3:2|3:2,0:0:0:0:
453,71,201892,2,0,L|506:55,4,41.9999987182618,0|0|2|0|2,3:2|3:2|3:2|3:2|0:2,0:0:0:0:
243,17,202620,6,0,L|256:70,3,41.9999987182618,4|0|2|0,3:2|3:2|3:2|3:2,0:0:0:0:
194,57,202983,2,0,L|240:85,3,41.9999987182618,0|0|2|0,3:2|3:2|3:2|3:2,0:0:0:0:
187,119,203347,2,0,L|239:105,3,41.9999987182618,0|0|2|2,3:2|3:2|3:2|3:2,0:0:0:0:
225,167,203711,2,0,L|253:120,3,41.9999987182618,0|0|2|2,3:2|3:2|3:2|3:2,0:0:0:0:
242,215,204074,6,0,L|229:268,3,41.9999987182618,0|0|2|0,3:2|3:2|3:2|3:2,0:0:0:0:
291,255,204438,2,0,L|244:283,3,41.9999987182618,0|0|2|0,3:2|3:2|3:2|3:2,0:0:0:0:
286,317,204801,2,0,L|246:308,3,27.9999991455078,2|2|2|2,0:2|0:2|0:2|0:2,0:0:0:0:
114,374,205529,6,0,L|106:264,1,83.9999974365235,4|0,3:2|0:2,0:2:0:0:
81,272,205802,2,0,L|89:162,1,83.9999974365235,0|0,3:2|0:2,0:2:0:0:
89,167,206074,1,0,3:2:0:0:
19,46,206256,6,0,P|62:84|106:85,1,83.9999974365235,4|0,3:2|0:2,0:2:0:0:
107,88,206529,2,0,P|146:76|174:46,1,83.9999974365235,0|0,3:2|0:2,0:2:0:0:
183,27,206802,1,0,3:2:0:0:
183,111,206983,6,0,L|287:146,1,83.9999974365235,4|0,3:2|0:2,3:2:0:0:
275,155,207256,2,0,L|354:128,1,83.9999974365235,0|0,3:2|0:2,0:2:0:0:
375,123,207529,1,0,3:2:0:0:
436,57,207711,6,0,P|476:105|477:142,1,83.9999974365235,4|0,3:2|0:2,0:2:0:0:
495,137,207983,2,0,P|483:176|452:204,1,83.9999974365235,0|0,3:2|0:2,0:2:0:0:
454,225,208256,1,0,3:2:0:0:
384,282,208438,6,0,L|370:382,1,83.9999974365235,4|0,3:2|3:2,0:2:0:0:
292,301,208802,2,0,L|278:401,1,83.9999974365235,4|0,3:2|3:2,0:2:0:0:
193,341,209165,5,4,3:2:0:0:
154,272,209347,1,0,3:2:0:0:
154,272,209438,1,0,0:2:0:0:
154,272,209529,1,4,3:2:0:0:
214,218,209711,1,0,3:2:0:0:
176,148,209893,6,0,L|69:128,1,83.9999974365235,6|2,3:2|0:2,0:2:0:0:
106,49,210256,2,0,L|188:64,1,83.9999974365235,2|2,2:2|2:2,2:2:0:0:
261,117,210620,6,0,P|301:78|393:99,1,125.999996154785,2|0,0:2|0:2,0:2:0:0:
384,98,210983,1,2,0:2:0:0:
256,192,211074,12,0,213893,0:2:0:0:
65,376,214256,6,0,L|46:212,1,140,2|2,0:2|0:2,0:2:0:0:
146,370,214983,2,0,L|127:206,1,140,2|2,0:2|0:2,0:2:0:0:
228,359,215711,6,0,L|207:182,1,167.999994873047,2|2,0:2|0:2,0:2:0:0:
310,351,216438,2,0,L|289:174,1,167.999994873047,2|2,0:2|0:2,0:2:0:0:
281,92,217165,6,0,P|235:79|188:59,1,83.9999974365235,4|0,3:2|3:2,0:2:0:0:
144,5,217529,2,0,P|98:18|51:38,1,83.9999974365235,0|0,3:2|3:2,0:2:0:0:
25,103,217893,5,0,3:2:0:0:
25,103,218074,1,0,3:2:0:0:
71,179,218256,5,0,3:2:0:0:
71,179,218437,1,0,3:2:0:0:
34,250,218620,6,0,L|22:308,3,41.9999987182618,0|0|0|0,3:2|3:2|3:2|3:2,0:0:0:0:
53,316,218983,2,0,L|65:374,3,41.9999987182618,0|0|0|0,3:2|3:2|3:2|3:2,0:0:0:0:
191,277,219711,6,0,L|218:283,5,27.9999991455078,4|4|4|4|4|4,0:3|0:3|0:3|0:3|0:3|0:3,0:0:0:0:
241,310,220074,6,0,P|276:238|335:249,1,125.999996154785,4|0,3:2|0:2,0:2:0:0:
318,219,220438,6,0,L|402:244,1,78.7500030040742,2|0,0:2|3:2,0:2:0:0:
453,191,220802,6,0,L|446:142,3,41.9999987182618,2|2|2|2,3:2|0:2|0:3|0:2,0:0:0:0:
475,110,221165,2,0,L|468:61,3,41.9999987182618,2|2|2|2,3:2|0:2|0:3|0:2,0:0:0:0:
404,24,221529,2,0,P|357:17|293:6,1,83.9999974365235,2|2,3:2|0:3,0:2:0:0:
300,95,221893,2,0,P|347:102|411:113,1,83.9999974365235,2|2,3:2|0:3,0:2:0:0:
323,180,222256,5,2,3:2:0:0:
224,144,222438,2,0,P|210:98|191:52,1,83.9999974365235,0|2,0:0|3:2,0:0:0:0:
180,50,222711,1,0,0:2:0:0:
163,37,222802,1,2,3:2:0:0:
47,35,222983,6,0,P|33:83|102:96,1,125.999996154785,6|0,3:2|0:0,0:2:0:0:
109,89,223347,2,0,L|86:232,1,125.999996154785,2|0,3:2|0:2,0:2:0:0:
63,285,223711,6,0,P|116:282|124:273,3,41.9999987182618,2|2|2|2,3:2|0:2|0:3|0:2,0:0:0:0:
135,283,224074,2,0,P|188:286|196:295,3,41.9999987182618,2|2|2|2,3:2|0:2|0:3|0:2,0:0:0:0:
203,295,224438,6,0,L|217:384,1,83.9999974365235,2|2,3:2|0:3,0:2:0:0:
301,372,224802,5,2,3:2:0:0:
313,297,224983,1,2,3:3:0:0:
325,222,225165,1,2,3:2:0:0:
285,152,225347,6,0,P|225:162|183:171,1,83.9999974365235,2|0,3:2|0:2,0:2:0:0:
182,145,225620,2,0,P|122:135|80:126,1,83.9999974365235,2|0,3:2|0:2,0:2:0:0:
93,109,225893,5,6,3:2:0:0:
87,88,225983,1,2,3:2:0:0:
81,67,226074,1,2,3:2:0:0:
149,28,226256,2,0,L|298:17,1,125.999996154785,4|0,3:2|3:2,0:2:0:0:
290,33,226620,6,0,L|340:14,3,41.9999987182618,2|2|2|2,3:2|0:2|0:3|0:2,0:0:0:0:
363,30,226983,2,0,L|413:11,1,41.9999987182618,2|0,3:2|0:2,0:2:0:0:
435,25,227165,2,0,L|485:6,1,41.9999987182618,2|0,3:3|0:2,0:2:0:0:
512,27,227347,6,0,L|483:126,1,83.9999974365235,2|2,3:3|0:3,0:2:0:0:
428,197,227711,2,0,L|440:270,2,55.9999982910157,2|2|2,3:2|3:2|3:2,0:0:0:0:
411,179,228074,6,0,P|367:151|316:219,1,125.999996154785,2|2,3:2|0:2,0:2:0:0:
311,209,228438,2,0,P|267:237|216:169,1,125.999996154785,2|0,3:2|0:2,0:2:0:0:
166,142,228802,6,0,L|57:128,1,83.9999974365235,6|0,3:2|0:0,0:2:0:0:
60,211,229165,2,0,L|143:221,1,83.9999974365235,2|0,3:3|0:0,0:2:0:0:
214,277,229529,2,0,L|323:263,1,83.9999974365235,2|0,3:3|0:0,0:2:0:0:
320,346,229892,2,0,L|236:356,1,83.9999974365235,2|0,3:3|0:0,0:2:0:0:
151,336,230256,5,2,3:3:0:0:
135,330,230347,1,2,3:2:0:0:
42,300,230620,5,2,3:3:0:0:
26,294,230711,1,2,3:2:0:0:
123,246,230983,6,0,L|139:363,1,83.9999974365235,2|0,3:2|0:2,0:2:0:0:
1,148,231711,6,0,B|60:134|60:134|65:137|65:137|134:119,1,125.999996154785,6|0,3:2|0:2,0:2:0:0:
169,57,232074,6,0,B|129:216|129:216|218:249|246:151|168:122|144:164,1,315.000012016297,2|0,0:2|3:2,0:2:0:0:
115,166,232802,5,0,3:2:0:0:
143,242,232983,1,0,3:2:0:0:
172,318,233165,2,0,L|254:304,1,83.9999974365235,6|2,3:2|0:3,0:0:0:0:
262,220,233529,2,0,L|347:249,1,83.9999974365235,2|2,3:2|0:3,0:0:0:0:
397,166,233893,6,0,L|451:240,1,83.9999974365235,2|2,3:2|0:3,0:0:0:0:
344,109,234256,2,0,B|371:73|397:100|432:44,2,97.9999970092775,2|2|2,3:2|3:2|3:2,0:2:0:0:
321,109,234711,1,2,3:3:0:0:
251,49,234893,1,2,3:2:0:0:
237,39,234983,2,0,B|223:153|223:153|248:116,1,146.999995513916,2|0,3:3|0:2,0:2:0:0:
197,132,235347,5,2,3:2:0:0:
153,143,235468,5,2,3:2:0:0:
112,125,235589,5,2,3:2:0:0:
97,82,235711,5,2,3:2:0:0:
64,210,236074,5,0,3:2:0:0:
102,131,236256,2,0,P|112:122|125:117,3,27.9999991455078,2|0|0|0,3:3|3:0|3:0|3:0,0:0:0:0:
270,193,236620,2,0,P|256:193|242:188,3,27.9999991455078,2|0|0|0,3:3|3:0|3:0|3:0,0:0:0:0:
310,112,236983,6,0,L|434:95,1,125.999996154785,2|2,0:2|0:2,0:2:0:0:
314,7,237529,6,0,B|282:36|282:36|299:171,1,167.999994873047,4|2,3:2|0:2,0:2:0:0:
128,367,238256,6,0,L|144:243,1,125.999996154785,6|0,3:2|0:0,0:0:0:0:
207,196,238620,2,0,L|239:191,5,27.9999991455078,2|0|0|2|0|0,0:2|0:0|0:0|0:2|0:0|0:0,0:0:0:0:
250,170,238983,6,0,L|246:304,1,125.999996154785,4|0,3:2|0:0,0:2:0:0:
329,283,239347,2,0,L|332:199,1,83.9999974365235,4|0,3:2|0:2,0:2:0:0:
413,185,239711,1,2,0:2:0:0:
498,220,239893,6,0,L|287:243,1,209.999993591309,4|0,3:2|0:0,0:2:0:0:
207,251,240438,1,2,3:2:0:0:
190,253,240529,1,6,3:2:0:0:
175,255,240620,1,2,3:2:0:0:
119,313,240802,2,0,P|95:279|94:233,1,83.9999974365235,6|0,3:2|0:2,0:2:0:0:
55,147,241165,5,2,3:2:0:0:
53,135,241256,2,0,P|87:111|128:119,1,83.9999974365235,0|2,0:0|3:2,0:0:0:0:
135,107,241529,2,0,P|171:124|185:163,1,83.9999974365235,0|2,1:0|3:2,0:0:0:0:
256,192,241893,12,2,242983,0:2:0:0:
325,285,243347,6,0,B|270:255|195:296|195:296|120:283|120:283|163:278,1,251.999992309571,6|0,3:2|0:0,0:2:0:0:
58,331,244074,6,0,P|40:293|47:251,1,83.9999974365235,2|2,3:2|0:2,0:2:0:0:
44,237,244347,2,0,L|23:146,1,83.9999974365235,2|2,3:2|3:2,0:2:0:0:
37,138,244619,1,2,3:2:0:0:
89,217,244801,6,0,P|130:218|169:202,1,83.9999974365235,2|2,3:2|0:2,0:2:0:0:
181,213,245074,2,0,P|212:185|227:146,1,83.9999974365235,2|2,3:2|3:2,0:2:0:0:
243,140,245346,1,2,3:2:0:0:
215,55,245528,5,2,3:2:0:0:
298,30,245710,1,2,3:2:0:0:
379,9,245893,2,0,L|387:64,1,56,2|2,0:2|0:2,0:2:0:0:
294,118,246256,6,0,B|305:31|305:31|523:65,1,293.999991027832,4|2,3:2|0:2,0:2:0:0:
479,145,246983,6,0,L|393:153,1,83.9999974365235,2|2,3:2|0:2,0:2:0:0:
376,144,247256,2,0,L|342:224,1,83.9999974365235,2|2,3:2|3:2,0:2:0:0:
321,229,247529,1,2,3:2:0:0:
283,325,247711,6,0,L|196:321,1,83.9999974365235,2|2,3:2|0:2,0:2:0:0:
183,330,247983,2,0,L|140:250,1,83.9999974365235,2|2,3:2|3:2,0:2:0:0:
129,246,248256,1,2,3:2:0:0:
186,170,248438,5,2,3:2:0:0:
272,174,248620,1,2,3:2:0:0:
320,248,248802,2,0,B|312:297|312:297|282:323,1,83.9999974365235,0|0,3:2|3:2,0:2:0:0:
206,259,249165,6,0,B|197:280|196:309|196:309|172:161|172:161|169:198|155:221,1,251.999992309571,4|0,3:2|0:0,0:2:0:0:
101,265,249892,6,0,P|135:288|177:289,1,83.9999974365235,2|2,3:2|0:2,0:2:0:0:
187,279,250165,1,2,3:2:0:0:
254,334,250347,1,2,3:2:0:0:
264,332,250438,1,2,3:2:0:0:
350,357,250620,6,0,P|390:348|419:318,1,83.9999974365235,0|2,3:2|0:2,0:2:0:0:
414,301,250892,1,2,3:2:0:0:
399,217,251074,1,2,3:2:0:0:
404,206,251165,1,2,3:2:0:0:
383,119,251347,2,0,B|407:85|407:85|405:33,1,83.9999974365235,2|2,3:2|3:2,0:2:0:0:
243,0,251711,6,0,B|264:9|264:9|241:33|243:64,1,83.9999974365235,2|2,0:2|0:2,0:2:0:0:
325,62,252074,2,0,B|274:67|242:107|242:107|86:65|86:65|107:52|128:54,1,293.999991027832,6|2,3:2|0:2,0:2:0:0:
110,80,252801,6,0,L|127:165,1,83.9999974365235,2|2,3:2|0:2,0:2:0:0:
119,179,253074,1,2,3:2:0:0:
170,251,253256,1,2,3:2:0:0:
172,262,253347,1,2,3:2:0:0:
269,238,253529,6,0,L|279:146,1,83.9999974365235,2|2,3:2|0:2,0:2:0:0:
297,151,253801,1,2,3:2:0:0:
255,68,253983,1,2,3:2:0:0:
261,55,254074,1,2,3:2:0:0:
339,25,254256,6,0,P|385:32|412:68,1,93.3333333333333,2|2,0:2|0:2,0:2:0:0:
347,62,254620,6,0,P|393:57|447:-11,1,130.666662679037,2|2,0:0|0:2,0:0:0:0:
