osu file format v14

[General]
AudioFilename: terabytecut.mp3
AudioLeadIn: 0
PreviewTime: 61081
Countdown: 0
SampleSet: Normal
StackLeniency: 0.7
Mode: 3
LetterboxInBreaks: 0
SpecialStyle: 0
WidescreenStoryboard: 1

[Editor]
DistanceSpacing: 0.8
BeatDivisor: 4
GridSize: 32
TimelineZoom: 2.799999

[Metadata]
Title:+ERABY+E CONNEC+10N
TitleUnicode:+ERABY+E CONNEC+10N
Artist:Camellia
ArtistUnicode:かめりあ
Creator:HowToPlayLN
Version:504 ServerError: Gateway Timeout
Source:
Tags:electronic instrumental fa featured artist かめるかめりあ kamelcamellia cametek hardcore Phigros vivid/stasis DanceRail3 cut ver. version tera i/o terabyte connection
BeatmapID:2772922
BeatmapSetID:1338625

[Difficulty]
HPDrainRate:8
CircleSize:4
OverallDifficulty:7
ApproachRate:5
SliderMultiplier:1.4
SliderTickRate:1

[Events]
//Background and Video events
0,0,"download_1.png",0,0
//Break Periods
//Storyboard Layer 0 (Background)
//Storyboard Layer 1 (Fail)
//Storyboard Layer 2 (Pass)
//Storyboard Layer 3 (Foreground)
//Storyboard Layer 4 (Overlay)
//Storyboard Sound Samples

[TimingPoints]
821,260.869565217391,4,1,0,20,1,0

[HitObjects]
448,192,821,5,0,0:0:0:0:
64,192,1212,1,0,0:0:0:0:
320,192,1473,1,0,0:0:0:0:
192,192,1603,1,0,0:0:0:0:
320,192,1864,1,0,0:0:0:0:
192,192,1994,1,0,0:0:0:0:
448,192,2125,1,0,0:0:0:0:
64,192,2255,1,0,0:0:0:0:
320,192,2386,1,0,0:0:0:0:
192,192,2516,1,0,0:0:0:0:
448,192,2777,1,0,0:0:0:0:
64,192,2907,1,0,0:0:0:0:
320,192,3168,1,0,0:0:0:0:
64,192,3299,1,0,0:0:0:0:
320,192,3560,1,0,0:0:0:0:
192,192,3690,1,0,0:0:0:0:
320,192,3951,1,0,0:0:0:0:
64,192,4081,1,0,0:0:0:0:
192,192,4212,1,0,0:0:0:0:
320,192,4342,1,0,0:0:0:0:
448,192,4473,1,0,0:0:0:0:
192,192,4603,1,0,0:0:0:0:
64,192,4734,1,0,0:0:0:0:
320,192,4864,1,0,0:0:0:0:
64,192,4994,1,0,0:0:0:0:
320,192,5255,1,0,0:0:0:0:
64,192,5386,1,0,0:0:0:0:
320,192,5647,1,0,0:0:0:0:
192,192,5777,1,0,0:0:0:0:
320,192,6038,1,0,0:0:0:0:
64,192,6168,1,0,0:0:0:0:
192,192,6299,1,0,0:0:0:0:
320,192,6429,1,0,0:0:0:0:
448,192,6560,1,0,0:0:0:0:
192,192,6690,1,0,0:0:0:0:
192,192,6951,1,0,0:0:0:0:
64,192,7081,1,0,0:0:0:0:
320,192,7342,1,0,0:0:0:0:
64,192,7473,1,0,0:0:0:0:
320,192,7734,1,0,0:0:0:0:
192,192,7864,1,0,0:0:0:0:
448,192,8125,1,0,0:0:0:0:
320,192,8255,1,0,0:0:0:0:
64,192,8386,1,0,0:0:0:0:
192,192,8516,1,0,0:0:0:0:
320,192,8647,1,0,0:0:0:0:
448,192,8777,1,0,0:0:0:0:
192,192,8907,1,0,0:0:0:0:
320,192,9038,1,0,0:0:0:0:
64,192,9168,1,0,0:0:0:0:
320,192,9429,1,0,0:0:0:0:
64,192,9560,1,0,0:0:0:0:
320,192,9820,1,0,0:0:0:0:
192,192,9951,1,0,0:0:0:0:
448,192,10212,1,0,0:0:0:0:
320,192,10342,1,0,0:0:0:0:
64,192,10473,1,0,0:0:0:0:
192,192,10603,1,0,0:0:0:0:
448,192,10734,1,0,0:0:0:0:
320,192,10864,1,0,0:0:0:0:
192,192,11125,1,0,0:0:0:0:
64,192,11255,1,0,0:0:0:0:
320,192,11516,1,0,0:0:0:0:
64,192,11647,1,0,0:0:0:0:
320,192,11907,1,0,0:0:0:0:
192,192,12038,1,0,0:0:0:0:
448,192,12299,1,0,0:0:0:0:
320,192,12429,1,0,0:0:0:0:
64,192,12560,1,0,0:0:0:0:
192,192,12690,1,0,0:0:0:0:
448,192,12820,1,0,0:0:0:0:
320,192,12951,1,0,0:0:0:0:
192,192,13081,1,0,0:0:0:0:
64,192,13212,1,0,0:0:0:0:
320,192,13342,1,0,0:0:0:0:
320,192,13603,1,0,0:0:0:0:
64,192,13734,1,0,0:0:0:0:
320,192,13994,1,0,0:0:0:0:
192,192,14125,1,0,0:0:0:0:
448,192,14386,1,0,0:0:0:0:
320,192,14516,1,0,0:0:0:0:
64,192,14647,1,0,0:0:0:0:
192,192,14777,1,0,0:0:0:0:
448,192,14907,1,0,0:0:0:0:
320,192,15038,1,0,0:0:0:0:
64,192,15168,1,0,0:0:0:0:
192,192,15299,1,0,0:0:0:0:
448,192,15429,1,0,0:0:0:0:
64,192,15560,1,0,0:0:0:0:
320,192,15690,1,0,0:0:0:0:
192,192,15820,1,0,0:0:0:0:
448,192,15951,1,0,0:0:0:0:
64,192,16081,1,0,0:0:0:0:
320,192,16212,1,0,0:0:0:0:
448,192,16277,1,0,0:0:0:0:
192,192,16342,1,0,0:0:0:0:
320,192,16407,1,0,0:0:0:0:
64,192,16473,1,0,0:0:0:0:
192,192,16538,1,0,0:0:0:0:
448,192,16603,1,0,0:0:0:0:
320,192,16668,1,0,0:0:0:0:
192,192,16734,1,0,0:0:0:0:
64,192,16734,1,0,0:0:0:0:
448,192,16799,1,0,0:0:0:0:
320,192,16799,1,0,0:0:0:0:
192,192,16864,1,0,0:0:0:0:
64,192,16864,1,0,0:0:0:0:
448,192,16929,1,0,0:0:0:0:
320,192,16929,1,0,0:0:0:0:
64,192,16994,1,0,0:0:0:0:
192,192,16994,128,0,17190:0:0:0:0:
320,192,17060,128,0,17320:0:0:0:0:
448,192,17125,128,0,17386:0:0:0:0:
64,192,17190,128,0,17386:0:0:0:0:
192,192,17255,128,0,17386:0:0:0:0:
320,192,17386,128,0,17516:0:0:0:0:
448,192,17516,1,0,0:0:0:0:
192,192,17516,1,0,0:0:0:0:
64,192,17516,1,0,0:0:0:0:
320,192,17647,1,0,0:0:0:0:
192,192,17777,1,0,0:0:0:0:
448,192,17907,1,0,0:0:0:0:
64,192,18038,1,0,0:0:0:0:
192,192,18168,1,0,0:0:0:0:
320,192,18299,1,0,0:0:0:0:
64,192,18429,1,0,0:0:0:0:
192,192,18560,1,0,0:0:0:0:
448,192,18690,1,0,0:0:0:0:
320,192,18820,1,0,0:0:0:0:
192,192,18951,1,0,0:0:0:0:
448,192,19081,1,0,0:0:0:0:
64,192,19212,1,0,0:0:0:0:
192,192,19342,1,0,0:0:0:0:
448,192,19473,1,0,0:0:0:0:
320,192,19473,1,0,0:0:0:0:
192,192,19538,1,0,0:0:0:0:
64,192,19538,1,0,0:0:0:0:
448,192,19603,1,0,0:0:0:0:
320,192,19603,1,0,0:0:0:0:
192,192,19734,1,0,0:0:0:0:
64,192,19734,1,0,0:0:0:0:
320,192,19799,1,0,0:0:0:0:
448,192,19799,1,0,0:0:0:0:
192,192,19864,1,0,0:0:0:0:
64,192,19864,1,0,0:0:0:0:
448,192,19994,1,0,0:0:0:0:
320,192,19994,1,0,0:0:0:0:
192,192,20125,1,0,0:0:0:0:
64,192,20125,1,0,0:0:0:0:
448,192,20190,1,0,0:0:0:0:
320,192,20190,1,0,0:0:0:0:
192,192,20255,1,0,0:0:0:0:
64,192,20255,1,0,0:0:0:0:
448,192,20386,1,0,0:0:0:0:
320,192,20386,1,0,0:0:0:0:
64,192,20516,1,0,0:0:0:0:
192,192,20516,1,0,0:0:0:0:
448,192,20581,1,0,0:0:0:0:
320,192,20581,1,0,0:0:0:0:
192,192,20647,1,0,0:0:0:0:
64,192,20647,1,0,0:0:0:0:
448,192,20712,1,0,0:0:0:0:
320,192,20712,1,0,0:0:0:0:
192,192,20777,1,0,0:0:0:0:
64,192,20777,1,0,0:0:0:0:
448,192,20907,1,0,0:0:0:0:
320,192,20907,1,0,0:0:0:0:
192,192,20973,1,0,0:0:0:0:
64,192,20973,1,0,0:0:0:0:
448,192,21038,1,0,0:0:0:0:
320,192,21038,1,0,0:0:0:0:
64,192,21103,1,0,0:0:0:0:
192,192,21103,1,0,0:0:0:0:
448,192,21168,1,0,0:0:0:0:
320,192,21168,1,0,0:0:0:0:
192,192,21299,1,0,0:0:0:0:
64,192,21299,1,0,0:0:0:0:
448,192,21429,1,0,0:0:0:0:
320,192,21429,1,0,0:0:0:0:
192,192,21560,1,0,0:0:0:0:
448,192,21690,1,0,0:0:0:0:
64,192,21690,1,0,0:0:0:0:
320,192,21690,1,0,0:0:0:0:
192,192,21820,1,0,0:0:0:0:
320,192,21951,1,0,0:0:0:0:
64,192,22081,1,0,0:0:0:0:
448,192,22212,1,0,0:0:0:0:
320,192,22342,1,0,0:0:0:0:
192,192,22473,1,0,0:0:0:0:
448,192,22603,1,0,0:0:0:0:
320,192,22734,1,0,0:0:0:0:
64,192,22864,1,0,0:0:0:0:
192,192,22994,1,0,0:0:0:0:
320,192,23125,1,0,0:0:0:0:
64,192,23255,1,0,0:0:0:0:
448,192,23386,1,0,0:0:0:0:
320,192,23516,1,0,0:0:0:0:
64,192,23647,1,0,0:0:0:0:
192,192,23647,1,0,0:0:0:0:
320,192,23712,1,0,0:0:0:0:
448,192,23712,1,0,0:0:0:0:
64,192,23777,1,0,0:0:0:0:
192,192,23777,1,0,0:0:0:0:
320,192,23907,1,0,0:0:0:0:
448,192,23907,1,0,0:0:0:0:
192,192,23973,1,0,0:0:0:0:
64,192,23973,1,0,0:0:0:0:
320,192,24038,1,0,0:0:0:0:
448,192,24038,1,0,0:0:0:0:
64,192,24168,1,0,0:0:0:0:
192,192,24168,1,0,0:0:0:0:
320,192,24299,1,0,0:0:0:0:
448,192,24299,1,0,0:0:0:0:
64,192,24364,1,0,0:0:0:0:
192,192,24364,1,0,0:0:0:0:
320,192,24429,1,0,0:0:0:0:
448,192,24429,1,0,0:0:0:0:
64,192,24560,1,0,0:0:0:0:
192,192,24560,1,0,0:0:0:0:
448,192,24690,1,0,0:0:0:0:
320,192,24690,1,0,0:0:0:0:
64,192,24755,1,0,0:0:0:0:
192,192,24755,1,0,0:0:0:0:
320,192,24820,1,0,0:0:0:0:
448,192,24820,1,0,0:0:0:0:
192,192,24864,1,0,0:0:0:0:
64,192,24907,1,0,0:0:0:0:
448,192,24951,1,0,0:0:0:0:
320,192,24951,1,0,0:0:0:0:
192,192,25016,1,0,0:0:0:0:
64,192,25016,1,0,0:0:0:0:
448,192,25081,1,0,0:0:0:0:
320,192,25081,1,0,0:0:0:0:
192,192,25125,1,0,0:0:0:0:
64,192,25168,1,0,0:0:0:0:
448,192,25212,1,0,0:0:0:0:
320,192,25212,1,0,0:0:0:0:
192,192,25277,1,0,0:0:0:0:
64,192,25277,1,0,0:0:0:0:
448,192,25342,1,0,0:0:0:0:
320,192,25342,128,0,25799:0:0:0:0:
192,192,25473,128,0,25799:0:0:0:0:
64,192,25603,128,0,25799:0:0:0:0:
448,192,25734,128,0,25799:0:0:0:0:
448,192,25864,1,0,0:0:0:0:
192,192,25864,1,0,0:0:0:0:
64,192,25864,1,0,0:0:0:0:
320,192,25994,1,0,0:0:0:0:
192,192,26125,1,0,0:0:0:0:
448,192,26255,1,0,0:0:0:0:
64,192,26386,1,0,0:0:0:0:
192,192,26516,1,0,0:0:0:0:
320,192,26647,1,0,0:0:0:0:
64,192,26777,1,0,0:0:0:0:
192,192,26907,1,0,0:0:0:0:
448,192,27038,1,0,0:0:0:0:
320,192,27168,1,0,0:0:0:0:
192,192,27299,1,0,0:0:0:0:
448,192,27429,1,0,0:0:0:0:
64,192,27560,1,0,0:0:0:0:
192,192,27690,1,0,0:0:0:0:
448,192,27820,1,0,0:0:0:0:
320,192,27820,1,0,0:0:0:0:
192,192,27886,1,0,0:0:0:0:
64,192,27886,1,0,0:0:0:0:
448,192,27951,1,0,0:0:0:0:
320,192,27951,1,0,0:0:0:0:
192,192,28081,1,0,0:0:0:0:
64,192,28081,1,0,0:0:0:0:
320,192,28147,1,0,0:0:0:0:
448,192,28147,1,0,0:0:0:0:
192,192,28212,1,0,0:0:0:0:
64,192,28212,1,0,0:0:0:0:
448,192,28342,1,0,0:0:0:0:
320,192,28342,1,0,0:0:0:0:
192,192,28473,1,0,0:0:0:0:
64,192,28473,1,0,0:0:0:0:
448,192,28538,1,0,0:0:0:0:
320,192,28538,1,0,0:0:0:0:
192,192,28603,1,0,0:0:0:0:
64,192,28603,1,0,0:0:0:0:
448,192,28734,1,0,0:0:0:0:
320,192,28734,1,0,0:0:0:0:
64,192,28864,1,0,0:0:0:0:
192,192,28864,1,0,0:0:0:0:
448,192,28929,1,0,0:0:0:0:
320,192,28929,1,0,0:0:0:0:
192,192,28994,1,0,0:0:0:0:
64,192,28994,1,0,0:0:0:0:
448,192,29060,1,0,0:0:0:0:
320,192,29060,1,0,0:0:0:0:
192,192,29125,1,0,0:0:0:0:
64,192,29125,1,0,0:0:0:0:
448,192,29255,1,0,0:0:0:0:
320,192,29255,1,0,0:0:0:0:
192,192,29320,1,0,0:0:0:0:
64,192,29320,1,0,0:0:0:0:
448,192,29386,1,0,0:0:0:0:
320,192,29386,1,0,0:0:0:0:
64,192,29451,1,0,0:0:0:0:
192,192,29451,1,0,0:0:0:0:
448,192,29516,1,0,0:0:0:0:
320,192,29516,1,0,0:0:0:0:
192,192,29647,1,0,0:0:0:0:
64,192,29647,1,0,0:0:0:0:
448,192,29777,1,0,0:0:0:0:
320,192,29777,1,0,0:0:0:0:
192,192,29907,1,0,0:0:0:0:
448,192,30038,1,0,0:0:0:0:
64,192,30038,1,0,0:0:0:0:
192,192,30168,1,0,0:0:0:0:
320,192,30299,1,0,0:0:0:0:
64,192,30429,1,0,0:0:0:0:
448,192,30560,1,0,0:0:0:0:
320,192,30690,1,0,0:0:0:0:
192,192,30820,1,0,0:0:0:0:
448,192,30951,1,0,0:0:0:0:
320,192,31081,1,0,0:0:0:0:
64,192,31212,1,0,0:0:0:0:
192,192,31342,1,0,0:0:0:0:
320,192,31473,1,0,0:0:0:0:
64,192,31603,1,0,0:0:0:0:
448,192,31734,1,0,0:0:0:0:
320,192,31864,1,0,0:0:0:0:
64,192,31994,1,0,0:0:0:0:
192,192,31994,1,0,0:0:0:0:
320,192,32060,1,0,0:0:0:0:
448,192,32060,1,0,0:0:0:0:
64,192,32125,1,0,0:0:0:0:
192,192,32125,1,0,0:0:0:0:
320,192,32255,1,0,0:0:0:0:
448,192,32255,1,0,0:0:0:0:
192,192,32320,1,0,0:0:0:0:
64,192,32320,1,0,0:0:0:0:
320,192,32386,1,0,0:0:0:0:
448,192,32386,1,0,0:0:0:0:
64,192,32516,1,0,0:0:0:0:
192,192,32516,1,0,0:0:0:0:
320,192,32647,1,0,0:0:0:0:
448,192,32647,1,0,0:0:0:0:
64,192,32712,1,0,0:0:0:0:
192,192,32712,1,0,0:0:0:0:
320,192,32777,1,0,0:0:0:0:
448,192,32777,1,0,0:0:0:0:
64,192,32907,1,0,0:0:0:0:
192,192,32907,1,0,0:0:0:0:
448,192,33038,1,0,0:0:0:0:
320,192,33038,1,0,0:0:0:0:
64,192,33103,1,0,0:0:0:0:
192,192,33103,1,0,0:0:0:0:
320,192,33168,1,0,0:0:0:0:
448,192,33168,1,0,0:0:0:0:
64,192,33299,1,0,0:0:0:0:
192,192,33299,1,0,0:0:0:0:
320,192,33364,1,0,0:0:0:0:
448,192,33364,1,0,0:0:0:0:
64,192,33429,1,0,0:0:0:0:
192,192,33429,1,0,0:0:0:0:
448,192,33560,1,0,0:0:0:0:
320,192,33560,1,0,0:0:0:0:
192,192,33690,1,0,0:0:0:0:
64,192,33690,1,0,0:0:0:0:
448,192,33755,1,0,0:0:0:0:
320,192,33755,1,0,0:0:0:0:
192,192,33820,1,0,0:0:0:0:
64,192,33820,1,0,0:0:0:0:
448,192,33951,1,0,0:0:0:0:
320,192,33951,1,0,0:0:0:0:
192,192,34081,1,0,0:0:0:0:
64,192,34081,1,0,0:0:0:0:
448,192,34147,1,0,0:0:0:0:
320,192,34147,1,0,0:0:0:0:
192,192,34212,1,0,0:0:0:0:
64,192,34212,1,0,0:0:0:0:
448,192,34342,1,0,0:0:0:0:
320,192,34342,1,0,0:0:0:0:
192,192,34407,1,0,0:0:0:0:
64,192,34407,1,0,0:0:0:0:
320,192,34473,1,0,0:0:0:0:
448,192,34473,1,0,0:0:0:0:
192,192,34603,1,0,0:0:0:0:
64,192,34603,1,0,0:0:0:0:
448,192,34734,1,0,0:0:0:0:
320,192,34734,1,0,0:0:0:0:
192,192,34799,1,0,0:0:0:0:
64,192,34799,1,0,0:0:0:0:
448,192,34864,1,0,0:0:0:0:
320,192,34864,1,0,0:0:0:0:
192,192,34994,1,0,0:0:0:0:
64,192,34994,1,0,0:0:0:0:
448,192,35125,1,0,0:0:0:0:
320,192,35125,1,0,0:0:0:0:
192,192,35190,1,0,0:0:0:0:
64,192,35190,1,0,0:0:0:0:
320,192,35255,1,0,0:0:0:0:
448,192,35255,1,0,0:0:0:0:
192,192,35288,1,0,0:0:0:0:
64,192,35320,1,0,0:0:0:0:
448,192,35353,1,0,0:0:0:0:
320,192,35386,1,0,0:0:0:0:
192,192,35451,1,0,0:0:0:0:
64,192,35451,1,0,0:0:0:0:
448,192,35516,1,0,0:0:0:0:
320,192,35516,1,0,0:0:0:0:
64,192,35549,1,0,0:0:0:0:
192,192,35581,1,0,0:0:0:0:
320,192,35614,1,0,0:0:0:0:
448,192,35647,1,0,0:0:0:0:
192,192,35712,1,0,0:0:0:0:
64,192,35712,1,0,0:0:0:0:
448,192,35777,1,0,0:0:0:0:
320,192,35777,128,0,35907:0:0:0:0:
192,192,35907,128,0,35973:0:0:0:0:
64,192,36038,128,0,36266:0:0:0:0:
448,192,36168,128,0,36266:0:0:0:0:
448,192,36299,1,0,0:0:0:0:
320,192,36299,1,0,0:0:0:0:
64,192,36299,1,0,0:0:0:0:
192,192,36429,1,0,0:0:0:0:
320,192,36560,1,0,0:0:0:0:
64,192,36690,1,0,0:0:0:0:
448,192,36820,1,0,0:0:0:0:
192,192,36951,1,0,0:0:0:0:
320,192,37081,1,0,0:0:0:0:
64,192,37212,1,0,0:0:0:0:
448,192,37342,1,0,0:0:0:0:
320,192,37473,1,0,0:0:0:0:
192,192,37603,1,0,0:0:0:0:
320,192,37734,1,0,0:0:0:0:
64,192,37864,1,0,0:0:0:0:
192,192,37994,1,0,0:0:0:0:
448,192,38125,1,0,0:0:0:0:
64,192,38255,1,0,0:0:0:0:
320,192,38386,1,0,0:0:0:0:
192,192,38516,1,0,0:0:0:0:
448,192,38647,1,0,0:0:0:0:
64,192,38777,1,0,0:0:0:0:
320,192,38907,1,0,0:0:0:0:
192,192,39038,1,0,0:0:0:0:
320,192,39168,1,0,0:0:0:0:
64,192,39299,1,0,0:0:0:0:
448,192,39429,1,0,0:0:0:0:
192,192,39560,1,0,0:0:0:0:
64,192,39690,1,0,0:0:0:0:
320,192,39820,1,0,0:0:0:0:
192,192,39951,1,0,0:0:0:0:
320,192,40081,1,0,0:0:0:0:
448,192,40212,1,0,0:0:0:0:
64,192,40342,1,0,0:0:0:0:
192,192,40473,1,0,0:0:0:0:
320,192,40473,1,0,0:0:0:0:
448,192,40603,1,0,0:0:0:0:
64,192,40734,1,0,0:0:0:0:
320,192,40864,1,0,0:0:0:0:
192,192,40994,1,0,0:0:0:0:
320,192,41125,1,0,0:0:0:0:
64,192,41255,1,0,0:0:0:0:
448,192,41386,1,0,0:0:0:0:
192,192,41516,1,0,0:0:0:0:
320,192,41647,1,0,0:0:0:0:
64,192,41777,1,0,0:0:0:0:
320,192,41907,1,0,0:0:0:0:
192,192,42038,1,0,0:0:0:0:
448,192,42168,1,0,0:0:0:0:
320,192,42299,1,0,0:0:0:0:
192,192,42429,1,0,0:0:0:0:
448,192,42560,1,0,0:0:0:0:
64,192,42690,1,0,0:0:0:0:
320,192,42820,1,0,0:0:0:0:
192,192,42951,1,0,0:0:0:0:
448,192,43081,1,0,0:0:0:0:
64,192,43212,1,0,0:0:0:0:
320,192,43342,1,0,0:0:0:0:
192,192,43473,1,0,0:0:0:0:
448,192,43603,1,0,0:0:0:0:
192,192,43734,1,0,0:0:0:0:
448,192,43864,1,0,0:0:0:0:
320,192,43994,1,0,0:0:0:0:
64,192,44125,1,0,0:0:0:0:
448,192,44255,1,0,0:0:0:0:
64,192,44386,1,0,0:0:0:0:
192,192,44451,1,0,0:0:0:0:
320,192,44516,1,0,0:0:0:0:
448,192,44581,1,0,0:0:0:0:
320,192,44647,128,0,44907:0:0:0:0:
192,192,44647,128,0,44907:0:0:0:0:
64,192,44647,128,0,44907:0:0:0:0:
64,192,45690,128,0,45951:0:0:0:0:
192,192,45690,128,0,45951:0:0:0:0:
320,192,45690,128,0,45951:0:0:0:0:
320,192,46342,128,0,46473:0:0:0:0:
192,192,46342,128,0,46473:0:0:0:0:
64,192,46342,128,0,46473:0:0:0:0:
192,192,46538,128,0,46668:0:0:0:0:
64,192,46538,128,0,46668:0:0:0:0:
320,192,46538,128,0,46668:0:0:0:0:
448,192,46734,128,0,46994:0:0:0:0:
192,192,46734,128,0,46994:0:0:0:0:
64,192,46734,128,0,46994:0:0:0:0:
64,192,47777,128,0,48038:0:0:0:0:
192,192,47777,128,0,48038:0:0:0:0:
448,192,47777,128,0,48038:0:0:0:0:
448,192,48168,128,0,48429:0:0:0:0:
192,192,48168,128,0,48429:0:0:0:0:
64,192,48168,128,0,48429:0:0:0:0:
64,192,48820,128,0,49081:0:0:0:0:
192,192,48820,128,0,49081:0:0:0:0:
448,192,48820,128,0,49081:0:0:0:0:
448,192,49864,128,0,50125:0:0:0:0:
320,192,49864,128,0,50125:0:0:0:0:
64,192,49864,128,0,50125:0:0:0:0:
64,192,50516,128,0,50647:0:0:0:0:
320,192,50516,128,0,50647:0:0:0:0:
448,192,50516,128,0,50647:0:0:0:0:
448,192,50712,128,0,50842:0:0:0:0:
64,192,50712,128,0,50842:0:0:0:0:
320,192,50712,128,0,50842:0:0:0:0:
320,192,50907,128,0,50973:0:0:0:0:
64,192,50907,128,0,50973:0:0:0:0:
448,192,50907,128,0,50973:0:0:0:0:
320,192,51038,128,0,51103:0:0:0:0:
64,192,51038,128,0,51103:0:0:0:0:
448,192,51038,128,0,51103:0:0:0:0:
448,192,51168,128,0,51429:0:0:0:0:
192,192,51168,128,0,51429:0:0:0:0:
320,192,51168,128,0,51429:0:0:0:0:
448,192,51820,128,0,51951:0:0:0:0:
320,192,51820,128,0,51951:0:0:0:0:
192,192,51820,128,0,51951:0:0:0:0:
192,192,52081,128,0,52212:0:0:0:0:
320,192,52081,128,0,52212:0:0:0:0:
448,192,52081,128,0,52212:0:0:0:0:
448,192,52342,128,0,52473:0:0:0:0:
320,192,52342,128,0,52473:0:0:0:0:
192,192,52342,128,0,52407:0:0:0:0:
64,192,52407,1,0,0:0:0:0:
192,192,52473,1,0,0:0:0:0:
320,192,52538,1,0,0:0:0:0:
192,192,52603,128,0,52668:0:0:0:0:
448,192,52603,128,0,52668:0:0:0:0:
64,192,52603,128,0,52668:0:0:0:0:
320,192,52668,1,0,0:0:0:0:
448,192,52734,128,0,52864:0:0:0:0:
64,192,52734,128,0,52864:0:0:0:0:
192,192,52734,128,0,52799:0:0:0:0:
320,192,52799,1,0,0:0:0:0:
192,192,52864,1,0,0:0:0:0:
64,192,52929,1,0,0:0:0:0:
448,192,52994,1,0,0:0:0:0:
320,192,52994,1,0,0:0:0:0:
192,192,53060,1,0,0:0:0:0:
448,192,53125,1,0,0:0:0:0:
64,192,53190,1,0,0:0:0:0:
320,192,53255,1,0,0:0:0:0:
192,192,53320,1,0,0:0:0:0:
64,192,53386,1,0,0:0:0:0:
320,192,53451,1,0,0:0:0:0:
192,192,53516,1,0,0:0:0:0:
448,192,53581,1,0,0:0:0:0:
320,192,53647,1,0,0:0:0:0:
64,192,53712,1,0,0:0:0:0:
192,192,53777,1,0,0:0:0:0:
448,192,53842,1,0,0:0:0:0:
320,192,53907,1,0,0:0:0:0:
192,192,53973,1,0,0:0:0:0:
448,192,54038,1,0,0:0:0:0:
64,192,54103,1,0,0:0:0:0:
320,192,54168,1,0,0:0:0:0:
192,192,54234,1,0,0:0:0:0:
448,192,54299,1,0,0:0:0:0:
64,192,54364,1,0,0:0:0:0:
320,192,54429,1,0,0:0:0:0:
192,192,54494,1,0,0:0:0:0:
448,192,54560,1,0,0:0:0:0:
320,192,54625,1,0,0:0:0:0:
64,192,54690,1,0,0:0:0:0:
192,192,54755,1,0,0:0:0:0:
320,192,54820,1,0,0:0:0:0:
64,192,54886,1,0,0:0:0:0:
448,192,54951,1,0,0:0:0:0:
192,192,55016,1,0,0:0:0:0:
320,192,55081,1,0,0:0:0:0:
64,192,55147,1,0,0:0:0:0:
192,192,55212,1,0,0:0:0:0:
448,192,55277,1,0,0:0:0:0:
320,192,55342,1,0,0:0:0:0:
192,192,55407,1,0,0:0:0:0:
448,192,55473,1,0,0:0:0:0:
64,192,55538,1,0,0:0:0:0:
192,192,55603,1,0,0:0:0:0:
320,192,55668,1,0,0:0:0:0:
64,192,55734,1,0,0:0:0:0:
192,192,55799,1,0,0:0:0:0:
320,192,55864,1,0,0:0:0:0:
448,192,55929,1,0,0:0:0:0:
192,192,55994,1,0,0:0:0:0:
320,192,56060,1,0,0:0:0:0:
64,192,56125,1,0,0:0:0:0:
192,192,56168,1,0,0:0:0:0:
448,192,56190,1,0,0:0:0:0:
320,192,56255,1,0,0:0:0:0:
192,192,56320,1,0,0:0:0:0:
448,192,56386,1,0,0:0:0:0:
320,192,56429,1,0,0:0:0:0:
64,192,56451,1,0,0:0:0:0:
192,192,56516,1,0,0:0:0:0:
448,192,56581,1,0,0:0:0:0:
64,192,56647,1,0,0:0:0:0:
192,192,56690,1,0,0:0:0:0:
320,192,56712,1,0,0:0:0:0:
64,192,56777,1,0,0:0:0:0:
192,192,56842,1,0,0:0:0:0:
320,192,56907,1,0,0:0:0:0:
448,192,56907,128,0,57103:0:0:0:0:
64,192,57038,128,0,57103:0:0:0:0:
448,192,57168,1,0,0:0:0:0:
320,192,57168,1,0,0:0:0:0:
192,192,57212,1,0,0:0:0:0:
64,192,57255,1,0,0:0:0:0:
320,192,57299,1,0,0:0:0:0:
192,192,57342,1,0,0:0:0:0:
448,192,57386,1,0,0:0:0:0:
64,192,57429,1,0,0:0:0:0:
192,192,57473,1,0,0:0:0:0:
320,192,57516,1,0,0:0:0:0:
64,192,57560,1,0,0:0:0:0:
448,192,57603,1,0,0:0:0:0:
320,192,57647,1,0,0:0:0:0:
192,192,57690,1,0,0:0:0:0:
448,192,57734,1,0,0:0:0:0:
64,192,57777,1,0,0:0:0:0:
320,192,57820,1,0,0:0:0:0:
192,192,57864,1,0,0:0:0:0:
448,192,57907,1,0,0:0:0:0:
320,192,57951,1,0,0:0:0:0:
192,192,57994,1,0,0:0:0:0:
64,192,58038,1,0,0:0:0:0:
320,192,58081,1,0,0:0:0:0:
192,192,58125,1,0,0:0:0:0:
448,192,58168,1,0,0:0:0:0:
64,192,58212,1,0,0:0:0:0:
192,192,58255,1,0,0:0:0:0:
320,192,58299,1,0,0:0:0:0:
448,192,58342,1,0,0:0:0:0:
192,192,58386,1,0,0:0:0:0:
320,192,58429,1,0,0:0:0:0:
64,192,58473,1,0,0:0:0:0:
448,192,58516,1,0,0:0:0:0:
192,192,58560,1,0,0:0:0:0:
64,192,58603,1,0,0:0:0:0:
448,192,58647,1,0,0:0:0:0:
192,192,58690,1,0,0:0:0:0:
320,192,58734,1,0,0:0:0:0:
448,192,58777,1,0,0:0:0:0:
64,192,58820,1,0,0:0:0:0:
320,192,58864,1,0,0:0:0:0:
448,192,58907,1,0,0:0:0:0:
64,192,58951,1,0,0:0:0:0:
192,192,58994,1,0,0:0:0:0:
448,192,59038,1,0,0:0:0:0:
320,192,59081,1,0,0:0:0:0:
192,192,59125,1,0,0:0:0:0:
64,192,59168,1,0,0:0:0:0:
448,192,59212,1,0,0:0:0:0:
320,192,59255,1,0,0:0:0:0:
192,192,59255,1,0,0:0:0:0:
64,192,59320,1,0,0:0:0:0:
320,192,59386,1,0,0:0:0:0:
448,192,59451,1,0,0:0:0:0:
192,192,59516,128,0,59581:0:0:0:0:
64,192,59516,128,0,59581:0:0:0:0:
320,192,59581,128,0,59647:0:0:0:0:
192,192,59647,128,0,59712:0:0:0:0:
64,192,59712,128,0,59777:0:0:0:0:
448,192,59777,128,0,59842:0:0:0:0:
320,192,59777,128,0,59907:0:0:0:0:
192,192,59842,128,0,59973:0:0:0:0:
448,192,59907,128,0,60038:0:0:0:0:
320,192,59973,128,0,60038:0:0:0:0:
192,192,60038,1,0,0:0:0:0:
64,192,60038,1,0,0:0:0:0:
64,192,60168,5,0,0:0:0:0:
448,192,60299,1,0,0:0:0:0:
320,192,60331,1,0,0:0:0:0:
192,192,60364,1,0,0:0:0:0:
64,192,60690,1,0,0:0:0:0:
192,192,60820,1,0,0:0:0:0:
320,192,60853,1,0,0:0:0:0:
448,192,60886,1,0,0:0:0:0:
64,192,60918,1,0,0:0:0:0:
192,192,60951,1,0,0:0:0:0:
448,192,61081,128,0,61277:0:0:0:0:
320,192,61081,128,0,61277:0:0:0:0:
64,192,61081,128,0,61277:0:0:0:0:
448,192,61342,128,0,61473:0:0:0:0:
192,192,61342,128,0,61538:0:0:0:0:
64,192,61342,128,0,61603:0:0:0:0:
448,192,61603,1,0,0:0:0:0:
320,192,61603,128,0,61690:0:0:0:0:
192,192,61647,128,0,61734:0:0:0:0:
64,192,61690,128,0,61777:0:0:0:0:
448,192,61734,128,0,61777:0:0:0:0:
320,192,61777,128,0,61820:0:0:0:0:
192,192,61820,128,0,61864:0:0:0:0:
64,192,61864,1,0,0:0:0:0:
448,192,61864,1,0,0:0:0:0:
320,192,61907,1,0,0:0:0:0:
192,192,61951,1,0,0:0:0:0:
448,192,61994,1,0,0:0:0:0:
64,192,62038,1,0,0:0:0:0:
320,192,62081,1,0,0:0:0:0:
448,192,62125,128,0,62212:0:0:0:0:
64,192,62125,128,0,62168:0:0:0:0:
192,192,62168,1,0,0:0:0:0:
320,192,62212,1,0,0:0:0:0:
64,192,62255,1,0,0:0:0:0:
64,192,62320,1,0,0:0:0:0:
320,192,62386,128,0,62473:0:0:0:0:
448,192,62386,128,0,62429:0:0:0:0:
192,192,62451,1,0,0:0:0:0:
448,192,62516,1,0,0:0:0:0:
448,192,62581,1,0,0:0:0:0:
192,192,62647,1,0,0:0:0:0:
64,192,62647,1,0,0:0:0:0:
320,192,62712,1,0,0:0:0:0:
64,192,62777,1,0,0:0:0:0:
64,192,62842,1,0,0:0:0:0:
448,192,62907,1,0,0:0:0:0:
320,192,62907,1,0,0:0:0:0:
192,192,62973,1,0,0:0:0:0:
448,192,63038,1,0,0:0:0:0:
448,192,63103,1,0,0:0:0:0:
192,192,63168,128,0,63255:0:0:0:0:
64,192,63168,128,0,63212:0:0:0:0:
320,192,63234,1,0,0:0:0:0:
64,192,63299,1,0,0:0:0:0:
64,192,63364,1,0,0:0:0:0:
320,192,63429,128,0,63516:0:0:0:0:
448,192,63429,128,0,63473:0:0:0:0:
64,192,63473,1,0,0:0:0:0:
192,192,63516,1,0,0:0:0:0:
448,192,63560,1,0,0:0:0:0:
64,192,63625,1,0,0:0:0:0:
192,192,63690,1,0,0:0:0:0:
320,192,63690,128,0,63777:0:0:0:0:
448,192,63734,128,0,63820:0:0:0:0:
64,192,63777,128,0,63820:0:0:0:0:
192,192,63820,128,0,63864:0:0:0:0:
320,192,63864,128,0,63907:0:0:0:0:
64,192,63907,128,0,63951:0:0:0:0:
448,192,63951,1,0,0:0:0:0:
192,192,63951,1,0,0:0:0:0:
320,192,63994,1,0,0:0:0:0:
64,192,64038,1,0,0:0:0:0:
192,192,64081,1,0,0:0:0:0:
448,192,64125,1,0,0:0:0:0:
320,192,64168,1,0,0:0:0:0:
192,192,64212,128,0,64299:0:0:0:0:
64,192,64212,128,0,64255:0:0:0:0:
448,192,64277,1,0,0:0:0:0:
320,192,64342,1,0,0:0:0:0:
320,192,64407,1,0,0:0:0:0:
192,192,64473,128,0,64603:0:0:0:0:
64,192,64473,1,0,0:0:0:0:
448,192,64473,128,0,64516:0:0:0:0:
320,192,64538,128,0,64668:0:0:0:0:
64,192,64603,128,0,64734:0:0:0:0:
192,192,64668,128,0,64864:0:0:0:0:
448,192,64734,1,0,0:0:0:0:
320,192,64734,128,0,64929:0:0:0:0:
64,192,64799,128,0,64929:0:0:0:0:
448,192,64864,128,0,64994:0:0:0:0:
192,192,64929,128,0,65060:0:0:0:0:
320,192,64994,1,0,0:0:0:0:
64,192,64994,128,0,65190:0:0:0:0:
448,192,65060,128,0,65190:0:0:0:0:
192,192,65125,128,0,65255:0:0:0:0:
320,192,65190,128,0,65320:0:0:0:0:
64,192,65255,1,0,0:0:0:0:
448,192,65255,128,0,65451:0:0:0:0:
192,192,65320,128,0,65451:0:0:0:0:
320,192,65386,128,0,65451:0:0:0:0:
64,192,65451,128,0,65516:0:0:0:0:
192,192,65516,128,0,65647:0:0:0:0:
320,192,65516,128,0,65712:0:0:0:0:
448,192,65516,128,0,65777:0:0:0:0:
64,192,65777,1,0,0:0:0:0:
192,192,65777,128,0,65864:0:0:0:0:
320,192,65820,128,0,65907:0:0:0:0:
448,192,65864,128,0,65951:0:0:0:0:
64,192,65907,128,0,65951:0:0:0:0:
192,192,65951,128,0,65994:0:0:0:0:
320,192,65994,128,0,66038:0:0:0:0:
448,192,66038,1,0,0:0:0:0:
64,192,66038,1,0,0:0:0:0:
192,192,66081,1,0,0:0:0:0:
320,192,66125,1,0,0:0:0:0:
64,192,66168,1,0,0:0:0:0:
448,192,66212,1,0,0:0:0:0:
192,192,66255,1,0,0:0:0:0:
64,192,66299,128,0,66386:0:0:0:0:
448,192,66299,128,0,66342:0:0:0:0:
320,192,66364,1,0,0:0:0:0:
192,192,66429,1,0,0:0:0:0:
192,192,66494,1,0,0:0:0:0:
320,192,66560,128,0,66647:0:0:0:0:
64,192,66560,128,0,66603:0:0:0:0:
448,192,66625,1,0,0:0:0:0:
64,192,66690,1,0,0:0:0:0:
64,192,66755,1,0,0:0:0:0:
448,192,66820,1,0,0:0:0:0:
320,192,66820,1,0,0:0:0:0:
192,192,66886,1,0,0:0:0:0:
320,192,66951,1,0,0:0:0:0:
320,192,67016,1,0,0:0:0:0:
448,192,67081,1,0,0:0:0:0:
64,192,67081,1,0,0:0:0:0:
192,192,67147,1,0,0:0:0:0:
448,192,67212,1,0,0:0:0:0:
448,192,67277,1,0,0:0:0:0:
192,192,67342,128,0,67429:0:0:0:0:
64,192,67342,128,0,67386:0:0:0:0:
320,192,67407,1,0,0:0:0:0:
64,192,67473,1,0,0:0:0:0:
64,192,67538,1,0,0:0:0:0:
320,192,67603,128,0,67690:0:0:0:0:
448,192,67603,128,0,67647:0:0:0:0:
64,192,67647,1,0,0:0:0:0:
192,192,67690,1,0,0:0:0:0:
448,192,67734,1,0,0:0:0:0:
64,192,67799,1,0,0:0:0:0:
320,192,67864,128,0,67951:0:0:0:0:
192,192,67864,1,0,0:0:0:0:
448,192,67907,128,0,67994:0:0:0:0:
64,192,67951,128,0,67994:0:0:0:0:
192,192,67994,128,0,68038:0:0:0:0:
320,192,68038,128,0,68081:0:0:0:0:
64,192,68081,128,0,68125:0:0:0:0:
448,192,68125,1,0,0:0:0:0:
320,192,68125,1,0,0:0:0:0:
192,192,68168,1,0,0:0:0:0:
64,192,68212,1,0,0:0:0:0:
320,192,68255,128,0,68299:0:0:0:0:
192,192,68320,1,0,0:0:0:0:
64,192,68320,1,0,0:0:0:0:
448,192,68386,1,0,0:0:0:0:
320,192,68386,1,0,0:0:0:0:
192,192,68451,1,0,0:0:0:0:
448,192,68516,1,0,0:0:0:0:
64,192,68516,1,0,0:0:0:0:
64,192,68581,1,0,0:0:0:0:
320,192,68581,1,0,0:0:0:0:
192,192,68647,1,0,0:0:0:0:
448,192,68647,1,0,0:0:0:0:
64,192,68690,1,0,0:0:0:0:
320,192,68734,1,0,0:0:0:0:
192,192,68777,1,0,0:0:0:0:
448,192,68820,1,0,0:0:0:0:
320,192,68864,1,0,0:0:0:0:
64,192,68907,1,0,0:0:0:0:
192,192,68973,1,0,0:0:0:0:
448,192,69038,1,0,0:0:0:0:
320,192,69038,1,0,0:0:0:0:
192,192,69081,1,0,0:0:0:0:
64,192,69125,1,0,0:0:0:0:
320,192,69168,1,0,0:0:0:0:
192,192,69212,1,0,0:0:0:0:
448,192,69255,1,0,0:0:0:0:
64,192,69299,1,0,0:0:0:0:
192,192,69342,1,0,0:0:0:0:
320,192,69386,1,0,0:0:0:0:
64,192,69429,128,0,69647:0:0:0:0:
448,192,69429,128,0,69647:0:0:0:0:
192,192,69690,1,0,0:0:0:0:
64,192,69690,1,0,0:0:0:0:
448,192,69690,1,0,0:0:0:0:
64,192,69755,1,0,0:0:0:0:
448,192,69820,1,0,0:0:0:0:
320,192,69820,1,0,0:0:0:0:
448,192,69886,1,0,0:0:0:0:
192,192,69951,128,0,70038:0:0:0:0:
64,192,69951,1,0,0:0:0:0:
320,192,69994,128,0,70081:0:0:0:0:
448,192,70038,128,0,70125:0:0:0:0:
64,192,70081,128,0,70125:0:0:0:0:
192,192,70125,128,0,70168:0:0:0:0:
320,192,70168,128,0,70212:0:0:0:0:
64,192,70212,1,0,0:0:0:0:
448,192,70212,1,0,0:0:0:0:
192,192,70255,1,0,0:0:0:0:
320,192,70299,1,0,0:0:0:0:
64,192,70342,1,0,0:0:0:0:
448,192,70386,1,0,0:0:0:0:
192,192,70429,1,0,0:0:0:0:
448,192,70473,128,0,70516:0:0:0:0:
64,192,70473,128,0,70560:0:0:0:0:
320,192,70516,1,0,0:0:0:0:
192,192,70560,1,0,0:0:0:0:
448,192,70603,1,0,0:0:0:0:
448,192,70668,1,0,0:0:0:0:
64,192,70734,128,0,70777:0:0:0:0:
192,192,70734,128,0,70820:0:0:0:0:
320,192,70799,1,0,0:0:0:0:
64,192,70864,1,0,0:0:0:0:
64,192,70929,1,0,0:0:0:0:
448,192,70994,1,0,0:0:0:0:
320,192,70994,1,0,0:0:0:0:
192,192,71060,1,0,0:0:0:0:
448,192,71125,1,0,0:0:0:0:
448,192,71190,1,0,0:0:0:0:
192,192,71255,1,0,0:0:0:0:
64,192,71255,1,0,0:0:0:0:
320,192,71320,1,0,0:0:0:0:
64,192,71386,1,0,0:0:0:0:
64,192,71451,1,0,0:0:0:0:
448,192,71516,128,0,71560:0:0:0:0:
320,192,71516,128,0,71603:0:0:0:0:
192,192,71581,1,0,0:0:0:0:
448,192,71647,1,0,0:0:0:0:
448,192,71712,1,0,0:0:0:0:
64,192,71777,128,0,71820:0:0:0:0:
192,192,71777,128,0,71864:0:0:0:0:
448,192,71820,1,0,0:0:0:0:
320,192,71864,1,0,0:0:0:0:
64,192,71907,1,0,0:0:0:0:
448,192,71973,1,0,0:0:0:0:
192,192,72038,128,0,72125:0:0:0:0:
320,192,72038,1,0,0:0:0:0:
64,192,72081,128,0,72168:0:0:0:0:
448,192,72125,128,0,72168:0:0:0:0:
320,192,72168,128,0,72212:0:0:0:0:
192,192,72212,128,0,72255:0:0:0:0:
448,192,72255,128,0,72299:0:0:0:0:
320,192,72299,1,0,0:0:0:0:
64,192,72299,1,0,0:0:0:0:
192,192,72342,1,0,0:0:0:0:
448,192,72386,1,0,0:0:0:0:
320,192,72429,1,0,0:0:0:0:
64,192,72473,1,0,0:0:0:0:
192,192,72516,1,0,0:0:0:0:
448,192,72560,128,0,72603:0:0:0:0:
320,192,72560,128,0,72647:0:0:0:0:
64,192,72625,1,0,0:0:0:0:
192,192,72690,1,0,0:0:0:0:
192,192,72755,1,0,0:0:0:0:
64,192,72820,128,0,72864:0:0:0:0:
448,192,72820,1,0,0:0:0:0:
320,192,72820,128,0,72951:0:0:0:0:
192,192,72886,128,0,73016:0:0:0:0:
448,192,72951,128,0,73081:0:0:0:0:
320,192,73016,128,0,73212:0:0:0:0:
192,192,73081,128,0,73277:0:0:0:0:
64,192,73081,1,0,0:0:0:0:
448,192,73147,128,0,73277:0:0:0:0:
64,192,73212,128,0,73342:0:0:0:0:
320,192,73277,128,0,73407:0:0:0:0:
448,192,73342,128,0,73538:0:0:0:0:
192,192,73342,1,0,0:0:0:0:
64,192,73407,128,0,73538:0:0:0:0:
320,192,73473,128,0,73603:0:0:0:0:
192,192,73538,128,0,73668:0:0:0:0:
64,192,73603,128,0,73799:0:0:0:0:
448,192,73603,1,0,0:0:0:0:
320,192,73668,128,0,73799:0:0:0:0:
192,192,73734,128,0,73799:0:0:0:0:
448,192,73799,128,0,73864:0:0:0:0:
64,192,73864,1,0,0:0:0:0:
192,192,73864,128,0,73929:0:0:0:0:
320,192,73864,128,0,73929:0:0:0:0:
64,192,73994,1,0,0:0:0:0:
320,192,73994,128,0,74060:0:0:0:0:
192,192,73994,128,0,74060:0:0:0:0:
64,192,74125,1,0,0:0:0:0:
192,192,74125,128,0,74190:0:0:0:0:
320,192,74125,128,0,74190:0:0:0:0:
192,192,74255,128,0,74320:0:0:0:0:
320,192,74255,128,0,74320:0:0:0:0:
64,192,74255,1,0,0:0:0:0:
448,192,74299,1,0,0:0:0:0:
64,192,74342,1,0,0:0:0:0:
192,192,74386,1,0,0:0:0:0:
320,192,74429,1,0,0:0:0:0:
64,192,74473,1,0,0:0:0:0:
192,192,74516,1,0,0:0:0:0:
320,192,74516,128,0,74581:0:0:0:0:
448,192,74516,128,0,74581:0:0:0:0:
192,192,74647,1,0,0:0:0:0:
448,192,74647,128,0,74712:0:0:0:0:
320,192,74647,128,0,74712:0:0:0:0:
64,192,74712,1,0,0:0:0:0:
192,192,74777,1,0,0:0:0:0:
320,192,74777,128,0,74842:0:0:0:0:
448,192,74777,128,0,74842:0:0:0:0:
64,192,74842,1,0,0:0:0:0:
448,192,74907,1,0,0:0:0:0:
192,192,74907,128,0,74973:0:0:0:0:
320,192,74907,128,0,74973:0:0:0:0:
448,192,74973,1,0,0:0:0:0:
64,192,75038,1,0,0:0:0:0:
64,192,75103,1,0,0:0:0:0:
448,192,75168,1,0,0:0:0:0:
320,192,75168,1,0,0:0:0:0:
192,192,75234,1,0,0:0:0:0:
64,192,75234,1,0,0:0:0:0:
320,192,75299,1,0,0:0:0:0:
448,192,75299,1,0,0:0:0:0:
192,192,75364,1,0,0:0:0:0:
448,192,75429,1,0,0:0:0:0:
320,192,75494,1,0,0:0:0:0:
192,192,75560,1,0,0:0:0:0:
64,192,75560,1,0,0:0:0:0:
448,192,75625,1,0,0:0:0:0:
320,192,75625,1,0,0:0:0:0:
192,192,75690,1,0,0:0:0:0:
64,192,75690,1,0,0:0:0:0:
448,192,75755,1,0,0:0:0:0:
320,192,75820,1,0,0:0:0:0:
320,192,75886,1,0,0:0:0:0:
192,192,75951,1,0,0:0:0:0:
64,192,75951,128,0,76016:0:0:0:0:
448,192,75951,128,0,76016:0:0:0:0:
192,192,76081,1,0,0:0:0:0:
448,192,76081,128,0,76147:0:0:0:0:
64,192,76081,128,0,76147:0:0:0:0:
192,192,76212,1,0,0:0:0:0:
64,192,76212,128,0,76277:0:0:0:0:
448,192,76212,128,0,76277:0:0:0:0:
64,192,76342,1,0,0:0:0:0:
192,192,76342,128,0,76407:0:0:0:0:
448,192,76342,128,0,76407:0:0:0:0:
320,192,76386,1,0,0:0:0:0:
64,192,76429,1,0,0:0:0:0:
448,192,76473,1,0,0:0:0:0:
320,192,76516,1,0,0:0:0:0:
192,192,76560,1,0,0:0:0:0:
64,192,76603,1,0,0:0:0:0:
320,192,76603,128,0,76668:0:0:0:0:
448,192,76603,128,0,76668:0:0:0:0:
448,192,76734,128,0,76799:0:0:0:0:
320,192,76734,128,0,76799:0:0:0:0:
192,192,76799,1,0,0:0:0:0:
64,192,76799,1,0,0:0:0:0:
320,192,76864,128,0,76929:0:0:0:0:
448,192,76864,128,0,76929:0:0:0:0:
448,192,76994,1,0,0:0:0:0:
192,192,76994,128,0,77386:0:0:0:0:
64,192,76994,128,0,77516:0:0:0:0:
448,192,77125,128,0,77157:0:0:0:0:
448,192,77255,128,0,77288:0:0:0:0:
448,192,77386,128,0,77451:0:0:0:0:
320,192,77516,1,0,0:0:0:0:
448,192,77516,128,0,77581:0:0:0:0:
192,192,77581,1,0,0:0:0:0:
64,192,77581,1,0,0:0:0:0:
320,192,77647,1,0,0:0:0:0:
448,192,77647,128,0,77712:0:0:0:0:
192,192,77712,1,0,0:0:0:0:
64,192,77777,128,0,77973:0:0:0:0:
448,192,77777,128,0,77973:0:0:0:0:
320,192,78038,1,0,0:0:0:0:
448,192,78038,128,0,78168:0:0:0:0:
64,192,78038,128,0,78103:0:0:0:0:
192,192,78103,1,0,0:0:0:0:
320,192,78168,1,0,0:0:0:0:
448,192,78234,1,0,0:0:0:0:
64,192,78299,128,0,78364:0:0:0:0:
192,192,78299,1,0,0:0:0:0:
320,192,78364,1,0,0:0:0:0:
448,192,78429,128,0,78494:0:0:0:0:
192,192,78494,1,0,0:0:0:0:
448,192,78560,1,0,0:0:0:0:
64,192,78560,128,0,78625:0:0:0:0:
320,192,78625,1,0,0:0:0:0:
192,192,78690,128,0,78755:0:0:0:0:
448,192,78755,1,0,0:0:0:0:
320,192,78820,128,0,78886:0:0:0:0:
64,192,78820,128,0,78951:0:0:0:0:
192,192,78886,1,0,0:0:0:0:
448,192,78951,128,0,79016:0:0:0:0:
64,192,79016,1,0,0:0:0:0:
320,192,79081,128,0,79147:0:0:0:0:
448,192,79081,128,0,79212:0:0:0:0:
192,192,79147,1,0,0:0:0:0:
64,192,79212,1,0,0:0:0:0:
320,192,79277,1,0,0:0:0:0:
448,192,79342,1,0,0:0:0:0:
64,192,79342,128,0,79407:0:0:0:0:
192,192,79407,1,0,0:0:0:0:
320,192,79473,128,0,79538:0:0:0:0:
64,192,79538,1,0,0:0:0:0:
192,192,79603,1,0,0:0:0:0:
448,192,79603,128,0,79668:0:0:0:0:
320,192,79668,1,0,0:0:0:0:
64,192,79734,128,0,79799:0:0:0:0:
448,192,79799,1,0,0:0:0:0:
192,192,79864,128,0,79994:0:0:0:0:
320,192,79864,128,0,79929:0:0:0:0:
64,192,79929,1,0,0:0:0:0:
448,192,79994,128,0,80060:0:0:0:0:
320,192,80060,1,0,0:0:0:0:
192,192,80125,128,0,80190:0:0:0:0:
64,192,80125,128,0,80255:0:0:0:0:
320,192,80190,1,0,0:0:0:0:
448,192,80255,1,0,0:0:0:0:
64,192,80320,1,0,0:0:0:0:
192,192,80386,1,0,0:0:0:0:
320,192,80386,128,0,80451:0:0:0:0:
448,192,80451,1,0,0:0:0:0:
64,192,80516,128,0,80581:0:0:0:0:
192,192,80581,1,0,0:0:0:0:
320,192,80647,1,0,0:0:0:0:
448,192,80647,128,0,80712:0:0:0:0:
192,192,80712,1,0,0:0:0:0:
64,192,80777,128,0,80842:0:0:0:0:
448,192,80842,1,0,0:0:0:0:
192,192,80907,128,0,80973:0:0:0:0:
320,192,80907,128,0,81038:0:0:0:0:
64,192,80973,1,0,0:0:0:0:
448,192,81038,128,0,81103:0:0:0:0:
320,192,81103,1,0,0:0:0:0:
192,192,81168,128,0,81234:0:0:0:0:
64,192,81168,128,0,81299:0:0:0:0:
320,192,81234,1,0,0:0:0:0:
448,192,81299,128,0,81364:0:0:0:0:
192,192,81364,1,0,0:0:0:0:
448,192,81429,128,0,81560:0:0:0:0:
64,192,81429,128,0,81494:0:0:0:0:
320,192,81494,1,0,0:0:0:0:
192,192,81560,128,0,81625:0:0:0:0:
448,192,81625,1,0,0:0:0:0:
64,192,81690,128,0,81820:0:0:0:0:
320,192,81690,128,0,81755:0:0:0:0:
192,192,81755,1,0,0:0:0:0:
448,192,81820,128,0,81886:0:0:0:0:
320,192,81886,1,0,0:0:0:0:
192,192,81951,128,0,82081:0:0:0:0:
64,192,81951,128,0,82016:0:0:0:0:
320,192,82016,1,0,0:0:0:0:
448,192,82081,1,0,0:0:0:0:
64,192,82147,1,0,0:0:0:0:
320,192,82212,128,0,82342:0:0:0:0:
192,192,82212,128,0,82277:0:0:0:0:
448,192,82277,1,0,0:0:0:0:
64,192,82342,1,0,0:0:0:0:
320,192,82407,1,0,0:0:0:0:
448,192,82473,1,0,0:0:0:0:
64,192,82473,128,0,82538:0:0:0:0:
192,192,82538,1,0,0:0:0:0:
320,192,82603,128,0,82668:0:0:0:0:
64,192,82668,1,0,0:0:0:0:
192,192,82734,1,0,0:0:0:0:
448,192,82734,128,0,82799:0:0:0:0:
320,192,82799,1,0,0:0:0:0:
192,192,82864,128,0,82929:0:0:0:0:
64,192,82929,1,0,0:0:0:0:
448,192,82994,128,0,83125:0:0:0:0:
320,192,82994,128,0,83060:0:0:0:0:
192,192,83060,1,0,0:0:0:0:
64,192,83125,128,0,83190:0:0:0:0:
448,192,83190,1,0,0:0:0:0:
192,192,83255,128,0,83386:0:0:0:0:
64,192,83255,128,0,83320:0:0:0:0:
320,192,83320,1,0,0:0:0:0:
64,192,83386,1,0,0:0:0:0:
192,192,83451,1,0,0:0:0:0:
448,192,83516,1,0,0:0:0:0:
320,192,83516,128,0,83581:0:0:0:0:
192,192,83581,1,0,0:0:0:0:
64,192,83647,128,0,83712:0:0:0:0:
448,192,83712,1,0,0:0:0:0:
320,192,83777,1,0,0:0:0:0:
192,192,83777,128,0,83842:0:0:0:0:
64,192,83842,1,0,0:0:0:0:
448,192,83907,128,0,83973:0:0:0:0:
192,192,83973,1,0,0:0:0:0:
64,192,84038,128,0,84103:0:0:0:0:
448,192,84038,128,0,84168:0:0:0:0:
320,192,84103,1,0,0:0:0:0:
192,192,84168,128,0,84234:0:0:0:0:
448,192,84234,1,0,0:0:0:0:
64,192,84299,128,0,84429:0:0:0:0:
320,192,84299,128,0,84364:0:0:0:0:
192,192,84364,1,0,0:0:0:0:
448,192,84429,1,0,0:0:0:0:
64,192,84494,1,0,0:0:0:0:
192,192,84560,1,0,0:0:0:0:
320,192,84560,128,0,84625:0:0:0:0:
448,192,84625,1,0,0:0:0:0:
64,192,84690,128,0,84755:0:0:0:0:
320,192,84755,1,0,0:0:0:0:
64,192,84820,1,0,0:0:0:0:
448,192,84820,128,0,84886:0:0:0:0:
192,192,84886,1,0,0:0:0:0:
320,192,84951,128,0,85016:0:0:0:0:
192,192,85016,1,0,0:0:0:0:
64,192,85016,1,0,0:0:0:0:
320,192,85081,128,0,85212:0:0:0:0:
448,192,85081,128,0,85147:0:0:0:0:
64,192,85147,1,0,0:0:0:0:
448,192,85212,1,0,0:0:0:0:
192,192,85212,128,0,85277:0:0:0:0:
320,192,85277,1,0,0:0:0:0:
64,192,85342,128,0,85603:0:0:0:0:
448,192,85342,128,0,85603:0:0:0:0:
192,192,85342,128,0,85603:0:0:0:0:
64,192,85734,128,0,85864:0:0:0:0:
320,192,85734,128,0,85864:0:0:0:0:
192,192,85734,128,0,85864:0:0:0:0:
64,192,85929,128,0,86060:0:0:0:0:
192,192,85929,128,0,86060:0:0:0:0:
320,192,85929,128,0,86060:0:0:0:0:
64,192,86125,128,0,86320:0:0:0:0:
320,192,86125,128,0,86320:0:0:0:0:
448,192,86125,128,0,86320:0:0:0:0:
192,192,86255,128,0,86386:0:0:0:0:
64,192,86386,1,0,0:0:0:0:
448,192,86386,1,0,0:0:0:0:
448,192,86451,1,0,0:0:0:0:
192,192,86516,1,0,0:0:0:0:
192,192,86581,1,0,0:0:0:0:
448,192,86647,128,0,86712:0:0:0:0:
320,192,86647,1,0,0:0:0:0:
64,192,86647,1,0,0:0:0:0:
192,192,86712,1,0,0:0:0:0:
64,192,86777,128,0,86842:0:0:0:0:
320,192,86842,1,0,0:0:0:0:
64,192,86907,1,0,0:0:0:0:
448,192,86907,128,0,86973:0:0:0:0:
192,192,86973,1,0,0:0:0:0:
320,192,87038,128,0,87103:0:0:0:0:
64,192,87103,1,0,0:0:0:0:
192,192,87168,128,0,87234:0:0:0:0:
448,192,87168,128,0,87299:0:0:0:0:
320,192,87234,1,0,0:0:0:0:
64,192,87299,128,0,87364:0:0:0:0:
448,192,87364,1,0,0:0:0:0:
192,192,87429,128,0,87494:0:0:0:0:
64,192,87429,128,0,87560:0:0:0:0:
320,192,87494,1,0,0:0:0:0:
448,192,87560,1,0,0:0:0:0:
192,192,87625,1,0,0:0:0:0:
64,192,87690,1,0,0:0:0:0:
448,192,87690,128,0,87755:0:0:0:0:
320,192,87755,1,0,0:0:0:0:
192,192,87820,128,0,87886:0:0:0:0:
448,192,87886,1,0,0:0:0:0:
320,192,87951,1,0,0:0:0:0:
64,192,87951,128,0,88016:0:0:0:0:
192,192,88016,1,0,0:0:0:0:
448,192,88081,128,0,88147:0:0:0:0:
64,192,88147,1,0,0:0:0:0:
320,192,88212,128,0,88342:0:0:0:0:
192,192,88212,128,0,88277:0:0:0:0:
448,192,88277,1,0,0:0:0:0:
64,192,88342,128,0,88407:0:0:0:0:
192,192,88407,1,0,0:0:0:0:
320,192,88473,128,0,88538:0:0:0:0:
448,192,88473,128,0,88603:0:0:0:0:
192,192,88538,1,0,0:0:0:0:
64,192,88603,1,0,0:0:0:0:
448,192,88668,1,0,0:0:0:0:
320,192,88734,1,0,0:0:0:0:
192,192,88734,128,0,88799:0:0:0:0:
64,192,88799,1,0,0:0:0:0:
448,192,88864,128,0,88929:0:0:0:0:
320,192,88929,1,0,0:0:0:0:
192,192,88994,1,0,0:0:0:0:
64,192,88994,128,0,89060:0:0:0:0:
320,192,89060,1,0,0:0:0:0:
448,192,89125,128,0,89190:0:0:0:0:
64,192,89190,1,0,0:0:0:0:
320,192,89255,128,0,89320:0:0:0:0:
192,192,89255,128,0,89386:0:0:0:0:
448,192,89320,1,0,0:0:0:0:
64,192,89386,128,0,89451:0:0:0:0:
192,192,89451,1,0,0:0:0:0:
320,192,89516,128,0,89581:0:0:0:0:
448,192,89516,128,0,89647:0:0:0:0:
192,192,89581,1,0,0:0:0:0:
64,192,89647,128,0,89712:0:0:0:0:
320,192,89712,1,0,0:0:0:0:
64,192,89777,128,0,89907:0:0:0:0:
448,192,89777,128,0,89842:0:0:0:0:
192,192,89842,1,0,0:0:0:0:
320,192,89907,128,0,89973:0:0:0:0:
64,192,89973,1,0,0:0:0:0:
448,192,90038,128,0,90168:0:0:0:0:
192,192,90038,128,0,90103:0:0:0:0:
320,192,90103,1,0,0:0:0:0:
64,192,90168,128,0,90234:0:0:0:0:
192,192,90234,1,0,0:0:0:0:
320,192,90299,128,0,90429:0:0:0:0:
448,192,90299,128,0,90364:0:0:0:0:
192,192,90364,1,0,0:0:0:0:
64,192,90429,1,0,0:0:0:0:
448,192,90494,1,0,0:0:0:0:
192,192,90560,128,0,90690:0:0:0:0:
320,192,90560,128,0,90625:0:0:0:0:
64,192,90625,1,0,0:0:0:0:
448,192,90690,1,0,0:0:0:0:
192,192,90755,1,0,0:0:0:0:
64,192,90820,1,0,0:0:0:0:
448,192,90820,128,0,90886:0:0:0:0:
320,192,90886,1,0,0:0:0:0:
192,192,90951,128,0,91016:0:0:0:0:
448,192,91016,1,0,0:0:0:0:
320,192,91081,1,0,0:0:0:0:
64,192,91081,128,0,91147:0:0:0:0:
192,192,91147,1,0,0:0:0:0:
320,192,91212,128,0,91277:0:0:0:0:
448,192,91277,1,0,0:0:0:0:
64,192,91342,128,0,91473:0:0:0:0:
192,192,91342,128,0,91407:0:0:0:0:
320,192,91407,1,0,0:0:0:0:
448,192,91473,128,0,91538:0:0:0:0:
64,192,91538,1,0,0:0:0:0:
320,192,91603,128,0,91734:0:0:0:0:
448,192,91603,128,0,91668:0:0:0:0:
192,192,91668,1,0,0:0:0:0:
448,192,91734,1,0,0:0:0:0:
320,192,91799,1,0,0:0:0:0:
64,192,91864,1,0,0:0:0:0:
192,192,91864,128,0,91929:0:0:0:0:
320,192,91929,1,0,0:0:0:0:
448,192,91994,128,0,92060:0:0:0:0:
64,192,92060,1,0,0:0:0:0:
192,192,92125,1,0,0:0:0:0:
320,192,92125,128,0,92190:0:0:0:0:
448,192,92190,1,0,0:0:0:0:
64,192,92255,128,0,92320:0:0:0:0:
448,192,92320,1,0,0:0:0:0:
64,192,92386,128,0,92516:0:0:0:0:
320,192,92386,128,0,92451:0:0:0:0:
192,192,92451,1,0,0:0:0:0:
448,192,92516,128,0,92581:0:0:0:0:
320,192,92581,1,0,0:0:0:0:
192,192,92647,128,0,92712:0:0:0:0:
64,192,92647,128,0,92712:0:0:0:0:
448,192,92647,1,0,0:0:0:0:
320,192,92712,1,0,0:0:0:0:
192,192,92777,128,0,92842:0:0:0:0:
64,192,92777,128,0,92842:0:0:0:0:
448,192,92842,1,0,0:0:0:0:
64,192,92907,1,0,0:0:0:0:
320,192,92973,1,0,0:0:0:0:
192,192,93038,128,0,93103:0:0:0:0:
64,192,93038,128,0,93103:0:0:0:0:
448,192,93103,1,0,0:0:0:0:
320,192,93103,1,0,0:0:0:0:
192,192,93168,1,0,0:0:0:0:
64,192,93168,1,0,0:0:0:0:
448,192,93234,1,0,0:0:0:0:
192,192,93299,128,0,93364:0:0:0:0:
64,192,93299,128,0,93364:0:0:0:0:
320,192,93364,1,0,0:0:0:0:
192,192,93429,1,0,0:0:0:0:
64,192,93494,1,0,0:0:0:0:
320,192,93560,128,0,93625:0:0:0:0:
448,192,93560,128,0,93625:0:0:0:0:
192,192,93625,128,0,93690:0:0:0:0:
64,192,93625,128,0,93690:0:0:0:0:
320,192,93690,1,0,0:0:0:0:
448,192,93690,128,0,94212:0:0:0:0:
64,192,93820,128,0,94081:0:0:0:0:
192,192,93951,128,0,94212:0:0:0:0:
320,192,94081,128,0,94342:0:0:0:0:
64,192,94212,128,0,94668:0:0:0:0:
192,192,94342,128,0,94668:0:0:0:0:
448,192,94473,128,0,94668:0:0:0:0:
320,192,94603,128,0,94668:0:0:0:0:
64,192,94734,1,0,0:0:0:0:
192,192,94734,1,0,0:0:0:0:
448,192,94734,1,0,0:0:0:0:
320,192,94799,1,0,0:0:0:0:
192,192,94864,128,0,94929:0:0:0:0:
448,192,94929,128,0,94994:0:0:0:0:
64,192,94994,128,0,95125:0:0:0:0:
192,192,94994,128,0,95125:0:0:0:0:
320,192,95060,1,0,0:0:0:0:
448,192,95125,1,0,0:0:0:0:
192,192,95190,1,0,0:0:0:0:
64,192,95255,128,0,95386:0:0:0:0:
320,192,95255,128,0,95386:0:0:0:0:
448,192,95320,1,0,0:0:0:0:
192,192,95386,1,0,0:0:0:0:
64,192,95451,1,0,0:0:0:0:
192,192,95516,128,0,95647:0:0:0:0:
448,192,95516,128,0,95647:0:0:0:0:
320,192,95581,1,0,0:0:0:0:
64,192,95647,1,0,0:0:0:0:
192,192,95712,1,0,0:0:0:0:
448,192,95777,128,0,95907:0:0:0:0:
320,192,95777,128,0,95907:0:0:0:0:
64,192,95842,1,0,0:0:0:0:
192,192,95907,1,0,0:0:0:0:
448,192,95973,1,0,0:0:0:0:
64,192,96038,128,0,96168:0:0:0:0:
192,192,96038,128,0,96168:0:0:0:0:
320,192,96103,1,0,0:0:0:0:
448,192,96168,128,0,96299:0:0:0:0:
192,192,96234,1,0,0:0:0:0:
64,192,96299,128,0,96429:0:0:0:0:
320,192,96299,128,0,96429:0:0:0:0:
448,192,96364,1,0,0:0:0:0:
192,192,96429,128,0,96560:0:0:0:0:
320,192,96560,128,0,96690:0:0:0:0:
448,192,96560,128,0,96690:0:0:0:0:
192,192,96625,1,0,0:0:0:0:
64,192,96690,1,0,0:0:0:0:
448,192,96755,1,0,0:0:0:0:
192,192,96820,1,0,0:0:0:0:
64,192,96820,128,0,96886:0:0:0:0:
320,192,96886,1,0,0:0:0:0:
192,192,96951,128,0,97081:0:0:0:0:
64,192,97016,1,0,0:0:0:0:
320,192,97081,128,0,97212:0:0:0:0:
448,192,97081,128,0,97212:0:0:0:0:
192,192,97147,1,0,0:0:0:0:
64,192,97212,1,0,0:0:0:0:
320,192,97277,1,0,0:0:0:0:
448,192,97342,128,0,97473:0:0:0:0:
192,192,97342,128,0,97473:0:0:0:0:
64,192,97407,1,0,0:0:0:0:
320,192,97473,1,0,0:0:0:0:
448,192,97538,1,0,0:0:0:0:
64,192,97603,128,0,97734:0:0:0:0:
192,192,97603,128,0,97734:0:0:0:0:
320,192,97668,1,0,0:0:0:0:
448,192,97734,1,0,0:0:0:0:
64,192,97799,1,0,0:0:0:0:
320,192,97864,128,0,97994:0:0:0:0:
448,192,97864,128,0,97994:0:0:0:0:
192,192,97929,1,0,0:0:0:0:
64,192,97994,1,0,0:0:0:0:
448,192,98060,1,0,0:0:0:0:
192,192,98125,128,0,98255:0:0:0:0:
320,192,98125,128,0,98255:0:0:0:0:
64,192,98190,1,0,0:0:0:0:
448,192,98255,128,0,98386:0:0:0:0:
320,192,98320,1,0,0:0:0:0:
192,192,98386,1,0,0:0:0:0:
64,192,98386,1,0,0:0:0:0:
320,192,98451,1,0,0:0:0:0:
64,192,98516,128,0,98647:0:0:0:0:
448,192,98581,1,0,0:0:0:0:
320,192,98647,128,0,98777:0:0:0:0:
192,192,98647,128,0,98777:0:0:0:0:
64,192,98712,1,0,0:0:0:0:
448,192,98777,128,0,98907:0:0:0:0:
192,192,98842,1,0,0:0:0:0:
320,192,98907,1,0,0:0:0:0:
64,192,98907,128,0,98973:0:0:0:0:
448,192,98973,1,0,0:0:0:0:
192,192,99038,128,0,99103:0:0:0:0:
320,192,99103,128,0,99168:0:0:0:0:
64,192,99168,128,0,99299:0:0:0:0:
448,192,99168,128,0,99299:0:0:0:0:
192,192,99234,1,0,0:0:0:0:
320,192,99299,1,0,0:0:0:0:
448,192,99364,1,0,0:0:0:0:
320,192,99429,128,0,99560:0:0:0:0:
64,192,99429,128,0,99560:0:0:0:0:
448,192,99494,1,0,0:0:0:0:
192,192,99560,1,0,0:0:0:0:
64,192,99625,1,0,0:0:0:0:
192,192,99690,128,0,99820:0:0:0:0:
320,192,99690,128,0,99820:0:0:0:0:
448,192,99755,1,0,0:0:0:0:
64,192,99820,1,0,0:0:0:0:
192,192,99886,1,0,0:0:0:0:
448,192,99951,128,0,100081:0:0:0:0:
64,192,99951,128,0,100081:0:0:0:0:
320,192,100016,1,0,0:0:0:0:
192,192,100081,1,0,0:0:0:0:
448,192,100147,1,0,0:0:0:0:
320,192,100212,128,0,100342:0:0:0:0:
64,192,100212,128,0,100342:0:0:0:0:
192,192,100277,1,0,0:0:0:0:
448,192,100342,128,0,100473:0:0:0:0:
320,192,100407,1,0,0:0:0:0:
64,192,100473,128,0,100603:0:0:0:0:
192,192,100473,128,0,100603:0:0:0:0:
448,192,100538,1,0,0:0:0:0:
320,192,100603,128,0,100734:0:0:0:0:
192,192,100668,1,0,0:0:0:0:
448,192,100734,128,0,100864:0:0:0:0:
64,192,100734,128,0,100864:0:0:0:0:
320,192,100799,1,0,0:0:0:0:
192,192,100864,1,0,0:0:0:0:
64,192,100929,1,0,0:0:0:0:
448,192,100994,128,0,101060:0:0:0:0:
320,192,100994,1,0,0:0:0:0:
192,192,101060,1,0,0:0:0:0:
64,192,101125,128,0,101255:0:0:0:0:
448,192,101190,1,0,0:0:0:0:
192,192,101255,128,0,101386:0:0:0:0:
320,192,101255,128,0,101386:0:0:0:0:
64,192,101320,1,0,0:0:0:0:
448,192,101386,1,0,0:0:0:0:
192,192,101451,1,0,0:0:0:0:
320,192,101516,128,0,101647:0:0:0:0:
448,192,101516,128,0,101647:0:0:0:0:
64,192,101581,1,0,0:0:0:0:
192,192,101647,1,0,0:0:0:0:
320,192,101712,1,0,0:0:0:0:
64,192,101777,128,0,101907:0:0:0:0:
448,192,101777,128,0,101907:0:0:0:0:
192,192,101842,1,0,0:0:0:0:
320,192,101907,1,0,0:0:0:0:
448,192,101973,1,0,0:0:0:0:
192,192,102038,128,0,102168:0:0:0:0:
64,192,102038,128,0,102168:0:0:0:0:
448,192,102103,1,0,0:0:0:0:
320,192,102168,1,0,0:0:0:0:
64,192,102234,1,0,0:0:0:0:
320,192,102299,128,0,102429:0:0:0:0:
448,192,102299,128,0,102429:0:0:0:0:
64,192,102364,1,0,0:0:0:0:
192,192,102429,128,0,102560:0:0:0:0:
320,192,102494,1,0,0:0:0:0:
64,192,102560,128,0,102690:0:0:0:0:
448,192,102560,128,0,102690:0:0:0:0:
320,192,102625,1,0,0:0:0:0:
192,192,102690,1,0,0:0:0:0:
448,192,102755,1,0,0:0:0:0:
320,192,102820,128,0,102886:0:0:0:0:
64,192,102820,128,0,102886:0:0:0:0:
192,192,102886,1,0,0:0:0:0:
448,192,102951,1,0,0:0:0:0:
192,192,103016,1,0,0:0:0:0:
64,192,103081,1,0,0:0:0:0:
320,192,103081,1,0,0:0:0:0:
448,192,103081,1,0,0:0:0:0:
192,192,103147,1,0,0:0:0:0:
320,192,103212,128,0,103277:0:0:0:0:
64,192,103277,128,0,103342:0:0:0:0:
320,192,103342,128,0,103473:0:0:0:0:
448,192,103342,128,0,103473:0:0:0:0:
192,192,103407,1,0,0:0:0:0:
64,192,103473,1,0,0:0:0:0:
320,192,103538,1,0,0:0:0:0:
192,192,103603,128,0,103734:0:0:0:0:
448,192,103603,128,0,103734:0:0:0:0:
64,192,103668,1,0,0:0:0:0:
320,192,103734,1,0,0:0:0:0:
448,192,103799,1,0,0:0:0:0:
64,192,103864,128,0,103994:0:0:0:0:
320,192,103864,128,0,103994:0:0:0:0:
192,192,103929,1,0,0:0:0:0:
448,192,103994,1,0,0:0:0:0:
320,192,104060,1,0,0:0:0:0:
192,192,104125,128,0,104255:0:0:0:0:
64,192,104125,128,0,104255:0:0:0:0:
448,192,104190,1,0,0:0:0:0:
320,192,104255,1,0,0:0:0:0:
64,192,104320,1,0,0:0:0:0:
320,192,104386,128,0,104516:0:0:0:0:
448,192,104386,128,0,104516:0:0:0:0:
192,192,104451,1,0,0:0:0:0:
64,192,104516,128,0,104647:0:0:0:0:
320,192,104581,1,0,0:0:0:0:
192,192,104647,128,0,104777:0:0:0:0:
448,192,104647,128,0,104777:0:0:0:0:
64,192,104712,1,0,0:0:0:0:
320,192,104777,128,0,104907:0:0:0:0:
64,192,104907,128,0,105038:0:0:0:0:
192,192,104907,128,0,105038:0:0:0:0:
320,192,104973,1,0,0:0:0:0:
448,192,105038,1,0,0:0:0:0:
64,192,105103,1,0,0:0:0:0:
448,192,105168,128,0,105234:0:0:0:0:
320,192,105168,1,0,0:0:0:0:
192,192,105234,1,0,0:0:0:0:
320,192,105299,128,0,105429:0:0:0:0:
448,192,105364,1,0,0:0:0:0:
64,192,105429,128,0,105560:0:0:0:0:
192,192,105429,128,0,105560:0:0:0:0:
320,192,105494,1,0,0:0:0:0:
448,192,105560,1,0,0:0:0:0:
192,192,105625,1,0,0:0:0:0:
320,192,105690,128,0,105820:0:0:0:0:
64,192,105690,128,0,105820:0:0:0:0:
448,192,105755,1,0,0:0:0:0:
192,192,105820,1,0,0:0:0:0:
64,192,105886,1,0,0:0:0:0:
320,192,105951,128,0,106081:0:0:0:0:
448,192,105951,128,0,106081:0:0:0:0:
192,192,106016,1,0,0:0:0:0:
64,192,106081,1,0,0:0:0:0:
448,192,106147,1,0,0:0:0:0:
64,192,106212,128,0,106342:0:0:0:0:
192,192,106212,128,0,106342:0:0:0:0:
320,192,106277,1,0,0:0:0:0:
448,192,106342,1,0,0:0:0:0:
64,192,106407,1,0,0:0:0:0:
192,192,106473,128,0,106603:0:0:0:0:
320,192,106473,128,0,106603:0:0:0:0:
448,192,106538,1,0,0:0:0:0:
64,192,106603,128,0,106734:0:0:0:0:
192,192,106668,1,0,0:0:0:0:
448,192,106734,1,0,0:0:0:0:
320,192,106734,1,0,0:0:0:0:
192,192,106799,1,0,0:0:0:0:
448,192,106864,128,0,106994:0:0:0:0:
64,192,106929,1,0,0:0:0:0:
320,192,106994,128,0,107125:0:0:0:0:
192,192,106994,128,0,107125:0:0:0:0:
448,192,107060,1,0,0:0:0:0:
64,192,107125,128,0,107255:0:0:0:0:
320,192,107190,1,0,0:0:0:0:
448,192,107255,128,0,107386:0:0:0:0:
192,192,107255,128,0,107386:0:0:0:0:
320,192,107320,1,0,0:0:0:0:
64,192,107386,1,0,0:0:0:0:
448,192,107451,1,0,0:0:0:0:
64,192,107516,128,0,107647:0:0:0:0:
192,192,107516,128,0,107647:0:0:0:0:
320,192,107581,1,0,0:0:0:0:
448,192,107647,1,0,0:0:0:0:
192,192,107712,1,0,0:0:0:0:
320,192,107777,128,0,107907:0:0:0:0:
448,192,107777,128,0,107907:0:0:0:0:
64,192,107842,1,0,0:0:0:0:
192,192,107907,1,0,0:0:0:0:
64,192,107973,128,0,108103:0:0:0:0:
448,192,107973,128,0,108103:0:0:0:0:
320,192,108038,1,0,0:0:0:0:
192,192,108103,1,0,0:0:0:0:
320,192,108168,128,0,108234:0:0:0:0:
64,192,108168,128,0,108234:0:0:0:0:
192,192,108234,1,0,0:0:0:0:
320,192,108299,128,0,108429:0:0:0:0:
448,192,108299,128,0,108429:0:0:0:0:
64,192,108364,1,0,0:0:0:0:
192,192,108429,1,0,0:0:0:0:
320,192,108494,1,0,0:0:0:0:
64,192,108560,128,0,108690:0:0:0:0:
192,192,108560,128,0,108690:0:0:0:0:
448,192,108625,1,0,0:0:0:0:
320,192,108690,1,0,0:0:0:0:
192,192,108755,1,0,0:0:0:0:
64,192,108820,128,0,108951:0:0:0:0:
320,192,108820,128,0,108951:0:0:0:0:
192,192,108886,1,0,0:0:0:0:
448,192,108951,1,0,0:0:0:0:
192,192,109016,128,0,109147:0:0:0:0:
320,192,109016,128,0,109147:0:0:0:0:
448,192,109081,1,0,0:0:0:0:
64,192,109147,1,0,0:0:0:0:
192,192,109212,128,0,109277:0:0:0:0:
448,192,109212,128,0,109277:0:0:0:0:
320,192,109277,1,0,0:0:0:0:
64,192,109342,128,0,109473:0:0:0:0:
448,192,109342,128,0,109473:0:0:0:0:
192,192,109407,128,0,109473:0:0:0:0:
320,192,109473,128,0,109538:0:0:0:0:
448,192,109538,128,0,109603:0:0:0:0:
64,192,109603,128,0,109734:0:0:0:0:
192,192,109603,128,0,109734:0:0:0:0:
320,192,109668,128,0,109734:0:0:0:0:
448,192,109734,128,0,109864:0:0:0:0:
64,192,109799,128,0,109864:0:0:0:0:
320,192,109864,128,0,109994:0:0:0:0:
192,192,109864,128,0,109994:0:0:0:0:
448,192,109929,128,0,109994:0:0:0:0:
64,192,109994,128,0,110060:0:0:0:0:
448,192,110060,128,0,110190:0:0:0:0:
320,192,110060,128,0,110190:0:0:0:0:
64,192,110125,128,0,110190:0:0:0:0:
192,192,110190,128,0,110320:0:0:0:0:
64,192,110255,128,0,110320:0:0:0:0:
448,192,110255,128,0,110320:0:0:0:0:
320,192,110320,128,0,110386:0:0:0:0:
64,192,110386,128,0,110451:0:0:0:0:
192,192,110386,1,0,0:0:0:0:
448,192,110386,128,0,110451:0:0:0:0:
320,192,110581,1,0,0:0:0:0:
192,192,110581,128,0,110647:0:0:0:0:
448,192,110581,128,0,110647:0:0:0:0:
448,192,110777,1,0,0:0:0:0:
320,192,110777,128,0,110842:0:0:0:0:
64,192,110777,128,0,110842:0:0:0:0:
64,192,110907,1,0,0:0:0:0:
192,192,110907,128,0,110973:0:0:0:0:
448,192,110907,128,0,110973:0:0:0:0:
192,192,111103,1,0,0:0:0:0:
320,192,111103,128,0,111168:0:0:0:0:
64,192,111103,128,0,111168:0:0:0:0:
320,192,111299,1,0,0:0:0:0:
448,192,111299,128,0,111364:0:0:0:0:
64,192,111299,128,0,111364:0:0:0:0:
64,192,111429,128,0,112473:0:0:0:0:
320,192,111429,1,0,0:0:0:0:
192,192,111429,128,0,111494:0:0:0:0:
448,192,111429,128,0,111494:0:0:0:0:
192,192,111560,128,0,111625:0:0:0:0:
448,192,111560,128,0,111625:0:0:0:0:
320,192,111560,1,0,0:0:0:0:
320,192,111690,1,0,0:0:0:0:
448,192,111690,128,0,111755:0:0:0:0:
192,192,111690,128,0,111755:0:0:0:0:
192,192,111820,128,0,111886:0:0:0:0:
448,192,111820,128,0,111886:0:0:0:0:
320,192,111820,1,0,0:0:0:0:
320,192,112081,1,0,0:0:0:0:
448,192,112081,128,0,112147:0:0:0:0:
192,192,112081,128,0,112147:0:0:0:0:
192,192,112212,128,0,112277:0:0:0:0:
448,192,112212,128,0,112277:0:0:0:0:
320,192,112212,1,0,0:0:0:0:
320,192,112342,1,0,0:0:0:0:
448,192,112342,128,0,112407:0:0:0:0:
192,192,112342,128,0,112407:0:0:0:0:
448,192,112473,128,0,112864:0:0:0:0:
320,192,112473,128,0,112603:0:0:0:0:
192,192,112505,128,0,112636:0:0:0:0:
64,192,112734,128,0,112864:0:0:0:0:
320,192,112766,128,0,112897:0:0:0:0:
192,192,112864,128,0,113386:0:0:0:0:
448,192,112994,128,0,113060:0:0:0:0:
320,192,113016,128,0,113081:0:0:0:0:
448,192,113125,128,0,113190:0:0:0:0:
320,192,113147,128,0,113212:0:0:0:0:
448,192,113255,128,0,113386:0:0:0:0:
320,192,113277,128,0,113386:0:0:0:0:
64,192,113386,128,0,115081:0:0:0:0:
448,192,113516,128,0,113581:0:0:0:0:
192,192,113516,128,0,113581:0:0:0:0:
320,192,113516,1,0,0:0:0:0:
320,192,113647,1,0,0:0:0:0:
448,192,113647,128,0,113712:0:0:0:0:
192,192,113647,128,0,113712:0:0:0:0:
192,192,113777,128,0,113842:0:0:0:0:
448,192,113777,128,0,113842:0:0:0:0:
320,192,113777,1,0,0:0:0:0:
320,192,113907,1,0,0:0:0:0:
448,192,113907,128,0,113973:0:0:0:0:
192,192,113907,128,0,113973:0:0:0:0:
192,192,114168,128,0,114234:0:0:0:0:
448,192,114168,128,0,114234:0:0:0:0:
320,192,114168,1,0,0:0:0:0:
192,192,114364,128,0,114429:0:0:0:0:
448,192,114364,128,0,114429:0:0:0:0:
320,192,114364,1,0,0:0:0:0:
192,192,114560,128,0,114625:0:0:0:0:
448,192,114560,128,0,114625:0:0:0:0:
320,192,114560,1,0,0:0:0:0:
448,192,114690,128,0,114755:0:0:0:0:
320,192,114712,128,0,114777:0:0:0:0:
448,192,114820,128,0,114886:0:0:0:0:
320,192,114842,128,0,114907:0:0:0:0:
192,192,114951,128,0,115081:0:0:0:0:
448,192,115016,128,0,115147:0:0:0:0:
320,192,115081,128,0,115342:0:0:0:0:
192,192,115147,128,0,115212:0:0:0:0:
64,192,115212,128,0,115277:0:0:0:0:
448,192,115234,128,0,115299:0:0:0:0:
192,192,115342,128,0,115538:0:0:0:0:
64,192,115342,128,0,115407:0:0:0:0:
448,192,115386,128,0,115451:0:0:0:0:
64,192,115603,128,0,116647:0:0:0:0:
320,192,115603,1,0,0:0:0:0:
192,192,115603,128,0,115668:0:0:0:0:
448,192,115603,128,0,115668:0:0:0:0:
192,192,115734,128,0,115799:0:0:0:0:
448,192,115734,128,0,115799:0:0:0:0:
320,192,115734,1,0,0:0:0:0:
320,192,115864,1,0,0:0:0:0:
448,192,115864,128,0,115929:0:0:0:0:
192,192,115864,128,0,115929:0:0:0:0:
192,192,115994,128,0,116060:0:0:0:0:
448,192,115994,128,0,116060:0:0:0:0:
320,192,115994,1,0,0:0:0:0:
320,192,116255,1,0,0:0:0:0:
448,192,116255,128,0,116320:0:0:0:0:
192,192,116255,128,0,116320:0:0:0:0:
192,192,116386,128,0,116451:0:0:0:0:
448,192,116386,128,0,116451:0:0:0:0:
320,192,116386,1,0,0:0:0:0:
320,192,116516,1,0,0:0:0:0:
448,192,116516,128,0,116581:0:0:0:0:
192,192,116516,128,0,116581:0:0:0:0:
448,192,116647,128,0,117038:0:0:0:0:
320,192,116647,128,0,116777:0:0:0:0:
192,192,116679,128,0,116810:0:0:0:0:
64,192,116907,128,0,117038:0:0:0:0:
320,192,116940,128,0,117070:0:0:0:0:
192,192,117038,128,0,117560:0:0:0:0:
448,192,117168,128,0,117234:0:0:0:0:
320,192,117190,128,0,117255:0:0:0:0:
448,192,117299,128,0,117364:0:0:0:0:
320,192,117320,128,0,117386:0:0:0:0:
448,192,117429,128,0,117560:0:0:0:0:
320,192,117451,128,0,117560:0:0:0:0:
64,192,117560,128,0,118081:0:0:0:0:
192,192,117690,128,0,117755:0:0:0:0:
448,192,117690,128,0,117755:0:0:0:0:
320,192,117690,1,0,0:0:0:0:
192,192,117820,128,0,117886:0:0:0:0:
448,192,117820,128,0,117886:0:0:0:0:
320,192,117820,1,0,0:0:0:0:
320,192,117951,1,0,0:0:0:0:
448,192,117951,128,0,118016:0:0:0:0:
192,192,117951,128,0,118016:0:0:0:0:
192,192,118081,128,0,118473:0:0:0:0:
448,192,118081,128,0,118147:0:0:0:0:
320,192,118081,1,0,0:0:0:0:
64,192,118342,128,0,118407:0:0:0:0:
448,192,118342,128,0,118407:0:0:0:0:
320,192,118342,1,0,0:0:0:0:
320,192,118473,128,0,118734:0:0:0:0:
64,192,118538,128,0,118603:0:0:0:0:
192,192,118538,1,0,0:0:0:0:
448,192,118538,128,0,118603:0:0:0:0:
448,192,118734,128,0,119125:0:0:0:0:
64,192,118734,128,0,118799:0:0:0:0:
192,192,118734,1,0,0:0:0:0:
64,192,118929,128,0,118994:0:0:0:0:
320,192,118929,128,0,118994:0:0:0:0:
192,192,118929,1,0,0:0:0:0:
64,192,119125,128,0,119516:0:0:0:0:
320,192,119125,128,0,119190:0:0:0:0:
192,192,119125,1,0,0:0:0:0:
192,192,119320,128,0,119386:0:0:0:0:
448,192,119320,128,0,119386:0:0:0:0:
320,192,119320,1,0,0:0:0:0:
448,192,119516,1,0,0:0:0:0:
320,192,119516,1,0,0:0:0:0:
64,192,119581,1,0,0:0:0:0:
192,192,119581,1,0,0:0:0:0:
448,192,119647,1,0,0:0:0:0:
320,192,119647,1,0,0:0:0:0:
192,192,119712,1,0,0:0:0:0:
320,192,119777,128,0,119842:0:0:0:0:
448,192,119777,128,0,119842:0:0:0:0:
64,192,119777,1,0,0:0:0:0:
192,192,119842,1,0,0:0:0:0:
448,192,119907,128,0,119973:0:0:0:0:
320,192,119907,128,0,119973:0:0:0:0:
64,192,119973,1,0,0:0:0:0:
192,192,120038,1,0,0:0:0:0:
320,192,120038,128,0,120103:0:0:0:0:
448,192,120038,128,0,120103:0:0:0:0:
64,192,120103,1,0,0:0:0:0:
448,192,120168,128,0,120234:0:0:0:0:
320,192,120168,128,0,120234:0:0:0:0:
192,192,120234,1,0,0:0:0:0:
448,192,120299,1,0,0:0:0:0:
64,192,120364,1,0,0:0:0:0:
320,192,120429,128,0,120494:0:0:0:0:
448,192,120429,128,0,120494:0:0:0:0:
192,192,120429,1,0,0:0:0:0:
64,192,120494,1,0,0:0:0:0:
320,192,120560,128,0,120625:0:0:0:0:
448,192,120560,128,0,120625:0:0:0:0:
64,192,120625,1,0,0:0:0:0:
448,192,120690,128,0,120755:0:0:0:0:
320,192,120690,128,0,120755:0:0:0:0:
192,192,120690,1,0,0:0:0:0:
64,192,120755,1,0,0:0:0:0:
192,192,120820,128,0,121016:0:0:0:0:
448,192,120853,128,0,121049:0:0:0:0:
320,192,120886,1,0,0:0:0:0:
64,192,120951,1,0,0:0:0:0:
320,192,121016,1,0,0:0:0:0:
192,192,121081,128,0,121277:0:0:0:0:
64,192,121114,128,0,121310:0:0:0:0:
448,192,121147,1,0,0:0:0:0:
320,192,121212,1,0,0:0:0:0:
448,192,121277,1,0,0:0:0:0:
320,192,121342,128,0,121407:0:0:0:0:
192,192,121375,128,0,121440:0:0:0:0:
64,192,121407,1,0,0:0:0:0:
448,192,121473,128,0,121538:0:0:0:0:
320,192,121505,128,0,121570:0:0:0:0:
192,192,121538,1,0,0:0:0:0:
64,192,121603,128,0,121799:0:0:0:0:
192,192,121636,128,0,121831:0:0:0:0:
320,192,121668,1,0,0:0:0:0:
448,192,121734,1,0,0:0:0:0:
320,192,121799,1,0,0:0:0:0:
192,192,121864,128,0,121929:0:0:0:0:
64,192,121864,128,0,121929:0:0:0:0:
448,192,121864,1,0,0:0:0:0:
320,192,121929,1,0,0:0:0:0:
64,192,121994,128,0,122060:0:0:0:0:
192,192,121994,128,0,122060:0:0:0:0:
448,192,122060,1,0,0:0:0:0:
320,192,122125,1,0,0:0:0:0:
192,192,122125,128,0,122190:0:0:0:0:
64,192,122125,128,0,122190:0:0:0:0:
448,192,122190,1,0,0:0:0:0:
64,192,122255,128,0,122320:0:0:0:0:
192,192,122255,128,0,122320:0:0:0:0:
320,192,122320,1,0,0:0:0:0:
64,192,122386,1,0,0:0:0:0:
448,192,122451,1,0,0:0:0:0:
192,192,122516,128,0,122581:0:0:0:0:
64,192,122516,128,0,122581:0:0:0:0:
320,192,122516,1,0,0:0:0:0:
448,192,122581,1,0,0:0:0:0:
192,192,122647,1,0,0:0:0:0:
448,192,122712,1,0,0:0:0:0:
320,192,122712,128,0,122777:0:0:0:0:
64,192,122712,128,0,122777:0:0:0:0:
192,192,122777,1,0,0:0:0:0:
320,192,122842,1,0,0:0:0:0:
64,192,122907,128,0,122973:0:0:0:0:
448,192,122907,128,0,122973:0:0:0:0:
192,192,122973,1,0,0:0:0:0:
320,192,123038,128,0,123103:0:0:0:0:
448,192,123070,128,0,123136:0:0:0:0:
64,192,123103,1,0,0:0:0:0:
320,192,123168,128,0,123234:0:0:0:0:
448,192,123201,128,0,123266:0:0:0:0:
192,192,123234,1,0,0:0:0:0:
64,192,123299,128,0,123494:0:0:0:0:
448,192,123364,128,0,123560:0:0:0:0:
192,192,123364,1,0,0:0:0:0:
320,192,123429,1,0,0:0:0:0:
192,192,123494,1,0,0:0:0:0:
64,192,123560,128,0,123625:0:0:0:0:
320,192,123592,128,0,123657:0:0:0:0:
448,192,123625,1,0,0:0:0:0:
64,192,123690,128,0,123853:0:0:0:0:
320,192,123723,128,0,123886:0:0:0:0:
192,192,123755,1,0,0:0:0:0:
448,192,123820,1,0,0:0:0:0:
192,192,123886,1,0,0:0:0:0:
320,192,123951,128,0,124016:0:0:0:0:
448,192,123951,128,0,124016:0:0:0:0:
64,192,123951,1,0,0:0:0:0:
192,192,124016,1,0,0:0:0:0:
448,192,124081,128,0,124147:0:0:0:0:
320,192,124081,128,0,124147:0:0:0:0:
64,192,124147,1,0,0:0:0:0:
320,192,124212,128,0,124277:0:0:0:0:
448,192,124212,128,0,124277:0:0:0:0:
192,192,124212,1,0,0:0:0:0:
64,192,124277,1,0,0:0:0:0:
448,192,124342,128,0,124407:0:0:0:0:
320,192,124342,128,0,124407:0:0:0:0:
192,192,124407,1,0,0:0:0:0:
64,192,124473,1,0,0:0:0:0:
320,192,124538,1,0,0:0:0:0:
192,192,124603,128,0,124668:0:0:0:0:
64,192,124603,128,0,124668:0:0:0:0:
448,192,124603,1,0,0:0:0:0:
320,192,124668,1,0,0:0:0:0:
64,192,124734,128,0,124799:0:0:0:0:
192,192,124734,128,0,124799:0:0:0:0:
448,192,124799,1,0,0:0:0:0:
192,192,124864,128,0,124929:0:0:0:0:
64,192,124864,128,0,124929:0:0:0:0:
320,192,124864,1,0,0:0:0:0:
448,192,124929,1,0,0:0:0:0:
192,192,124994,128,0,125060:0:0:0:0:
64,192,124994,128,0,125060:0:0:0:0:
320,192,125060,1,0,0:0:0:0:
64,192,125125,128,0,125190:0:0:0:0:
448,192,125125,128,0,125190:0:0:0:0:
192,192,125190,1,0,0:0:0:0:
320,192,125255,128,0,125320:0:0:0:0:
448,192,125255,128,0,125320:0:0:0:0:
64,192,125255,1,0,0:0:0:0:
192,192,125320,1,0,0:0:0:0:
320,192,125386,128,0,125451:0:0:0:0:
448,192,125386,128,0,125451:0:0:0:0:
64,192,125451,1,0,0:0:0:0:
192,192,125516,1,0,0:0:0:0:
320,192,125581,1,0,0:0:0:0:
192,192,125647,128,0,125712:0:0:0:0:
64,192,125647,128,0,125712:0:0:0:0:
448,192,125647,1,0,0:0:0:0:
320,192,125712,1,0,0:0:0:0:
64,192,125777,128,0,125842:0:0:0:0:
192,192,125777,128,0,125842:0:0:0:0:
448,192,125842,1,0,0:0:0:0:
192,192,125907,128,0,125973:0:0:0:0:
64,192,125907,128,0,125973:0:0:0:0:
320,192,125907,1,0,0:0:0:0:
448,192,125973,1,0,0:0:0:0:
192,192,126038,1,0,0:0:0:0:
64,192,126038,1,0,0:0:0:0:
448,192,126125,1,0,0:0:0:0:
320,192,126125,1,0,0:0:0:0:
448,192,126212,1,0,0:0:0:0:
192,192,126212,1,0,0:0:0:0:
320,192,126299,1,0,0:0:0:0:
64,192,126299,1,0,0:0:0:0:
192,192,126386,1,0,0:0:0:0:
64,192,126386,1,0,0:0:0:0:
448,192,126473,1,0,0:0:0:0:
320,192,126473,1,0,0:0:0:0:
448,192,126560,1,0,0:0:0:0:
320,192,126560,1,0,0:0:0:0:
192,192,126647,1,0,0:0:0:0:
64,192,126647,1,0,0:0:0:0:
320,192,126734,1,0,0:0:0:0:
64,192,126734,1,0,0:0:0:0:
320,192,126820,1,0,0:0:0:0:
448,192,126820,1,0,0:0:0:0:
192,192,126907,1,0,0:0:0:0:
64,192,126907,1,0,0:0:0:0:
320,192,126994,1,0,0:0:0:0:
192,192,126994,1,0,0:0:0:0:
448,192,127081,1,0,0:0:0:0:
320,192,127081,1,0,0:0:0:0:
64,192,127081,1,0,0:0:0:0:
64,192,127255,128,0,127299:0:0:0:0:
320,192,127255,128,0,127299:0:0:0:0:
448,192,127255,128,0,127299:0:0:0:0:
64,192,127429,128,0,127473:0:0:0:0:
320,192,127429,128,0,127473:0:0:0:0:
448,192,127429,128,0,127473:0:0:0:0:
64,192,127603,128,0,127690:0:0:0:0:
192,192,127603,128,0,127690:0:0:0:0:
448,192,127603,128,0,127690:0:0:0:0:
448,192,127777,128,0,127864:0:0:0:0:
192,192,127777,128,0,127864:0:0:0:0:
64,192,127777,128,0,127864:0:0:0:0:
64,192,127951,128,0,128060:0:0:0:0:
192,192,127951,128,0,128060:0:0:0:0:
448,192,127951,128,0,128060:0:0:0:0:
192,192,128125,1,0,0:0:0:0:
64,192,128125,128,0,129168:0:0:0:0:
320,192,128125,128,0,129103:0:0:0:0:
448,192,128125,128,0,129038:0:0:0:0:
448,192,129299,128,0,129429:0:0:0:0:
320,192,129342,128,0,129473:0:0:0:0:
64,192,129560,128,0,129690:0:0:0:0:
192,192,129603,1,0,0:0:0:0:
448,192,129647,128,0,129734:0:0:0:0:
320,192,129820,1,0,0:0:0:0:
192,192,129864,1,0,0:0:0:0:
64,192,129907,1,0,0:0:0:0:
448,192,129951,1,0,0:0:0:0:
192,192,130016,1,0,0:0:0:0:
320,192,130081,1,0,0:0:0:0:
192,192,130147,1,0,0:0:0:0:
448,192,130212,1,0,0:0:0:0:
320,192,130212,1,0,0:0:0:0:
192,192,130277,1,0,0:0:0:0:
64,192,130342,1,0,0:0:0:0:
320,192,130407,1,0,0:0:0:0:
448,192,130473,1,0,0:0:0:0:
64,192,130473,128,0,130505:0:0:0:0:
192,192,130538,1,0,0:0:0:0:
64,192,130603,128,0,130636:0:0:0:0:
320,192,130668,1,0,0:0:0:0:
448,192,130734,1,0,0:0:0:0:
64,192,130734,128,0,130771:0:0:0:0:
192,192,130799,1,0,0:0:0:0:
64,192,130864,128,0,130901:0:0:0:0:
320,192,130929,1,0,0:0:0:0:
448,192,130994,1,0,0:0:0:0:
64,192,130994,128,0,131038:0:0:0:0:
192,192,131060,1,0,0:0:0:0:
64,192,131125,128,0,131168:0:0:0:0:
320,192,131190,1,0,0:0:0:0:
448,192,131255,1,0,0:0:0:0:
64,192,131255,128,0,131307:0:0:0:0:
192,192,131320,1,0,0:0:0:0:
64,192,131386,128,0,131438:0:0:0:0:
320,192,131451,1,0,0:0:0:0:
448,192,131516,1,0,0:0:0:0:
64,192,131516,128,0,131574:0:0:0:0:
192,192,131581,1,0,0:0:0:0:
64,192,131647,128,0,131705:0:0:0:0:
320,192,131712,1,0,0:0:0:0:
448,192,131777,1,0,0:0:0:0:
64,192,131777,128,0,131842:0:0:0:0:
192,192,131842,1,0,0:0:0:0:
64,192,131907,128,0,131973:0:0:0:0:
320,192,131907,128,0,132234:0:0:0:0:
448,192,131973,128,0,132234:0:0:0:0:
64,192,132038,128,0,132234:0:0:0:0:
192,192,132299,5,0,0:0:0:0:
320,192,132299,128,0,132364:0:0:0:0:
64,192,132299,128,0,132755:0:0:0:0:
448,192,132320,128,0,132386:0:0:0:0:
320,192,132429,128,0,132494:0:0:0:0:
448,192,132451,128,0,132516:0:0:0:0:
320,192,132560,128,0,132625:0:0:0:0:
192,192,132560,128,0,132664:0:0:0:0:
448,192,132581,128,0,132647:0:0:0:0:
320,192,132690,128,0,132755:0:0:0:0:
448,192,132712,128,0,132777:0:0:0:0:
320,192,132820,128,0,132886:0:0:0:0:
192,192,132820,1,0,0:0:0:0:
64,192,132820,128,0,133277:0:0:0:0:
448,192,132842,128,0,132907:0:0:0:0:
320,192,132951,128,0,133016:0:0:0:0:
448,192,132973,128,0,133038:0:0:0:0:
320,192,133081,128,0,133147:0:0:0:0:
192,192,133081,128,0,133186:0:0:0:0:
448,192,133103,128,0,133168:0:0:0:0:
320,192,133212,128,0,133277:0:0:0:0:
448,192,133234,128,0,133299:0:0:0:0:
320,192,133342,128,0,133407:0:0:0:0:
192,192,133342,1,0,0:0:0:0:
64,192,133342,128,0,133799:0:0:0:0:
448,192,133364,128,0,133429:0:0:0:0:
320,192,133473,128,0,133538:0:0:0:0:
448,192,133494,128,0,133560:0:0:0:0:
320,192,133603,128,0,133668:0:0:0:0:
192,192,133603,128,0,133707:0:0:0:0:
448,192,133625,128,0,133690:0:0:0:0:
320,192,133734,128,0,133799:0:0:0:0:
448,192,133755,128,0,133820:0:0:0:0:
320,192,133864,128,0,133929:0:0:0:0:
192,192,133864,1,0,0:0:0:0:
64,192,133864,128,0,134320:0:0:0:0:
448,192,133886,128,0,133951:0:0:0:0:
320,192,133994,128,0,134060:0:0:0:0:
448,192,134016,128,0,134081:0:0:0:0:
320,192,134125,128,0,134190:0:0:0:0:
192,192,134125,128,0,134229:0:0:0:0:
448,192,134147,128,0,134212:0:0:0:0:
320,192,134255,128,0,134320:0:0:0:0:
448,192,134277,128,0,134342:0:0:0:0:
320,192,134386,1,0,0:0:0:0:
448,192,134386,128,0,134647:0:0:0:0:
64,192,134386,128,0,134647:0:0:0:0:
320,192,134647,128,0,134777:0:0:0:0:
192,192,134777,128,0,134907:0:0:0:0:
64,192,134907,128,0,134973:0:0:0:0:
320,192,134907,128,0,135234:0:0:0:0:
448,192,134907,128,0,135364:0:0:0:0:
64,192,135038,128,0,135364:0:0:0:0:
192,192,135168,128,0,135364:0:0:0:0:
320,192,135299,128,0,135364:0:0:0:0:
320,192,135429,128,0,135755:0:0:0:0:
448,192,135429,128,0,135886:0:0:0:0:
64,192,135429,128,0,135494:0:0:0:0:
64,192,135560,128,0,135886:0:0:0:0:
192,192,135690,128,0,135886:0:0:0:0:
320,192,135820,128,0,135886:0:0:0:0:
64,192,135951,128,0,136016:0:0:0:0:
448,192,135951,128,0,136147:0:0:0:0:
320,192,135951,128,0,136407:0:0:0:0:
64,192,136081,128,0,136407:0:0:0:0:
448,192,136212,128,0,136407:0:0:0:0:
192,192,136212,128,0,136407:0:0:0:0:
192,192,136473,1,0,0:0:0:0:
320,192,136473,128,0,136538:0:0:0:0:
64,192,136473,128,0,136929:0:0:0:0:
448,192,136494,128,0,136560:0:0:0:0:
320,192,136603,128,0,136668:0:0:0:0:
448,192,136625,128,0,136690:0:0:0:0:
320,192,136734,128,0,136799:0:0:0:0:
192,192,136734,128,0,136838:0:0:0:0:
448,192,136755,128,0,136820:0:0:0:0:
320,192,136864,128,0,136929:0:0:0:0:
448,192,136886,128,0,136951:0:0:0:0:
320,192,136994,128,0,137060:0:0:0:0:
192,192,136994,1,0,0:0:0:0:
64,192,136994,128,0,137451:0:0:0:0:
448,192,137016,128,0,137081:0:0:0:0:
320,192,137125,128,0,137190:0:0:0:0:
448,192,137147,128,0,137212:0:0:0:0:
320,192,137255,128,0,137320:0:0:0:0:
192,192,137255,128,0,137360:0:0:0:0:
448,192,137277,128,0,137342:0:0:0:0:
320,192,137386,128,0,137451:0:0:0:0:
448,192,137407,128,0,137473:0:0:0:0:
320,192,137516,128,0,137581:0:0:0:0:
192,192,137516,1,0,0:0:0:0:
64,192,137516,128,0,137973:0:0:0:0:
448,192,137538,128,0,137603:0:0:0:0:
320,192,137647,128,0,137712:0:0:0:0:
448,192,137668,128,0,137734:0:0:0:0:
320,192,137777,128,0,137842:0:0:0:0:
192,192,137777,128,0,137881:0:0:0:0:
448,192,137799,128,0,137864:0:0:0:0:
320,192,137907,128,0,137973:0:0:0:0:
448,192,137929,128,0,137994:0:0:0:0:
320,192,138038,128,0,138103:0:0:0:0:
192,192,138038,1,0,0:0:0:0:
64,192,138038,128,0,138494:0:0:0:0:
448,192,138060,128,0,138125:0:0:0:0:
320,192,138168,128,0,138234:0:0:0:0:
448,192,138190,128,0,138255:0:0:0:0:
320,192,138299,128,0,138364:0:0:0:0:
192,192,138299,128,0,138403:0:0:0:0:
448,192,138320,128,0,138386:0:0:0:0:
320,192,138429,128,0,138494:0:0:0:0:
448,192,138451,128,0,138516:0:0:0:0:
64,192,138560,128,0,138625:0:0:0:0:
192,192,138560,128,0,138820:0:0:0:0:
320,192,138560,128,0,138755:0:0:0:0:
64,192,138690,128,0,139016:0:0:0:0:
320,192,138820,128,0,139016:0:0:0:0:
192,192,138886,128,0,139016:0:0:0:0:
448,192,138951,128,0,139016:0:0:0:0:
64,192,139081,128,0,139147:0:0:0:0:
192,192,139081,128,0,139538:0:0:0:0:
320,192,139081,128,0,139277:0:0:0:0:
64,192,139212,128,0,139538:0:0:0:0:
320,192,139342,128,0,139538:0:0:0:0:
448,192,139473,128,0,139538:0:0:0:0:
64,192,139603,128,0,139668:0:0:0:0:
320,192,139603,128,0,139799:0:0:0:0:
192,192,139647,128,0,140060:0:0:0:0:
448,192,139690,128,0,139929:0:0:0:0:
64,192,139734,128,0,140060:0:0:0:0:
320,192,139864,128,0,140060:0:0:0:0:
448,192,139994,128,0,140060:0:0:0:0:
64,192,140125,128,0,140299:0:0:0:0:
192,192,140125,128,0,140581:0:0:0:0:
320,192,140125,128,0,140581:0:0:0:0:
448,192,140255,128,0,140581:0:0:0:0:
64,192,140386,128,0,140581:0:0:0:0:
320,192,140647,1,0,0:0:0:0:
192,192,140647,128,0,140712:0:0:0:0:
448,192,140647,128,0,141103:0:0:0:0:
64,192,140668,128,0,140734:0:0:0:0:
192,192,140777,128,0,140842:0:0:0:0:
64,192,140799,128,0,140864:0:0:0:0:
192,192,140907,128,0,140973:0:0:0:0:
320,192,140907,128,0,141012:0:0:0:0:
64,192,140929,128,0,140994:0:0:0:0:
192,192,141038,128,0,141103:0:0:0:0:
64,192,141060,128,0,141125:0:0:0:0:
192,192,141168,128,0,141234:0:0:0:0:
320,192,141168,1,0,0:0:0:0:
448,192,141168,128,0,141625:0:0:0:0:
64,192,141190,128,0,141255:0:0:0:0:
192,192,141299,128,0,141364:0:0:0:0:
64,192,141320,128,0,141386:0:0:0:0:
192,192,141429,128,0,141494:0:0:0:0:
320,192,141429,128,0,141534:0:0:0:0:
64,192,141451,128,0,141516:0:0:0:0:
192,192,141560,128,0,141625:0:0:0:0:
64,192,141581,128,0,141647:0:0:0:0:
192,192,141690,128,0,141755:0:0:0:0:
320,192,141690,1,0,0:0:0:0:
448,192,141690,128,0,142147:0:0:0:0:
64,192,141712,128,0,141777:0:0:0:0:
192,192,141820,128,0,141886:0:0:0:0:
64,192,141842,128,0,141907:0:0:0:0:
192,192,141951,128,0,142016:0:0:0:0:
320,192,141951,128,0,142055:0:0:0:0:
64,192,141973,128,0,142038:0:0:0:0:
192,192,142081,128,0,142147:0:0:0:0:
64,192,142103,128,0,142168:0:0:0:0:
192,192,142212,128,0,142277:0:0:0:0:
320,192,142212,1,0,0:0:0:0:
448,192,142212,128,0,142668:0:0:0:0:
64,192,142234,128,0,142299:0:0:0:0:
192,192,142342,128,0,142407:0:0:0:0:
64,192,142364,128,0,142429:0:0:0:0:
192,192,142473,128,0,142538:0:0:0:0:
320,192,142473,128,0,142577:0:0:0:0:
64,192,142494,128,0,142560:0:0:0:0:
192,192,142603,128,0,142668:0:0:0:0:
64,192,142625,128,0,142690:0:0:0:0:
192,192,142734,1,0,0:0:0:0:
64,192,142734,128,0,142994:0:0:0:0:
448,192,142734,128,0,142994:0:0:0:0:
192,192,142994,128,0,143125:0:0:0:0:
320,192,143125,128,0,143255:0:0:0:0:
448,192,143255,128,0,143320:0:0:0:0:
192,192,143255,128,0,143581:0:0:0:0:
64,192,143255,128,0,143712:0:0:0:0:
448,192,143386,128,0,143712:0:0:0:0:
320,192,143516,128,0,143712:0:0:0:0:
192,192,143647,128,0,143712:0:0:0:0:
192,192,143777,128,0,144103:0:0:0:0:
64,192,143777,128,0,144234:0:0:0:0:
448,192,143777,128,0,143842:0:0:0:0:
448,192,143907,128,0,144234:0:0:0:0:
320,192,144038,128,0,144234:0:0:0:0:
192,192,144168,128,0,144234:0:0:0:0:
448,192,144299,128,0,144364:0:0:0:0:
64,192,144299,128,0,144494:0:0:0:0:
192,192,144299,128,0,144755:0:0:0:0:
448,192,144429,128,0,144755:0:0:0:0:
64,192,144560,128,0,144755:0:0:0:0:
320,192,144560,128,0,144755:0:0:0:0:
448,192,144820,128,0,145277:0:0:0:0:
192,192,144820,128,0,144886:0:0:0:0:
320,192,144820,1,0,0:0:0:0:
64,192,144842,128,0,144907:0:0:0:0:
192,192,144951,128,0,145016:0:0:0:0:
64,192,144973,128,0,145038:0:0:0:0:
320,192,145081,128,0,145185:0:0:0:0:
192,192,145081,128,0,145147:0:0:0:0:
64,192,145103,128,0,145168:0:0:0:0:
192,192,145212,128,0,145277:0:0:0:0:
64,192,145234,128,0,145299:0:0:0:0:
448,192,145342,128,0,145799:0:0:0:0:
320,192,145342,1,0,0:0:0:0:
192,192,145342,128,0,145407:0:0:0:0:
64,192,145364,128,0,145429:0:0:0:0:
192,192,145473,128,0,145538:0:0:0:0:
64,192,145494,128,0,145560:0:0:0:0:
320,192,145603,128,0,145707:0:0:0:0:
192,192,145603,128,0,145668:0:0:0:0:
64,192,145625,128,0,145690:0:0:0:0:
192,192,145734,128,0,145799:0:0:0:0:
64,192,145755,128,0,145820:0:0:0:0:
448,192,145864,128,0,146320:0:0:0:0:
320,192,145864,1,0,0:0:0:0:
192,192,145864,128,0,145929:0:0:0:0:
64,192,145886,128,0,145951:0:0:0:0:
192,192,145994,128,0,146060:0:0:0:0:
64,192,146016,128,0,146081:0:0:0:0:
320,192,146125,128,0,146228:0:0:0:0:
192,192,146125,128,0,146190:0:0:0:0:
64,192,146147,128,0,146212:0:0:0:0:
192,192,146255,128,0,146320:0:0:0:0:
64,192,146277,128,0,146342:0:0:0:0:
448,192,146386,128,0,146842:0:0:0:0:
320,192,146386,1,0,0:0:0:0:
192,192,146386,128,0,146451:0:0:0:0:
64,192,146407,128,0,146473:0:0:0:0:
192,192,146516,128,0,146581:0:0:0:0:
64,192,146538,128,0,146603:0:0:0:0:
320,192,146647,128,0,146750:0:0:0:0:
192,192,146647,128,0,146712:0:0:0:0:
64,192,146668,128,0,146734:0:0:0:0:
192,192,146777,128,0,146842:0:0:0:0:
64,192,146799,128,0,146864:0:0:0:0:
448,192,146907,1,0,0:0:0:0:
192,192,146907,1,0,0:0:0:0:
64,192,146907,128,0,147364:0:0:0:0:
320,192,147038,128,0,147364:0:0:0:0:
192,192,147168,128,0,147364:0:0:0:0:
448,192,147299,128,0,147364:0:0:0:0:
192,192,147429,128,0,147886:0:0:0:0:
64,192,147429,128,0,147494:0:0:0:0:
320,192,147429,128,0,147625:0:0:0:0:
64,192,147560,128,0,147886:0:0:0:0:
320,192,147690,128,0,147886:0:0:0:0:
448,192,147820,128,0,147886:0:0:0:0:
64,192,147951,128,0,148277:0:0:0:0:
192,192,147951,128,0,148016:0:0:0:0:
448,192,147951,128,0,148407:0:0:0:0:
192,192,148081,128,0,148407:0:0:0:0:
320,192,148212,128,0,148407:0:0:0:0:
64,192,148342,128,0,148407:0:0:0:0:
448,192,148473,1,0,0:0:0:0:
320,192,148473,1,0,0:0:0:0:
192,192,148473,1,0,0:0:0:0:
64,192,148538,1,0,0:0:0:0:
448,192,148603,1,0,0:0:0:0:
192,192,148668,1,0,0:0:0:0:
320,192,148734,1,0,0:0:0:0:
448,192,148777,1,0,0:0:0:0:
64,192,148820,1,0,0:0:0:0:
192,192,148864,1,0,0:0:0:0:
320,192,148907,1,0,0:0:0:0:
64,192,148951,1,0,0:0:0:0:
448,192,148994,1,0,0:0:0:0:
192,192,148994,1,0,0:0:0:0:
