osu file format v14

[General]
AudioFilename: audio.mp3
AudioLeadIn: 0
PreviewTime: 212647
Countdown: 0
SampleSet: Normal
StackLeniency: 0.7
Mode: 3
LetterboxInBreaks: 0
SpecialStyle: 0
WidescreenStoryboard: 0

[Editor]
DistanceSpacing: 0.8
BeatDivisor: 4
GridSize: 32
TimelineZoom: 2.799999

[Metadata]
Title:+ERABY+E CONNEC+10N
TitleUnicode:+ERABY+E CONNEC+10N
Artist:Camellia
ArtistUnicode:かめりあ
Creator:HowToPlayLN
Version:429 Client Error: Too Many Requests
Source:
Tags:electronic instrumental fa featured artist かめるかめりあ kamelcamellia cametek hardcore Phigros vivid/stasis DanceRail3 cut ver. version tera i/o terabyte connection
BeatmapID:2772921
BeatmapSetID:1338625

[Difficulty]
HPDrainRate:8
CircleSize:4
OverallDifficulty:7
ApproachRate:5
SliderMultiplier:1.4
SliderTickRate:1

[Events]
//Background and Video events
0,0,"download_1.png",0,0
//Break Periods
//Storyboard Layer 0 (Background)
//Storyboard Layer 1 (Fail)
//Storyboard Layer 2 (Pass)
//Storyboard Layer 3 (Foreground)
//Storyboard Layer 4 (Overlay)
//Storyboard Sound Samples

[TimingPoints]
821,260.869565217391,4,1,0,20,1,0

[HitObjects]
448,192,821,5,0,0:0:0:0:
64,192,1212,1,0,0:0:0:0:
320,192,1473,1,0,0:0:0:0:
192,192,1603,1,0,0:0:0:0:
320,192,1864,1,0,0:0:0:0:
192,192,1994,1,0,0:0:0:0:
448,192,2125,1,0,0:0:0:0:
64,192,2255,1,0,0:0:0:0:
320,192,2386,1,0,0:0:0:0:
192,192,2516,1,0,0:0:0:0:
448,192,2777,1,0,0:0:0:0:
64,192,2907,1,0,0:0:0:0:
320,192,3168,1,0,0:0:0:0:
64,192,3299,1,0,0:0:0:0:
320,192,3560,1,0,0:0:0:0:
192,192,3690,1,0,0:0:0:0:
320,192,3951,1,0,0:0:0:0:
64,192,4081,1,0,0:0:0:0:
192,192,4212,1,0,0:0:0:0:
320,192,4342,1,0,0:0:0:0:
448,192,4473,1,0,0:0:0:0:
192,192,4603,1,0,0:0:0:0:
64,192,4734,1,0,0:0:0:0:
320,192,4864,1,0,0:0:0:0:
64,192,4994,1,0,0:0:0:0:
320,192,5255,1,0,0:0:0:0:
64,192,5386,1,0,0:0:0:0:
320,192,5647,1,0,0:0:0:0:
192,192,5777,1,0,0:0:0:0:
320,192,6038,1,0,0:0:0:0:
64,192,6168,1,0,0:0:0:0:
192,192,6299,1,0,0:0:0:0:
320,192,6429,1,0,0:0:0:0:
448,192,6560,1,0,0:0:0:0:
192,192,6690,1,0,0:0:0:0:
192,192,6951,1,0,0:0:0:0:
64,192,7081,1,0,0:0:0:0:
320,192,7342,1,0,0:0:0:0:
64,192,7473,1,0,0:0:0:0:
320,192,7734,1,0,0:0:0:0:
192,192,7864,1,0,0:0:0:0:
448,192,8125,1,0,0:0:0:0:
320,192,8255,1,0,0:0:0:0:
64,192,8386,1,0,0:0:0:0:
192,192,8516,1,0,0:0:0:0:
320,192,8647,1,0,0:0:0:0:
448,192,8777,1,0,0:0:0:0:
192,192,8907,1,0,0:0:0:0:
320,192,9038,1,0,0:0:0:0:
64,192,9168,1,0,0:0:0:0:
320,192,9429,1,0,0:0:0:0:
64,192,9560,1,0,0:0:0:0:
320,192,9820,1,0,0:0:0:0:
192,192,9951,1,0,0:0:0:0:
448,192,10212,1,0,0:0:0:0:
320,192,10342,1,0,0:0:0:0:
64,192,10473,1,0,0:0:0:0:
192,192,10603,1,0,0:0:0:0:
448,192,10734,1,0,0:0:0:0:
320,192,10864,1,0,0:0:0:0:
192,192,11125,1,0,0:0:0:0:
64,192,11255,1,0,0:0:0:0:
320,192,11516,1,0,0:0:0:0:
64,192,11647,1,0,0:0:0:0:
320,192,11907,1,0,0:0:0:0:
192,192,12038,1,0,0:0:0:0:
448,192,12299,1,0,0:0:0:0:
320,192,12429,1,0,0:0:0:0:
64,192,12560,1,0,0:0:0:0:
192,192,12690,1,0,0:0:0:0:
448,192,12820,1,0,0:0:0:0:
320,192,12951,1,0,0:0:0:0:
192,192,13081,1,0,0:0:0:0:
64,192,13212,1,0,0:0:0:0:
320,192,13342,1,0,0:0:0:0:
320,192,13603,1,0,0:0:0:0:
64,192,13734,1,0,0:0:0:0:
320,192,13994,1,0,0:0:0:0:
192,192,14125,1,0,0:0:0:0:
448,192,14386,1,0,0:0:0:0:
320,192,14516,1,0,0:0:0:0:
64,192,14647,1,0,0:0:0:0:
192,192,14777,1,0,0:0:0:0:
448,192,14907,1,0,0:0:0:0:
320,192,15038,1,0,0:0:0:0:
64,192,15168,1,0,0:0:0:0:
192,192,15299,1,0,0:0:0:0:
448,192,15429,1,0,0:0:0:0:
64,192,15560,1,0,0:0:0:0:
320,192,15690,1,0,0:0:0:0:
192,192,15820,1,0,0:0:0:0:
448,192,15951,1,0,0:0:0:0:
64,192,16081,1,0,0:0:0:0:
320,192,16212,1,0,0:0:0:0:
448,192,16277,1,0,0:0:0:0:
192,192,16342,1,0,0:0:0:0:
320,192,16407,1,0,0:0:0:0:
64,192,16473,1,0,0:0:0:0:
192,192,16538,1,0,0:0:0:0:
448,192,16603,1,0,0:0:0:0:
320,192,16668,1,0,0:0:0:0:
192,192,16734,1,0,0:0:0:0:
64,192,16734,1,0,0:0:0:0:
448,192,16799,1,0,0:0:0:0:
320,192,16799,1,0,0:0:0:0:
192,192,16864,1,0,0:0:0:0:
64,192,16864,1,0,0:0:0:0:
448,192,16929,1,0,0:0:0:0:
320,192,16929,1,0,0:0:0:0:
64,192,16994,1,0,0:0:0:0:
192,192,16994,128,0,17190:0:0:0:0:
320,192,17060,128,0,17320:0:0:0:0:
448,192,17125,128,0,17386:0:0:0:0:
64,192,17190,128,0,17386:0:0:0:0:
192,192,17255,128,0,17386:0:0:0:0:
320,192,17386,128,0,17516:0:0:0:0:
448,192,17516,1,0,0:0:0:0:
192,192,17516,1,0,0:0:0:0:
64,192,17516,1,0,0:0:0:0:
320,192,17647,1,0,0:0:0:0:
192,192,17777,1,0,0:0:0:0:
448,192,17907,1,0,0:0:0:0:
64,192,18038,1,0,0:0:0:0:
192,192,18168,1,0,0:0:0:0:
320,192,18299,1,0,0:0:0:0:
64,192,18429,1,0,0:0:0:0:
192,192,18560,1,0,0:0:0:0:
448,192,18690,1,0,0:0:0:0:
320,192,18820,1,0,0:0:0:0:
192,192,18951,1,0,0:0:0:0:
448,192,19081,1,0,0:0:0:0:
64,192,19212,1,0,0:0:0:0:
192,192,19342,1,0,0:0:0:0:
448,192,19473,1,0,0:0:0:0:
320,192,19473,1,0,0:0:0:0:
192,192,19538,1,0,0:0:0:0:
64,192,19538,1,0,0:0:0:0:
448,192,19603,1,0,0:0:0:0:
320,192,19603,1,0,0:0:0:0:
192,192,19734,1,0,0:0:0:0:
64,192,19734,1,0,0:0:0:0:
320,192,19799,1,0,0:0:0:0:
448,192,19799,1,0,0:0:0:0:
192,192,19864,1,0,0:0:0:0:
64,192,19864,1,0,0:0:0:0:
448,192,19994,1,0,0:0:0:0:
320,192,19994,1,0,0:0:0:0:
192,192,20125,1,0,0:0:0:0:
64,192,20125,1,0,0:0:0:0:
448,192,20190,1,0,0:0:0:0:
320,192,20190,1,0,0:0:0:0:
192,192,20255,1,0,0:0:0:0:
64,192,20255,1,0,0:0:0:0:
448,192,20386,1,0,0:0:0:0:
320,192,20386,1,0,0:0:0:0:
64,192,20516,1,0,0:0:0:0:
192,192,20516,1,0,0:0:0:0:
448,192,20581,1,0,0:0:0:0:
320,192,20581,1,0,0:0:0:0:
192,192,20647,1,0,0:0:0:0:
64,192,20647,1,0,0:0:0:0:
448,192,20712,1,0,0:0:0:0:
320,192,20712,1,0,0:0:0:0:
192,192,20777,1,0,0:0:0:0:
64,192,20777,1,0,0:0:0:0:
448,192,20907,1,0,0:0:0:0:
320,192,20907,1,0,0:0:0:0:
192,192,20973,1,0,0:0:0:0:
64,192,20973,1,0,0:0:0:0:
448,192,21038,1,0,0:0:0:0:
320,192,21038,1,0,0:0:0:0:
64,192,21103,1,0,0:0:0:0:
192,192,21103,1,0,0:0:0:0:
448,192,21168,1,0,0:0:0:0:
320,192,21168,1,0,0:0:0:0:
192,192,21299,1,0,0:0:0:0:
64,192,21299,1,0,0:0:0:0:
448,192,21429,1,0,0:0:0:0:
320,192,21429,1,0,0:0:0:0:
192,192,21560,1,0,0:0:0:0:
448,192,21690,1,0,0:0:0:0:
64,192,21690,1,0,0:0:0:0:
320,192,21690,1,0,0:0:0:0:
192,192,21820,1,0,0:0:0:0:
320,192,21951,1,0,0:0:0:0:
64,192,22081,1,0,0:0:0:0:
448,192,22212,1,0,0:0:0:0:
320,192,22342,1,0,0:0:0:0:
192,192,22473,1,0,0:0:0:0:
448,192,22603,1,0,0:0:0:0:
320,192,22734,1,0,0:0:0:0:
64,192,22864,1,0,0:0:0:0:
192,192,22994,1,0,0:0:0:0:
320,192,23125,1,0,0:0:0:0:
64,192,23255,1,0,0:0:0:0:
448,192,23386,1,0,0:0:0:0:
320,192,23516,1,0,0:0:0:0:
64,192,23647,1,0,0:0:0:0:
192,192,23647,1,0,0:0:0:0:
320,192,23712,1,0,0:0:0:0:
448,192,23712,1,0,0:0:0:0:
64,192,23777,1,0,0:0:0:0:
192,192,23777,1,0,0:0:0:0:
320,192,23907,1,0,0:0:0:0:
448,192,23907,1,0,0:0:0:0:
192,192,23973,1,0,0:0:0:0:
64,192,23973,1,0,0:0:0:0:
320,192,24038,1,0,0:0:0:0:
448,192,24038,1,0,0:0:0:0:
64,192,24168,1,0,0:0:0:0:
192,192,24168,1,0,0:0:0:0:
320,192,24299,1,0,0:0:0:0:
448,192,24299,1,0,0:0:0:0:
64,192,24364,1,0,0:0:0:0:
192,192,24364,1,0,0:0:0:0:
320,192,24429,1,0,0:0:0:0:
448,192,24429,1,0,0:0:0:0:
64,192,24560,1,0,0:0:0:0:
192,192,24560,1,0,0:0:0:0:
448,192,24690,1,0,0:0:0:0:
320,192,24690,1,0,0:0:0:0:
64,192,24755,1,0,0:0:0:0:
192,192,24755,1,0,0:0:0:0:
320,192,24820,1,0,0:0:0:0:
448,192,24820,1,0,0:0:0:0:
192,192,24864,1,0,0:0:0:0:
64,192,24907,1,0,0:0:0:0:
448,192,24951,1,0,0:0:0:0:
320,192,24951,1,0,0:0:0:0:
192,192,25016,1,0,0:0:0:0:
64,192,25016,1,0,0:0:0:0:
448,192,25081,1,0,0:0:0:0:
320,192,25081,1,0,0:0:0:0:
192,192,25125,1,0,0:0:0:0:
64,192,25168,1,0,0:0:0:0:
448,192,25212,1,0,0:0:0:0:
320,192,25212,1,0,0:0:0:0:
192,192,25277,1,0,0:0:0:0:
64,192,25277,1,0,0:0:0:0:
448,192,25342,1,0,0:0:0:0:
320,192,25342,128,0,25799:0:0:0:0:
192,192,25473,128,0,25799:0:0:0:0:
64,192,25603,128,0,25799:0:0:0:0:
448,192,25734,128,0,25799:0:0:0:0:
448,192,25864,1,0,0:0:0:0:
192,192,25864,1,0,0:0:0:0:
64,192,25864,1,0,0:0:0:0:
320,192,25994,1,0,0:0:0:0:
192,192,26125,1,0,0:0:0:0:
448,192,26255,1,0,0:0:0:0:
64,192,26386,1,0,0:0:0:0:
192,192,26516,1,0,0:0:0:0:
320,192,26647,1,0,0:0:0:0:
64,192,26777,1,0,0:0:0:0:
192,192,26907,1,0,0:0:0:0:
448,192,27038,1,0,0:0:0:0:
320,192,27168,1,0,0:0:0:0:
192,192,27299,1,0,0:0:0:0:
448,192,27429,1,0,0:0:0:0:
64,192,27560,1,0,0:0:0:0:
192,192,27690,1,0,0:0:0:0:
448,192,27820,1,0,0:0:0:0:
320,192,27820,1,0,0:0:0:0:
192,192,27886,1,0,0:0:0:0:
64,192,27886,1,0,0:0:0:0:
448,192,27951,1,0,0:0:0:0:
320,192,27951,1,0,0:0:0:0:
192,192,28081,1,0,0:0:0:0:
64,192,28081,1,0,0:0:0:0:
320,192,28147,1,0,0:0:0:0:
448,192,28147,1,0,0:0:0:0:
192,192,28212,1,0,0:0:0:0:
64,192,28212,1,0,0:0:0:0:
448,192,28342,1,0,0:0:0:0:
320,192,28342,1,0,0:0:0:0:
192,192,28473,1,0,0:0:0:0:
64,192,28473,1,0,0:0:0:0:
448,192,28538,1,0,0:0:0:0:
320,192,28538,1,0,0:0:0:0:
192,192,28603,1,0,0:0:0:0:
64,192,28603,1,0,0:0:0:0:
448,192,28734,1,0,0:0:0:0:
320,192,28734,1,0,0:0:0:0:
64,192,28864,1,0,0:0:0:0:
192,192,28864,1,0,0:0:0:0:
448,192,28929,1,0,0:0:0:0:
320,192,28929,1,0,0:0:0:0:
192,192,28994,1,0,0:0:0:0:
64,192,28994,1,0,0:0:0:0:
448,192,29060,1,0,0:0:0:0:
320,192,29060,1,0,0:0:0:0:
192,192,29125,1,0,0:0:0:0:
64,192,29125,1,0,0:0:0:0:
448,192,29255,1,0,0:0:0:0:
320,192,29255,1,0,0:0:0:0:
192,192,29320,1,0,0:0:0:0:
64,192,29320,1,0,0:0:0:0:
448,192,29386,1,0,0:0:0:0:
320,192,29386,1,0,0:0:0:0:
64,192,29451,1,0,0:0:0:0:
192,192,29451,1,0,0:0:0:0:
448,192,29516,1,0,0:0:0:0:
320,192,29516,1,0,0:0:0:0:
192,192,29647,1,0,0:0:0:0:
64,192,29647,1,0,0:0:0:0:
448,192,29777,1,0,0:0:0:0:
320,192,29777,1,0,0:0:0:0:
192,192,29907,1,0,0:0:0:0:
448,192,30038,1,0,0:0:0:0:
64,192,30038,1,0,0:0:0:0:
192,192,30168,1,0,0:0:0:0:
320,192,30299,1,0,0:0:0:0:
64,192,30429,1,0,0:0:0:0:
448,192,30560,1,0,0:0:0:0:
320,192,30690,1,0,0:0:0:0:
192,192,30820,1,0,0:0:0:0:
448,192,30951,1,0,0:0:0:0:
320,192,31081,1,0,0:0:0:0:
64,192,31212,1,0,0:0:0:0:
192,192,31342,1,0,0:0:0:0:
320,192,31473,1,0,0:0:0:0:
64,192,31603,1,0,0:0:0:0:
448,192,31734,1,0,0:0:0:0:
320,192,31864,1,0,0:0:0:0:
64,192,31994,1,0,0:0:0:0:
192,192,31994,1,0,0:0:0:0:
320,192,32060,1,0,0:0:0:0:
448,192,32060,1,0,0:0:0:0:
64,192,32125,1,0,0:0:0:0:
192,192,32125,1,0,0:0:0:0:
320,192,32255,1,0,0:0:0:0:
448,192,32255,1,0,0:0:0:0:
192,192,32320,1,0,0:0:0:0:
64,192,32320,1,0,0:0:0:0:
320,192,32386,1,0,0:0:0:0:
448,192,32386,1,0,0:0:0:0:
64,192,32516,1,0,0:0:0:0:
192,192,32516,1,0,0:0:0:0:
320,192,32647,1,0,0:0:0:0:
448,192,32647,1,0,0:0:0:0:
64,192,32712,1,0,0:0:0:0:
192,192,32712,1,0,0:0:0:0:
320,192,32777,1,0,0:0:0:0:
448,192,32777,1,0,0:0:0:0:
64,192,32907,1,0,0:0:0:0:
192,192,32907,1,0,0:0:0:0:
448,192,33038,1,0,0:0:0:0:
320,192,33038,1,0,0:0:0:0:
64,192,33103,1,0,0:0:0:0:
192,192,33103,1,0,0:0:0:0:
320,192,33168,1,0,0:0:0:0:
448,192,33168,1,0,0:0:0:0:
64,192,33299,1,0,0:0:0:0:
192,192,33299,1,0,0:0:0:0:
320,192,33364,1,0,0:0:0:0:
448,192,33364,1,0,0:0:0:0:
64,192,33429,1,0,0:0:0:0:
192,192,33429,1,0,0:0:0:0:
448,192,33560,1,0,0:0:0:0:
320,192,33560,1,0,0:0:0:0:
192,192,33690,1,0,0:0:0:0:
64,192,33690,1,0,0:0:0:0:
448,192,33755,1,0,0:0:0:0:
320,192,33755,1,0,0:0:0:0:
192,192,33820,1,0,0:0:0:0:
64,192,33820,1,0,0:0:0:0:
448,192,33951,1,0,0:0:0:0:
320,192,33951,1,0,0:0:0:0:
192,192,34081,1,0,0:0:0:0:
64,192,34081,1,0,0:0:0:0:
448,192,34147,1,0,0:0:0:0:
320,192,34147,1,0,0:0:0:0:
192,192,34212,1,0,0:0:0:0:
64,192,34212,1,0,0:0:0:0:
448,192,34342,1,0,0:0:0:0:
320,192,34342,1,0,0:0:0:0:
192,192,34407,1,0,0:0:0:0:
64,192,34407,1,0,0:0:0:0:
320,192,34473,1,0,0:0:0:0:
448,192,34473,1,0,0:0:0:0:
192,192,34603,1,0,0:0:0:0:
64,192,34603,1,0,0:0:0:0:
448,192,34734,1,0,0:0:0:0:
320,192,34734,1,0,0:0:0:0:
192,192,34799,1,0,0:0:0:0:
64,192,34799,1,0,0:0:0:0:
448,192,34864,1,0,0:0:0:0:
320,192,34864,1,0,0:0:0:0:
192,192,34994,1,0,0:0:0:0:
64,192,34994,1,0,0:0:0:0:
448,192,35125,1,0,0:0:0:0:
320,192,35125,1,0,0:0:0:0:
192,192,35190,1,0,0:0:0:0:
64,192,35190,1,0,0:0:0:0:
320,192,35255,1,0,0:0:0:0:
448,192,35255,1,0,0:0:0:0:
192,192,35288,1,0,0:0:0:0:
64,192,35320,1,0,0:0:0:0:
448,192,35353,1,0,0:0:0:0:
320,192,35386,1,0,0:0:0:0:
192,192,35451,1,0,0:0:0:0:
64,192,35451,1,0,0:0:0:0:
448,192,35516,1,0,0:0:0:0:
320,192,35516,1,0,0:0:0:0:
64,192,35549,1,0,0:0:0:0:
192,192,35581,1,0,0:0:0:0:
320,192,35614,1,0,0:0:0:0:
448,192,35647,1,0,0:0:0:0:
192,192,35712,1,0,0:0:0:0:
64,192,35712,1,0,0:0:0:0:
448,192,35777,1,0,0:0:0:0:
320,192,35777,128,0,35907:0:0:0:0:
192,192,35907,128,0,35973:0:0:0:0:
64,192,36038,128,0,36266:0:0:0:0:
448,192,36168,128,0,36266:0:0:0:0:
448,192,36299,1,0,0:0:0:0:
320,192,36299,1,0,0:0:0:0:
64,192,36299,1,0,0:0:0:0:
192,192,36429,1,0,0:0:0:0:
320,192,36560,1,0,0:0:0:0:
64,192,36690,1,0,0:0:0:0:
448,192,36820,1,0,0:0:0:0:
192,192,36951,1,0,0:0:0:0:
320,192,37081,1,0,0:0:0:0:
64,192,37212,1,0,0:0:0:0:
448,192,37342,1,0,0:0:0:0:
320,192,37473,1,0,0:0:0:0:
192,192,37603,1,0,0:0:0:0:
320,192,37734,1,0,0:0:0:0:
64,192,37864,1,0,0:0:0:0:
192,192,37994,1,0,0:0:0:0:
448,192,38125,1,0,0:0:0:0:
64,192,38255,1,0,0:0:0:0:
320,192,38386,1,0,0:0:0:0:
192,192,38516,1,0,0:0:0:0:
448,192,38647,1,0,0:0:0:0:
64,192,38777,1,0,0:0:0:0:
320,192,38907,1,0,0:0:0:0:
192,192,39038,1,0,0:0:0:0:
320,192,39168,1,0,0:0:0:0:
64,192,39299,1,0,0:0:0:0:
448,192,39429,1,0,0:0:0:0:
192,192,39560,1,0,0:0:0:0:
64,192,39690,1,0,0:0:0:0:
320,192,39820,1,0,0:0:0:0:
192,192,39951,1,0,0:0:0:0:
320,192,40081,1,0,0:0:0:0:
448,192,40212,1,0,0:0:0:0:
64,192,40342,1,0,0:0:0:0:
192,192,40473,1,0,0:0:0:0:
320,192,40473,1,0,0:0:0:0:
448,192,40603,1,0,0:0:0:0:
64,192,40734,1,0,0:0:0:0:
320,192,40864,1,0,0:0:0:0:
192,192,40994,1,0,0:0:0:0:
320,192,41125,1,0,0:0:0:0:
64,192,41255,1,0,0:0:0:0:
448,192,41386,1,0,0:0:0:0:
192,192,41516,1,0,0:0:0:0:
320,192,41647,1,0,0:0:0:0:
64,192,41777,1,0,0:0:0:0:
320,192,41907,1,0,0:0:0:0:
192,192,42038,1,0,0:0:0:0:
448,192,42168,1,0,0:0:0:0:
320,192,42299,1,0,0:0:0:0:
192,192,42429,1,0,0:0:0:0:
448,192,42560,1,0,0:0:0:0:
64,192,42690,1,0,0:0:0:0:
320,192,42820,1,0,0:0:0:0:
192,192,42951,1,0,0:0:0:0:
448,192,43081,1,0,0:0:0:0:
64,192,43212,1,0,0:0:0:0:
320,192,43342,1,0,0:0:0:0:
192,192,43473,1,0,0:0:0:0:
448,192,43603,1,0,0:0:0:0:
192,192,43734,1,0,0:0:0:0:
448,192,43864,1,0,0:0:0:0:
320,192,43994,1,0,0:0:0:0:
64,192,44125,1,0,0:0:0:0:
448,192,44255,1,0,0:0:0:0:
64,192,44386,1,0,0:0:0:0:
192,192,44451,1,0,0:0:0:0:
320,192,44516,1,0,0:0:0:0:
448,192,44581,1,0,0:0:0:0:
320,192,44647,128,0,44907:0:0:0:0:
192,192,44647,128,0,44907:0:0:0:0:
64,192,44647,128,0,44907:0:0:0:0:
64,192,45690,128,0,45951:0:0:0:0:
192,192,45690,128,0,45951:0:0:0:0:
320,192,45690,128,0,45951:0:0:0:0:
320,192,46342,128,0,46473:0:0:0:0:
192,192,46342,128,0,46473:0:0:0:0:
64,192,46342,128,0,46473:0:0:0:0:
192,192,46538,128,0,46668:0:0:0:0:
64,192,46538,128,0,46668:0:0:0:0:
320,192,46538,128,0,46668:0:0:0:0:
448,192,46734,128,0,46994:0:0:0:0:
192,192,46734,128,0,46994:0:0:0:0:
64,192,46734,128,0,46994:0:0:0:0:
64,192,47777,128,0,48038:0:0:0:0:
192,192,47777,128,0,48038:0:0:0:0:
448,192,47777,128,0,48038:0:0:0:0:
448,192,48168,128,0,48429:0:0:0:0:
192,192,48168,128,0,48429:0:0:0:0:
64,192,48168,128,0,48429:0:0:0:0:
64,192,48820,128,0,49081:0:0:0:0:
192,192,48820,128,0,49081:0:0:0:0:
448,192,48820,128,0,49081:0:0:0:0:
448,192,49864,128,0,50125:0:0:0:0:
320,192,49864,128,0,50125:0:0:0:0:
64,192,49864,128,0,50125:0:0:0:0:
64,192,50516,128,0,50647:0:0:0:0:
320,192,50516,128,0,50647:0:0:0:0:
448,192,50516,128,0,50647:0:0:0:0:
448,192,50712,128,0,50842:0:0:0:0:
64,192,50712,128,0,50842:0:0:0:0:
320,192,50712,128,0,50842:0:0:0:0:
320,192,50907,128,0,50973:0:0:0:0:
64,192,50907,128,0,50973:0:0:0:0:
448,192,50907,128,0,50973:0:0:0:0:
320,192,51038,128,0,51103:0:0:0:0:
64,192,51038,128,0,51103:0:0:0:0:
448,192,51038,128,0,51103:0:0:0:0:
448,192,51168,128,0,51429:0:0:0:0:
192,192,51168,128,0,51429:0:0:0:0:
320,192,51168,128,0,51429:0:0:0:0:
448,192,51820,128,0,51951:0:0:0:0:
320,192,51820,128,0,51951:0:0:0:0:
192,192,51820,128,0,51951:0:0:0:0:
192,192,52081,128,0,52212:0:0:0:0:
320,192,52081,128,0,52212:0:0:0:0:
448,192,52081,128,0,52212:0:0:0:0:
448,192,52342,128,0,52473:0:0:0:0:
320,192,52342,128,0,52473:0:0:0:0:
192,192,52342,128,0,52407:0:0:0:0:
64,192,52407,1,0,0:0:0:0:
192,192,52473,1,0,0:0:0:0:
320,192,52538,1,0,0:0:0:0:
192,192,52603,128,0,52668:0:0:0:0:
448,192,52603,128,0,52668:0:0:0:0:
64,192,52603,128,0,52668:0:0:0:0:
320,192,52668,1,0,0:0:0:0:
448,192,52734,128,0,52864:0:0:0:0:
64,192,52734,128,0,52864:0:0:0:0:
192,192,52734,128,0,52799:0:0:0:0:
320,192,52799,1,0,0:0:0:0:
192,192,52864,1,0,0:0:0:0:
64,192,52929,1,0,0:0:0:0:
448,192,52994,1,0,0:0:0:0:
320,192,52994,1,0,0:0:0:0:
192,192,53060,1,0,0:0:0:0:
448,192,53125,1,0,0:0:0:0:
64,192,53190,1,0,0:0:0:0:
320,192,53255,1,0,0:0:0:0:
192,192,53320,1,0,0:0:0:0:
64,192,53386,1,0,0:0:0:0:
320,192,53451,1,0,0:0:0:0:
192,192,53516,1,0,0:0:0:0:
448,192,53581,1,0,0:0:0:0:
320,192,53647,1,0,0:0:0:0:
64,192,53712,1,0,0:0:0:0:
192,192,53777,1,0,0:0:0:0:
448,192,53842,1,0,0:0:0:0:
320,192,53907,1,0,0:0:0:0:
192,192,53973,1,0,0:0:0:0:
448,192,54038,1,0,0:0:0:0:
64,192,54103,1,0,0:0:0:0:
320,192,54168,1,0,0:0:0:0:
192,192,54234,1,0,0:0:0:0:
448,192,54299,1,0,0:0:0:0:
64,192,54364,1,0,0:0:0:0:
320,192,54429,1,0,0:0:0:0:
192,192,54494,1,0,0:0:0:0:
448,192,54560,1,0,0:0:0:0:
320,192,54625,1,0,0:0:0:0:
64,192,54690,1,0,0:0:0:0:
192,192,54755,1,0,0:0:0:0:
320,192,54820,1,0,0:0:0:0:
64,192,54886,1,0,0:0:0:0:
448,192,54951,1,0,0:0:0:0:
192,192,55016,1,0,0:0:0:0:
320,192,55081,1,0,0:0:0:0:
64,192,55147,1,0,0:0:0:0:
192,192,55212,1,0,0:0:0:0:
448,192,55277,1,0,0:0:0:0:
320,192,55342,1,0,0:0:0:0:
192,192,55407,1,0,0:0:0:0:
448,192,55473,1,0,0:0:0:0:
64,192,55538,1,0,0:0:0:0:
192,192,55603,1,0,0:0:0:0:
320,192,55668,1,0,0:0:0:0:
64,192,55734,1,0,0:0:0:0:
192,192,55799,1,0,0:0:0:0:
320,192,55864,1,0,0:0:0:0:
448,192,55929,1,0,0:0:0:0:
192,192,55994,1,0,0:0:0:0:
320,192,56060,1,0,0:0:0:0:
64,192,56125,1,0,0:0:0:0:
192,192,56168,1,0,0:0:0:0:
448,192,56190,1,0,0:0:0:0:
320,192,56255,1,0,0:0:0:0:
192,192,56320,1,0,0:0:0:0:
448,192,56386,1,0,0:0:0:0:
320,192,56429,1,0,0:0:0:0:
64,192,56451,1,0,0:0:0:0:
192,192,56516,1,0,0:0:0:0:
448,192,56581,1,0,0:0:0:0:
64,192,56647,1,0,0:0:0:0:
192,192,56690,1,0,0:0:0:0:
320,192,56712,1,0,0:0:0:0:
64,192,56777,1,0,0:0:0:0:
192,192,56842,1,0,0:0:0:0:
320,192,56907,1,0,0:0:0:0:
448,192,56907,128,0,57103:0:0:0:0:
64,192,57038,128,0,57103:0:0:0:0:
448,192,57168,1,0,0:0:0:0:
320,192,57168,1,0,0:0:0:0:
64,192,57201,1,0,0:0:0:0:
192,192,57234,1,0,0:0:0:0:
320,192,57266,1,0,0:0:0:0:
448,192,57299,1,0,0:0:0:0:
64,192,57331,1,0,0:0:0:0:
192,192,57364,1,0,0:0:0:0:
320,192,57397,1,0,0:0:0:0:
64,192,57429,1,0,0:0:0:0:
448,192,57462,1,0,0:0:0:0:
320,192,57494,1,0,0:0:0:0:
192,192,57527,1,0,0:0:0:0:
448,192,57560,1,0,0:0:0:0:
64,192,57592,1,0,0:0:0:0:
320,192,57625,1,0,0:0:0:0:
192,192,57657,1,0,0:0:0:0:
64,192,57690,1,0,0:0:0:0:
448,192,57723,1,0,0:0:0:0:
320,192,57755,1,0,0:0:0:0:
192,192,57788,1,0,0:0:0:0:
64,192,57820,1,0,0:0:0:0:
448,192,57853,1,0,0:0:0:0:
320,192,57886,1,0,0:0:0:0:
192,192,57918,1,0,0:0:0:0:
448,192,57951,1,0,0:0:0:0:
64,192,57984,1,0,0:0:0:0:
192,192,58016,1,0,0:0:0:0:
320,192,58049,1,0,0:0:0:0:
448,192,58081,1,0,0:0:0:0:
64,192,58114,1,0,0:0:0:0:
192,192,58147,1,0,0:0:0:0:
320,192,58179,1,0,0:0:0:0:
64,192,58212,1,0,0:0:0:0:
448,192,58244,1,0,0:0:0:0:
320,192,58277,1,0,0:0:0:0:
192,192,58310,1,0,0:0:0:0:
448,192,58342,1,0,0:0:0:0:
64,192,58375,1,0,0:0:0:0:
320,192,58407,1,0,0:0:0:0:
192,192,58440,1,0,0:0:0:0:
64,192,58473,1,0,0:0:0:0:
448,192,58505,1,0,0:0:0:0:
192,192,58538,1,0,0:0:0:0:
320,192,58570,1,0,0:0:0:0:
448,192,58603,1,0,0:0:0:0:
64,192,58636,1,0,0:0:0:0:
192,192,58668,1,0,0:0:0:0:
320,192,58701,1,0,0:0:0:0:
448,192,58734,1,0,0:0:0:0:
192,192,58766,1,0,0:0:0:0:
64,192,58799,1,0,0:0:0:0:
320,192,58831,1,0,0:0:0:0:
448,192,58864,1,0,0:0:0:0:
192,192,58897,1,0,0:0:0:0:
64,192,58929,1,0,0:0:0:0:
320,192,58962,1,0,0:0:0:0:
448,192,58994,1,0,0:0:0:0:
192,192,59027,1,0,0:0:0:0:
320,192,59060,1,0,0:0:0:0:
64,192,59092,1,0,0:0:0:0:
192,192,59125,1,0,0:0:0:0:
320,192,59157,1,0,0:0:0:0:
448,192,59190,1,0,0:0:0:0:
64,192,59223,1,0,0:0:0:0:
320,192,59255,1,0,0:0:0:0:
192,192,59255,1,0,0:0:0:0:
64,192,59320,1,0,0:0:0:0:
320,192,59386,1,0,0:0:0:0:
448,192,59451,1,0,0:0:0:0:
192,192,59516,128,0,59581:0:0:0:0:
64,192,59516,128,0,59581:0:0:0:0:
320,192,59581,128,0,59647:0:0:0:0:
192,192,59647,128,0,59712:0:0:0:0:
64,192,59712,128,0,59777:0:0:0:0:
448,192,59777,128,0,59842:0:0:0:0:
320,192,59777,128,0,59907:0:0:0:0:
192,192,59842,128,0,59973:0:0:0:0:
448,192,59907,128,0,60038:0:0:0:0:
320,192,59973,128,0,60038:0:0:0:0:
192,192,60038,1,0,0:0:0:0:
64,192,60038,1,0,0:0:0:0:
64,192,60168,5,0,0:0:0:0:
448,192,60299,1,0,0:0:0:0:
320,192,60331,1,0,0:0:0:0:
192,192,60364,1,0,0:0:0:0:
64,192,60690,1,0,0:0:0:0:
192,192,60820,1,0,0:0:0:0:
320,192,60853,1,0,0:0:0:0:
448,192,60886,1,0,0:0:0:0:
64,192,60918,1,0,0:0:0:0:
192,192,60951,1,0,0:0:0:0:
448,192,61081,128,0,61277:0:0:0:0:
320,192,61081,128,0,61277:0:0:0:0:
64,192,61081,128,0,61277:0:0:0:0:
448,192,61342,128,0,61473:0:0:0:0:
192,192,61342,128,0,61538:0:0:0:0:
64,192,61342,128,0,61603:0:0:0:0:
448,192,61603,1,0,0:0:0:0:
320,192,61603,128,0,61690:0:0:0:0:
192,192,61647,128,0,61734:0:0:0:0:
64,192,61690,128,0,61777:0:0:0:0:
448,192,61734,128,0,61777:0:0:0:0:
320,192,61777,128,0,61820:0:0:0:0:
192,192,61820,128,0,61864:0:0:0:0:
64,192,61864,1,0,0:0:0:0:
448,192,61864,1,0,0:0:0:0:
320,192,61907,1,0,0:0:0:0:
192,192,61951,1,0,0:0:0:0:
448,192,61994,1,0,0:0:0:0:
64,192,62038,1,0,0:0:0:0:
320,192,62081,1,0,0:0:0:0:
448,192,62125,128,0,62212:0:0:0:0:
64,192,62125,128,0,62168:0:0:0:0:
192,192,62168,1,0,0:0:0:0:
320,192,62212,1,0,0:0:0:0:
64,192,62255,1,0,0:0:0:0:
64,192,62320,1,0,0:0:0:0:
320,192,62386,128,0,62473:0:0:0:0:
448,192,62386,128,0,62429:0:0:0:0:
192,192,62451,1,0,0:0:0:0:
448,192,62516,1,0,0:0:0:0:
448,192,62581,1,0,0:0:0:0:
192,192,62647,1,0,0:0:0:0:
64,192,62647,1,0,0:0:0:0:
320,192,62712,1,0,0:0:0:0:
64,192,62777,1,0,0:0:0:0:
64,192,62842,1,0,0:0:0:0:
448,192,62907,1,0,0:0:0:0:
320,192,62907,1,0,0:0:0:0:
192,192,62973,1,0,0:0:0:0:
448,192,63038,1,0,0:0:0:0:
448,192,63103,1,0,0:0:0:0:
192,192,63168,128,0,63255:0:0:0:0:
64,192,63168,128,0,63212:0:0:0:0:
320,192,63234,1,0,0:0:0:0:
64,192,63299,1,0,0:0:0:0:
64,192,63364,1,0,0:0:0:0:
320,192,63429,128,0,63516:0:0:0:0:
448,192,63429,128,0,63473:0:0:0:0:
64,192,63473,1,0,0:0:0:0:
192,192,63516,1,0,0:0:0:0:
448,192,63560,1,0,0:0:0:0:
64,192,63625,1,0,0:0:0:0:
192,192,63690,1,0,0:0:0:0:
320,192,63690,128,0,63777:0:0:0:0:
448,192,63734,128,0,63820:0:0:0:0:
64,192,63777,128,0,63820:0:0:0:0:
192,192,63820,128,0,63864:0:0:0:0:
320,192,63864,128,0,63907:0:0:0:0:
64,192,63907,128,0,63951:0:0:0:0:
448,192,63951,1,0,0:0:0:0:
192,192,63951,1,0,0:0:0:0:
320,192,63994,1,0,0:0:0:0:
64,192,64038,1,0,0:0:0:0:
192,192,64081,1,0,0:0:0:0:
448,192,64125,1,0,0:0:0:0:
320,192,64168,1,0,0:0:0:0:
192,192,64212,128,0,64299:0:0:0:0:
64,192,64212,128,0,64255:0:0:0:0:
448,192,64277,1,0,0:0:0:0:
320,192,64342,1,0,0:0:0:0:
320,192,64407,1,0,0:0:0:0:
192,192,64473,128,0,64603:0:0:0:0:
64,192,64473,1,0,0:0:0:0:
448,192,64473,128,0,64516:0:0:0:0:
320,192,64538,128,0,64668:0:0:0:0:
64,192,64603,128,0,64734:0:0:0:0:
192,192,64668,128,0,64864:0:0:0:0:
448,192,64734,1,0,0:0:0:0:
320,192,64734,128,0,64929:0:0:0:0:
64,192,64799,128,0,64929:0:0:0:0:
448,192,64864,128,0,64994:0:0:0:0:
192,192,64929,128,0,65060:0:0:0:0:
320,192,64994,1,0,0:0:0:0:
64,192,64994,128,0,65190:0:0:0:0:
448,192,65060,128,0,65190:0:0:0:0:
192,192,65125,128,0,65255:0:0:0:0:
320,192,65190,128,0,65320:0:0:0:0:
64,192,65255,1,0,0:0:0:0:
448,192,65255,128,0,65451:0:0:0:0:
192,192,65320,128,0,65451:0:0:0:0:
320,192,65386,128,0,65451:0:0:0:0:
64,192,65451,128,0,65516:0:0:0:0:
192,192,65516,128,0,65647:0:0:0:0:
320,192,65516,128,0,65712:0:0:0:0:
448,192,65516,128,0,65777:0:0:0:0:
64,192,65777,1,0,0:0:0:0:
192,192,65777,128,0,65864:0:0:0:0:
320,192,65820,128,0,65907:0:0:0:0:
448,192,65864,128,0,65951:0:0:0:0:
64,192,65907,128,0,65951:0:0:0:0:
192,192,65951,128,0,65994:0:0:0:0:
320,192,65994,128,0,66038:0:0:0:0:
448,192,66038,1,0,0:0:0:0:
64,192,66038,1,0,0:0:0:0:
192,192,66081,1,0,0:0:0:0:
320,192,66125,1,0,0:0:0:0:
64,192,66168,1,0,0:0:0:0:
448,192,66212,1,0,0:0:0:0:
192,192,66255,1,0,0:0:0:0:
64,192,66299,128,0,66386:0:0:0:0:
448,192,66299,128,0,66342:0:0:0:0:
320,192,66364,1,0,0:0:0:0:
192,192,66429,1,0,0:0:0:0:
192,192,66494,1,0,0:0:0:0:
320,192,66560,128,0,66647:0:0:0:0:
64,192,66560,128,0,66603:0:0:0:0:
448,192,66625,1,0,0:0:0:0:
64,192,66690,1,0,0:0:0:0:
64,192,66755,1,0,0:0:0:0:
448,192,66820,1,0,0:0:0:0:
320,192,66820,1,0,0:0:0:0:
192,192,66886,1,0,0:0:0:0:
320,192,66951,1,0,0:0:0:0:
320,192,67016,1,0,0:0:0:0:
448,192,67081,1,0,0:0:0:0:
64,192,67081,1,0,0:0:0:0:
192,192,67147,1,0,0:0:0:0:
448,192,67212,1,0,0:0:0:0:
448,192,67277,1,0,0:0:0:0:
192,192,67342,128,0,67429:0:0:0:0:
64,192,67342,128,0,67386:0:0:0:0:
320,192,67407,1,0,0:0:0:0:
64,192,67473,1,0,0:0:0:0:
64,192,67538,1,0,0:0:0:0:
320,192,67603,128,0,67690:0:0:0:0:
448,192,67603,128,0,67647:0:0:0:0:
64,192,67647,1,0,0:0:0:0:
192,192,67690,1,0,0:0:0:0:
448,192,67734,1,0,0:0:0:0:
64,192,67799,1,0,0:0:0:0:
320,192,67864,128,0,67951:0:0:0:0:
192,192,67864,1,0,0:0:0:0:
448,192,67907,128,0,67994:0:0:0:0:
64,192,67951,128,0,67994:0:0:0:0:
192,192,67994,128,0,68038:0:0:0:0:
320,192,68038,128,0,68081:0:0:0:0:
64,192,68081,128,0,68125:0:0:0:0:
448,192,68125,1,0,0:0:0:0:
320,192,68125,1,0,0:0:0:0:
192,192,68168,1,0,0:0:0:0:
64,192,68212,1,0,0:0:0:0:
320,192,68255,128,0,68299:0:0:0:0:
192,192,68320,1,0,0:0:0:0:
64,192,68320,1,0,0:0:0:0:
448,192,68386,1,0,0:0:0:0:
320,192,68386,1,0,0:0:0:0:
192,192,68451,1,0,0:0:0:0:
448,192,68516,1,0,0:0:0:0:
64,192,68516,1,0,0:0:0:0:
64,192,68581,1,0,0:0:0:0:
320,192,68581,1,0,0:0:0:0:
192,192,68647,1,0,0:0:0:0:
448,192,68647,1,0,0:0:0:0:
64,192,68690,1,0,0:0:0:0:
320,192,68734,1,0,0:0:0:0:
192,192,68777,1,0,0:0:0:0:
448,192,68820,1,0,0:0:0:0:
320,192,68864,1,0,0:0:0:0:
64,192,68907,1,0,0:0:0:0:
192,192,68973,1,0,0:0:0:0:
448,192,69038,1,0,0:0:0:0:
320,192,69038,1,0,0:0:0:0:
192,192,69081,1,0,0:0:0:0:
64,192,69125,1,0,0:0:0:0:
320,192,69168,1,0,0:0:0:0:
192,192,69212,1,0,0:0:0:0:
448,192,69255,1,0,0:0:0:0:
64,192,69299,1,0,0:0:0:0:
192,192,69342,1,0,0:0:0:0:
320,192,69386,1,0,0:0:0:0:
64,192,69429,128,0,69647:0:0:0:0:
448,192,69429,128,0,69647:0:0:0:0:
192,192,69690,1,0,0:0:0:0:
64,192,69690,1,0,0:0:0:0:
448,192,69690,1,0,0:0:0:0:
64,192,69755,1,0,0:0:0:0:
448,192,69820,1,0,0:0:0:0:
320,192,69820,1,0,0:0:0:0:
448,192,69886,1,0,0:0:0:0:
192,192,69951,128,0,70038:0:0:0:0:
64,192,69951,1,0,0:0:0:0:
320,192,69994,128,0,70081:0:0:0:0:
448,192,70038,128,0,70125:0:0:0:0:
64,192,70081,128,0,70125:0:0:0:0:
192,192,70125,128,0,70168:0:0:0:0:
320,192,70168,128,0,70212:0:0:0:0:
64,192,70212,1,0,0:0:0:0:
448,192,70212,1,0,0:0:0:0:
192,192,70255,1,0,0:0:0:0:
320,192,70299,1,0,0:0:0:0:
64,192,70342,1,0,0:0:0:0:
448,192,70386,1,0,0:0:0:0:
192,192,70429,1,0,0:0:0:0:
448,192,70473,128,0,70516:0:0:0:0:
64,192,70473,128,0,70560:0:0:0:0:
320,192,70516,1,0,0:0:0:0:
192,192,70560,1,0,0:0:0:0:
448,192,70603,1,0,0:0:0:0:
448,192,70668,1,0,0:0:0:0:
64,192,70734,128,0,70777:0:0:0:0:
192,192,70734,128,0,70820:0:0:0:0:
320,192,70799,1,0,0:0:0:0:
64,192,70864,1,0,0:0:0:0:
64,192,70929,1,0,0:0:0:0:
448,192,70994,1,0,0:0:0:0:
320,192,70994,1,0,0:0:0:0:
192,192,71060,1,0,0:0:0:0:
448,192,71125,1,0,0:0:0:0:
448,192,71190,1,0,0:0:0:0:
192,192,71255,1,0,0:0:0:0:
64,192,71255,1,0,0:0:0:0:
320,192,71320,1,0,0:0:0:0:
64,192,71386,1,0,0:0:0:0:
64,192,71451,1,0,0:0:0:0:
448,192,71516,128,0,71560:0:0:0:0:
320,192,71516,128,0,71603:0:0:0:0:
192,192,71581,1,0,0:0:0:0:
448,192,71647,1,0,0:0:0:0:
448,192,71712,1,0,0:0:0:0:
64,192,71777,128,0,71820:0:0:0:0:
192,192,71777,128,0,71864:0:0:0:0:
448,192,71820,1,0,0:0:0:0:
320,192,71864,1,0,0:0:0:0:
64,192,71907,1,0,0:0:0:0:
448,192,71973,1,0,0:0:0:0:
192,192,72038,128,0,72125:0:0:0:0:
320,192,72038,1,0,0:0:0:0:
64,192,72081,128,0,72168:0:0:0:0:
448,192,72125,128,0,72168:0:0:0:0:
320,192,72168,128,0,72212:0:0:0:0:
192,192,72212,128,0,72255:0:0:0:0:
448,192,72255,128,0,72299:0:0:0:0:
320,192,72299,1,0,0:0:0:0:
64,192,72299,1,0,0:0:0:0:
192,192,72342,1,0,0:0:0:0:
448,192,72386,1,0,0:0:0:0:
320,192,72429,1,0,0:0:0:0:
64,192,72473,1,0,0:0:0:0:
192,192,72516,1,0,0:0:0:0:
448,192,72560,128,0,72603:0:0:0:0:
320,192,72560,128,0,72647:0:0:0:0:
64,192,72625,1,0,0:0:0:0:
192,192,72690,1,0,0:0:0:0:
192,192,72755,1,0,0:0:0:0:
64,192,72820,128,0,72864:0:0:0:0:
448,192,72820,1,0,0:0:0:0:
320,192,72820,128,0,72951:0:0:0:0:
192,192,72886,128,0,73016:0:0:0:0:
448,192,72951,128,0,73081:0:0:0:0:
320,192,73016,128,0,73212:0:0:0:0:
192,192,73081,128,0,73277:0:0:0:0:
64,192,73081,1,0,0:0:0:0:
448,192,73147,128,0,73277:0:0:0:0:
64,192,73212,128,0,73342:0:0:0:0:
320,192,73277,128,0,73407:0:0:0:0:
448,192,73342,128,0,73538:0:0:0:0:
192,192,73342,1,0,0:0:0:0:
64,192,73407,128,0,73538:0:0:0:0:
320,192,73473,128,0,73603:0:0:0:0:
192,192,73538,128,0,73668:0:0:0:0:
64,192,73603,128,0,73799:0:0:0:0:
448,192,73603,1,0,0:0:0:0:
320,192,73668,128,0,73799:0:0:0:0:
192,192,73734,128,0,73799:0:0:0:0:
448,192,73799,128,0,73864:0:0:0:0:
64,192,73864,1,0,0:0:0:0:
192,192,73864,128,0,73929:0:0:0:0:
320,192,73864,128,0,73929:0:0:0:0:
64,192,73994,1,0,0:0:0:0:
320,192,73994,128,0,74060:0:0:0:0:
192,192,73994,128,0,74060:0:0:0:0:
64,192,74125,1,0,0:0:0:0:
192,192,74125,128,0,74190:0:0:0:0:
320,192,74125,128,0,74190:0:0:0:0:
192,192,74255,128,0,74320:0:0:0:0:
320,192,74255,128,0,74320:0:0:0:0:
64,192,74255,1,0,0:0:0:0:
448,192,74299,1,0,0:0:0:0:
64,192,74342,1,0,0:0:0:0:
192,192,74386,1,0,0:0:0:0:
320,192,74429,1,0,0:0:0:0:
64,192,74473,1,0,0:0:0:0:
192,192,74516,1,0,0:0:0:0:
320,192,74516,128,0,74581:0:0:0:0:
448,192,74516,128,0,74581:0:0:0:0:
192,192,74647,1,0,0:0:0:0:
448,192,74647,128,0,74712:0:0:0:0:
320,192,74647,128,0,74712:0:0:0:0:
64,192,74712,1,0,0:0:0:0:
192,192,74777,1,0,0:0:0:0:
320,192,74777,128,0,74842:0:0:0:0:
448,192,74777,128,0,74842:0:0:0:0:
64,192,74842,1,0,0:0:0:0:
448,192,74907,1,0,0:0:0:0:
192,192,74907,128,0,74973:0:0:0:0:
320,192,74907,128,0,74973:0:0:0:0:
448,192,74973,1,0,0:0:0:0:
64,192,75038,1,0,0:0:0:0:
64,192,75103,1,0,0:0:0:0:
448,192,75168,1,0,0:0:0:0:
320,192,75168,1,0,0:0:0:0:
192,192,75234,1,0,0:0:0:0:
64,192,75234,1,0,0:0:0:0:
320,192,75299,1,0,0:0:0:0:
448,192,75299,1,0,0:0:0:0:
192,192,75364,1,0,0:0:0:0:
448,192,75429,1,0,0:0:0:0:
320,192,75494,1,0,0:0:0:0:
192,192,75560,1,0,0:0:0:0:
64,192,75560,1,0,0:0:0:0:
448,192,75625,1,0,0:0:0:0:
320,192,75625,1,0,0:0:0:0:
192,192,75690,1,0,0:0:0:0:
64,192,75690,1,0,0:0:0:0:
448,192,75755,1,0,0:0:0:0:
320,192,75820,1,0,0:0:0:0:
320,192,75886,1,0,0:0:0:0:
192,192,75951,1,0,0:0:0:0:
64,192,75951,128,0,76016:0:0:0:0:
448,192,75951,128,0,76016:0:0:0:0:
192,192,76081,1,0,0:0:0:0:
448,192,76081,128,0,76147:0:0:0:0:
64,192,76081,128,0,76147:0:0:0:0:
192,192,76212,1,0,0:0:0:0:
64,192,76212,128,0,76277:0:0:0:0:
448,192,76212,128,0,76277:0:0:0:0:
64,192,76342,1,0,0:0:0:0:
192,192,76342,128,0,76407:0:0:0:0:
448,192,76342,128,0,76407:0:0:0:0:
320,192,76386,1,0,0:0:0:0:
64,192,76429,1,0,0:0:0:0:
448,192,76473,1,0,0:0:0:0:
320,192,76516,1,0,0:0:0:0:
192,192,76560,1,0,0:0:0:0:
64,192,76603,1,0,0:0:0:0:
320,192,76603,128,0,76668:0:0:0:0:
448,192,76603,128,0,76668:0:0:0:0:
448,192,76734,128,0,76799:0:0:0:0:
320,192,76734,128,0,76799:0:0:0:0:
192,192,76799,1,0,0:0:0:0:
64,192,76799,1,0,0:0:0:0:
320,192,76864,128,0,76929:0:0:0:0:
448,192,76864,128,0,76929:0:0:0:0:
448,192,76994,1,0,0:0:0:0:
192,192,76994,128,0,77386:0:0:0:0:
64,192,76994,128,0,77516:0:0:0:0:
448,192,77125,128,0,77157:0:0:0:0:
448,192,77255,128,0,77288:0:0:0:0:
448,192,77386,128,0,77451:0:0:0:0:
320,192,77516,1,0,0:0:0:0:
448,192,77516,128,0,77581:0:0:0:0:
192,192,77581,1,0,0:0:0:0:
64,192,77581,1,0,0:0:0:0:
320,192,77647,1,0,0:0:0:0:
448,192,77647,128,0,77712:0:0:0:0:
192,192,77712,1,0,0:0:0:0:
64,192,77777,128,0,77973:0:0:0:0:
448,192,77777,128,0,77973:0:0:0:0:
320,192,78038,1,0,0:0:0:0:
448,192,78038,128,0,78168:0:0:0:0:
64,192,78038,128,0,78103:0:0:0:0:
192,192,78103,1,0,0:0:0:0:
320,192,78168,1,0,0:0:0:0:
448,192,78234,1,0,0:0:0:0:
64,192,78299,128,0,78364:0:0:0:0:
192,192,78299,1,0,0:0:0:0:
320,192,78364,1,0,0:0:0:0:
448,192,78429,128,0,78494:0:0:0:0:
192,192,78494,1,0,0:0:0:0:
448,192,78560,1,0,0:0:0:0:
64,192,78560,128,0,78625:0:0:0:0:
320,192,78625,1,0,0:0:0:0:
192,192,78690,128,0,78755:0:0:0:0:
448,192,78755,1,0,0:0:0:0:
320,192,78820,128,0,78886:0:0:0:0:
64,192,78820,128,0,78951:0:0:0:0:
192,192,78886,1,0,0:0:0:0:
448,192,78951,128,0,79016:0:0:0:0:
64,192,79016,1,0,0:0:0:0:
320,192,79081,128,0,79147:0:0:0:0:
448,192,79081,128,0,79212:0:0:0:0:
192,192,79147,1,0,0:0:0:0:
64,192,79212,1,0,0:0:0:0:
320,192,79277,1,0,0:0:0:0:
448,192,79342,1,0,0:0:0:0:
64,192,79342,128,0,79407:0:0:0:0:
192,192,79407,1,0,0:0:0:0:
320,192,79473,128,0,79538:0:0:0:0:
64,192,79538,1,0,0:0:0:0:
192,192,79603,1,0,0:0:0:0:
448,192,79603,128,0,79668:0:0:0:0:
320,192,79668,1,0,0:0:0:0:
64,192,79734,128,0,79799:0:0:0:0:
448,192,79799,1,0,0:0:0:0:
192,192,79864,128,0,79994:0:0:0:0:
320,192,79864,128,0,79929:0:0:0:0:
64,192,79929,1,0,0:0:0:0:
448,192,79994,128,0,80060:0:0:0:0:
320,192,80060,1,0,0:0:0:0:
192,192,80125,128,0,80190:0:0:0:0:
64,192,80125,128,0,80255:0:0:0:0:
320,192,80190,1,0,0:0:0:0:
448,192,80255,1,0,0:0:0:0:
64,192,80320,1,0,0:0:0:0:
192,192,80386,1,0,0:0:0:0:
320,192,80386,128,0,80451:0:0:0:0:
448,192,80451,1,0,0:0:0:0:
64,192,80516,128,0,80581:0:0:0:0:
192,192,80581,1,0,0:0:0:0:
320,192,80647,1,0,0:0:0:0:
448,192,80647,128,0,80712:0:0:0:0:
192,192,80712,1,0,0:0:0:0:
64,192,80777,128,0,80842:0:0:0:0:
448,192,80842,1,0,0:0:0:0:
192,192,80907,128,0,80973:0:0:0:0:
320,192,80907,128,0,81038:0:0:0:0:
64,192,80973,1,0,0:0:0:0:
448,192,81038,128,0,81103:0:0:0:0:
320,192,81103,1,0,0:0:0:0:
192,192,81168,128,0,81234:0:0:0:0:
64,192,81168,128,0,81299:0:0:0:0:
320,192,81234,1,0,0:0:0:0:
448,192,81299,128,0,81364:0:0:0:0:
192,192,81364,1,0,0:0:0:0:
448,192,81429,128,0,81560:0:0:0:0:
64,192,81429,128,0,81494:0:0:0:0:
320,192,81494,1,0,0:0:0:0:
192,192,81560,128,0,81625:0:0:0:0:
448,192,81625,1,0,0:0:0:0:
64,192,81690,128,0,81820:0:0:0:0:
320,192,81690,128,0,81755:0:0:0:0:
192,192,81755,1,0,0:0:0:0:
448,192,81820,128,0,81886:0:0:0:0:
320,192,81886,1,0,0:0:0:0:
192,192,81951,128,0,82081:0:0:0:0:
64,192,81951,128,0,82016:0:0:0:0:
320,192,82016,1,0,0:0:0:0:
448,192,82081,1,0,0:0:0:0:
64,192,82147,1,0,0:0:0:0:
320,192,82212,128,0,82342:0:0:0:0:
192,192,82212,128,0,82277:0:0:0:0:
448,192,82277,1,0,0:0:0:0:
64,192,82342,1,0,0:0:0:0:
320,192,82407,1,0,0:0:0:0:
448,192,82473,1,0,0:0:0:0:
64,192,82473,128,0,82538:0:0:0:0:
192,192,82538,1,0,0:0:0:0:
320,192,82603,128,0,82668:0:0:0:0:
64,192,82668,1,0,0:0:0:0:
192,192,82734,1,0,0:0:0:0:
448,192,82734,128,0,82799:0:0:0:0:
320,192,82799,1,0,0:0:0:0:
192,192,82864,128,0,82929:0:0:0:0:
64,192,82929,1,0,0:0:0:0:
448,192,82994,128,0,83125:0:0:0:0:
320,192,82994,128,0,83060:0:0:0:0:
192,192,83060,1,0,0:0:0:0:
64,192,83125,128,0,83190:0:0:0:0:
448,192,83190,1,0,0:0:0:0:
192,192,83255,128,0,83386:0:0:0:0:
64,192,83255,128,0,83320:0:0:0:0:
320,192,83320,1,0,0:0:0:0:
64,192,83386,1,0,0:0:0:0:
192,192,83451,1,0,0:0:0:0:
448,192,83516,1,0,0:0:0:0:
320,192,83516,128,0,83581:0:0:0:0:
192,192,83581,1,0,0:0:0:0:
64,192,83647,128,0,83712:0:0:0:0:
448,192,83712,1,0,0:0:0:0:
320,192,83777,1,0,0:0:0:0:
192,192,83777,128,0,83842:0:0:0:0:
64,192,83842,1,0,0:0:0:0:
448,192,83907,128,0,83973:0:0:0:0:
192,192,83973,1,0,0:0:0:0:
64,192,84038,128,0,84103:0:0:0:0:
448,192,84038,128,0,84168:0:0:0:0:
320,192,84103,1,0,0:0:0:0:
192,192,84168,128,0,84234:0:0:0:0:
448,192,84234,1,0,0:0:0:0:
64,192,84299,128,0,84429:0:0:0:0:
320,192,84299,128,0,84364:0:0:0:0:
192,192,84364,1,0,0:0:0:0:
448,192,84429,1,0,0:0:0:0:
64,192,84494,1,0,0:0:0:0:
192,192,84560,1,0,0:0:0:0:
320,192,84560,128,0,84625:0:0:0:0:
448,192,84625,1,0,0:0:0:0:
64,192,84690,128,0,84755:0:0:0:0:
320,192,84755,1,0,0:0:0:0:
64,192,84820,1,0,0:0:0:0:
448,192,84820,128,0,84886:0:0:0:0:
192,192,84886,1,0,0:0:0:0:
320,192,84951,128,0,85016:0:0:0:0:
192,192,85016,1,0,0:0:0:0:
64,192,85016,1,0,0:0:0:0:
320,192,85081,128,0,85212:0:0:0:0:
448,192,85081,128,0,85147:0:0:0:0:
64,192,85147,1,0,0:0:0:0:
448,192,85212,1,0,0:0:0:0:
192,192,85212,128,0,85277:0:0:0:0:
320,192,85277,1,0,0:0:0:0:
64,192,85342,128,0,85603:0:0:0:0:
448,192,85342,128,0,85603:0:0:0:0:
192,192,85342,128,0,85603:0:0:0:0:
64,192,85734,128,0,85864:0:0:0:0:
320,192,85734,128,0,85864:0:0:0:0:
192,192,85734,128,0,85864:0:0:0:0:
64,192,85929,128,0,86060:0:0:0:0:
192,192,85929,128,0,86060:0:0:0:0:
320,192,85929,128,0,86060:0:0:0:0:
64,192,86125,128,0,86320:0:0:0:0:
320,192,86125,128,0,86320:0:0:0:0:
448,192,86125,128,0,86320:0:0:0:0:
192,192,86255,128,0,86386:0:0:0:0:
64,192,86386,1,0,0:0:0:0:
448,192,86386,1,0,0:0:0:0:
448,192,86451,1,0,0:0:0:0:
192,192,86516,1,0,0:0:0:0:
192,192,86581,1,0,0:0:0:0:
448,192,86647,128,0,86712:0:0:0:0:
320,192,86647,1,0,0:0:0:0:
64,192,86647,1,0,0:0:0:0:
192,192,86712,1,0,0:0:0:0:
64,192,86777,128,0,86842:0:0:0:0:
320,192,86842,1,0,0:0:0:0:
64,192,86907,1,0,0:0:0:0:
448,192,86907,128,0,86973:0:0:0:0:
192,192,86973,1,0,0:0:0:0:
320,192,87038,128,0,87103:0:0:0:0:
64,192,87103,1,0,0:0:0:0:
192,192,87168,128,0,87234:0:0:0:0:
448,192,87168,128,0,87299:0:0:0:0:
320,192,87234,1,0,0:0:0:0:
64,192,87299,128,0,87364:0:0:0:0:
448,192,87364,1,0,0:0:0:0:
192,192,87429,128,0,87494:0:0:0:0:
64,192,87429,128,0,87560:0:0:0:0:
320,192,87494,1,0,0:0:0:0:
448,192,87560,1,0,0:0:0:0:
192,192,87625,1,0,0:0:0:0:
64,192,87690,1,0,0:0:0:0:
448,192,87690,128,0,87755:0:0:0:0:
320,192,87755,1,0,0:0:0:0:
192,192,87820,128,0,87886:0:0:0:0:
448,192,87886,1,0,0:0:0:0:
320,192,87951,1,0,0:0:0:0:
64,192,87951,128,0,88016:0:0:0:0:
192,192,88016,1,0,0:0:0:0:
448,192,88081,128,0,88147:0:0:0:0:
64,192,88147,1,0,0:0:0:0:
320,192,88212,128,0,88342:0:0:0:0:
192,192,88212,128,0,88277:0:0:0:0:
448,192,88277,1,0,0:0:0:0:
64,192,88342,128,0,88407:0:0:0:0:
192,192,88407,1,0,0:0:0:0:
320,192,88473,128,0,88538:0:0:0:0:
448,192,88473,128,0,88603:0:0:0:0:
192,192,88538,1,0,0:0:0:0:
64,192,88603,1,0,0:0:0:0:
448,192,88668,1,0,0:0:0:0:
320,192,88734,1,0,0:0:0:0:
192,192,88734,128,0,88799:0:0:0:0:
64,192,88799,1,0,0:0:0:0:
448,192,88864,128,0,88929:0:0:0:0:
320,192,88929,1,0,0:0:0:0:
192,192,88994,1,0,0:0:0:0:
64,192,88994,128,0,89060:0:0:0:0:
320,192,89060,1,0,0:0:0:0:
448,192,89125,128,0,89190:0:0:0:0:
64,192,89190,1,0,0:0:0:0:
320,192,89255,128,0,89320:0:0:0:0:
192,192,89255,128,0,89386:0:0:0:0:
448,192,89320,1,0,0:0:0:0:
64,192,89386,128,0,89451:0:0:0:0:
192,192,89451,1,0,0:0:0:0:
320,192,89516,128,0,89581:0:0:0:0:
448,192,89516,128,0,89647:0:0:0:0:
192,192,89581,1,0,0:0:0:0:
64,192,89647,128,0,89712:0:0:0:0:
320,192,89712,1,0,0:0:0:0:
64,192,89777,128,0,89907:0:0:0:0:
448,192,89777,128,0,89842:0:0:0:0:
192,192,89842,1,0,0:0:0:0:
320,192,89907,128,0,89973:0:0:0:0:
64,192,89973,1,0,0:0:0:0:
448,192,90038,128,0,90168:0:0:0:0:
192,192,90038,128,0,90103:0:0:0:0:
320,192,90103,1,0,0:0:0:0:
64,192,90168,128,0,90234:0:0:0:0:
192,192,90234,1,0,0:0:0:0:
320,192,90299,128,0,90429:0:0:0:0:
448,192,90299,128,0,90364:0:0:0:0:
192,192,90364,1,0,0:0:0:0:
64,192,90429,1,0,0:0:0:0:
448,192,90494,1,0,0:0:0:0:
192,192,90560,128,0,90690:0:0:0:0:
320,192,90560,128,0,90625:0:0:0:0:
64,192,90625,1,0,0:0:0:0:
448,192,90690,1,0,0:0:0:0:
192,192,90755,1,0,0:0:0:0:
64,192,90820,1,0,0:0:0:0:
448,192,90820,128,0,90886:0:0:0:0:
320,192,90886,1,0,0:0:0:0:
192,192,90951,128,0,91016:0:0:0:0:
448,192,91016,1,0,0:0:0:0:
320,192,91081,1,0,0:0:0:0:
64,192,91081,128,0,91147:0:0:0:0:
192,192,91147,1,0,0:0:0:0:
320,192,91212,128,0,91277:0:0:0:0:
448,192,91277,1,0,0:0:0:0:
64,192,91342,128,0,91473:0:0:0:0:
192,192,91342,128,0,91407:0:0:0:0:
320,192,91407,1,0,0:0:0:0:
448,192,91473,128,0,91538:0:0:0:0:
64,192,91538,1,0,0:0:0:0:
320,192,91603,128,0,91734:0:0:0:0:
448,192,91603,128,0,91668:0:0:0:0:
192,192,91668,1,0,0:0:0:0:
448,192,91734,1,0,0:0:0:0:
320,192,91799,1,0,0:0:0:0:
64,192,91864,1,0,0:0:0:0:
192,192,91864,128,0,91929:0:0:0:0:
320,192,91929,1,0,0:0:0:0:
448,192,91994,128,0,92060:0:0:0:0:
64,192,92060,1,0,0:0:0:0:
192,192,92125,1,0,0:0:0:0:
320,192,92125,128,0,92190:0:0:0:0:
448,192,92190,1,0,0:0:0:0:
64,192,92255,128,0,92320:0:0:0:0:
448,192,92320,1,0,0:0:0:0:
64,192,92386,128,0,92516:0:0:0:0:
320,192,92386,128,0,92451:0:0:0:0:
192,192,92451,1,0,0:0:0:0:
448,192,92516,128,0,92581:0:0:0:0:
320,192,92581,1,0,0:0:0:0:
192,192,92647,128,0,92712:0:0:0:0:
64,192,92647,128,0,92712:0:0:0:0:
448,192,92647,1,0,0:0:0:0:
320,192,92712,1,0,0:0:0:0:
192,192,92777,128,0,92842:0:0:0:0:
64,192,92777,128,0,92842:0:0:0:0:
448,192,92842,1,0,0:0:0:0:
64,192,92907,1,0,0:0:0:0:
320,192,92973,1,0,0:0:0:0:
192,192,93038,128,0,93103:0:0:0:0:
64,192,93038,128,0,93103:0:0:0:0:
448,192,93103,1,0,0:0:0:0:
320,192,93103,1,0,0:0:0:0:
192,192,93168,1,0,0:0:0:0:
64,192,93168,1,0,0:0:0:0:
448,192,93234,1,0,0:0:0:0:
192,192,93299,128,0,93364:0:0:0:0:
64,192,93299,128,0,93364:0:0:0:0:
320,192,93364,1,0,0:0:0:0:
192,192,93429,1,0,0:0:0:0:
64,192,93494,1,0,0:0:0:0:
320,192,93560,128,0,93625:0:0:0:0:
448,192,93560,128,0,93625:0:0:0:0:
192,192,93625,128,0,93690:0:0:0:0:
64,192,93625,128,0,93690:0:0:0:0:
320,192,93690,1,0,0:0:0:0:
448,192,93690,128,0,94212:0:0:0:0:
64,192,93820,128,0,94081:0:0:0:0:
192,192,93951,128,0,94212:0:0:0:0:
320,192,94081,128,0,94342:0:0:0:0:
64,192,94212,128,0,94668:0:0:0:0:
192,192,94342,128,0,94668:0:0:0:0:
448,192,94473,128,0,94668:0:0:0:0:
320,192,94603,128,0,94668:0:0:0:0:
64,192,94734,1,0,0:0:0:0:
192,192,94734,1,0,0:0:0:0:
448,192,94734,1,0,0:0:0:0:
320,192,94799,1,0,0:0:0:0:
192,192,94864,128,0,94929:0:0:0:0:
448,192,94929,128,0,94994:0:0:0:0:
64,192,94994,128,0,95125:0:0:0:0:
192,192,94994,128,0,95125:0:0:0:0:
320,192,95060,1,0,0:0:0:0:
448,192,95125,1,0,0:0:0:0:
192,192,95190,1,0,0:0:0:0:
64,192,95255,128,0,95386:0:0:0:0:
320,192,95255,128,0,95386:0:0:0:0:
448,192,95320,1,0,0:0:0:0:
192,192,95386,1,0,0:0:0:0:
64,192,95451,1,0,0:0:0:0:
192,192,95516,128,0,95647:0:0:0:0:
448,192,95516,128,0,95647:0:0:0:0:
320,192,95581,1,0,0:0:0:0:
64,192,95647,1,0,0:0:0:0:
192,192,95712,1,0,0:0:0:0:
448,192,95777,128,0,95907:0:0:0:0:
320,192,95777,128,0,95907:0:0:0:0:
64,192,95842,1,0,0:0:0:0:
192,192,95907,1,0,0:0:0:0:
448,192,95973,1,0,0:0:0:0:
64,192,96038,128,0,96168:0:0:0:0:
192,192,96038,128,0,96168:0:0:0:0:
320,192,96103,1,0,0:0:0:0:
448,192,96168,128,0,96299:0:0:0:0:
192,192,96234,1,0,0:0:0:0:
64,192,96299,128,0,96429:0:0:0:0:
320,192,96299,128,0,96429:0:0:0:0:
448,192,96364,1,0,0:0:0:0:
192,192,96429,128,0,96560:0:0:0:0:
320,192,96560,128,0,96690:0:0:0:0:
448,192,96560,128,0,96690:0:0:0:0:
192,192,96625,1,0,0:0:0:0:
64,192,96690,1,0,0:0:0:0:
448,192,96755,1,0,0:0:0:0:
192,192,96820,1,0,0:0:0:0:
64,192,96820,128,0,96886:0:0:0:0:
320,192,96886,1,0,0:0:0:0:
192,192,96951,128,0,97081:0:0:0:0:
64,192,97016,1,0,0:0:0:0:
320,192,97081,128,0,97212:0:0:0:0:
448,192,97081,128,0,97212:0:0:0:0:
192,192,97147,1,0,0:0:0:0:
64,192,97212,1,0,0:0:0:0:
320,192,97277,1,0,0:0:0:0:
448,192,97342,128,0,97473:0:0:0:0:
192,192,97342,128,0,97473:0:0:0:0:
64,192,97407,1,0,0:0:0:0:
320,192,97473,1,0,0:0:0:0:
448,192,97538,1,0,0:0:0:0:
64,192,97603,128,0,97734:0:0:0:0:
192,192,97603,128,0,97734:0:0:0:0:
320,192,97668,1,0,0:0:0:0:
448,192,97734,1,0,0:0:0:0:
64,192,97799,1,0,0:0:0:0:
320,192,97864,128,0,97994:0:0:0:0:
448,192,97864,128,0,97994:0:0:0:0:
192,192,97929,1,0,0:0:0:0:
64,192,97994,1,0,0:0:0:0:
448,192,98060,1,0,0:0:0:0:
192,192,98125,128,0,98255:0:0:0:0:
320,192,98125,128,0,98255:0:0:0:0:
64,192,98190,1,0,0:0:0:0:
448,192,98255,128,0,98386:0:0:0:0:
320,192,98320,1,0,0:0:0:0:
192,192,98386,1,0,0:0:0:0:
64,192,98386,1,0,0:0:0:0:
320,192,98451,1,0,0:0:0:0:
64,192,98516,128,0,98647:0:0:0:0:
448,192,98581,1,0,0:0:0:0:
320,192,98647,128,0,98777:0:0:0:0:
192,192,98647,128,0,98777:0:0:0:0:
64,192,98712,1,0,0:0:0:0:
448,192,98777,128,0,98907:0:0:0:0:
192,192,98842,1,0,0:0:0:0:
320,192,98907,1,0,0:0:0:0:
64,192,98907,128,0,98973:0:0:0:0:
448,192,98973,1,0,0:0:0:0:
192,192,99038,128,0,99103:0:0:0:0:
320,192,99103,128,0,99168:0:0:0:0:
64,192,99168,128,0,99299:0:0:0:0:
448,192,99168,128,0,99299:0:0:0:0:
192,192,99234,1,0,0:0:0:0:
320,192,99299,1,0,0:0:0:0:
448,192,99364,1,0,0:0:0:0:
320,192,99429,128,0,99560:0:0:0:0:
64,192,99429,128,0,99560:0:0:0:0:
448,192,99494,1,0,0:0:0:0:
192,192,99560,1,0,0:0:0:0:
64,192,99625,1,0,0:0:0:0:
192,192,99690,128,0,99820:0:0:0:0:
320,192,99690,128,0,99820:0:0:0:0:
448,192,99755,1,0,0:0:0:0:
64,192,99820,1,0,0:0:0:0:
192,192,99886,1,0,0:0:0:0:
448,192,99951,128,0,100081:0:0:0:0:
64,192,99951,128,0,100081:0:0:0:0:
320,192,100016,1,0,0:0:0:0:
192,192,100081,1,0,0:0:0:0:
448,192,100147,1,0,0:0:0:0:
320,192,100212,128,0,100342:0:0:0:0:
64,192,100212,128,0,100342:0:0:0:0:
192,192,100277,1,0,0:0:0:0:
448,192,100342,128,0,100473:0:0:0:0:
320,192,100407,1,0,0:0:0:0:
64,192,100473,128,0,100603:0:0:0:0:
192,192,100473,128,0,100603:0:0:0:0:
448,192,100538,1,0,0:0:0:0:
320,192,100603,128,0,100734:0:0:0:0:
192,192,100668,1,0,0:0:0:0:
448,192,100734,128,0,100864:0:0:0:0:
64,192,100734,128,0,100864:0:0:0:0:
320,192,100799,1,0,0:0:0:0:
192,192,100864,1,0,0:0:0:0:
64,192,100929,1,0,0:0:0:0:
448,192,100994,128,0,101060:0:0:0:0:
320,192,100994,1,0,0:0:0:0:
192,192,101060,1,0,0:0:0:0:
64,192,101125,128,0,101255:0:0:0:0:
448,192,101190,1,0,0:0:0:0:
192,192,101255,128,0,101386:0:0:0:0:
320,192,101255,128,0,101386:0:0:0:0:
64,192,101320,1,0,0:0:0:0:
448,192,101386,1,0,0:0:0:0:
192,192,101451,1,0,0:0:0:0:
320,192,101516,128,0,101647:0:0:0:0:
448,192,101516,128,0,101647:0:0:0:0:
64,192,101581,1,0,0:0:0:0:
192,192,101647,1,0,0:0:0:0:
320,192,101712,1,0,0:0:0:0:
64,192,101777,128,0,101907:0:0:0:0:
448,192,101777,128,0,101907:0:0:0:0:
192,192,101842,1,0,0:0:0:0:
320,192,101907,1,0,0:0:0:0:
448,192,101973,1,0,0:0:0:0:
192,192,102038,128,0,102168:0:0:0:0:
64,192,102038,128,0,102168:0:0:0:0:
448,192,102103,1,0,0:0:0:0:
320,192,102168,1,0,0:0:0:0:
64,192,102234,1,0,0:0:0:0:
320,192,102299,128,0,102429:0:0:0:0:
448,192,102299,128,0,102429:0:0:0:0:
64,192,102364,1,0,0:0:0:0:
192,192,102429,128,0,102560:0:0:0:0:
320,192,102494,1,0,0:0:0:0:
64,192,102560,128,0,102690:0:0:0:0:
448,192,102560,128,0,102690:0:0:0:0:
320,192,102625,1,0,0:0:0:0:
192,192,102690,1,0,0:0:0:0:
448,192,102755,1,0,0:0:0:0:
320,192,102820,128,0,102886:0:0:0:0:
64,192,102820,128,0,102886:0:0:0:0:
192,192,102886,1,0,0:0:0:0:
448,192,102951,1,0,0:0:0:0:
192,192,103016,1,0,0:0:0:0:
64,192,103081,1,0,0:0:0:0:
320,192,103081,1,0,0:0:0:0:
448,192,103081,1,0,0:0:0:0:
192,192,103147,1,0,0:0:0:0:
320,192,103212,128,0,103277:0:0:0:0:
64,192,103277,128,0,103342:0:0:0:0:
320,192,103342,128,0,103473:0:0:0:0:
448,192,103342,128,0,103473:0:0:0:0:
192,192,103407,1,0,0:0:0:0:
64,192,103473,1,0,0:0:0:0:
320,192,103538,1,0,0:0:0:0:
192,192,103603,128,0,103734:0:0:0:0:
448,192,103603,128,0,103734:0:0:0:0:
64,192,103668,1,0,0:0:0:0:
320,192,103734,1,0,0:0:0:0:
448,192,103799,1,0,0:0:0:0:
64,192,103864,128,0,103994:0:0:0:0:
320,192,103864,128,0,103994:0:0:0:0:
192,192,103929,1,0,0:0:0:0:
448,192,103994,1,0,0:0:0:0:
320,192,104060,1,0,0:0:0:0:
192,192,104125,128,0,104255:0:0:0:0:
64,192,104125,128,0,104255:0:0:0:0:
448,192,104190,1,0,0:0:0:0:
320,192,104255,1,0,0:0:0:0:
64,192,104320,1,0,0:0:0:0:
320,192,104386,128,0,104516:0:0:0:0:
448,192,104386,128,0,104516:0:0:0:0:
192,192,104451,1,0,0:0:0:0:
64,192,104516,128,0,104647:0:0:0:0:
320,192,104581,1,0,0:0:0:0:
192,192,104647,128,0,104777:0:0:0:0:
448,192,104647,128,0,104777:0:0:0:0:
64,192,104712,1,0,0:0:0:0:
320,192,104777,128,0,104907:0:0:0:0:
64,192,104907,128,0,105038:0:0:0:0:
192,192,104907,128,0,105038:0:0:0:0:
320,192,104973,1,0,0:0:0:0:
448,192,105038,1,0,0:0:0:0:
64,192,105103,1,0,0:0:0:0:
448,192,105168,128,0,105234:0:0:0:0:
320,192,105168,1,0,0:0:0:0:
192,192,105234,1,0,0:0:0:0:
320,192,105299,128,0,105429:0:0:0:0:
448,192,105364,1,0,0:0:0:0:
64,192,105429,128,0,105560:0:0:0:0:
192,192,105429,128,0,105560:0:0:0:0:
320,192,105494,1,0,0:0:0:0:
448,192,105560,1,0,0:0:0:0:
192,192,105625,1,0,0:0:0:0:
320,192,105690,128,0,105820:0:0:0:0:
64,192,105690,128,0,105820:0:0:0:0:
448,192,105755,1,0,0:0:0:0:
192,192,105820,1,0,0:0:0:0:
64,192,105886,1,0,0:0:0:0:
320,192,105951,128,0,106081:0:0:0:0:
448,192,105951,128,0,106081:0:0:0:0:
192,192,106016,1,0,0:0:0:0:
64,192,106081,1,0,0:0:0:0:
448,192,106147,1,0,0:0:0:0:
64,192,106212,128,0,106342:0:0:0:0:
192,192,106212,128,0,106342:0:0:0:0:
320,192,106277,1,0,0:0:0:0:
448,192,106342,1,0,0:0:0:0:
64,192,106407,1,0,0:0:0:0:
192,192,106473,128,0,106603:0:0:0:0:
320,192,106473,128,0,106603:0:0:0:0:
448,192,106538,1,0,0:0:0:0:
64,192,106603,128,0,106734:0:0:0:0:
192,192,106668,1,0,0:0:0:0:
448,192,106734,1,0,0:0:0:0:
320,192,106734,1,0,0:0:0:0:
192,192,106799,1,0,0:0:0:0:
448,192,106864,128,0,106994:0:0:0:0:
64,192,106929,1,0,0:0:0:0:
320,192,106994,128,0,107125:0:0:0:0:
192,192,106994,128,0,107125:0:0:0:0:
448,192,107060,1,0,0:0:0:0:
64,192,107125,128,0,107255:0:0:0:0:
320,192,107190,1,0,0:0:0:0:
448,192,107255,128,0,107386:0:0:0:0:
192,192,107255,128,0,107386:0:0:0:0:
320,192,107320,1,0,0:0:0:0:
64,192,107386,1,0,0:0:0:0:
448,192,107451,1,0,0:0:0:0:
64,192,107516,128,0,107647:0:0:0:0:
192,192,107516,128,0,107647:0:0:0:0:
320,192,107581,1,0,0:0:0:0:
448,192,107647,1,0,0:0:0:0:
192,192,107712,1,0,0:0:0:0:
320,192,107777,128,0,107907:0:0:0:0:
448,192,107777,128,0,107907:0:0:0:0:
64,192,107842,1,0,0:0:0:0:
192,192,107907,1,0,0:0:0:0:
64,192,107973,128,0,108103:0:0:0:0:
448,192,107973,128,0,108103:0:0:0:0:
320,192,108038,1,0,0:0:0:0:
192,192,108103,1,0,0:0:0:0:
320,192,108168,128,0,108234:0:0:0:0:
64,192,108168,128,0,108234:0:0:0:0:
192,192,108234,1,0,0:0:0:0:
320,192,108299,128,0,108429:0:0:0:0:
448,192,108299,128,0,108429:0:0:0:0:
64,192,108364,1,0,0:0:0:0:
192,192,108429,1,0,0:0:0:0:
320,192,108494,1,0,0:0:0:0:
64,192,108560,128,0,108690:0:0:0:0:
192,192,108560,128,0,108690:0:0:0:0:
448,192,108625,1,0,0:0:0:0:
320,192,108690,1,0,0:0:0:0:
192,192,108755,1,0,0:0:0:0:
64,192,108820,128,0,108951:0:0:0:0:
320,192,108820,128,0,108951:0:0:0:0:
192,192,108886,1,0,0:0:0:0:
448,192,108951,1,0,0:0:0:0:
192,192,109016,128,0,109147:0:0:0:0:
320,192,109016,128,0,109147:0:0:0:0:
448,192,109081,1,0,0:0:0:0:
64,192,109147,1,0,0:0:0:0:
192,192,109212,128,0,109277:0:0:0:0:
448,192,109212,128,0,109277:0:0:0:0:
320,192,109277,1,0,0:0:0:0:
64,192,109342,128,0,109473:0:0:0:0:
448,192,109342,128,0,109473:0:0:0:0:
192,192,109407,128,0,109473:0:0:0:0:
320,192,109473,128,0,109538:0:0:0:0:
448,192,109538,128,0,109603:0:0:0:0:
64,192,109603,128,0,109734:0:0:0:0:
192,192,109603,128,0,109734:0:0:0:0:
320,192,109668,128,0,109734:0:0:0:0:
448,192,109734,128,0,109864:0:0:0:0:
64,192,109799,128,0,109864:0:0:0:0:
320,192,109864,128,0,109994:0:0:0:0:
192,192,109864,128,0,109994:0:0:0:0:
448,192,109929,128,0,109994:0:0:0:0:
64,192,109994,128,0,110060:0:0:0:0:
448,192,110060,128,0,110190:0:0:0:0:
320,192,110060,128,0,110190:0:0:0:0:
64,192,110125,128,0,110190:0:0:0:0:
192,192,110190,128,0,110320:0:0:0:0:
64,192,110255,128,0,110320:0:0:0:0:
448,192,110255,128,0,110320:0:0:0:0:
320,192,110320,128,0,110386:0:0:0:0:
64,192,110386,128,0,110451:0:0:0:0:
192,192,110386,1,0,0:0:0:0:
448,192,110386,128,0,110451:0:0:0:0:
320,192,110581,1,0,0:0:0:0:
192,192,110581,128,0,110647:0:0:0:0:
448,192,110581,128,0,110647:0:0:0:0:
448,192,110777,1,0,0:0:0:0:
320,192,110777,128,0,110842:0:0:0:0:
64,192,110777,128,0,110842:0:0:0:0:
64,192,110907,1,0,0:0:0:0:
192,192,110907,128,0,110973:0:0:0:0:
448,192,110907,128,0,110973:0:0:0:0:
192,192,111103,1,0,0:0:0:0:
320,192,111103,128,0,111168:0:0:0:0:
64,192,111103,128,0,111168:0:0:0:0:
320,192,111299,1,0,0:0:0:0:
448,192,111299,128,0,111364:0:0:0:0:
64,192,111299,128,0,111364:0:0:0:0:
64,192,111429,128,0,112473:0:0:0:0:
320,192,111429,1,0,0:0:0:0:
192,192,111429,128,0,111494:0:0:0:0:
448,192,111429,128,0,111494:0:0:0:0:
192,192,111560,128,0,111625:0:0:0:0:
448,192,111560,128,0,111625:0:0:0:0:
320,192,111560,1,0,0:0:0:0:
320,192,111690,1,0,0:0:0:0:
448,192,111690,128,0,111755:0:0:0:0:
192,192,111690,128,0,111755:0:0:0:0:
192,192,111820,128,0,111886:0:0:0:0:
448,192,111820,128,0,111886:0:0:0:0:
320,192,111820,1,0,0:0:0:0:
320,192,112081,1,0,0:0:0:0:
448,192,112081,128,0,112147:0:0:0:0:
192,192,112081,128,0,112147:0:0:0:0:
192,192,112212,128,0,112277:0:0:0:0:
448,192,112212,128,0,112277:0:0:0:0:
320,192,112212,1,0,0:0:0:0:
320,192,112342,1,0,0:0:0:0:
448,192,112342,128,0,112407:0:0:0:0:
192,192,112342,128,0,112407:0:0:0:0:
448,192,112473,128,0,112864:0:0:0:0:
320,192,112473,128,0,112603:0:0:0:0:
192,192,112505,128,0,112636:0:0:0:0:
64,192,112734,128,0,112864:0:0:0:0:
320,192,112766,128,0,112897:0:0:0:0:
192,192,112864,128,0,113386:0:0:0:0:
448,192,112994,128,0,113060:0:0:0:0:
320,192,113016,128,0,113081:0:0:0:0:
448,192,113125,128,0,113190:0:0:0:0:
320,192,113147,128,0,113212:0:0:0:0:
448,192,113255,128,0,113386:0:0:0:0:
320,192,113277,128,0,113386:0:0:0:0:
64,192,113386,128,0,115081:0:0:0:0:
448,192,113516,128,0,113581:0:0:0:0:
192,192,113516,128,0,113581:0:0:0:0:
320,192,113516,1,0,0:0:0:0:
320,192,113647,1,0,0:0:0:0:
448,192,113647,128,0,113712:0:0:0:0:
192,192,113647,128,0,113712:0:0:0:0:
192,192,113777,128,0,113842:0:0:0:0:
448,192,113777,128,0,113842:0:0:0:0:
320,192,113777,1,0,0:0:0:0:
320,192,113907,1,0,0:0:0:0:
448,192,113907,128,0,113973:0:0:0:0:
192,192,113907,128,0,113973:0:0:0:0:
192,192,114168,128,0,114234:0:0:0:0:
448,192,114168,128,0,114234:0:0:0:0:
320,192,114168,1,0,0:0:0:0:
192,192,114364,128,0,114429:0:0:0:0:
448,192,114364,128,0,114429:0:0:0:0:
320,192,114364,1,0,0:0:0:0:
192,192,114560,128,0,114625:0:0:0:0:
448,192,114560,128,0,114625:0:0:0:0:
320,192,114560,1,0,0:0:0:0:
448,192,114690,128,0,114755:0:0:0:0:
320,192,114712,128,0,114777:0:0:0:0:
448,192,114820,128,0,114886:0:0:0:0:
320,192,114842,128,0,114907:0:0:0:0:
192,192,114951,128,0,115081:0:0:0:0:
448,192,115016,128,0,115147:0:0:0:0:
320,192,115081,128,0,115342:0:0:0:0:
192,192,115147,128,0,115212:0:0:0:0:
64,192,115212,128,0,115277:0:0:0:0:
448,192,115234,128,0,115299:0:0:0:0:
192,192,115342,128,0,115538:0:0:0:0:
64,192,115342,128,0,115407:0:0:0:0:
448,192,115386,128,0,115451:0:0:0:0:
64,192,115603,128,0,116647:0:0:0:0:
320,192,115603,1,0,0:0:0:0:
192,192,115603,128,0,115668:0:0:0:0:
448,192,115603,128,0,115668:0:0:0:0:
192,192,115734,128,0,115799:0:0:0:0:
448,192,115734,128,0,115799:0:0:0:0:
320,192,115734,1,0,0:0:0:0:
320,192,115864,1,0,0:0:0:0:
448,192,115864,128,0,115929:0:0:0:0:
192,192,115864,128,0,115929:0:0:0:0:
192,192,115994,128,0,116060:0:0:0:0:
448,192,115994,128,0,116060:0:0:0:0:
320,192,115994,1,0,0:0:0:0:
320,192,116255,1,0,0:0:0:0:
448,192,116255,128,0,116320:0:0:0:0:
192,192,116255,128,0,116320:0:0:0:0:
192,192,116386,128,0,116451:0:0:0:0:
448,192,116386,128,0,116451:0:0:0:0:
320,192,116386,1,0,0:0:0:0:
320,192,116516,1,0,0:0:0:0:
448,192,116516,128,0,116581:0:0:0:0:
192,192,116516,128,0,116581:0:0:0:0:
448,192,116647,128,0,117038:0:0:0:0:
320,192,116647,128,0,116777:0:0:0:0:
192,192,116679,128,0,116810:0:0:0:0:
64,192,116907,128,0,117038:0:0:0:0:
320,192,116940,128,0,117070:0:0:0:0:
192,192,117038,128,0,117560:0:0:0:0:
448,192,117168,128,0,117234:0:0:0:0:
320,192,117190,128,0,117255:0:0:0:0:
448,192,117299,128,0,117364:0:0:0:0:
320,192,117320,128,0,117386:0:0:0:0:
448,192,117429,128,0,117560:0:0:0:0:
320,192,117451,128,0,117560:0:0:0:0:
64,192,117560,128,0,118081:0:0:0:0:
192,192,117690,128,0,117755:0:0:0:0:
448,192,117690,128,0,117755:0:0:0:0:
320,192,117690,1,0,0:0:0:0:
192,192,117820,128,0,117886:0:0:0:0:
448,192,117820,128,0,117886:0:0:0:0:
320,192,117820,1,0,0:0:0:0:
320,192,117951,1,0,0:0:0:0:
448,192,117951,128,0,118016:0:0:0:0:
192,192,117951,128,0,118016:0:0:0:0:
192,192,118081,128,0,118473:0:0:0:0:
448,192,118081,128,0,118147:0:0:0:0:
320,192,118081,1,0,0:0:0:0:
64,192,118342,128,0,118407:0:0:0:0:
448,192,118342,128,0,118407:0:0:0:0:
320,192,118342,1,0,0:0:0:0:
320,192,118473,128,0,118734:0:0:0:0:
64,192,118538,128,0,118603:0:0:0:0:
192,192,118538,1,0,0:0:0:0:
448,192,118538,128,0,118603:0:0:0:0:
448,192,118734,128,0,119125:0:0:0:0:
64,192,118734,128,0,118799:0:0:0:0:
192,192,118734,1,0,0:0:0:0:
64,192,118929,128,0,118994:0:0:0:0:
320,192,118929,128,0,118994:0:0:0:0:
192,192,118929,1,0,0:0:0:0:
64,192,119125,128,0,119516:0:0:0:0:
320,192,119125,128,0,119190:0:0:0:0:
192,192,119125,1,0,0:0:0:0:
192,192,119320,128,0,119386:0:0:0:0:
448,192,119320,128,0,119386:0:0:0:0:
320,192,119320,1,0,0:0:0:0:
448,192,119516,1,0,0:0:0:0:
320,192,119516,1,0,0:0:0:0:
64,192,119581,1,0,0:0:0:0:
192,192,119581,1,0,0:0:0:0:
448,192,119647,1,0,0:0:0:0:
320,192,119647,1,0,0:0:0:0:
192,192,119712,1,0,0:0:0:0:
320,192,119777,128,0,119842:0:0:0:0:
448,192,119777,128,0,119842:0:0:0:0:
64,192,119777,1,0,0:0:0:0:
192,192,119842,1,0,0:0:0:0:
448,192,119907,128,0,119973:0:0:0:0:
320,192,119907,128,0,119973:0:0:0:0:
64,192,119907,1,0,0:0:0:0:
192,192,119973,1,0,0:0:0:0:
64,192,120038,1,0,0:0:0:0:
320,192,120038,128,0,120103:0:0:0:0:
448,192,120038,128,0,120103:0:0:0:0:
192,192,120103,1,0,0:0:0:0:
448,192,120168,128,0,120234:0:0:0:0:
320,192,120168,128,0,120234:0:0:0:0:
64,192,120168,1,0,0:0:0:0:
192,192,120234,1,0,0:0:0:0:
448,192,120299,1,0,0:0:0:0:
64,192,120364,1,0,0:0:0:0:
320,192,120429,128,0,120494:0:0:0:0:
448,192,120429,128,0,120494:0:0:0:0:
192,192,120429,1,0,0:0:0:0:
64,192,120494,1,0,0:0:0:0:
320,192,120560,128,0,120625:0:0:0:0:
448,192,120560,128,0,120625:0:0:0:0:
192,192,120560,1,0,0:0:0:0:
64,192,120625,1,0,0:0:0:0:
448,192,120690,128,0,120755:0:0:0:0:
320,192,120690,128,0,120755:0:0:0:0:
192,192,120690,1,0,0:0:0:0:
64,192,120755,1,0,0:0:0:0:
192,192,120820,128,0,121016:0:0:0:0:
448,192,120853,128,0,121049:0:0:0:0:
320,192,120886,1,0,0:0:0:0:
64,192,120951,1,0,0:0:0:0:
320,192,121016,1,0,0:0:0:0:
192,192,121081,128,0,121277:0:0:0:0:
64,192,121114,128,0,121310:0:0:0:0:
448,192,121147,1,0,0:0:0:0:
320,192,121212,1,0,0:0:0:0:
448,192,121277,1,0,0:0:0:0:
320,192,121342,128,0,121407:0:0:0:0:
192,192,121375,128,0,121440:0:0:0:0:
64,192,121407,1,0,0:0:0:0:
448,192,121473,128,0,121538:0:0:0:0:
320,192,121505,128,0,121570:0:0:0:0:
192,192,121538,1,0,0:0:0:0:
64,192,121603,128,0,121799:0:0:0:0:
192,192,121636,128,0,121831:0:0:0:0:
320,192,121668,1,0,0:0:0:0:
448,192,121734,1,0,0:0:0:0:
320,192,121799,1,0,0:0:0:0:
192,192,121864,128,0,121929:0:0:0:0:
64,192,121864,128,0,121929:0:0:0:0:
448,192,121864,1,0,0:0:0:0:
320,192,121929,1,0,0:0:0:0:
64,192,121994,128,0,122060:0:0:0:0:
192,192,121994,128,0,122060:0:0:0:0:
448,192,121994,1,0,0:0:0:0:
320,192,122060,1,0,0:0:0:0:
448,192,122125,1,0,0:0:0:0:
192,192,122125,128,0,122190:0:0:0:0:
64,192,122125,128,0,122190:0:0:0:0:
320,192,122190,1,0,0:0:0:0:
64,192,122255,128,0,122320:0:0:0:0:
192,192,122255,128,0,122320:0:0:0:0:
448,192,122255,1,0,0:0:0:0:
320,192,122320,1,0,0:0:0:0:
64,192,122386,1,0,0:0:0:0:
448,192,122451,1,0,0:0:0:0:
192,192,122516,128,0,122581:0:0:0:0:
64,192,122516,128,0,122581:0:0:0:0:
320,192,122516,1,0,0:0:0:0:
448,192,122581,1,0,0:0:0:0:
192,192,122647,1,0,0:0:0:0:
448,192,122712,1,0,0:0:0:0:
320,192,122712,128,0,122777:0:0:0:0:
64,192,122712,128,0,122777:0:0:0:0:
192,192,122777,1,0,0:0:0:0:
448,192,122842,1,0,0:0:0:0:
64,192,122907,128,0,122973:0:0:0:0:
320,192,122907,128,0,122973:0:0:0:0:
192,192,122973,1,0,0:0:0:0:
320,192,123038,128,0,123103:0:0:0:0:
448,192,123070,128,0,123136:0:0:0:0:
64,192,123103,1,0,0:0:0:0:
320,192,123168,128,0,123234:0:0:0:0:
448,192,123201,128,0,123266:0:0:0:0:
192,192,123234,1,0,0:0:0:0:
64,192,123299,128,0,123494:0:0:0:0:
448,192,123364,128,0,123560:0:0:0:0:
192,192,123364,1,0,0:0:0:0:
320,192,123429,1,0,0:0:0:0:
192,192,123494,1,0,0:0:0:0:
64,192,123560,128,0,123625:0:0:0:0:
320,192,123592,128,0,123657:0:0:0:0:
448,192,123625,1,0,0:0:0:0:
64,192,123690,128,0,123853:0:0:0:0:
320,192,123723,128,0,123886:0:0:0:0:
192,192,123755,1,0,0:0:0:0:
448,192,123820,1,0,0:0:0:0:
192,192,123886,1,0,0:0:0:0:
320,192,123951,128,0,124016:0:0:0:0:
448,192,123951,128,0,124016:0:0:0:0:
64,192,124016,1,0,0:0:0:0:
448,192,124081,128,0,124147:0:0:0:0:
320,192,124081,128,0,124147:0:0:0:0:
192,192,124147,1,0,0:0:0:0:
320,192,124212,128,0,124277:0:0:0:0:
448,192,124212,128,0,124277:0:0:0:0:
64,192,124277,1,0,0:0:0:0:
448,192,124342,128,0,124407:0:0:0:0:
320,192,124342,128,0,124407:0:0:0:0:
192,192,124407,1,0,0:0:0:0:
448,192,124473,1,0,0:0:0:0:
320,192,124538,1,0,0:0:0:0:
192,192,124603,128,0,124668:0:0:0:0:
64,192,124603,128,0,124668:0:0:0:0:
448,192,124668,1,0,0:0:0:0:
64,192,124734,128,0,124799:0:0:0:0:
192,192,124734,128,0,124799:0:0:0:0:
320,192,124799,1,0,0:0:0:0:
192,192,124864,128,0,124929:0:0:0:0:
64,192,124864,128,0,124929:0:0:0:0:
448,192,124929,1,0,0:0:0:0:
192,192,124994,128,0,125060:0:0:0:0:
64,192,124994,128,0,125060:0:0:0:0:
320,192,125060,1,0,0:0:0:0:
64,192,125125,128,0,125190:0:0:0:0:
448,192,125125,128,0,125190:0:0:0:0:
192,192,125190,1,0,0:0:0:0:
320,192,125255,128,0,125320:0:0:0:0:
448,192,125255,128,0,125320:0:0:0:0:
192,192,125320,1,0,0:0:0:0:
320,192,125386,128,0,125451:0:0:0:0:
448,192,125386,128,0,125451:0:0:0:0:
64,192,125451,1,0,0:0:0:0:
192,192,125516,1,0,0:0:0:0:
320,192,125581,1,0,0:0:0:0:
192,192,125647,128,0,125712:0:0:0:0:
64,192,125647,128,0,125712:0:0:0:0:
448,192,125712,1,0,0:0:0:0:
64,192,125777,128,0,125842:0:0:0:0:
192,192,125777,128,0,125842:0:0:0:0:
320,192,125842,1,0,0:0:0:0:
192,192,125907,128,0,125973:0:0:0:0:
64,192,125907,128,0,125973:0:0:0:0:
448,192,125973,1,0,0:0:0:0:
192,192,126038,1,0,0:0:0:0:
64,192,126038,1,0,0:0:0:0:
448,192,126125,1,0,0:0:0:0:
320,192,126125,1,0,0:0:0:0:
448,192,126212,1,0,0:0:0:0:
192,192,126212,1,0,0:0:0:0:
320,192,126299,1,0,0:0:0:0:
64,192,126299,1,0,0:0:0:0:
192,192,126386,1,0,0:0:0:0:
64,192,126386,1,0,0:0:0:0:
448,192,126473,1,0,0:0:0:0:
320,192,126473,1,0,0:0:0:0:
448,192,126560,1,0,0:0:0:0:
320,192,126560,1,0,0:0:0:0:
192,192,126647,1,0,0:0:0:0:
64,192,126647,1,0,0:0:0:0:
320,192,126734,1,0,0:0:0:0:
64,192,126734,1,0,0:0:0:0:
320,192,126820,1,0,0:0:0:0:
448,192,126820,1,0,0:0:0:0:
192,192,126907,1,0,0:0:0:0:
64,192,126907,1,0,0:0:0:0:
320,192,126994,1,0,0:0:0:0:
192,192,126994,1,0,0:0:0:0:
448,192,127081,1,0,0:0:0:0:
320,192,127081,1,0,0:0:0:0:
64,192,127081,1,0,0:0:0:0:
64,192,127255,128,0,127299:0:0:0:0:
320,192,127255,128,0,127299:0:0:0:0:
448,192,127255,128,0,127299:0:0:0:0:
64,192,127429,128,0,127473:0:0:0:0:
320,192,127429,128,0,127473:0:0:0:0:
448,192,127429,128,0,127473:0:0:0:0:
64,192,127603,128,0,127690:0:0:0:0:
192,192,127603,128,0,127690:0:0:0:0:
448,192,127603,128,0,127690:0:0:0:0:
448,192,127777,128,0,127864:0:0:0:0:
192,192,127777,128,0,127864:0:0:0:0:
64,192,127777,128,0,127864:0:0:0:0:
64,192,127951,128,0,128060:0:0:0:0:
192,192,127951,128,0,128060:0:0:0:0:
448,192,127951,128,0,128060:0:0:0:0:
192,192,128125,1,0,0:0:0:0:
64,192,128125,128,0,129168:0:0:0:0:
320,192,128125,128,0,129103:0:0:0:0:
448,192,128125,128,0,129038:0:0:0:0:
448,192,129299,128,0,129429:0:0:0:0:
320,192,129342,128,0,129473:0:0:0:0:
64,192,129560,128,0,129690:0:0:0:0:
192,192,129603,1,0,0:0:0:0:
448,192,129647,128,0,129734:0:0:0:0:
320,192,129820,1,0,0:0:0:0:
192,192,129864,1,0,0:0:0:0:
64,192,129907,1,0,0:0:0:0:
448,192,129951,1,0,0:0:0:0:
192,192,130016,1,0,0:0:0:0:
320,192,130081,1,0,0:0:0:0:
192,192,130147,1,0,0:0:0:0:
448,192,130212,1,0,0:0:0:0:
320,192,130212,1,0,0:0:0:0:
192,192,130277,1,0,0:0:0:0:
64,192,130342,1,0,0:0:0:0:
320,192,130407,1,0,0:0:0:0:
448,192,130473,1,0,0:0:0:0:
64,192,130473,128,0,130505:0:0:0:0:
192,192,130538,1,0,0:0:0:0:
64,192,130603,128,0,130636:0:0:0:0:
320,192,130668,1,0,0:0:0:0:
448,192,130734,1,0,0:0:0:0:
64,192,130734,128,0,130771:0:0:0:0:
192,192,130799,1,0,0:0:0:0:
64,192,130864,128,0,130901:0:0:0:0:
320,192,130929,1,0,0:0:0:0:
448,192,130994,1,0,0:0:0:0:
64,192,130994,128,0,131038:0:0:0:0:
192,192,131060,1,0,0:0:0:0:
64,192,131125,128,0,131168:0:0:0:0:
320,192,131190,1,0,0:0:0:0:
448,192,131255,1,0,0:0:0:0:
64,192,131255,128,0,131307:0:0:0:0:
192,192,131320,1,0,0:0:0:0:
64,192,131386,128,0,131438:0:0:0:0:
320,192,131451,1,0,0:0:0:0:
448,192,131516,1,0,0:0:0:0:
64,192,131516,128,0,131574:0:0:0:0:
192,192,131581,1,0,0:0:0:0:
64,192,131647,128,0,131705:0:0:0:0:
320,192,131712,1,0,0:0:0:0:
448,192,131777,1,0,0:0:0:0:
64,192,131777,128,0,131842:0:0:0:0:
192,192,131842,1,0,0:0:0:0:
64,192,131907,128,0,131973:0:0:0:0:
320,192,131907,128,0,132234:0:0:0:0:
448,192,131973,128,0,132234:0:0:0:0:
64,192,132038,128,0,132234:0:0:0:0:
192,192,132299,5,0,0:0:0:0:
320,192,132299,128,0,132364:0:0:0:0:
64,192,132299,128,0,132755:0:0:0:0:
448,192,132320,128,0,132386:0:0:0:0:
320,192,132429,128,0,132494:0:0:0:0:
448,192,132451,128,0,132516:0:0:0:0:
320,192,132560,128,0,132625:0:0:0:0:
192,192,132560,128,0,132664:0:0:0:0:
448,192,132581,128,0,132647:0:0:0:0:
320,192,132690,128,0,132755:0:0:0:0:
448,192,132712,128,0,132777:0:0:0:0:
320,192,132820,128,0,132886:0:0:0:0:
192,192,132820,1,0,0:0:0:0:
64,192,132820,128,0,133277:0:0:0:0:
448,192,132842,128,0,132907:0:0:0:0:
320,192,132951,128,0,133016:0:0:0:0:
448,192,132973,128,0,133038:0:0:0:0:
320,192,133081,128,0,133147:0:0:0:0:
192,192,133081,128,0,133186:0:0:0:0:
448,192,133103,128,0,133168:0:0:0:0:
320,192,133212,128,0,133277:0:0:0:0:
448,192,133234,128,0,133299:0:0:0:0:
320,192,133342,128,0,133407:0:0:0:0:
192,192,133342,1,0,0:0:0:0:
64,192,133342,128,0,133799:0:0:0:0:
448,192,133364,128,0,133429:0:0:0:0:
320,192,133473,128,0,133538:0:0:0:0:
448,192,133494,128,0,133560:0:0:0:0:
320,192,133603,128,0,133668:0:0:0:0:
192,192,133603,128,0,133707:0:0:0:0:
448,192,133625,128,0,133690:0:0:0:0:
320,192,133734,128,0,133799:0:0:0:0:
448,192,133755,128,0,133820:0:0:0:0:
320,192,133864,128,0,133929:0:0:0:0:
192,192,133864,1,0,0:0:0:0:
64,192,133864,128,0,134320:0:0:0:0:
448,192,133886,128,0,133951:0:0:0:0:
320,192,133994,128,0,134060:0:0:0:0:
448,192,134016,128,0,134081:0:0:0:0:
320,192,134125,128,0,134190:0:0:0:0:
192,192,134125,128,0,134229:0:0:0:0:
448,192,134147,128,0,134212:0:0:0:0:
320,192,134255,128,0,134320:0:0:0:0:
448,192,134277,128,0,134342:0:0:0:0:
320,192,134386,1,0,0:0:0:0:
448,192,134386,128,0,134647:0:0:0:0:
64,192,134386,128,0,134647:0:0:0:0:
320,192,134647,128,0,134777:0:0:0:0:
192,192,134777,128,0,134907:0:0:0:0:
64,192,134907,128,0,134973:0:0:0:0:
320,192,134907,128,0,135234:0:0:0:0:
448,192,134907,128,0,135364:0:0:0:0:
64,192,135038,128,0,135364:0:0:0:0:
192,192,135168,128,0,135364:0:0:0:0:
320,192,135299,128,0,135364:0:0:0:0:
320,192,135429,128,0,135755:0:0:0:0:
448,192,135429,128,0,135886:0:0:0:0:
64,192,135429,128,0,135494:0:0:0:0:
64,192,135560,128,0,135886:0:0:0:0:
192,192,135690,128,0,135886:0:0:0:0:
320,192,135820,128,0,135886:0:0:0:0:
64,192,135951,128,0,136016:0:0:0:0:
448,192,135951,128,0,136147:0:0:0:0:
320,192,135951,128,0,136407:0:0:0:0:
64,192,136081,128,0,136407:0:0:0:0:
448,192,136212,128,0,136407:0:0:0:0:
192,192,136212,128,0,136407:0:0:0:0:
192,192,136473,1,0,0:0:0:0:
320,192,136473,128,0,136538:0:0:0:0:
64,192,136473,128,0,136929:0:0:0:0:
448,192,136494,128,0,136560:0:0:0:0:
320,192,136603,128,0,136668:0:0:0:0:
448,192,136625,128,0,136690:0:0:0:0:
320,192,136734,128,0,136799:0:0:0:0:
192,192,136734,128,0,136838:0:0:0:0:
448,192,136755,128,0,136820:0:0:0:0:
320,192,136864,128,0,136929:0:0:0:0:
448,192,136886,128,0,136951:0:0:0:0:
320,192,136994,128,0,137060:0:0:0:0:
192,192,136994,1,0,0:0:0:0:
64,192,136994,128,0,137451:0:0:0:0:
448,192,137016,128,0,137081:0:0:0:0:
320,192,137125,128,0,137190:0:0:0:0:
448,192,137147,128,0,137212:0:0:0:0:
320,192,137255,128,0,137320:0:0:0:0:
192,192,137255,128,0,137360:0:0:0:0:
448,192,137277,128,0,137342:0:0:0:0:
320,192,137386,128,0,137451:0:0:0:0:
448,192,137407,128,0,137473:0:0:0:0:
320,192,137516,128,0,137581:0:0:0:0:
192,192,137516,1,0,0:0:0:0:
64,192,137516,128,0,137973:0:0:0:0:
448,192,137538,128,0,137603:0:0:0:0:
320,192,137647,128,0,137712:0:0:0:0:
448,192,137668,128,0,137734:0:0:0:0:
320,192,137777,128,0,137842:0:0:0:0:
192,192,137777,128,0,137881:0:0:0:0:
448,192,137799,128,0,137864:0:0:0:0:
320,192,137907,128,0,137973:0:0:0:0:
448,192,137929,128,0,137994:0:0:0:0:
320,192,138038,128,0,138103:0:0:0:0:
192,192,138038,1,0,0:0:0:0:
64,192,138038,128,0,138494:0:0:0:0:
448,192,138060,128,0,138125:0:0:0:0:
320,192,138168,128,0,138234:0:0:0:0:
448,192,138190,128,0,138255:0:0:0:0:
320,192,138299,128,0,138364:0:0:0:0:
192,192,138299,128,0,138403:0:0:0:0:
448,192,138320,128,0,138386:0:0:0:0:
320,192,138429,128,0,138494:0:0:0:0:
448,192,138451,128,0,138516:0:0:0:0:
64,192,138560,128,0,138625:0:0:0:0:
192,192,138560,128,0,138820:0:0:0:0:
320,192,138560,128,0,138755:0:0:0:0:
64,192,138690,128,0,139016:0:0:0:0:
320,192,138820,128,0,139016:0:0:0:0:
192,192,138886,128,0,139016:0:0:0:0:
448,192,138951,128,0,139016:0:0:0:0:
64,192,139081,128,0,139147:0:0:0:0:
192,192,139081,128,0,139538:0:0:0:0:
320,192,139081,128,0,139277:0:0:0:0:
64,192,139212,128,0,139538:0:0:0:0:
320,192,139342,128,0,139538:0:0:0:0:
448,192,139473,128,0,139538:0:0:0:0:
64,192,139603,128,0,139668:0:0:0:0:
320,192,139603,128,0,139799:0:0:0:0:
192,192,139647,128,0,140060:0:0:0:0:
448,192,139690,128,0,139929:0:0:0:0:
64,192,139734,128,0,140060:0:0:0:0:
320,192,139864,128,0,140060:0:0:0:0:
448,192,139994,128,0,140060:0:0:0:0:
64,192,140125,128,0,140299:0:0:0:0:
192,192,140125,128,0,140581:0:0:0:0:
320,192,140125,128,0,140581:0:0:0:0:
448,192,140255,128,0,140581:0:0:0:0:
64,192,140386,128,0,140581:0:0:0:0:
320,192,140647,1,0,0:0:0:0:
192,192,140647,128,0,140712:0:0:0:0:
448,192,140647,128,0,141103:0:0:0:0:
64,192,140668,128,0,140734:0:0:0:0:
192,192,140777,128,0,140842:0:0:0:0:
64,192,140799,128,0,140864:0:0:0:0:
192,192,140907,128,0,140973:0:0:0:0:
320,192,140907,128,0,141012:0:0:0:0:
64,192,140929,128,0,140994:0:0:0:0:
192,192,141038,128,0,141103:0:0:0:0:
64,192,141060,128,0,141125:0:0:0:0:
192,192,141168,128,0,141234:0:0:0:0:
320,192,141168,1,0,0:0:0:0:
448,192,141168,128,0,141625:0:0:0:0:
64,192,141190,128,0,141255:0:0:0:0:
192,192,141299,128,0,141364:0:0:0:0:
64,192,141320,128,0,141386:0:0:0:0:
192,192,141429,128,0,141494:0:0:0:0:
320,192,141429,128,0,141534:0:0:0:0:
64,192,141451,128,0,141516:0:0:0:0:
192,192,141560,128,0,141625:0:0:0:0:
64,192,141581,128,0,141647:0:0:0:0:
192,192,141690,128,0,141755:0:0:0:0:
320,192,141690,1,0,0:0:0:0:
448,192,141690,128,0,142147:0:0:0:0:
64,192,141712,128,0,141777:0:0:0:0:
192,192,141820,128,0,141886:0:0:0:0:
64,192,141842,128,0,141907:0:0:0:0:
192,192,141951,128,0,142016:0:0:0:0:
320,192,141951,128,0,142055:0:0:0:0:
64,192,141973,128,0,142038:0:0:0:0:
192,192,142081,128,0,142147:0:0:0:0:
64,192,142103,128,0,142168:0:0:0:0:
192,192,142212,128,0,142277:0:0:0:0:
320,192,142212,1,0,0:0:0:0:
448,192,142212,128,0,142668:0:0:0:0:
64,192,142234,128,0,142299:0:0:0:0:
192,192,142342,128,0,142407:0:0:0:0:
64,192,142364,128,0,142429:0:0:0:0:
192,192,142473,128,0,142538:0:0:0:0:
320,192,142473,128,0,142577:0:0:0:0:
64,192,142494,128,0,142560:0:0:0:0:
192,192,142603,128,0,142668:0:0:0:0:
64,192,142625,128,0,142690:0:0:0:0:
192,192,142734,1,0,0:0:0:0:
64,192,142734,128,0,142994:0:0:0:0:
448,192,142734,128,0,142994:0:0:0:0:
192,192,142994,128,0,143125:0:0:0:0:
320,192,143125,128,0,143255:0:0:0:0:
448,192,143255,128,0,143320:0:0:0:0:
192,192,143255,128,0,143581:0:0:0:0:
64,192,143255,128,0,143712:0:0:0:0:
448,192,143386,128,0,143712:0:0:0:0:
320,192,143516,128,0,143712:0:0:0:0:
192,192,143647,128,0,143712:0:0:0:0:
192,192,143777,128,0,144103:0:0:0:0:
64,192,143777,128,0,144234:0:0:0:0:
448,192,143777,128,0,143842:0:0:0:0:
448,192,143907,128,0,144234:0:0:0:0:
320,192,144038,128,0,144234:0:0:0:0:
192,192,144168,128,0,144234:0:0:0:0:
448,192,144299,128,0,144364:0:0:0:0:
64,192,144299,128,0,144494:0:0:0:0:
192,192,144299,128,0,144755:0:0:0:0:
448,192,144429,128,0,144755:0:0:0:0:
64,192,144560,128,0,144755:0:0:0:0:
320,192,144560,128,0,144755:0:0:0:0:
448,192,144820,128,0,145277:0:0:0:0:
192,192,144820,128,0,144886:0:0:0:0:
320,192,144820,1,0,0:0:0:0:
64,192,144842,128,0,144907:0:0:0:0:
192,192,144951,128,0,145016:0:0:0:0:
64,192,144973,128,0,145038:0:0:0:0:
320,192,145081,128,0,145185:0:0:0:0:
192,192,145081,128,0,145147:0:0:0:0:
64,192,145103,128,0,145168:0:0:0:0:
192,192,145212,128,0,145277:0:0:0:0:
64,192,145234,128,0,145299:0:0:0:0:
448,192,145342,128,0,145799:0:0:0:0:
320,192,145342,1,0,0:0:0:0:
192,192,145342,128,0,145407:0:0:0:0:
64,192,145364,128,0,145429:0:0:0:0:
192,192,145473,128,0,145538:0:0:0:0:
64,192,145494,128,0,145560:0:0:0:0:
320,192,145603,128,0,145707:0:0:0:0:
192,192,145603,128,0,145668:0:0:0:0:
64,192,145625,128,0,145690:0:0:0:0:
192,192,145734,128,0,145799:0:0:0:0:
64,192,145755,128,0,145820:0:0:0:0:
448,192,145864,128,0,146320:0:0:0:0:
320,192,145864,1,0,0:0:0:0:
192,192,145864,128,0,145929:0:0:0:0:
64,192,145886,128,0,145951:0:0:0:0:
192,192,145994,128,0,146060:0:0:0:0:
64,192,146016,128,0,146081:0:0:0:0:
320,192,146125,128,0,146228:0:0:0:0:
192,192,146125,128,0,146190:0:0:0:0:
64,192,146147,128,0,146212:0:0:0:0:
192,192,146255,128,0,146320:0:0:0:0:
64,192,146277,128,0,146342:0:0:0:0:
448,192,146386,128,0,146842:0:0:0:0:
320,192,146386,1,0,0:0:0:0:
192,192,146386,128,0,146451:0:0:0:0:
64,192,146407,128,0,146473:0:0:0:0:
192,192,146516,128,0,146581:0:0:0:0:
64,192,146538,128,0,146603:0:0:0:0:
320,192,146647,128,0,146750:0:0:0:0:
192,192,146647,128,0,146712:0:0:0:0:
64,192,146668,128,0,146734:0:0:0:0:
192,192,146777,128,0,146842:0:0:0:0:
64,192,146799,128,0,146864:0:0:0:0:
448,192,146907,1,0,0:0:0:0:
192,192,146907,1,0,0:0:0:0:
64,192,146907,128,0,147364:0:0:0:0:
320,192,147038,128,0,147364:0:0:0:0:
192,192,147168,128,0,147364:0:0:0:0:
448,192,147299,128,0,147364:0:0:0:0:
192,192,147429,128,0,147886:0:0:0:0:
64,192,147429,128,0,147494:0:0:0:0:
320,192,147429,128,0,147625:0:0:0:0:
64,192,147560,128,0,147886:0:0:0:0:
320,192,147690,128,0,147886:0:0:0:0:
448,192,147820,128,0,147886:0:0:0:0:
64,192,147951,128,0,148277:0:0:0:0:
192,192,147951,128,0,148016:0:0:0:0:
448,192,147951,128,0,148407:0:0:0:0:
192,192,148081,128,0,148407:0:0:0:0:
320,192,148212,128,0,148407:0:0:0:0:
64,192,148342,128,0,148407:0:0:0:0:
448,192,148473,1,0,0:0:0:0:
320,192,148473,1,0,0:0:0:0:
192,192,148473,1,0,0:0:0:0:
64,192,148538,1,0,0:0:0:0:
448,192,148603,1,0,0:0:0:0:
192,192,148668,1,0,0:0:0:0:
320,192,148734,1,0,0:0:0:0:
448,192,148777,1,0,0:0:0:0:
64,192,148820,1,0,0:0:0:0:
192,192,148864,1,0,0:0:0:0:
320,192,148907,1,0,0:0:0:0:
64,192,148951,1,0,0:0:0:0:
448,192,148994,1,0,0:0:0:0:
192,192,148994,1,0,0:0:0:0:
64,192,149386,1,0,0:0:0:0:
320,192,149647,1,0,0:0:0:0:
192,192,149777,1,0,0:0:0:0:
320,192,150038,1,0,0:0:0:0:
192,192,150168,1,0,0:0:0:0:
448,192,150299,1,0,0:0:0:0:
64,192,150429,1,0,0:0:0:0:
320,192,150560,1,0,0:0:0:0:
192,192,150690,1,0,0:0:0:0:
448,192,150951,1,0,0:0:0:0:
64,192,151081,1,0,0:0:0:0:
320,192,151342,1,0,0:0:0:0:
64,192,151473,1,0,0:0:0:0:
320,192,151734,1,0,0:0:0:0:
192,192,151864,1,0,0:0:0:0:
320,192,152125,1,0,0:0:0:0:
64,192,152255,1,0,0:0:0:0:
192,192,152386,1,0,0:0:0:0:
320,192,152516,1,0,0:0:0:0:
448,192,152647,1,0,0:0:0:0:
192,192,152777,1,0,0:0:0:0:
64,192,152907,1,0,0:0:0:0:
320,192,153038,1,0,0:0:0:0:
64,192,153168,1,0,0:0:0:0:
320,192,153429,1,0,0:0:0:0:
64,192,153560,1,0,0:0:0:0:
320,192,153820,1,0,0:0:0:0:
192,192,153951,1,0,0:0:0:0:
320,192,154212,1,0,0:0:0:0:
64,192,154342,1,0,0:0:0:0:
192,192,154473,1,0,0:0:0:0:
320,192,154603,1,0,0:0:0:0:
448,192,154734,1,0,0:0:0:0:
192,192,154864,1,0,0:0:0:0:
192,192,155125,1,0,0:0:0:0:
64,192,155255,1,0,0:0:0:0:
320,192,155516,1,0,0:0:0:0:
64,192,155647,1,0,0:0:0:0:
320,192,155907,1,0,0:0:0:0:
192,192,156038,1,0,0:0:0:0:
448,192,156299,1,0,0:0:0:0:
320,192,156429,1,0,0:0:0:0:
64,192,156560,1,0,0:0:0:0:
192,192,156690,1,0,0:0:0:0:
320,192,156820,1,0,0:0:0:0:
448,192,156951,1,0,0:0:0:0:
192,192,157081,1,0,0:0:0:0:
320,192,157212,1,0,0:0:0:0:
64,192,157342,1,0,0:0:0:0:
448,192,157342,1,0,0:0:0:0:
320,192,157603,1,0,0:0:0:0:
64,192,157734,1,0,0:0:0:0:
320,192,157994,1,0,0:0:0:0:
192,192,158125,1,0,0:0:0:0:
448,192,158386,1,0,0:0:0:0:
320,192,158516,1,0,0:0:0:0:
64,192,158647,1,0,0:0:0:0:
192,192,158777,1,0,0:0:0:0:
448,192,158907,1,0,0:0:0:0:
320,192,159038,1,0,0:0:0:0:
192,192,159299,1,0,0:0:0:0:
448,192,159364,1,0,0:0:0:0:
64,192,159429,1,0,0:0:0:0:
320,192,159690,1,0,0:0:0:0:
64,192,159820,1,0,0:0:0:0:
320,192,160081,1,0,0:0:0:0:
192,192,160212,1,0,0:0:0:0:
448,192,160473,1,0,0:0:0:0:
320,192,160603,1,0,0:0:0:0:
64,192,160734,1,0,0:0:0:0:
192,192,160864,1,0,0:0:0:0:
448,192,160994,1,0,0:0:0:0:
320,192,161125,1,0,0:0:0:0:
192,192,161255,1,0,0:0:0:0:
64,192,161386,1,0,0:0:0:0:
320,192,161516,1,0,0:0:0:0:
320,192,161777,1,0,0:0:0:0:
64,192,161907,1,0,0:0:0:0:
320,192,162168,1,0,0:0:0:0:
192,192,162299,1,0,0:0:0:0:
448,192,162560,1,0,0:0:0:0:
320,192,162690,1,0,0:0:0:0:
64,192,162820,1,0,0:0:0:0:
192,192,162951,1,0,0:0:0:0:
320,192,163081,1,0,0:0:0:0:
448,192,163212,1,0,0:0:0:0:
192,192,163473,1,0,0:0:0:0:
64,192,163538,1,0,0:0:0:0:
320,192,163603,1,0,0:0:0:0:
192,192,163864,1,0,0:0:0:0:
448,192,163994,1,0,0:0:0:0:
64,192,164255,1,0,0:0:0:0:
320,192,164386,1,0,0:0:0:0:
192,192,164647,1,0,0:0:0:0:
64,192,164777,1,0,0:0:0:0:
320,192,164907,1,0,0:0:0:0:
192,192,165038,1,0,0:0:0:0:
448,192,165168,1,0,0:0:0:0:
64,192,165299,1,0,0:0:0:0:
192,192,165429,1,0,0:0:0:0:
320,192,165560,1,0,0:0:0:0:
448,192,165690,1,0,0:0:0:0:
64,192,165690,1,0,0:0:0:0:
320,192,165951,1,0,0:0:0:0:
192,192,166081,1,0,0:0:0:0:
64,192,166342,1,0,0:0:0:0:
448,192,166473,1,0,0:0:0:0:
320,192,166734,1,0,0:0:0:0:
64,192,166864,1,0,0:0:0:0:
192,192,166994,1,0,0:0:0:0:
320,192,167125,1,0,0:0:0:0:
448,192,167255,1,0,0:0:0:0:
192,192,167386,1,0,0:0:0:0:
64,192,167647,1,0,0:0:0:0:
192,192,167712,1,0,0:0:0:0:
320,192,167777,1,0,0:0:0:0:
192,192,168038,1,0,0:0:0:0:
448,192,168168,1,0,0:0:0:0:
64,192,168429,1,0,0:0:0:0:
320,192,168560,1,0,0:0:0:0:
192,192,168820,1,0,0:0:0:0:
64,192,168951,1,0,0:0:0:0:
320,192,169081,1,0,0:0:0:0:
192,192,169212,1,0,0:0:0:0:
448,192,169342,1,0,0:0:0:0:
320,192,169473,1,0,0:0:0:0:
192,192,169603,1,0,0:0:0:0:
64,192,169734,1,0,0:0:0:0:
320,192,169864,1,0,0:0:0:0:
64,192,170125,1,0,0:0:0:0:
448,192,170255,1,0,0:0:0:0:
320,192,170516,1,0,0:0:0:0:
192,192,170647,1,0,0:0:0:0:
64,192,170907,1,0,0:0:0:0:
320,192,171038,1,0,0:0:0:0:
192,192,171168,1,0,0:0:0:0:
448,192,171299,1,0,0:0:0:0:
320,192,171429,1,0,0:0:0:0:
64,192,171560,1,0,0:0:0:0:
192,192,171820,1,0,0:0:0:0:
320,192,171886,1,0,0:0:0:0:
64,192,171951,1,0,0:0:0:0:
448,192,172081,1,0,0:0:0:0:
192,192,172212,1,0,0:0:0:0:
320,192,172342,1,0,0:0:0:0:
448,192,172342,1,0,0:0:0:0:
64,192,172473,1,0,0:0:0:0:
192,192,172603,1,0,0:0:0:0:
320,192,172734,1,0,0:0:0:0:
64,192,172864,5,0,0:0:0:0:
192,192,172929,1,0,0:0:0:0:
448,192,172994,1,0,0:0:0:0:
320,192,173060,1,0,0:0:0:0:
64,192,173125,1,0,0:0:0:0:
448,192,173190,1,0,0:0:0:0:
192,192,173255,1,0,0:0:0:0:
320,192,173320,1,0,0:0:0:0:
64,192,173386,1,0,0:0:0:0:
192,192,173386,1,0,0:0:0:0:
320,192,173451,1,0,0:0:0:0:
448,192,173516,1,0,0:0:0:0:
192,192,173516,1,0,0:0:0:0:
64,192,173516,1,0,0:0:0:0:
320,192,173647,1,0,0:0:0:0:
192,192,173777,1,0,0:0:0:0:
320,192,173907,1,0,0:0:0:0:
448,192,174038,5,0,0:0:0:0:
192,192,174038,1,0,0:0:0:0:
64,192,174038,1,0,0:0:0:0:
320,192,174168,1,0,0:0:0:0:
192,192,174299,1,0,0:0:0:0:
448,192,174429,1,0,0:0:0:0:
64,192,174560,1,0,0:0:0:0:
192,192,174690,1,0,0:0:0:0:
320,192,174820,1,0,0:0:0:0:
64,192,174951,1,0,0:0:0:0:
192,192,175081,1,0,0:0:0:0:
448,192,175212,1,0,0:0:0:0:
320,192,175342,1,0,0:0:0:0:
192,192,175473,1,0,0:0:0:0:
448,192,175603,1,0,0:0:0:0:
64,192,175734,1,0,0:0:0:0:
192,192,175864,1,0,0:0:0:0:
448,192,175994,1,0,0:0:0:0:
320,192,175994,1,0,0:0:0:0:
192,192,176060,1,0,0:0:0:0:
64,192,176060,1,0,0:0:0:0:
448,192,176125,1,0,0:0:0:0:
320,192,176125,1,0,0:0:0:0:
192,192,176255,1,0,0:0:0:0:
64,192,176255,1,0,0:0:0:0:
320,192,176320,1,0,0:0:0:0:
448,192,176320,1,0,0:0:0:0:
192,192,176386,1,0,0:0:0:0:
64,192,176386,1,0,0:0:0:0:
448,192,176516,1,0,0:0:0:0:
320,192,176516,1,0,0:0:0:0:
192,192,176647,1,0,0:0:0:0:
64,192,176647,1,0,0:0:0:0:
448,192,176712,1,0,0:0:0:0:
320,192,176712,1,0,0:0:0:0:
192,192,176777,1,0,0:0:0:0:
64,192,176777,1,0,0:0:0:0:
448,192,176907,1,0,0:0:0:0:
320,192,176907,1,0,0:0:0:0:
64,192,177038,1,0,0:0:0:0:
192,192,177038,1,0,0:0:0:0:
448,192,177103,1,0,0:0:0:0:
320,192,177103,1,0,0:0:0:0:
192,192,177168,1,0,0:0:0:0:
64,192,177168,1,0,0:0:0:0:
448,192,177234,1,0,0:0:0:0:
320,192,177234,1,0,0:0:0:0:
192,192,177299,1,0,0:0:0:0:
64,192,177299,1,0,0:0:0:0:
448,192,177429,1,0,0:0:0:0:
320,192,177429,1,0,0:0:0:0:
192,192,177494,1,0,0:0:0:0:
64,192,177494,1,0,0:0:0:0:
448,192,177560,1,0,0:0:0:0:
320,192,177560,1,0,0:0:0:0:
64,192,177625,1,0,0:0:0:0:
192,192,177625,1,0,0:0:0:0:
448,192,177690,1,0,0:0:0:0:
320,192,177690,1,0,0:0:0:0:
192,192,177820,1,0,0:0:0:0:
64,192,177820,1,0,0:0:0:0:
448,192,177951,1,0,0:0:0:0:
320,192,177951,1,0,0:0:0:0:
192,192,178081,1,0,0:0:0:0:
448,192,178212,1,0,0:0:0:0:
64,192,178212,1,0,0:0:0:0:
320,192,178212,1,0,0:0:0:0:
192,192,178342,1,0,0:0:0:0:
320,192,178473,1,0,0:0:0:0:
64,192,178603,1,0,0:0:0:0:
448,192,178734,1,0,0:0:0:0:
320,192,178864,1,0,0:0:0:0:
192,192,178994,1,0,0:0:0:0:
448,192,179125,1,0,0:0:0:0:
320,192,179255,1,0,0:0:0:0:
64,192,179386,1,0,0:0:0:0:
192,192,179516,1,0,0:0:0:0:
320,192,179647,1,0,0:0:0:0:
64,192,179777,1,0,0:0:0:0:
448,192,179907,1,0,0:0:0:0:
320,192,180038,1,0,0:0:0:0:
64,192,180168,1,0,0:0:0:0:
192,192,180168,1,0,0:0:0:0:
320,192,180234,1,0,0:0:0:0:
448,192,180234,1,0,0:0:0:0:
64,192,180299,1,0,0:0:0:0:
192,192,180299,1,0,0:0:0:0:
320,192,180429,1,0,0:0:0:0:
448,192,180429,1,0,0:0:0:0:
192,192,180494,1,0,0:0:0:0:
64,192,180494,1,0,0:0:0:0:
320,192,180560,1,0,0:0:0:0:
448,192,180560,1,0,0:0:0:0:
64,192,180690,1,0,0:0:0:0:
192,192,180690,1,0,0:0:0:0:
320,192,180820,1,0,0:0:0:0:
448,192,180820,1,0,0:0:0:0:
64,192,180886,1,0,0:0:0:0:
192,192,180886,1,0,0:0:0:0:
320,192,180951,1,0,0:0:0:0:
448,192,180951,1,0,0:0:0:0:
64,192,181081,1,0,0:0:0:0:
192,192,181081,1,0,0:0:0:0:
448,192,181212,1,0,0:0:0:0:
320,192,181212,1,0,0:0:0:0:
64,192,181277,1,0,0:0:0:0:
192,192,181277,1,0,0:0:0:0:
320,192,181342,1,0,0:0:0:0:
448,192,181342,1,0,0:0:0:0:
192,192,181386,1,0,0:0:0:0:
64,192,181429,1,0,0:0:0:0:
448,192,181473,1,0,0:0:0:0:
320,192,181473,1,0,0:0:0:0:
192,192,181538,1,0,0:0:0:0:
64,192,181538,1,0,0:0:0:0:
448,192,181603,1,0,0:0:0:0:
320,192,181603,1,0,0:0:0:0:
192,192,181647,1,0,0:0:0:0:
64,192,181690,1,0,0:0:0:0:
448,192,181734,1,0,0:0:0:0:
320,192,181734,1,0,0:0:0:0:
192,192,181799,1,0,0:0:0:0:
64,192,181799,1,0,0:0:0:0:
448,192,181864,1,0,0:0:0:0:
320,192,181864,128,0,182320:0:0:0:0:
192,192,181994,128,0,182320:0:0:0:0:
64,192,182125,128,0,182320:0:0:0:0:
448,192,182255,128,0,182320:0:0:0:0:
448,192,182386,1,0,0:0:0:0:
192,192,182386,1,0,0:0:0:0:
64,192,182386,1,0,0:0:0:0:
320,192,182516,1,0,0:0:0:0:
192,192,182647,1,0,0:0:0:0:
448,192,182777,1,0,0:0:0:0:
64,192,182907,1,0,0:0:0:0:
192,192,183038,1,0,0:0:0:0:
320,192,183168,1,0,0:0:0:0:
64,192,183299,1,0,0:0:0:0:
192,192,183429,1,0,0:0:0:0:
448,192,183560,1,0,0:0:0:0:
320,192,183690,1,0,0:0:0:0:
192,192,183820,1,0,0:0:0:0:
448,192,183951,1,0,0:0:0:0:
64,192,184081,1,0,0:0:0:0:
192,192,184212,1,0,0:0:0:0:
448,192,184342,1,0,0:0:0:0:
320,192,184342,1,0,0:0:0:0:
192,192,184407,1,0,0:0:0:0:
64,192,184407,1,0,0:0:0:0:
448,192,184473,1,0,0:0:0:0:
320,192,184473,1,0,0:0:0:0:
192,192,184603,1,0,0:0:0:0:
64,192,184603,1,0,0:0:0:0:
320,192,184668,1,0,0:0:0:0:
448,192,184668,1,0,0:0:0:0:
192,192,184734,1,0,0:0:0:0:
64,192,184734,1,0,0:0:0:0:
448,192,184864,1,0,0:0:0:0:
320,192,184864,1,0,0:0:0:0:
192,192,184994,1,0,0:0:0:0:
64,192,184994,1,0,0:0:0:0:
448,192,185060,1,0,0:0:0:0:
320,192,185060,1,0,0:0:0:0:
192,192,185125,1,0,0:0:0:0:
64,192,185125,1,0,0:0:0:0:
448,192,185255,1,0,0:0:0:0:
320,192,185255,1,0,0:0:0:0:
64,192,185386,1,0,0:0:0:0:
192,192,185386,1,0,0:0:0:0:
448,192,185451,1,0,0:0:0:0:
320,192,185451,1,0,0:0:0:0:
192,192,185516,1,0,0:0:0:0:
64,192,185516,1,0,0:0:0:0:
448,192,185581,1,0,0:0:0:0:
320,192,185581,1,0,0:0:0:0:
192,192,185647,1,0,0:0:0:0:
64,192,185647,1,0,0:0:0:0:
448,192,185777,1,0,0:0:0:0:
320,192,185777,1,0,0:0:0:0:
192,192,185842,1,0,0:0:0:0:
64,192,185842,1,0,0:0:0:0:
448,192,185907,1,0,0:0:0:0:
320,192,185907,1,0,0:0:0:0:
64,192,185973,1,0,0:0:0:0:
192,192,185973,1,0,0:0:0:0:
448,192,186038,1,0,0:0:0:0:
320,192,186038,1,0,0:0:0:0:
192,192,186168,1,0,0:0:0:0:
64,192,186168,1,0,0:0:0:0:
448,192,186299,1,0,0:0:0:0:
320,192,186299,1,0,0:0:0:0:
192,192,186429,1,0,0:0:0:0:
448,192,186560,1,0,0:0:0:0:
64,192,186560,1,0,0:0:0:0:
192,192,186690,1,0,0:0:0:0:
320,192,186820,1,0,0:0:0:0:
64,192,186951,1,0,0:0:0:0:
448,192,187081,1,0,0:0:0:0:
320,192,187212,1,0,0:0:0:0:
192,192,187342,1,0,0:0:0:0:
448,192,187473,1,0,0:0:0:0:
320,192,187603,1,0,0:0:0:0:
64,192,187734,1,0,0:0:0:0:
192,192,187864,1,0,0:0:0:0:
320,192,187994,1,0,0:0:0:0:
64,192,188125,1,0,0:0:0:0:
448,192,188255,1,0,0:0:0:0:
320,192,188386,1,0,0:0:0:0:
64,192,188516,1,0,0:0:0:0:
192,192,188516,1,0,0:0:0:0:
320,192,188581,1,0,0:0:0:0:
448,192,188647,128,0,188907:0:0:0:0:
192,192,188647,128,0,188907:0:0:0:0:
64,192,188647,128,0,188907:0:0:0:0:
64,192,189690,128,0,189951:0:0:0:0:
192,192,189690,128,0,189951:0:0:0:0:
448,192,189690,128,0,189951:0:0:0:0:
320,192,190342,128,0,190473:0:0:0:0:
192,192,190342,128,0,190473:0:0:0:0:
64,192,190342,128,0,190473:0:0:0:0:
192,192,190538,128,0,190668:0:0:0:0:
64,192,190538,128,0,190668:0:0:0:0:
320,192,190538,128,0,190668:0:0:0:0:
448,192,190734,128,0,190994:0:0:0:0:
192,192,190734,128,0,190994:0:0:0:0:
64,192,190734,128,0,190994:0:0:0:0:
64,192,191777,128,0,192038:0:0:0:0:
192,192,191777,128,0,192038:0:0:0:0:
448,192,191777,128,0,192038:0:0:0:0:
448,192,192168,128,0,192429:0:0:0:0:
192,192,192168,128,0,192429:0:0:0:0:
64,192,192168,128,0,192429:0:0:0:0:
64,192,192820,128,0,193081:0:0:0:0:
192,192,192820,128,0,193081:0:0:0:0:
448,192,192820,128,0,193081:0:0:0:0:
448,192,193864,128,0,194125:0:0:0:0:
320,192,193864,128,0,194125:0:0:0:0:
64,192,193864,128,0,194125:0:0:0:0:
64,192,194516,128,0,194647:0:0:0:0:
320,192,194516,128,0,194647:0:0:0:0:
448,192,194516,128,0,194647:0:0:0:0:
448,192,194712,128,0,194842:0:0:0:0:
64,192,194712,128,0,194842:0:0:0:0:
320,192,194712,128,0,194842:0:0:0:0:
320,192,194907,128,0,194973:0:0:0:0:
64,192,194907,128,0,194973:0:0:0:0:
448,192,194907,128,0,194973:0:0:0:0:
320,192,195038,128,0,195103:0:0:0:0:
64,192,195038,128,0,195103:0:0:0:0:
448,192,195038,128,0,195103:0:0:0:0:
448,192,195168,128,0,195429:0:0:0:0:
192,192,195168,128,0,195429:0:0:0:0:
320,192,195168,128,0,195429:0:0:0:0:
448,192,195820,128,0,195951:0:0:0:0:
320,192,195820,128,0,195951:0:0:0:0:
192,192,195820,128,0,195951:0:0:0:0:
192,192,196081,128,0,196212:0:0:0:0:
320,192,196081,128,0,196212:0:0:0:0:
448,192,196081,128,0,196212:0:0:0:0:
448,192,196342,128,0,196473:0:0:0:0:
320,192,196342,128,0,196473:0:0:0:0:
192,192,196342,128,0,196407:0:0:0:0:
64,192,196407,1,0,0:0:0:0:
192,192,196473,1,0,0:0:0:0:
320,192,196538,1,0,0:0:0:0:
192,192,196603,128,0,196668:0:0:0:0:
448,192,196603,128,0,196668:0:0:0:0:
64,192,196603,128,0,196668:0:0:0:0:
320,192,196668,1,0,0:0:0:0:
448,192,196734,128,0,196864:0:0:0:0:
64,192,196734,128,0,196864:0:0:0:0:
192,192,196734,128,0,196799:0:0:0:0:
320,192,196799,1,0,0:0:0:0:
192,192,196864,1,0,0:0:0:0:
64,192,196929,1,0,0:0:0:0:
448,192,196994,1,0,0:0:0:0:
320,192,196994,1,0,0:0:0:0:
192,192,196994,1,0,0:0:0:0:
64,192,197060,1,0,0:0:0:0:
448,192,197125,1,0,0:0:0:0:
320,192,197125,1,0,0:0:0:0:
192,192,197190,1,0,0:0:0:0:
64,192,197190,1,0,0:0:0:0:
320,192,197255,1,0,0:0:0:0:
448,192,197255,1,0,0:0:0:0:
192,192,197320,1,0,0:0:0:0:
448,192,197386,1,0,0:0:0:0:
64,192,197386,1,0,0:0:0:0:
320,192,197451,1,0,0:0:0:0:
192,192,197516,1,0,0:0:0:0:
64,192,197516,1,0,0:0:0:0:
448,192,197581,1,0,0:0:0:0:
320,192,197581,1,0,0:0:0:0:
192,192,197647,1,0,0:0:0:0:
64,192,197647,1,0,0:0:0:0:
448,192,197712,1,0,0:0:0:0:
320,192,197777,1,0,0:0:0:0:
192,192,197777,1,0,0:0:0:0:
64,192,197842,1,0,0:0:0:0:
448,192,197907,1,0,0:0:0:0:
320,192,197907,1,0,0:0:0:0:
192,192,197973,1,0,0:0:0:0:
64,192,197973,1,0,0:0:0:0:
448,192,198038,1,0,0:0:0:0:
320,192,198038,1,0,0:0:0:0:
192,192,198103,1,0,0:0:0:0:
448,192,198168,1,0,0:0:0:0:
320,192,198168,1,0,0:0:0:0:
192,192,198234,1,0,0:0:0:0:
64,192,198234,1,0,0:0:0:0:
448,192,198299,1,0,0:0:0:0:
320,192,198299,1,0,0:0:0:0:
64,192,198364,1,0,0:0:0:0:
192,192,198429,1,0,0:0:0:0:
320,192,198429,1,0,0:0:0:0:
448,192,198494,1,0,0:0:0:0:
192,192,198560,1,0,0:0:0:0:
64,192,198560,1,0,0:0:0:0:
320,192,198625,1,0,0:0:0:0:
448,192,198625,1,0,0:0:0:0:
192,192,198690,1,0,0:0:0:0:
64,192,198690,1,0,0:0:0:0:
320,192,198755,1,0,0:0:0:0:
448,192,198820,1,0,0:0:0:0:
64,192,198820,1,0,0:0:0:0:
192,192,198886,1,0,0:0:0:0:
448,192,198951,1,0,0:0:0:0:
320,192,198951,1,0,0:0:0:0:
192,192,199016,1,0,0:0:0:0:
64,192,199016,1,0,0:0:0:0:
448,192,199081,1,0,0:0:0:0:
320,192,199081,1,0,0:0:0:0:
192,192,199147,1,0,0:0:0:0:
448,192,199212,1,0,0:0:0:0:
320,192,199212,1,0,0:0:0:0:
192,192,199277,1,0,0:0:0:0:
64,192,199277,1,0,0:0:0:0:
320,192,199342,1,0,0:0:0:0:
448,192,199342,1,0,0:0:0:0:
64,192,199407,1,0,0:0:0:0:
320,192,199473,1,0,0:0:0:0:
192,192,199473,1,0,0:0:0:0:
448,192,199538,1,0,0:0:0:0:
192,192,199603,1,0,0:0:0:0:
64,192,199603,1,0,0:0:0:0:
320,192,199668,1,0,0:0:0:0:
448,192,199668,1,0,0:0:0:0:
192,192,199734,1,0,0:0:0:0:
64,192,199734,1,0,0:0:0:0:
320,192,199799,1,0,0:0:0:0:
448,192,199864,1,0,0:0:0:0:
64,192,199864,1,0,0:0:0:0:
192,192,199929,1,0,0:0:0:0:
448,192,199994,1,0,0:0:0:0:
320,192,199994,1,0,0:0:0:0:
192,192,200060,1,0,0:0:0:0:
64,192,200060,1,0,0:0:0:0:
448,192,200125,1,0,0:0:0:0:
320,192,200125,1,0,0:0:0:0:
64,192,200190,1,0,0:0:0:0:
448,192,200255,1,0,0:0:0:0:
320,192,200255,1,0,0:0:0:0:
192,192,200320,1,0,0:0:0:0:
64,192,200320,1,0,0:0:0:0:
448,192,200386,1,0,0:0:0:0:
320,192,200386,1,0,0:0:0:0:
192,192,200451,1,0,0:0:0:0:
448,192,200516,1,0,0:0:0:0:
64,192,200516,1,0,0:0:0:0:
320,192,200581,1,0,0:0:0:0:
192,192,200647,1,0,0:0:0:0:
64,192,200647,1,0,0:0:0:0:
448,192,200712,1,0,0:0:0:0:
320,192,200712,1,0,0:0:0:0:
192,192,200777,1,0,0:0:0:0:
64,192,200777,1,0,0:0:0:0:
320,192,200842,1,0,0:0:0:0:
448,192,200907,1,0,0:0:0:0:
64,192,200907,1,0,0:0:0:0:
192,192,200973,1,0,0:0:0:0:
448,192,201038,1,0,0:0:0:0:
320,192,201038,1,0,0:0:0:0:
192,192,201103,1,0,0:0:0:0:
64,192,201103,1,0,0:0:0:0:
448,192,201168,1,0,0:0:0:0:
320,192,201168,1,0,0:0:0:0:
64,192,201234,1,0,0:0:0:0:
448,192,201299,1,0,0:0:0:0:
192,192,201364,1,0,0:0:0:0:
64,192,201364,1,0,0:0:0:0:
448,192,201429,1,0,0:0:0:0:
320,192,201429,1,0,0:0:0:0:
192,192,201494,1,0,0:0:0:0:
64,192,201560,1,0,0:0:0:0:
448,192,201560,1,0,0:0:0:0:
192,192,201625,1,0,0:0:0:0:
320,192,201690,1,0,0:0:0:0:
448,192,201690,1,0,0:0:0:0:
64,192,201755,1,0,0:0:0:0:
192,192,201755,1,0,0:0:0:0:
320,192,201820,1,0,0:0:0:0:
448,192,201820,1,0,0:0:0:0:
64,192,201886,1,0,0:0:0:0:
192,192,201951,1,0,0:0:0:0:
320,192,201951,1,0,0:0:0:0:
448,192,202016,1,0,0:0:0:0:
64,192,202081,1,0,0:0:0:0:
192,192,202081,1,0,0:0:0:0:
320,192,202147,1,0,0:0:0:0:
448,192,202147,1,0,0:0:0:0:
64,192,202212,1,0,0:0:0:0:
192,192,202212,1,0,0:0:0:0:
320,192,202277,1,0,0:0:0:0:
64,192,202342,1,0,0:0:0:0:
192,192,202342,1,0,0:0:0:0:
320,192,202407,1,0,0:0:0:0:
448,192,202407,1,0,0:0:0:0:
64,192,202473,1,0,0:0:0:0:
192,192,202473,1,0,0:0:0:0:
448,192,202538,1,0,0:0:0:0:
320,192,202603,1,0,0:0:0:0:
192,192,202603,1,0,0:0:0:0:
64,192,202668,1,0,0:0:0:0:
320,192,202734,1,0,0:0:0:0:
448,192,202734,1,0,0:0:0:0:
192,192,202799,1,0,0:0:0:0:
64,192,202799,1,0,0:0:0:0:
320,192,202864,1,0,0:0:0:0:
448,192,202864,1,0,0:0:0:0:
192,192,202929,1,0,0:0:0:0:
64,192,202994,1,0,0:0:0:0:
448,192,202994,1,0,0:0:0:0:
320,192,203060,1,0,0:0:0:0:
64,192,203125,1,0,0:0:0:0:
192,192,203125,1,0,0:0:0:0:
320,192,203190,1,0,0:0:0:0:
448,192,203190,1,0,0:0:0:0:
64,192,203255,1,0,0:0:0:0:
192,192,203255,1,0,0:0:0:0:
320,192,203320,1,0,0:0:0:0:
64,192,203386,1,0,0:0:0:0:
192,192,203386,1,0,0:0:0:0:
320,192,203451,1,0,0:0:0:0:
448,192,203451,1,0,0:0:0:0:
192,192,203516,1,0,0:0:0:0:
64,192,203516,1,0,0:0:0:0:
448,192,203581,1,0,0:0:0:0:
192,192,203647,1,0,0:0:0:0:
320,192,203647,1,0,0:0:0:0:
64,192,203712,1,0,0:0:0:0:
320,192,203777,1,0,0:0:0:0:
448,192,203777,1,0,0:0:0:0:
192,192,203842,1,0,0:0:0:0:
64,192,203842,1,0,0:0:0:0:
320,192,203907,1,0,0:0:0:0:
448,192,203907,1,0,0:0:0:0:
192,192,203973,1,0,0:0:0:0:
64,192,204038,1,0,0:0:0:0:
448,192,204038,1,0,0:0:0:0:
320,192,204103,1,0,0:0:0:0:
64,192,204168,1,0,0:0:0:0:
192,192,204168,1,0,0:0:0:0:
320,192,204234,1,0,0:0:0:0:
448,192,204234,1,0,0:0:0:0:
64,192,204299,1,0,0:0:0:0:
192,192,204299,1,0,0:0:0:0:
448,192,204364,1,0,0:0:0:0:
64,192,204429,1,0,0:0:0:0:
192,192,204429,1,0,0:0:0:0:
320,192,204494,1,0,0:0:0:0:
448,192,204494,1,0,0:0:0:0:
64,192,204560,1,0,0:0:0:0:
192,192,204560,1,0,0:0:0:0:
320,192,204625,1,0,0:0:0:0:
64,192,204690,1,0,0:0:0:0:
448,192,204690,1,0,0:0:0:0:
192,192,204755,1,0,0:0:0:0:
320,192,204820,1,0,0:0:0:0:
448,192,204820,1,0,0:0:0:0:
64,192,204886,1,0,0:0:0:0:
192,192,204886,1,0,0:0:0:0:
320,192,204951,1,0,0:0:0:0:
448,192,204951,1,0,0:0:0:0:
192,192,205016,1,0,0:0:0:0:
64,192,205081,1,0,0:0:0:0:
448,192,205081,1,0,0:0:0:0:
320,192,205147,1,0,0:0:0:0:
64,192,205212,1,0,0:0:0:0:
192,192,205212,1,0,0:0:0:0:
320,192,205277,1,0,0:0:0:0:
448,192,205277,1,0,0:0:0:0:
64,192,205342,1,0,0:0:0:0:
192,192,205342,1,0,0:0:0:0:
320,192,205473,1,0,0:0:0:0:
192,192,205603,1,0,0:0:0:0:
320,192,205734,1,0,0:0:0:0:
64,192,205864,1,0,0:0:0:0:
320,192,205994,1,0,0:0:0:0:
192,192,206125,1,0,0:0:0:0:
320,192,206255,1,0,0:0:0:0:
64,192,206386,128,0,206451:0:0:0:0:
192,192,206451,1,0,0:0:0:0:
320,192,206516,128,0,206581:0:0:0:0:
448,192,206581,1,0,0:0:0:0:
192,192,206647,128,0,206712:0:0:0:0:
64,192,206712,1,0,0:0:0:0:
320,192,206777,128,0,206842:0:0:0:0:
192,192,206842,1,0,0:0:0:0:
64,192,206907,128,0,206973:0:0:0:0:
192,192,206973,1,0,0:0:0:0:
320,192,207038,128,0,207103:0:0:0:0:
448,192,207103,1,0,0:0:0:0:
192,192,207168,128,0,207234:0:0:0:0:
64,192,207234,1,0,0:0:0:0:
320,192,207299,128,0,207364:0:0:0:0:
448,192,207364,1,0,0:0:0:0:
64,192,207429,128,0,207494:0:0:0:0:
192,192,207494,1,0,0:0:0:0:
320,192,207560,128,0,207625:0:0:0:0:
448,192,207625,1,0,0:0:0:0:
192,192,207690,128,0,207755:0:0:0:0:
64,192,207755,1,0,0:0:0:0:
320,192,207820,128,0,207886:0:0:0:0:
192,192,207886,1,0,0:0:0:0:
64,192,207951,128,0,208016:0:0:0:0:
192,192,208016,1,0,0:0:0:0:
320,192,208081,128,0,208147:0:0:0:0:
448,192,208147,1,0,0:0:0:0:
192,192,208212,128,0,208277:0:0:0:0:
64,192,208277,1,0,0:0:0:0:
320,192,208342,128,0,208407:0:0:0:0:
448,192,208407,1,0,0:0:0:0:
64,192,208473,128,0,208538:0:0:0:0:
192,192,208538,1,0,0:0:0:0:
320,192,208603,128,0,208668:0:0:0:0:
448,192,208668,1,0,0:0:0:0:
192,192,208734,128,0,208799:0:0:0:0:
64,192,208799,1,0,0:0:0:0:
320,192,208864,128,0,208929:0:0:0:0:
192,192,208929,1,0,0:0:0:0:
64,192,208994,128,0,209060:0:0:0:0:
192,192,209060,1,0,0:0:0:0:
320,192,209125,128,0,209190:0:0:0:0:
448,192,209190,1,0,0:0:0:0:
64,192,209255,128,0,209386:0:0:0:0:
192,192,209386,128,0,209451:0:0:0:0:
448,192,209516,1,0,0:0:0:0:
320,192,209516,1,0,0:0:0:0:
64,192,209549,1,0,0:0:0:0:
192,192,209581,1,0,0:0:0:0:
320,192,209614,1,0,0:0:0:0:
448,192,209647,1,0,0:0:0:0:
64,192,209679,1,0,0:0:0:0:
192,192,209712,1,0,0:0:0:0:
320,192,209744,1,0,0:0:0:0:
64,192,209777,1,0,0:0:0:0:
448,192,209810,1,0,0:0:0:0:
320,192,209842,1,0,0:0:0:0:
192,192,209875,1,0,0:0:0:0:
448,192,209907,1,0,0:0:0:0:
64,192,209940,1,0,0:0:0:0:
320,192,209973,1,0,0:0:0:0:
192,192,210005,1,0,0:0:0:0:
64,192,210038,1,0,0:0:0:0:
448,192,210070,1,0,0:0:0:0:
320,192,210103,1,0,0:0:0:0:
192,192,210136,1,0,0:0:0:0:
64,192,210168,1,0,0:0:0:0:
448,192,210201,1,0,0:0:0:0:
320,192,210234,1,0,0:0:0:0:
192,192,210266,1,0,0:0:0:0:
448,192,210299,1,0,0:0:0:0:
64,192,210331,1,0,0:0:0:0:
192,192,210364,1,0,0:0:0:0:
320,192,210397,1,0,0:0:0:0:
448,192,210429,1,0,0:0:0:0:
64,192,210462,1,0,0:0:0:0:
192,192,210494,1,0,0:0:0:0:
320,192,210527,1,0,0:0:0:0:
64,192,210560,1,0,0:0:0:0:
448,192,210592,1,0,0:0:0:0:
320,192,210625,1,0,0:0:0:0:
192,192,210657,1,0,0:0:0:0:
448,192,210690,1,0,0:0:0:0:
64,192,210723,1,0,0:0:0:0:
320,192,210755,1,0,0:0:0:0:
192,192,210788,1,0,0:0:0:0:
64,192,210820,1,0,0:0:0:0:
448,192,210853,1,0,0:0:0:0:
192,192,210886,1,0,0:0:0:0:
320,192,210918,1,0,0:0:0:0:
448,192,210951,1,0,0:0:0:0:
64,192,210984,1,0,0:0:0:0:
192,192,211016,1,0,0:0:0:0:
320,192,211049,1,0,0:0:0:0:
448,192,211081,1,0,0:0:0:0:
192,192,211114,1,0,0:0:0:0:
64,192,211147,1,0,0:0:0:0:
320,192,211179,1,0,0:0:0:0:
448,192,211212,1,0,0:0:0:0:
192,192,211244,1,0,0:0:0:0:
64,192,211277,1,0,0:0:0:0:
320,192,211310,1,0,0:0:0:0:
448,192,211342,1,0,0:0:0:0:
192,192,211375,1,0,0:0:0:0:
320,192,211407,1,0,0:0:0:0:
64,192,211440,1,0,0:0:0:0:
192,192,211473,1,0,0:0:0:0:
320,192,211505,1,0,0:0:0:0:
448,192,211538,1,0,0:0:0:0:
64,192,211570,1,0,0:0:0:0:
320,192,211603,1,0,0:0:0:0:
192,192,211603,1,0,0:0:0:0:
64,192,211668,1,0,0:0:0:0:
320,192,211734,1,0,0:0:0:0:
448,192,211799,1,0,0:0:0:0:
64,192,211864,128,0,211929:0:0:0:0:
192,192,211864,128,0,211929:0:0:0:0:
320,192,211929,128,0,211994:0:0:0:0:
192,192,211994,128,0,212060:0:0:0:0:
448,192,212060,128,0,212125:0:0:0:0:
64,192,212125,128,0,212255:0:0:0:0:
320,192,212125,128,0,212320:0:0:0:0:
192,192,212190,128,0,212255:0:0:0:0:
448,192,212255,128,0,212320:0:0:0:0:
64,192,212320,128,0,212386:0:0:0:0:
192,192,212386,128,0,212516:0:0:0:0:
320,192,212386,128,0,212581:0:0:0:0:
448,192,212451,128,0,212581:0:0:0:0:
64,192,212516,128,0,212581:0:0:0:0:
192,192,212581,128,0,212647:0:0:0:0:
320,192,212647,128,0,212777:0:0:0:0:
448,192,212647,128,0,212777:0:0:0:0:
192,192,212712,128,0,212842:0:0:0:0:
64,192,212777,128,0,212907:0:0:0:0:
448,192,212842,128,0,212907:0:0:0:0:
320,192,212907,128,0,212973:0:0:0:0:
192,192,212973,128,0,213038:0:0:0:0:
448,192,213038,128,0,213103:0:0:0:0:
64,192,213103,128,0,213168:0:0:0:0:
192,192,213168,128,0,213234:0:0:0:0:
448,192,213234,128,0,213299:0:0:0:0:
64,192,213299,128,0,213364:0:0:0:0:
320,192,213364,128,0,213429:0:0:0:0:
192,192,213429,1,0,0:0:0:0:
64,192,213429,1,0,0:0:0:0:
64,192,213560,5,0,0:0:0:0:
448,192,213690,1,0,0:0:0:0:
320,192,213723,1,0,0:0:0:0:
192,192,213755,1,0,0:0:0:0:
64,192,214081,1,0,0:0:0:0:
192,192,214212,1,0,0:0:0:0:
320,192,214244,1,0,0:0:0:0:
448,192,214277,1,0,0:0:0:0:
64,192,214310,1,0,0:0:0:0:
192,192,214342,1,0,0:0:0:0:
320,192,214473,128,0,214668:0:0:0:0:
448,192,214473,128,0,214668:0:0:0:0:
64,192,214473,128,0,214668:0:0:0:0:
448,192,214734,5,0,0:0:0:0:
64,192,214734,128,0,214799:0:0:0:0:
192,192,214734,128,0,214799:0:0:0:0:
320,192,214799,1,0,0:0:0:0:
192,192,214864,128,0,214929:0:0:0:0:
448,192,214864,128,0,214929:0:0:0:0:
64,192,214929,1,0,0:0:0:0:
320,192,214994,128,0,215060:0:0:0:0:
448,192,214994,128,0,215060:0:0:0:0:
192,192,215060,1,0,0:0:0:0:
64,192,215125,128,0,215190:0:0:0:0:
448,192,215125,128,0,215190:0:0:0:0:
320,192,215190,1,0,0:0:0:0:
192,192,215255,128,0,215320:0:0:0:0:
64,192,215255,128,0,215320:0:0:0:0:
320,192,215320,1,0,0:0:0:0:
64,192,215386,128,0,215451:0:0:0:0:
448,192,215386,128,0,215451:0:0:0:0:
192,192,215451,1,0,0:0:0:0:
320,192,215516,128,0,215581:0:0:0:0:
448,192,215516,128,0,215581:0:0:0:0:
192,192,215581,1,0,0:0:0:0:
448,192,215647,128,0,215712:0:0:0:0:
64,192,215647,128,0,215712:0:0:0:0:
320,192,215712,1,0,0:0:0:0:
192,192,215777,128,0,215842:0:0:0:0:
64,192,215777,128,0,215842:0:0:0:0:
320,192,215842,1,0,0:0:0:0:
448,192,215907,128,0,215973:0:0:0:0:
192,192,215907,128,0,215973:0:0:0:0:
64,192,215973,1,0,0:0:0:0:
448,192,216038,128,0,216103:0:0:0:0:
320,192,216038,128,0,216168:0:0:0:0:
192,192,216103,128,0,216168:0:0:0:0:
64,192,216168,128,0,216234:0:0:0:0:
448,192,216168,128,0,216234:0:0:0:0:
192,192,216234,1,0,0:0:0:0:
320,192,216299,128,0,216364:0:0:0:0:
448,192,216299,128,0,216364:0:0:0:0:
64,192,216364,1,0,0:0:0:0:
192,192,216429,128,0,216494:0:0:0:0:
320,192,216429,128,0,216560:0:0:0:0:
448,192,216494,128,0,216560:0:0:0:0:
192,192,216560,128,0,216690:0:0:0:0:
64,192,216560,128,0,216625:0:0:0:0:
320,192,216625,128,0,216690:0:0:0:0:
64,192,216690,128,0,216755:0:0:0:0:
448,192,216690,128,0,216755:0:0:0:0:
192,192,216755,1,0,0:0:0:0:
320,192,216820,128,0,216886:0:0:0:0:
448,192,216820,128,0,216886:0:0:0:0:
192,192,216886,1,0,0:0:0:0:
448,192,216951,128,0,217016:0:0:0:0:
64,192,216951,128,0,217016:0:0:0:0:
320,192,217016,1,0,0:0:0:0:
192,192,217081,128,0,217147:0:0:0:0:
64,192,217081,128,0,217147:0:0:0:0:
448,192,217147,1,0,0:0:0:0:
192,192,217212,128,0,217277:0:0:0:0:
320,192,217212,128,0,217277:0:0:0:0:
64,192,217277,1,0,0:0:0:0:
320,192,217342,128,0,217407:0:0:0:0:
448,192,217342,128,0,217407:0:0:0:0:
192,192,217407,1,0,0:0:0:0:
448,192,217473,128,0,217538:0:0:0:0:
64,192,217473,128,0,217538:0:0:0:0:
320,192,217538,1,0,0:0:0:0:
192,192,217603,128,0,217668:0:0:0:0:
64,192,217603,128,0,217668:0:0:0:0:
448,192,217668,1,0,0:0:0:0:
192,192,217734,128,0,217799:0:0:0:0:
320,192,217734,128,0,217799:0:0:0:0:
448,192,217799,1,0,0:0:0:0:
320,192,217864,128,0,217929:0:0:0:0:
64,192,217864,128,0,217929:0:0:0:0:
192,192,217929,1,0,0:0:0:0:
320,192,217994,128,0,218125:0:0:0:0:
448,192,217994,128,0,218060:0:0:0:0:
64,192,218060,128,0,218125:0:0:0:0:
192,192,218125,128,0,218190:0:0:0:0:
448,192,218125,128,0,218255:0:0:0:0:
320,192,218190,128,0,218255:0:0:0:0:
192,192,218255,128,0,218320:0:0:0:0:
64,192,218255,128,0,218320:0:0:0:0:
448,192,218320,1,0,0:0:0:0:
64,192,218386,128,0,218451:0:0:0:0:
192,192,218386,128,0,218451:0:0:0:0:
320,192,218451,1,0,0:0:0:0:
192,192,218516,128,0,218581:0:0:0:0:
448,192,218516,128,0,218581:0:0:0:0:
320,192,218581,128,0,218647:0:0:0:0:
448,192,218647,128,0,218712:0:0:0:0:
64,192,218647,128,0,218712:0:0:0:0:
192,192,218712,1,0,0:0:0:0:
320,192,218777,128,0,218842:0:0:0:0:
64,192,218777,128,0,218842:0:0:0:0:
448,192,218842,1,0,0:0:0:0:
320,192,218907,128,0,219038:0:0:0:0:
192,192,218907,128,0,219103:0:0:0:0:
64,192,218973,128,0,219103:0:0:0:0:
448,192,219038,128,0,219103:0:0:0:0:
320,192,219103,128,0,219168:0:0:0:0:
64,192,219168,128,0,219299:0:0:0:0:
192,192,219168,128,0,219299:0:0:0:0:
320,192,219234,128,0,219299:0:0:0:0:
448,192,219299,128,0,219364:0:0:0:0:
64,192,219364,128,0,219429:0:0:0:0:
192,192,219429,128,0,219494:0:0:0:0:
448,192,219429,128,0,219494:0:0:0:0:
320,192,219494,1,0,0:0:0:0:
64,192,219560,128,0,219625:0:0:0:0:
192,192,219625,128,0,219690:0:0:0:0:
320,192,219690,128,0,219886:0:0:0:0:
448,192,219690,128,0,219755:0:0:0:0:
192,192,219755,128,0,219886:0:0:0:0:
448,192,219820,128,0,219951:0:0:0:0:
64,192,219886,128,0,219951:0:0:0:0:
192,192,219951,128,0,220081:0:0:0:0:
320,192,219951,128,0,220147:0:0:0:0:
448,192,220016,128,0,220147:0:0:0:0:
64,192,220081,128,0,220147:0:0:0:0:
192,192,220147,128,0,220212:0:0:0:0:
320,192,220212,128,0,220342:0:0:0:0:
448,192,220212,128,0,220277:0:0:0:0:
64,192,220277,128,0,220342:0:0:0:0:
448,192,220342,128,0,220407:0:0:0:0:
192,192,220407,128,0,220473:0:0:0:0:
320,192,220473,128,0,220668:0:0:0:0:
64,192,220473,128,0,220538:0:0:0:0:
448,192,220538,128,0,220668:0:0:0:0:
64,192,220603,128,0,220864:0:0:0:0:
192,192,220668,128,0,220734:0:0:0:0:
320,192,220734,128,0,220929:0:0:0:0:
448,192,220734,128,0,220799:0:0:0:0:
192,192,220799,128,0,220929:0:0:0:0:
448,192,220864,128,0,220994:0:0:0:0:
64,192,220929,128,0,220994:0:0:0:0:
192,192,220994,128,0,221190:0:0:0:0:
320,192,220994,128,0,221125:0:0:0:0:
448,192,221060,128,0,221190:0:0:0:0:
64,192,221125,128,0,221190:0:0:0:0:
320,192,221190,128,0,221320:0:0:0:0:
192,192,221255,128,0,221386:0:0:0:0:
64,192,221255,128,0,221386:0:0:0:0:
448,192,221320,128,0,221386:0:0:0:0:
320,192,221386,128,0,221516:0:0:0:0:
192,192,221451,128,0,221516:0:0:0:0:
64,192,221516,128,0,221581:0:0:0:0:
448,192,221516,128,0,221581:0:0:0:0:
320,192,221581,1,0,0:0:0:0:
192,192,221647,128,0,221712:0:0:0:0:
448,192,221712,1,0,0:0:0:0:
320,192,221777,128,0,221842:0:0:0:0:
64,192,221777,128,0,221842:0:0:0:0:
192,192,221842,1,0,0:0:0:0:
448,192,221907,128,0,221973:0:0:0:0:
64,192,221973,1,0,0:0:0:0:
192,192,222038,128,0,222168:0:0:0:0:
320,192,222038,128,0,222234:0:0:0:0:
448,192,222103,128,0,222234:0:0:0:0:
64,192,222168,128,0,222234:0:0:0:0:
192,192,222234,128,0,222299:0:0:0:0:
448,192,222299,128,0,222429:0:0:0:0:
320,192,222299,128,0,222364:0:0:0:0:
64,192,222364,128,0,222429:0:0:0:0:
192,192,222429,128,0,222494:0:0:0:0:
320,192,222494,128,0,222560:0:0:0:0:
64,192,222560,128,0,222755:0:0:0:0:
448,192,222560,128,0,222625:0:0:0:0:
192,192,222625,128,0,222690:0:0:0:0:
320,192,222690,128,0,222755:0:0:0:0:
448,192,222690,128,0,222755:0:0:0:0:
192,192,222755,128,0,222820:0:0:0:0:
448,192,222820,128,0,222951:0:0:0:0:
320,192,222820,128,0,222886:0:0:0:0:
64,192,222820,128,0,223016:0:0:0:0:
192,192,222886,128,0,223016:0:0:0:0:
320,192,222951,128,0,223016:0:0:0:0:
448,192,223016,128,0,223081:0:0:0:0:
192,192,223081,128,0,223147:0:0:0:0:
64,192,223081,128,0,223147:0:0:0:0:
320,192,223147,1,0,0:0:0:0:
192,192,223212,128,0,223277:0:0:0:0:
64,192,223212,128,0,223277:0:0:0:0:
448,192,223277,1,0,0:0:0:0:
320,192,223277,1,0,0:0:0:0:
192,192,223342,128,0,223407:0:0:0:0:
64,192,223342,128,0,223407:0:0:0:0:
448,192,223407,1,0,0:0:0:0:
192,192,223473,128,0,223538:0:0:0:0:
320,192,223473,128,0,223538:0:0:0:0:
64,192,223538,1,0,0:0:0:0:
320,192,223603,128,0,223668:0:0:0:0:
448,192,223603,128,0,223668:0:0:0:0:
192,192,223668,1,0,0:0:0:0:
448,192,223734,128,0,223799:0:0:0:0:
64,192,223734,128,0,223799:0:0:0:0:
320,192,223799,1,0,0:0:0:0:
64,192,223864,128,0,223929:0:0:0:0:
192,192,223864,128,0,223929:0:0:0:0:
320,192,223929,1,0,0:0:0:0:
64,192,223994,128,0,224060:0:0:0:0:
448,192,223994,128,0,224060:0:0:0:0:
192,192,224060,1,0,0:0:0:0:
320,192,224125,128,0,224190:0:0:0:0:
448,192,224125,128,0,224190:0:0:0:0:
192,192,224190,1,0,0:0:0:0:
64,192,224255,128,0,224320:0:0:0:0:
320,192,224255,128,0,224386:0:0:0:0:
192,192,224320,128,0,224386:0:0:0:0:
448,192,224386,128,0,224451:0:0:0:0:
64,192,224386,128,0,224516:0:0:0:0:
320,192,224451,128,0,224516:0:0:0:0:
448,192,224516,128,0,224581:0:0:0:0:
192,192,224516,128,0,224647:0:0:0:0:
320,192,224581,128,0,224647:0:0:0:0:
64,192,224647,128,0,224712:0:0:0:0:
448,192,224647,128,0,224777:0:0:0:0:
192,192,224712,128,0,224777:0:0:0:0:
64,192,224777,128,0,224907:0:0:0:0:
320,192,224777,128,0,224842:0:0:0:0:
448,192,224842,128,0,224907:0:0:0:0:
192,192,224907,128,0,224973:0:0:0:0:
320,192,224907,128,0,224973:0:0:0:0:
64,192,224973,1,0,0:0:0:0:
320,192,225038,128,0,225103:0:0:0:0:
448,192,225038,128,0,225103:0:0:0:0:
192,192,225103,1,0,0:0:0:0:
64,192,225168,128,0,225234:0:0:0:0:
448,192,225168,128,0,225234:0:0:0:0:
320,192,225234,1,0,0:0:0:0:
192,192,225299,128,0,225364:0:0:0:0:
64,192,225299,128,0,225364:0:0:0:0:
320,192,225364,1,0,0:0:0:0:
192,192,225429,128,0,225494:0:0:0:0:
448,192,225429,128,0,225494:0:0:0:0:
64,192,225494,1,0,0:0:0:0:
320,192,225560,128,0,225625:0:0:0:0:
448,192,225560,128,0,225625:0:0:0:0:
192,192,225625,1,0,0:0:0:0:
64,192,225690,128,0,225755:0:0:0:0:
448,192,225690,128,0,225755:0:0:0:0:
320,192,225755,1,0,0:0:0:0:
192,192,225820,128,0,225886:0:0:0:0:
64,192,225820,128,0,225886:0:0:0:0:
320,192,225886,1,0,0:0:0:0:
192,192,225951,128,0,226016:0:0:0:0:
448,192,225951,128,0,226016:0:0:0:0:
64,192,226016,1,0,0:0:0:0:
320,192,226081,128,0,226212:0:0:0:0:
192,192,226081,128,0,226147:0:0:0:0:
448,192,226147,128,0,226212:0:0:0:0:
64,192,226212,128,0,226277:0:0:0:0:
192,192,226212,128,0,226277:0:0:0:0:
320,192,226277,1,0,0:0:0:0:
448,192,226342,128,0,226473:0:0:0:0:
64,192,226342,128,0,226407:0:0:0:0:
320,192,226407,128,0,226473:0:0:0:0:
192,192,226473,128,0,226603:0:0:0:0:
64,192,226473,128,0,226538:0:0:0:0:
448,192,226538,128,0,226603:0:0:0:0:
320,192,226603,128,0,226668:0:0:0:0:
64,192,226603,128,0,226668:0:0:0:0:
192,192,226668,1,0,0:0:0:0:
320,192,226734,128,0,226864:0:0:0:0:
448,192,226734,128,0,226799:0:0:0:0:
192,192,226799,128,0,226864:0:0:0:0:
64,192,226864,128,0,226929:0:0:0:0:
448,192,226864,128,0,226994:0:0:0:0:
320,192,226929,128,0,226994:0:0:0:0:
192,192,226994,128,0,227060:0:0:0:0:
64,192,226994,128,0,227060:0:0:0:0:
320,192,227060,1,0,0:0:0:0:
64,192,227125,128,0,227190:0:0:0:0:
448,192,227125,128,0,227190:0:0:0:0:
192,192,227190,1,0,0:0:0:0:
320,192,227255,128,0,227386:0:0:0:0:
448,192,227255,128,0,227386:0:0:0:0:
64,192,227320,128,0,227451:0:0:0:0:
192,192,227386,128,0,227451:0:0:0:0:
448,192,227451,128,0,227581:0:0:0:0:
320,192,227516,128,0,227581:0:0:0:0:
64,192,227516,128,0,227647:0:0:0:0:
192,192,227581,128,0,227647:0:0:0:0:
320,192,227647,128,0,227712:0:0:0:0:
448,192,227712,128,0,227777:0:0:0:0:
192,192,227777,128,0,227842:0:0:0:0:
64,192,227777,128,0,227842:0:0:0:0:
320,192,227842,1,0,0:0:0:0:
64,192,227907,128,0,227973:0:0:0:0:
448,192,227973,128,0,228038:0:0:0:0:
192,192,228038,128,0,228103:0:0:0:0:
320,192,228038,128,0,228103:0:0:0:0:
64,192,228103,1,0,0:0:0:0:
448,192,228168,128,0,228234:0:0:0:0:
192,192,228234,128,0,228299:0:0:0:0:
320,192,228299,128,0,228429:0:0:0:0:
64,192,228299,128,0,228494:0:0:0:0:
448,192,228364,128,0,228429:0:0:0:0:
192,192,228429,128,0,228494:0:0:0:0:
320,192,228494,128,0,228625:0:0:0:0:
448,192,228560,128,0,228690:0:0:0:0:
64,192,228560,128,0,228690:0:0:0:0:
192,192,228625,128,0,228690:0:0:0:0:
320,192,228690,128,0,228755:0:0:0:0:
64,192,228755,128,0,228820:0:0:0:0:
448,192,228820,128,0,229016:0:0:0:0:
192,192,228820,1,0,0:0:0:0:
320,192,228886,1,0,0:0:0:0:
64,192,228951,128,0,229147:0:0:0:0:
192,192,229016,128,0,229081:0:0:0:0:
320,192,229081,128,0,229342:0:0:0:0:
448,192,229081,128,0,229212:0:0:0:0:
192,192,229147,128,0,229277:0:0:0:0:
64,192,229212,128,0,229277:0:0:0:0:
448,192,229277,128,0,229342:0:0:0:0:
64,192,229342,128,0,229473:0:0:0:0:
192,192,229342,128,0,229473:0:0:0:0:
320,192,229407,128,0,229538:0:0:0:0:
448,192,229473,128,0,229538:0:0:0:0:
192,192,229538,128,0,229668:0:0:0:0:
320,192,229603,128,0,229668:0:0:0:0:
448,192,229603,128,0,229668:0:0:0:0:
64,192,229668,128,0,229734:0:0:0:0:
320,192,229734,128,0,229864:0:0:0:0:
448,192,229734,128,0,229799:0:0:0:0:
192,192,229799,128,0,229864:0:0:0:0:
448,192,229864,128,0,229929:0:0:0:0:
320,192,229929,128,0,229994:0:0:0:0:
192,192,229994,128,0,230125:0:0:0:0:
64,192,229994,128,0,230060:0:0:0:0:
320,192,230060,128,0,230125:0:0:0:0:
448,192,230125,128,0,230190:0:0:0:0:
64,192,230125,128,0,230255:0:0:0:0:
192,192,230190,128,0,230255:0:0:0:0:
448,192,230255,128,0,230386:0:0:0:0:
320,192,230255,128,0,230320:0:0:0:0:
192,192,230320,128,0,230386:0:0:0:0:
64,192,230386,128,0,230516:0:0:0:0:
320,192,230451,128,0,230581:0:0:0:0:
448,192,230516,128,0,230581:0:0:0:0:
192,192,230516,128,0,230647:0:0:0:0:
64,192,230581,128,0,230647:0:0:0:0:
448,192,230647,1,0,0:0:0:0:
320,192,230647,1,0,0:0:0:0:
192,192,230712,1,0,0:0:0:0:
64,192,230777,128,0,230907:0:0:0:0:
320,192,230777,128,0,230973:0:0:0:0:
448,192,230842,128,0,230973:0:0:0:0:
192,192,230907,128,0,231038:0:0:0:0:
64,192,230973,128,0,231038:0:0:0:0:
320,192,231038,1,0,0:0:0:0:
448,192,231038,128,0,231103:0:0:0:0:
64,192,231103,1,0,0:0:0:0:
192,192,231103,128,0,231168:0:0:0:0:
448,192,231168,1,0,0:0:0:0:
320,192,231168,128,0,231234:0:0:0:0:
192,192,231234,128,0,231299:0:0:0:0:
320,192,231299,1,0,0:0:0:0:
448,192,231299,128,0,231364:0:0:0:0:
192,192,231364,1,0,0:0:0:0:
64,192,231364,128,0,231429:0:0:0:0:
320,192,231429,1,0,0:0:0:0:
448,192,231429,128,0,231494:0:0:0:0:
192,192,231494,1,0,0:0:0:0:
64,192,231560,128,0,231625:0:0:0:0:
320,192,231625,1,0,0:0:0:0:
192,192,231690,128,0,231755:0:0:0:0:
448,192,231755,1,0,0:0:0:0:
320,192,231820,128,0,231886:0:0:0:0:
64,192,231886,1,0,0:0:0:0:
192,192,231951,128,0,232016:0:0:0:0:
320,192,232016,1,0,0:0:0:0:
64,192,232081,128,0,232147:0:0:0:0:
448,192,232147,1,0,0:0:0:0:
192,192,232212,128,0,232277:0:0:0:0:
320,192,232277,1,0,0:0:0:0:
448,192,232342,128,0,232407:0:0:0:0:
64,192,232407,1,0,0:0:0:0:
448,192,232473,128,0,232603:0:0:0:0:
320,192,232473,128,0,232538:0:0:0:0:
192,192,232538,1,0,0:0:0:0:
320,192,232603,128,0,232668:0:0:0:0:
64,192,232668,1,0,0:0:0:0:
192,192,232734,128,0,232799:0:0:0:0:
320,192,232799,128,0,232864:0:0:0:0:
64,192,232864,128,0,232994:0:0:0:0:
448,192,232864,128,0,232929:0:0:0:0:
192,192,232929,1,0,0:0:0:0:
320,192,232994,128,0,233060:0:0:0:0:
64,192,233060,1,0,0:0:0:0:
192,192,233125,128,0,233190:0:0:0:0:
448,192,233190,128,0,233255:0:0:0:0:
192,192,233255,1,0,0:0:0:0:
64,192,233255,128,0,233320:0:0:0:0:
320,192,233320,1,0,0:0:0:0:
64,192,233386,1,0,0:0:0:0:
192,192,233386,128,0,233451:0:0:0:0:
320,192,233451,1,0,0:0:0:0:
448,192,233451,1,0,0:0:0:0:
192,192,233516,1,0,0:0:0:0:
64,192,233516,128,0,233581:0:0:0:0:
448,192,233581,1,0,0:0:0:0:
320,192,233647,128,0,233712:0:0:0:0:
192,192,233712,1,0,0:0:0:0:
448,192,233777,128,0,233842:0:0:0:0:
64,192,233842,1,0,0:0:0:0:
320,192,233907,128,0,233973:0:0:0:0:
192,192,233973,1,0,0:0:0:0:
448,192,234038,128,0,234103:0:0:0:0:
320,192,234103,1,0,0:0:0:0:
64,192,234168,128,0,234234:0:0:0:0:
192,192,234234,1,0,0:0:0:0:
320,192,234299,128,0,234364:0:0:0:0:
64,192,234364,1,0,0:0:0:0:
192,192,234429,128,0,234494:0:0:0:0:
448,192,234494,1,0,0:0:0:0:
192,192,234560,128,0,234690:0:0:0:0:
64,192,234560,128,0,234625:0:0:0:0:
320,192,234625,1,0,0:0:0:0:
64,192,234690,128,0,234755:0:0:0:0:
448,192,234755,128,0,234820:0:0:0:0:
320,192,234820,128,0,234886:0:0:0:0:
192,192,234886,128,0,234951:0:0:0:0:
448,192,234951,128,0,235081:0:0:0:0:
320,192,234951,128,0,235016:0:0:0:0:
192,192,235016,1,0,0:0:0:0:
64,192,235081,128,0,235147:0:0:0:0:
320,192,235147,128,0,235212:0:0:0:0:
64,192,235212,128,0,235277:0:0:0:0:
192,192,235277,128,0,235342:0:0:0:0:
320,192,235342,128,0,235407:0:0:0:0:
448,192,235342,128,0,235407:0:0:0:0:
64,192,235407,1,0,0:0:0:0:
320,192,235473,128,0,235538:0:0:0:0:
448,192,235473,128,0,235538:0:0:0:0:
64,192,235538,1,0,0:0:0:0:
192,192,235538,1,0,0:0:0:0:
320,192,235603,128,0,235799:0:0:0:0:
448,192,235603,128,0,235734:0:0:0:0:
192,192,235668,128,0,235799:0:0:0:0:
64,192,235734,128,0,235799:0:0:0:0:
448,192,235799,128,0,235864:0:0:0:0:
320,192,235864,128,0,235994:0:0:0:0:
64,192,235864,128,0,235994:0:0:0:0:
192,192,235929,128,0,235994:0:0:0:0:
448,192,235994,128,0,236060:0:0:0:0:
320,192,236060,128,0,236125:0:0:0:0:
64,192,236125,128,0,236190:0:0:0:0:
192,192,236125,128,0,236190:0:0:0:0:
320,192,236190,1,0,0:0:0:0:
448,192,236255,128,0,236320:0:0:0:0:
320,192,236320,128,0,236386:0:0:0:0:
64,192,236386,128,0,236451:0:0:0:0:
192,192,236386,128,0,236581:0:0:0:0:
320,192,236451,128,0,236581:0:0:0:0:
64,192,236516,128,0,236647:0:0:0:0:
448,192,236581,128,0,236647:0:0:0:0:
192,192,236647,128,0,236842:0:0:0:0:
320,192,236647,128,0,236777:0:0:0:0:
64,192,236712,128,0,236842:0:0:0:0:
448,192,236777,128,0,236842:0:0:0:0:
320,192,236842,128,0,236907:0:0:0:0:
64,192,236907,128,0,236973:0:0:0:0:
192,192,236907,128,0,237038:0:0:0:0:
448,192,236973,128,0,237038:0:0:0:0:
64,192,237038,128,0,237103:0:0:0:0:
320,192,237103,128,0,237168:0:0:0:0:
448,192,237168,128,0,237234:0:0:0:0:
192,192,237168,128,0,237364:0:0:0:0:
64,192,237234,128,0,237364:0:0:0:0:
448,192,237299,128,0,237560:0:0:0:0:
320,192,237364,128,0,237429:0:0:0:0:
64,192,237429,128,0,237494:0:0:0:0:
192,192,237429,128,0,237625:0:0:0:0:
320,192,237494,128,0,237625:0:0:0:0:
64,192,237560,128,0,237690:0:0:0:0:
448,192,237625,128,0,237690:0:0:0:0:
192,192,237690,128,0,237755:0:0:0:0:
320,192,237690,128,0,237820:0:0:0:0:
64,192,237755,128,0,237886:0:0:0:0:
448,192,237820,128,0,237886:0:0:0:0:
192,192,237820,128,0,237886:0:0:0:0:
320,192,237886,128,0,238016:0:0:0:0:
448,192,237951,128,0,238081:0:0:0:0:
192,192,237951,128,0,238016:0:0:0:0:
64,192,238016,128,0,238081:0:0:0:0:
192,192,238081,128,0,238212:0:0:0:0:
320,192,238147,128,0,238212:0:0:0:0:
64,192,238212,128,0,238277:0:0:0:0:
448,192,238212,128,0,238277:0:0:0:0:
192,192,238277,1,0,0:0:0:0:
320,192,238342,128,0,238407:0:0:0:0:
64,192,238407,1,0,0:0:0:0:
448,192,238473,128,0,238538:0:0:0:0:
192,192,238473,128,0,238538:0:0:0:0:
320,192,238538,1,0,0:0:0:0:
64,192,238603,128,0,238668:0:0:0:0:
448,192,238668,1,0,0:0:0:0:
192,192,238734,128,0,238929:0:0:0:0:
320,192,238734,128,0,238864:0:0:0:0:
64,192,238799,128,0,238929:0:0:0:0:
448,192,238864,128,0,238929:0:0:0:0:
320,192,238929,128,0,238994:0:0:0:0:
192,192,238994,128,0,239060:0:0:0:0:
64,192,238994,128,0,239125:0:0:0:0:
448,192,239060,128,0,239125:0:0:0:0:
320,192,239125,128,0,239190:0:0:0:0:
192,192,239190,128,0,239255:0:0:0:0:
64,192,239255,128,0,239320:0:0:0:0:
448,192,239255,128,0,239451:0:0:0:0:
320,192,239320,128,0,239386:0:0:0:0:
64,192,239386,128,0,239451:0:0:0:0:
192,192,239386,128,0,239451:0:0:0:0:
320,192,239451,128,0,239516:0:0:0:0:
448,192,239516,128,0,239712:0:0:0:0:
192,192,239516,128,0,239581:0:0:0:0:
64,192,239516,128,0,239647:0:0:0:0:
320,192,239581,128,0,239712:0:0:0:0:
192,192,239647,128,0,239712:0:0:0:0:
64,192,239712,128,0,239777:0:0:0:0:
320,192,239777,128,0,239842:0:0:0:0:
448,192,239777,128,0,239842:0:0:0:0:
192,192,239842,1,0,0:0:0:0:
448,192,239907,128,0,239973:0:0:0:0:
64,192,239907,128,0,239973:0:0:0:0:
320,192,239973,1,0,0:0:0:0:
192,192,240038,128,0,240103:0:0:0:0:
64,192,240038,128,0,240103:0:0:0:0:
320,192,240103,1,0,0:0:0:0:
192,192,240168,128,0,240234:0:0:0:0:
448,192,240168,128,0,240234:0:0:0:0:
64,192,240234,1,0,0:0:0:0:
320,192,240299,128,0,240364:0:0:0:0:
448,192,240299,128,0,240364:0:0:0:0:
192,192,240364,1,0,0:0:0:0:
448,192,240429,128,0,240494:0:0:0:0:
64,192,240429,128,0,240494:0:0:0:0:
320,192,240494,1,0,0:0:0:0:
64,192,240560,128,0,240625:0:0:0:0:
192,192,240560,128,0,240625:0:0:0:0:
320,192,240625,1,0,0:0:0:0:
448,192,240690,128,0,240755:0:0:0:0:
64,192,240690,128,0,240755:0:0:0:0:
192,192,240755,1,0,0:0:0:0:
320,192,240820,128,0,240886:0:0:0:0:
64,192,240820,128,0,240886:0:0:0:0:
448,192,240886,1,0,0:0:0:0:
320,192,240951,128,0,241081:0:0:0:0:
192,192,241016,128,0,241147:0:0:0:0:
64,192,241081,128,0,241212:0:0:0:0:
320,192,241147,128,0,241212:0:0:0:0:
192,192,241212,128,0,241277:0:0:0:0:
448,192,241212,128,0,241277:0:0:0:0:
64,192,241277,1,0,0:0:0:0:
320,192,241342,128,0,241473:0:0:0:0:
192,192,241407,128,0,241538:0:0:0:0:
448,192,241473,128,0,241603:0:0:0:0:
320,192,241538,128,0,241603:0:0:0:0:
192,192,241603,128,0,241668:0:0:0:0:
64,192,241603,128,0,241668:0:0:0:0:
320,192,241668,1,0,0:0:0:0:
192,192,241734,128,0,241799:0:0:0:0:
64,192,241734,128,0,241799:0:0:0:0:
448,192,241799,1,0,0:0:0:0:
320,192,241799,1,0,0:0:0:0:
192,192,241864,128,0,241929:0:0:0:0:
64,192,241864,128,0,241929:0:0:0:0:
448,192,241929,1,0,0:0:0:0:
192,192,241994,128,0,242060:0:0:0:0:
320,192,241994,128,0,242060:0:0:0:0:
64,192,242060,1,0,0:0:0:0:
320,192,242125,128,0,242190:0:0:0:0:
448,192,242125,128,0,242190:0:0:0:0:
64,192,242190,1,0,0:0:0:0:
192,192,242255,128,0,242320:0:0:0:0:
320,192,242255,128,0,242320:0:0:0:0:
448,192,242320,1,0,0:0:0:0:
192,192,242386,128,0,242451:0:0:0:0:
64,192,242386,128,0,242451:0:0:0:0:
320,192,242451,1,0,0:0:0:0:
192,192,242516,128,0,242581:0:0:0:0:
448,192,242516,128,0,242581:0:0:0:0:
320,192,242581,1,0,0:0:0:0:
192,192,242647,128,0,242712:0:0:0:0:
64,192,242647,128,0,242712:0:0:0:0:
448,192,242712,1,0,0:0:0:0:
64,192,242777,128,0,242842:0:0:0:0:
320,192,242777,128,0,242842:0:0:0:0:
192,192,242842,1,0,0:0:0:0:
320,192,242907,128,0,242973:0:0:0:0:
448,192,242907,128,0,242973:0:0:0:0:
64,192,242973,1,0,0:0:0:0:
192,192,243038,128,0,243168:0:0:0:0:
64,192,243103,128,0,243299:0:0:0:0:
320,192,243168,128,0,243234:0:0:0:0:
192,192,243234,128,0,243299:0:0:0:0:
320,192,243299,128,0,243429:0:0:0:0:
448,192,243299,128,0,243364:0:0:0:0:
192,192,243364,1,0,0:0:0:0:
448,192,243429,128,0,243625:0:0:0:0:
320,192,243494,128,0,243625:0:0:0:0:
64,192,243560,128,0,243690:0:0:0:0:
192,192,243625,128,0,243690:0:0:0:0:
320,192,243690,128,0,243755:0:0:0:0:
448,192,243690,128,0,243755:0:0:0:0:
64,192,243755,1,0,0:0:0:0:
448,192,243820,128,0,243886:0:0:0:0:
320,192,243820,128,0,243886:0:0:0:0:
192,192,243886,1,0,0:0:0:0:
64,192,243886,1,0,0:0:0:0:
320,192,243951,128,0,244081:0:0:0:0:
448,192,243951,128,0,244081:0:0:0:0:
192,192,244016,128,0,244147:0:0:0:0:
64,192,244081,128,0,244147:0:0:0:0:
320,192,244147,128,0,244277:0:0:0:0:
448,192,244147,128,0,244212:0:0:0:0:
192,192,244212,128,0,244342:0:0:0:0:
448,192,244277,128,0,244342:0:0:0:0:
64,192,244342,128,0,244473:0:0:0:0:
320,192,244342,128,0,244407:0:0:0:0:
192,192,244407,128,0,244473:0:0:0:0:
320,192,244473,128,0,244538:0:0:0:0:
448,192,244473,128,0,244538:0:0:0:0:
64,192,244538,128,0,244603:0:0:0:0:
448,192,244603,1,0,0:0:0:0:
320,192,244636,1,0,0:0:0:0:
192,192,244668,1,0,0:0:0:0:
64,192,244701,1,0,0:0:0:0:
320,192,244734,128,0,244799:0:0:0:0:
448,192,244734,128,0,244799:0:0:0:0:
192,192,244799,128,0,244864:0:0:0:0:
64,192,244864,1,0,0:0:0:0:
448,192,244897,1,0,0:0:0:0:
192,192,244929,1,0,0:0:0:0:
320,192,244962,1,0,0:0:0:0:
64,192,244994,128,0,245125:0:0:0:0:
448,192,244994,128,0,245125:0:0:0:0:
320,192,245060,128,0,245125:0:0:0:0:
192,192,245125,128,0,245190:0:0:0:0:
64,192,245190,128,0,245255:0:0:0:0:
448,192,245190,128,0,245320:0:0:0:0:
320,192,245255,128,0,245320:0:0:0:0:
64,192,245320,128,0,245386:0:0:0:0:
448,192,245386,128,0,245451:0:0:0:0:
192,192,245386,128,0,245516:0:0:0:0:
320,192,245451,128,0,245516:0:0:0:0:
64,192,245516,128,0,245581:0:0:0:0:
448,192,245516,128,0,245581:0:0:0:0:
192,192,245581,128,0,245647:0:0:0:0:
448,192,245647,1,0,0:0:0:0:
64,192,245679,1,0,0:0:0:0:
320,192,245712,1,0,0:0:0:0:
192,192,245744,1,0,0:0:0:0:
448,192,245777,128,0,245842:0:0:0:0:
64,192,245777,128,0,245842:0:0:0:0:
320,192,245842,128,0,245907:0:0:0:0:
64,192,245907,1,0,0:0:0:0:
192,192,245940,1,0,0:0:0:0:
320,192,245973,1,0,0:0:0:0:
448,192,246005,1,0,0:0:0:0:
64,192,246038,1,0,0:0:0:0:
192,192,246038,1,0,0:0:0:0:
320,192,246103,1,0,0:0:0:0:
192,192,246168,1,0,0:0:0:0:
320,192,246234,1,0,0:0:0:0:
192,192,246299,128,0,246331:0:0:0:0:
320,192,246364,128,0,246397:0:0:0:0:
192,192,246429,128,0,246462:0:0:0:0:
320,192,246494,128,0,246527:0:0:0:0:
192,192,246560,128,0,246603:0:0:0:0:
320,192,246625,128,0,246668:0:0:0:0:
192,192,246690,128,0,246734:0:0:0:0:
320,192,246755,128,0,246799:0:0:0:0:
192,192,246820,128,0,246886:0:0:0:0:
320,192,246886,128,0,246951:0:0:0:0:
192,192,246951,128,0,247016:0:0:0:0:
320,192,247016,128,0,247081:0:0:0:0:
192,192,247081,128,0,247168:0:0:0:0:
320,192,247147,128,0,247234:0:0:0:0:
192,192,247212,128,0,247299:0:0:0:0:
320,192,247277,128,0,247364:0:0:0:0:
192,192,247342,128,0,247429:0:0:0:0:
320,192,247407,128,0,247494:0:0:0:0:
192,192,247473,128,0,247560:0:0:0:0:
320,192,247538,128,0,247603:0:0:0:0:
64,192,247603,128,0,247734:0:0:0:0:
448,192,247603,128,0,247734:0:0:0:0:
192,192,247668,1,0,0:0:0:0:
320,192,247734,1,0,0:0:0:0:
192,192,247799,128,0,247929:0:0:0:0:
448,192,247799,128,0,247929:0:0:0:0:
64,192,247864,1,0,0:0:0:0:
320,192,247929,1,0,0:0:0:0:
64,192,247994,128,0,248060:0:0:0:0:
192,192,247994,128,0,248060:0:0:0:0:
320,192,248060,1,0,0:0:0:0:
64,192,248125,1,0,0:0:0:0:
192,192,248125,128,0,248190:0:0:0:0:
448,192,248147,128,0,248212:0:0:0:0:
320,192,248255,128,0,248320:0:0:0:0:
64,192,248277,128,0,248342:0:0:0:0:
320,192,248386,128,0,248451:0:0:0:0:
448,192,248407,128,0,248473:0:0:0:0:
64,192,248516,128,0,248581:0:0:0:0:
192,192,248538,128,0,248603:0:0:0:0:
64,192,248647,1,0,0:0:0:0:
192,192,248647,128,0,248712:0:0:0:0:
448,192,248668,128,0,248734:0:0:0:0:
320,192,248690,1,0,0:0:0:0:
320,192,248777,128,0,248842:0:0:0:0:
64,192,248799,128,0,248864:0:0:0:0:
320,192,248907,128,0,248973:0:0:0:0:
192,192,248929,128,0,248994:0:0:0:0:
448,192,249038,128,0,249103:0:0:0:0:
64,192,249060,128,0,249125:0:0:0:0:
192,192,249168,128,0,249234:0:0:0:0:
448,192,249190,128,0,249255:0:0:0:0:
64,192,249299,1,0,0:0:0:0:
320,192,249299,128,0,249364:0:0:0:0:
448,192,249320,128,0,249386:0:0:0:0:
320,192,249429,1,0,0:0:0:0:
192,192,249429,128,0,249494:0:0:0:0:
64,192,249451,128,0,249516:0:0:0:0:
192,192,249560,128,0,249625:0:0:0:0:
320,192,249560,1,0,0:0:0:0:
448,192,249581,128,0,249647:0:0:0:0:
64,192,249625,1,0,0:0:0:0:
448,192,249690,1,0,0:0:0:0:
192,192,249690,128,0,249755:0:0:0:0:
320,192,249712,128,0,249777:0:0:0:0:
64,192,249734,1,0,0:0:0:0:
320,192,249820,128,0,249886:0:0:0:0:
192,192,249820,1,0,0:0:0:0:
448,192,249842,128,0,249907:0:0:0:0:
192,192,249951,128,0,250016:0:0:0:0:
64,192,249973,128,0,250038:0:0:0:0:
192,192,250081,1,0,0:0:0:0:
320,192,250081,128,0,250147:0:0:0:0:
448,192,250103,128,0,250168:0:0:0:0:
64,192,250212,128,0,250407:0:0:0:0:
192,192,250212,128,0,250407:0:0:0:0:
448,192,250212,128,0,250473:0:0:0:0:
320,192,250342,128,0,250538:0:0:0:0:
192,192,250473,128,0,250603:0:0:0:0:
64,192,250473,128,0,250603:0:0:0:0:
320,192,250603,128,0,250668:0:0:0:0:
448,192,250603,128,0,250668:0:0:0:0:
64,192,250734,128,0,251190:0:0:0:0:
448,192,250734,128,0,250929:0:0:0:0:
192,192,250799,128,0,251060:0:0:0:0:
320,192,250864,128,0,251320:0:0:0:0:
448,192,250994,128,0,251320:0:0:0:0:
192,192,251125,128,0,251255:0:0:0:0:
64,192,251255,1,0,0:0:0:0:
448,192,251386,128,0,251451:0:0:0:0:
320,192,251386,128,0,251647:0:0:0:0:
192,192,251516,128,0,251581:0:0:0:0:
448,192,251516,128,0,251647:0:0:0:0:
192,192,251647,128,0,251712:0:0:0:0:
64,192,251647,128,0,251712:0:0:0:0:
320,192,251712,128,0,251777:0:0:0:0:
448,192,251712,128,0,251777:0:0:0:0:
64,192,251777,1,0,0:0:0:0:
448,192,251820,1,0,0:0:0:0:
192,192,251907,128,0,251973:0:0:0:0:
320,192,251907,128,0,252038:0:0:0:0:
192,192,252038,128,0,252234:0:0:0:0:
64,192,252038,128,0,252234:0:0:0:0:
320,192,252168,128,0,252234:0:0:0:0:
448,192,252168,128,0,252234:0:0:0:0:
64,192,252299,1,0,0:0:0:0:
320,192,252299,128,0,252364:0:0:0:0:
448,192,252320,128,0,252386:0:0:0:0:
192,192,252429,128,0,252494:0:0:0:0:
64,192,252451,128,0,252516:0:0:0:0:
192,192,252560,128,0,252625:0:0:0:0:
448,192,252581,128,0,252647:0:0:0:0:
64,192,252690,128,0,252755:0:0:0:0:
320,192,252712,128,0,252777:0:0:0:0:
64,192,252820,1,0,0:0:0:0:
320,192,252820,128,0,252886:0:0:0:0:
448,192,252842,128,0,252907:0:0:0:0:
192,192,252864,1,0,0:0:0:0:
192,192,252951,128,0,253016:0:0:0:0:
64,192,252973,128,0,253038:0:0:0:0:
192,192,253081,128,0,253147:0:0:0:0:
320,192,253103,128,0,253168:0:0:0:0:
448,192,253212,128,0,253277:0:0:0:0:
64,192,253234,128,0,253299:0:0:0:0:
320,192,253342,128,0,253407:0:0:0:0:
448,192,253364,128,0,253429:0:0:0:0:
64,192,253473,1,0,0:0:0:0:
192,192,253473,128,0,253538:0:0:0:0:
448,192,253494,128,0,253560:0:0:0:0:
192,192,253603,1,0,0:0:0:0:
320,192,253603,128,0,253668:0:0:0:0:
64,192,253625,128,0,253690:0:0:0:0:
320,192,253734,128,0,253799:0:0:0:0:
192,192,253734,1,0,0:0:0:0:
448,192,253755,128,0,253820:0:0:0:0:
64,192,253799,1,0,0:0:0:0:
448,192,253864,1,0,0:0:0:0:
320,192,253864,128,0,253929:0:0:0:0:
192,192,253886,128,0,253951:0:0:0:0:
64,192,253907,1,0,0:0:0:0:
192,192,253994,128,0,254060:0:0:0:0:
320,192,253994,1,0,0:0:0:0:
448,192,254016,128,0,254081:0:0:0:0:
320,192,254125,128,0,254190:0:0:0:0:
64,192,254147,128,0,254212:0:0:0:0:
320,192,254255,1,0,0:0:0:0:
192,192,254255,128,0,254320:0:0:0:0:
448,192,254277,128,0,254342:0:0:0:0:
192,192,254386,128,0,254473:0:0:0:0:
64,192,254386,128,0,254429:0:0:0:0:
64,192,254516,128,0,254560:0:0:0:0:
192,192,254560,128,0,254603:0:0:0:0:
64,192,254647,128,0,254734:0:0:0:0:
192,192,254690,128,0,254777:0:0:0:0:
320,192,254734,128,0,254820:0:0:0:0:
64,192,254777,128,0,254864:0:0:0:0:
448,192,254777,128,0,254864:0:0:0:0:
320,192,254907,128,0,255103:0:0:0:0:
448,192,254907,128,0,255234:0:0:0:0:
192,192,254951,128,0,255429:0:0:0:0:
64,192,255038,128,0,255364:0:0:0:0:
320,192,255168,128,0,255494:0:0:0:0:
448,192,255299,128,0,255494:0:0:0:0:
64,192,255429,128,0,255755:0:0:0:0:
192,192,255473,128,0,255625:0:0:0:0:
448,192,255560,128,0,255625:0:0:0:0:
320,192,255560,128,0,255734:0:0:0:0:
192,192,255690,128,0,255820:0:0:0:0:
448,192,255690,128,0,255886:0:0:0:0:
64,192,255820,128,0,255886:0:0:0:0:
320,192,255820,128,0,255886:0:0:0:0:
192,192,255886,128,0,255951:0:0:0:0:
64,192,255951,128,0,256147:0:0:0:0:
448,192,255951,128,0,256016:0:0:0:0:
320,192,256081,128,0,256277:0:0:0:0:
448,192,256081,128,0,256407:0:0:0:0:
192,192,256212,128,0,256277:0:0:0:0:
64,192,256212,128,0,256407:0:0:0:0:
192,192,256342,128,0,256407:0:0:0:0:
320,192,256342,128,0,256407:0:0:0:0:
320,192,256473,1,0,0:0:0:0:
192,192,256473,128,0,256538:0:0:0:0:
448,192,256473,128,0,256929:0:0:0:0:
64,192,256494,128,0,256560:0:0:0:0:
192,192,256603,128,0,256668:0:0:0:0:
64,192,256625,128,0,256690:0:0:0:0:
192,192,256734,128,0,256799:0:0:0:0:
320,192,256734,128,0,256838:0:0:0:0:
64,192,256755,128,0,256820:0:0:0:0:
192,192,256864,128,0,256929:0:0:0:0:
64,192,256886,128,0,256951:0:0:0:0:
192,192,256994,128,0,257060:0:0:0:0:
320,192,256994,1,0,0:0:0:0:
448,192,256994,128,0,257451:0:0:0:0:
64,192,257016,128,0,257081:0:0:0:0:
192,192,257125,128,0,257190:0:0:0:0:
64,192,257147,128,0,257212:0:0:0:0:
192,192,257255,128,0,257320:0:0:0:0:
320,192,257255,128,0,257360:0:0:0:0:
64,192,257277,128,0,257342:0:0:0:0:
192,192,257386,128,0,257451:0:0:0:0:
64,192,257407,128,0,257473:0:0:0:0:
192,192,257516,128,0,257581:0:0:0:0:
320,192,257516,1,0,0:0:0:0:
448,192,257516,128,0,257973:0:0:0:0:
64,192,257538,128,0,257603:0:0:0:0:
192,192,257647,128,0,257712:0:0:0:0:
64,192,257668,128,0,257734:0:0:0:0:
192,192,257777,128,0,257842:0:0:0:0:
320,192,257777,128,0,257881:0:0:0:0:
64,192,257799,128,0,257864:0:0:0:0:
192,192,257907,128,0,257973:0:0:0:0:
64,192,257929,128,0,257994:0:0:0:0:
192,192,258038,128,0,258103:0:0:0:0:
320,192,258038,1,0,0:0:0:0:
448,192,258038,128,0,258494:0:0:0:0:
64,192,258060,128,0,258125:0:0:0:0:
192,192,258168,128,0,258234:0:0:0:0:
64,192,258190,128,0,258255:0:0:0:0:
192,192,258299,128,0,258364:0:0:0:0:
320,192,258299,128,0,258403:0:0:0:0:
64,192,258320,128,0,258386:0:0:0:0:
192,192,258429,128,0,258494:0:0:0:0:
64,192,258451,128,0,258516:0:0:0:0:
192,192,258560,1,0,0:0:0:0:
64,192,258560,128,0,258820:0:0:0:0:
448,192,258560,128,0,258820:0:0:0:0:
192,192,258820,128,0,258951:0:0:0:0:
320,192,258951,128,0,259081:0:0:0:0:
448,192,259081,128,0,259147:0:0:0:0:
192,192,259081,128,0,259407:0:0:0:0:
64,192,259081,128,0,259538:0:0:0:0:
448,192,259212,128,0,259538:0:0:0:0:
320,192,259342,128,0,259538:0:0:0:0:
192,192,259473,128,0,259538:0:0:0:0:
192,192,259603,128,0,259929:0:0:0:0:
64,192,259603,128,0,260060:0:0:0:0:
448,192,259603,128,0,259668:0:0:0:0:
448,192,259734,128,0,260060:0:0:0:0:
320,192,259864,128,0,260060:0:0:0:0:
192,192,259994,128,0,260060:0:0:0:0:
448,192,260125,128,0,260190:0:0:0:0:
64,192,260125,128,0,260320:0:0:0:0:
192,192,260125,128,0,260581:0:0:0:0:
448,192,260255,128,0,260581:0:0:0:0:
64,192,260386,128,0,260581:0:0:0:0:
320,192,260386,128,0,260581:0:0:0:0:
64,192,260647,128,0,261103:0:0:0:0:
320,192,260647,128,0,260712:0:0:0:0:
192,192,260647,1,0,0:0:0:0:
448,192,260668,128,0,260734:0:0:0:0:
320,192,260777,128,0,260842:0:0:0:0:
448,192,260799,128,0,260864:0:0:0:0:
192,192,260907,128,0,261011:0:0:0:0:
320,192,260907,128,0,260973:0:0:0:0:
448,192,260929,128,0,260994:0:0:0:0:
320,192,261038,128,0,261103:0:0:0:0:
448,192,261060,128,0,261125:0:0:0:0:
64,192,261168,128,0,261625:0:0:0:0:
192,192,261168,1,0,0:0:0:0:
320,192,261168,128,0,261234:0:0:0:0:
448,192,261190,128,0,261255:0:0:0:0:
320,192,261299,128,0,261364:0:0:0:0:
448,192,261320,128,0,261386:0:0:0:0:
192,192,261429,128,0,261533:0:0:0:0:
320,192,261429,128,0,261494:0:0:0:0:
448,192,261451,128,0,261516:0:0:0:0:
320,192,261560,128,0,261625:0:0:0:0:
448,192,261581,128,0,261647:0:0:0:0:
64,192,261690,128,0,262016:0:0:0:0:
192,192,261690,1,0,0:0:0:0:
320,192,261690,128,0,261755:0:0:0:0:
448,192,261712,128,0,261777:0:0:0:0:
320,192,261820,128,0,261886:0:0:0:0:
448,192,261842,128,0,261907:0:0:0:0:
192,192,261951,128,0,262054:0:0:0:0:
320,192,261951,128,0,262016:0:0:0:0:
448,192,261973,128,0,262038:0:0:0:0:
320,192,262081,128,0,262147:0:0:0:0:
64,192,262081,1,0,0:0:0:0:
448,192,262103,128,0,262168:0:0:0:0:
192,192,262147,1,0,0:0:0:0:
64,192,262212,128,0,262668:0:0:0:0:
320,192,262212,128,0,262277:0:0:0:0:
448,192,262234,128,0,262299:0:0:0:0:
320,192,262342,128,0,262407:0:0:0:0:
448,192,262364,128,0,262429:0:0:0:0:
192,192,262407,1,0,0:0:0:0:
320,192,262473,128,0,262538:0:0:0:0:
448,192,262494,128,0,262560:0:0:0:0:
320,192,262603,128,0,262668:0:0:0:0:
192,192,262603,1,0,0:0:0:0:
448,192,262625,128,0,262690:0:0:0:0:
448,192,262734,1,0,0:0:0:0:
192,192,262734,1,0,0:0:0:0:
64,192,262734,128,0,263190:0:0:0:0:
320,192,262864,128,0,263190:0:0:0:0:
192,192,262994,128,0,263190:0:0:0:0:
448,192,263125,128,0,263190:0:0:0:0:
192,192,263255,128,0,263712:0:0:0:0:
64,192,263255,128,0,263320:0:0:0:0:
320,192,263255,128,0,263451:0:0:0:0:
64,192,263386,128,0,263712:0:0:0:0:
320,192,263516,128,0,263712:0:0:0:0:
448,192,263647,128,0,263712:0:0:0:0:
64,192,263777,128,0,264103:0:0:0:0:
192,192,263777,128,0,263842:0:0:0:0:
448,192,263777,128,0,264234:0:0:0:0:
192,192,263907,128,0,264234:0:0:0:0:
320,192,264038,128,0,264234:0:0:0:0:
64,192,264168,128,0,264234:0:0:0:0:
64,192,264299,128,0,264494:0:0:0:0:
192,192,264429,128,0,264625:0:0:0:0:
320,192,264473,128,0,264560:0:0:0:0:
64,192,264560,128,0,264647:0:0:0:0:
448,192,264603,128,0,264734:0:0:0:0:
320,192,264647,128,0,264777:0:0:0:0:
64,192,264690,128,0,264788:0:0:0:0:
192,192,264755,128,0,264820:0:0:0:0:
448,192,264820,1,0,0:0:0:0:
320,192,264820,1,0,0:0:0:0:
64,192,264886,1,0,0:0:0:0:
192,192,264951,1,0,0:0:0:0:
320,192,265016,1,0,0:0:0:0:
448,192,265081,128,0,265147:0:0:0:0:
64,192,265081,128,0,265147:0:0:0:0:
192,192,265147,128,0,265212:0:0:0:0:
320,192,265212,128,0,265277:0:0:0:0:
64,192,265277,128,0,265342:0:0:0:0:
192,192,265342,128,0,265473:0:0:0:0:
448,192,265342,128,0,265473:0:0:0:0:
320,192,265407,128,0,265538:0:0:0:0:
64,192,265473,128,0,265538:0:0:0:0:
192,192,265538,128,0,265603:0:0:0:0:
320,192,265603,128,0,265734:0:0:0:0:
448,192,265603,128,0,265799:0:0:0:0:
64,192,265668,128,0,265799:0:0:0:0:
192,192,265734,128,0,265864:0:0:0:0:
320,192,265799,128,0,265864:0:0:0:0:
448,192,265864,1,0,0:0:0:0:
64,192,265864,1,0,0:0:0:0:
64,192,266386,128,0,266451:0:0:0:0:
192,192,266451,128,0,266516:0:0:0:0:
320,192,266516,128,0,266581:0:0:0:0:
448,192,266581,128,0,266647:0:0:0:0:
64,192,266647,128,0,266777:0:0:0:0:
192,192,266712,128,0,266842:0:0:0:0:
320,192,266777,128,0,266842:0:0:0:0:
448,192,266842,128,0,266907:0:0:0:0:
64,192,266907,1,0,0:0:0:0:
192,192,266907,128,0,267038:0:0:0:0:
320,192,266973,128,0,267103:0:0:0:0:
64,192,267038,128,0,267299:0:0:0:0:
192,192,267103,128,0,267168:0:0:0:0:
448,192,267168,1,0,0:0:0:0:
320,192,267168,128,0,267364:0:0:0:0:
192,192,267234,128,0,267364:0:0:0:0:
448,192,267299,128,0,267429:0:0:0:0:
64,192,267364,128,0,267494:0:0:0:0:
320,192,267429,1,0,0:0:0:0:
192,192,267429,128,0,267560:0:0:0:0:
448,192,267494,128,0,267625:0:0:0:0:
64,192,267560,128,0,267820:0:0:0:0:
192,192,267625,128,0,267690:0:0:0:0:
448,192,267690,1,0,0:0:0:0:
320,192,267690,128,0,267886:0:0:0:0:
192,192,267755,128,0,267886:0:0:0:0:
448,192,267820,128,0,267951:0:0:0:0:
64,192,267886,128,0,268016:0:0:0:0:
192,192,267951,1,0,0:0:0:0:
320,192,267951,128,0,268147:0:0:0:0:
448,192,268016,128,0,268147:0:0:0:0:
64,192,268081,128,0,268277:0:0:0:0:
192,192,268147,128,0,268212:0:0:0:0:
448,192,268212,1,0,0:0:0:0:
320,192,268212,128,0,268342:0:0:0:0:
192,192,268277,128,0,268407:0:0:0:0:
64,192,268342,128,0,268473:0:0:0:0:
320,192,268407,128,0,268538:0:0:0:0:
192,192,268473,1,0,0:0:0:0:
448,192,268473,128,0,268668:0:0:0:0:
64,192,268538,128,0,268668:0:0:0:0:
320,192,268603,128,0,268734:0:0:0:0:
192,192,268668,128,0,268799:0:0:0:0:
64,192,268734,1,0,0:0:0:0:
448,192,268734,128,0,268864:0:0:0:0:
320,192,268799,128,0,268929:0:0:0:0:
192,192,268864,128,0,268994:0:0:0:0:
448,192,268929,128,0,269060:0:0:0:0:
320,192,268994,1,0,0:0:0:0:
64,192,268994,128,0,269125:0:0:0:0:
192,192,269060,128,0,269190:0:0:0:0:
448,192,269125,128,0,269255:0:0:0:0:
64,192,269190,128,0,269320:0:0:0:0:
192,192,269255,1,0,0:0:0:0:
320,192,269255,128,0,269451:0:0:0:0:
448,192,269320,128,0,269451:0:0:0:0:
64,192,269386,128,0,269581:0:0:0:0:
192,192,269451,128,0,269516:0:0:0:0:
448,192,269516,1,0,0:0:0:0:
320,192,269516,128,0,269647:0:0:0:0:
192,192,269581,128,0,269712:0:0:0:0:
64,192,269647,128,0,269777:0:0:0:0:
320,192,269712,128,0,269842:0:0:0:0:
192,192,269777,1,0,0:0:0:0:
448,192,269777,128,0,269973:0:0:0:0:
64,192,269842,128,0,269973:0:0:0:0:
320,192,269907,128,0,270038:0:0:0:0:
192,192,269973,128,0,270103:0:0:0:0:
64,192,270038,1,0,0:0:0:0:
448,192,270038,128,0,270168:0:0:0:0:
320,192,270103,128,0,270234:0:0:0:0:
192,192,270168,1,0,0:0:0:0:
64,192,270168,128,0,270299:0:0:0:0:
448,192,270234,128,0,270364:0:0:0:0:
320,192,270299,128,0,270429:0:0:0:0:
192,192,270364,128,0,270494:0:0:0:0:
64,192,270429,128,0,270625:0:0:0:0:
448,192,270429,1,0,0:0:0:0:
320,192,270494,128,0,270690:0:0:0:0:
192,192,270560,128,0,270625:0:0:0:0:
448,192,270625,128,0,270755:0:0:0:0:
64,192,270690,1,0,0:0:0:0:
192,192,270690,128,0,270820:0:0:0:0:
320,192,270755,128,0,270886:0:0:0:0:
448,192,270820,128,0,270886:0:0:0:0:
192,192,270886,128,0,270951:0:0:0:0:
448,192,270951,128,0,271016:0:0:0:0:
320,192,270951,128,0,271016:0:0:0:0:
64,192,271016,128,0,271081:0:0:0:0:
192,192,271016,128,0,271081:0:0:0:0:
448,192,271081,1,0,0:0:0:0:
320,192,271081,128,0,271212:0:0:0:0:
64,192,271147,128,0,271277:0:0:0:0:
192,192,271212,128,0,271342:0:0:0:0:
320,192,271277,128,0,271407:0:0:0:0:
64,192,271342,1,0,0:0:0:0:
448,192,271342,128,0,271538:0:0:0:0:
192,192,271407,128,0,271538:0:0:0:0:
320,192,271473,128,0,271603:0:0:0:0:
64,192,271538,128,0,271668:0:0:0:0:
448,192,271603,1,0,0:0:0:0:
192,192,271603,128,0,271799:0:0:0:0:
320,192,271668,128,0,271799:0:0:0:0:
64,192,271734,128,0,271864:0:0:0:0:
448,192,271799,128,0,271929:0:0:0:0:
320,192,271864,128,0,272060:0:0:0:0:
192,192,271864,1,0,0:0:0:0:
64,192,271929,128,0,272060:0:0:0:0:
448,192,271994,128,0,272125:0:0:0:0:
192,192,272060,128,0,272190:0:0:0:0:
320,192,272125,1,0,0:0:0:0:
64,192,272125,128,0,272320:0:0:0:0:
448,192,272190,128,0,272320:0:0:0:0:
192,192,272255,128,0,272386:0:0:0:0:
320,192,272320,128,0,272451:0:0:0:0:
448,192,272386,1,0,0:0:0:0:
64,192,272386,128,0,272516:0:0:0:0:
192,192,272451,128,0,272581:0:0:0:0:
320,192,272516,128,0,272647:0:0:0:0:
64,192,272581,128,0,272777:0:0:0:0:
192,192,272647,1,0,0:0:0:0:
448,192,272647,128,0,272842:0:0:0:0:
320,192,272712,128,0,272842:0:0:0:0:
192,192,272777,128,0,272907:0:0:0:0:
64,192,272842,128,0,272973:0:0:0:0:
448,192,272907,1,0,0:0:0:0:
320,192,272907,128,0,273038:0:0:0:0:
192,192,272973,128,0,273103:0:0:0:0:
448,192,273038,128,0,273168:0:0:0:0:
64,192,273038,1,0,0:0:0:0:
320,192,273103,128,0,273168:0:0:0:0:
192,192,273168,1,0,0:0:0:0:
64,192,273168,128,0,273299:0:0:0:0:
320,192,273234,128,0,273364:0:0:0:0:
448,192,273299,128,0,273494:0:0:0:0:
64,192,273364,1,0,0:0:0:0:
192,192,273364,128,0,273429:0:0:0:0:
320,192,273429,128,0,273560:0:0:0:0:
192,192,273494,128,0,273625:0:0:0:0:
448,192,273560,1,0,0:0:0:0:
64,192,273560,128,0,273755:0:0:0:0:
320,192,273625,128,0,273690:0:0:0:0:
192,192,273690,128,0,273820:0:0:0:0:
320,192,273755,1,0,0:0:0:0:
448,192,273755,128,0,273886:0:0:0:0:
64,192,273820,128,0,274016:0:0:0:0:
192,192,273886,128,0,273951:0:0:0:0:
448,192,273951,1,0,0:0:0:0:
320,192,273951,128,0,274081:0:0:0:0:
192,192,274016,128,0,274147:0:0:0:0:
64,192,274081,128,0,274147:0:0:0:0:
448,192,274081,128,0,274212:0:0:0:0:
320,192,274147,128,0,274212:0:0:0:0:
192,192,274212,128,0,274277:0:0:0:0:
64,192,274212,128,0,274277:0:0:0:0:
320,192,274407,128,0,274473:0:0:0:0:
448,192,274407,128,0,274473:0:0:0:0:
192,192,274603,1,0,0:0:0:0:
64,192,274603,128,0,274668:0:0:0:0:
448,192,274603,128,0,274668:0:0:0:0:
192,192,274799,1,0,0:0:0:0:
320,192,274799,128,0,274886:0:0:0:0:
64,192,274799,128,0,274886:0:0:0:0:
320,192,274994,1,0,0:0:0:0:
192,192,274994,128,0,275125:0:0:0:0:
448,192,274994,128,0,275125:0:0:0:0:
448,192,275255,1,0,0:0:0:0:
320,192,275255,1,0,0:0:0:0:
448,192,275386,1,0,0:0:0:0:
320,192,275386,1,0,0:0:0:0:
448,192,275516,1,0,0:0:0:0:
320,192,275516,1,0,0:0:0:0:
192,192,275647,1,0,0:0:0:0:
64,192,275647,128,0,275842:0:0:0:0:
320,192,275712,128,0,275842:0:0:0:0:
448,192,275777,128,0,275907:0:0:0:0:
192,192,275842,128,0,275973:0:0:0:0:
320,192,275907,1,0,0:0:0:0:
64,192,275907,128,0,275973:0:0:0:0:
448,192,275973,128,0,276168:0:0:0:0:
64,192,276038,1,0,0:0:0:0:
192,192,276038,128,0,276103:0:0:0:0:
320,192,276103,128,0,276168:0:0:0:0:
64,192,276168,128,0,276234:0:0:0:0:
192,192,276168,128,0,276234:0:0:0:0:
320,192,276234,128,0,276299:0:0:0:0:
448,192,276234,128,0,276299:0:0:0:0:
192,192,276299,1,0,0:0:0:0:
64,192,276299,128,0,276625:0:0:0:0:
320,192,276364,128,0,276494:0:0:0:0:
448,192,276429,128,0,276494:0:0:0:0:
192,192,276494,128,0,276560:0:0:0:0:
320,192,276560,1,0,0:0:0:0:
448,192,276560,128,0,276755:0:0:0:0:
192,192,276625,128,0,276820:0:0:0:0:
64,192,276690,128,0,276755:0:0:0:0:
320,192,276755,128,0,276886:0:0:0:0:
64,192,276820,1,0,0:0:0:0:
448,192,276820,128,0,277016:0:0:0:0:
192,192,276886,128,0,277016:0:0:0:0:
320,192,276951,128,0,277081:0:0:0:0:
64,192,277016,128,0,277147:0:0:0:0:
448,192,277081,1,0,0:0:0:0:
192,192,277081,128,0,277212:0:0:0:0:
320,192,277147,128,0,277277:0:0:0:0:
64,192,277212,128,0,277407:0:0:0:0:
192,192,277277,128,0,277342:0:0:0:0:
320,192,277342,1,0,0:0:0:0:
448,192,277342,128,0,277407:0:0:0:0:
192,192,277407,128,0,277538:0:0:0:0:
64,192,277473,1,0,0:0:0:0:
448,192,277473,128,0,277603:0:0:0:0:
320,192,277538,128,0,277603:0:0:0:0:
192,192,277603,1,0,0:0:0:0:
64,192,277603,128,0,277799:0:0:0:0:
448,192,277668,128,0,277799:0:0:0:0:
320,192,277734,128,0,277864:0:0:0:0:
192,192,277799,128,0,277929:0:0:0:0:
448,192,277864,1,0,0:0:0:0:
64,192,277864,128,0,278060:0:0:0:0:
320,192,277929,128,0,278060:0:0:0:0:
192,192,277994,128,0,278125:0:0:0:0:
448,192,278060,128,0,278190:0:0:0:0:
64,192,278125,1,0,0:0:0:0:
320,192,278125,128,0,278320:0:0:0:0:
192,192,278190,128,0,278386:0:0:0:0:
448,192,278255,128,0,278320:0:0:0:0:
64,192,278320,128,0,278516:0:0:0:0:
320,192,278386,1,0,0:0:0:0:
448,192,278386,128,0,278451:0:0:0:0:
192,192,278451,128,0,278516:0:0:0:0:
448,192,278516,1,0,0:0:0:0:
320,192,278516,128,0,278581:0:0:0:0:
64,192,278581,128,0,278712:0:0:0:0:
192,192,278647,128,0,278712:0:0:0:0:
320,192,278712,128,0,278842:0:0:0:0:
192,192,278777,1,0,0:0:0:0:
64,192,278777,128,0,278973:0:0:0:0:
448,192,278842,128,0,278973:0:0:0:0:
320,192,278907,128,0,279038:0:0:0:0:
192,192,278973,128,0,279103:0:0:0:0:
64,192,279038,1,0,0:0:0:0:
448,192,279038,128,0,279234:0:0:0:0:
320,192,279103,128,0,279168:0:0:0:0:
192,192,279168,1,0,0:0:0:0:
64,192,279168,128,0,279364:0:0:0:0:
320,192,279234,128,0,279429:0:0:0:0:
448,192,279299,128,0,279364:0:0:0:0:
192,192,279364,128,0,279429:0:0:0:0:
64,192,279429,128,0,279625:0:0:0:0:
448,192,279429,1,0,0:0:0:0:
320,192,279494,128,0,279560:0:0:0:0:
192,192,279560,128,0,279690:0:0:0:0:
320,192,279625,1,0,0:0:0:0:
448,192,279625,128,0,279755:0:0:0:0:
64,192,279690,128,0,279951:0:0:0:0:
192,192,279755,128,0,279820:0:0:0:0:
448,192,279820,1,0,0:0:0:0:
320,192,279820,128,0,280016:0:0:0:0:
192,192,279886,128,0,279951:0:0:0:0:
448,192,279951,128,0,280016:0:0:0:0:
64,192,280016,1,0,0:0:0:0:
192,192,280016,128,0,280081:0:0:0:0:
448,192,280081,1,0,0:0:0:0:
320,192,280081,128,0,280147:0:0:0:0:
64,192,280147,128,0,280212:0:0:0:0:
192,192,280212,1,0,0:0:0:0:
320,192,280212,128,0,280342:0:0:0:0:
448,192,280277,128,0,280342:0:0:0:0:
192,192,280342,1,0,0:0:0:0:
64,192,280342,128,0,280407:0:0:0:0:
320,192,280407,1,0,0:0:0:0:
448,192,280407,128,0,280473:0:0:0:0:
192,192,280473,1,0,0:0:0:0:
64,192,280473,128,0,280603:0:0:0:0:
320,192,280538,128,0,280668:0:0:0:0:
448,192,280603,128,0,280799:0:0:0:0:
192,192,280668,1,0,0:0:0:0:
64,192,280668,128,0,280799:0:0:0:0:
320,192,280734,128,0,280864:0:0:0:0:
192,192,280799,128,0,280929:0:0:0:0:
448,192,280864,1,0,0:0:0:0:
64,192,280864,128,0,281060:0:0:0:0:
320,192,280929,128,0,280994:0:0:0:0:
192,192,280994,128,0,281060:0:0:0:0:
320,192,281060,1,0,0:0:0:0:
448,192,281060,128,0,281190:0:0:0:0:
64,192,281125,1,0,0:0:0:0:
192,192,281125,128,0,281255:0:0:0:0:
320,192,281190,128,0,281320:0:0:0:0:
64,192,281255,128,0,281386:0:0:0:0:
448,192,281255,1,0,0:0:0:0:
192,192,281320,128,0,281386:0:0:0:0:
320,192,281386,1,0,0:0:0:0:
448,192,281386,128,0,281451:0:0:0:0:
192,192,281451,1,0,0:0:0:0:
64,192,281451,128,0,281516:0:0:0:0:
448,192,281516,128,0,281581:0:0:0:0:
320,192,281516,128,0,281549:0:0:0:0:
64,192,281581,128,0,281647:0:0:0:0:
192,192,281581,128,0,281614:0:0:0:0:
448,192,281647,128,0,281712:0:0:0:0:
320,192,281647,128,0,281679:0:0:0:0:
64,192,281712,128,0,281777:0:0:0:0:
192,192,281712,128,0,281744:0:0:0:0:
448,192,281777,128,0,281842:0:0:0:0:
320,192,281777,128,0,281810:0:0:0:0:
64,192,281842,128,0,281907:0:0:0:0:
192,192,281842,128,0,281875:0:0:0:0:
448,192,281907,128,0,281973:0:0:0:0:
320,192,281907,128,0,281940:0:0:0:0:
64,192,281973,128,0,282038:0:0:0:0:
192,192,281973,128,0,282005:0:0:0:0:
448,192,282038,128,0,282103:0:0:0:0:
320,192,282038,128,0,282081:0:0:0:0:
64,192,282103,128,0,282168:0:0:0:0:
192,192,282103,128,0,282147:0:0:0:0:
448,192,282168,128,0,282234:0:0:0:0:
320,192,282168,128,0,282212:0:0:0:0:
64,192,282234,128,0,282299:0:0:0:0:
192,192,282234,128,0,282277:0:0:0:0:
448,192,282299,128,0,282364:0:0:0:0:
320,192,282299,128,0,282342:0:0:0:0:
64,192,282364,128,0,282429:0:0:0:0:
192,192,282364,128,0,282407:0:0:0:0:
448,192,282429,128,0,282494:0:0:0:0:
320,192,282429,128,0,282473:0:0:0:0:
64,192,282494,128,0,282560:0:0:0:0:
192,192,282494,128,0,282538:0:0:0:0:
448,192,282560,1,0,0:0:0:0:
320,192,282560,1,0,0:0:0:0:
192,192,282592,1,0,0:0:0:0:
64,192,282625,1,0,0:0:0:0:
320,192,282657,1,0,0:0:0:0:
192,192,282690,1,0,0:0:0:0:
64,192,282723,1,0,0:0:0:0:
448,192,282755,1,0,0:0:0:0:
320,192,282788,1,0,0:0:0:0:
192,192,282820,1,0,0:0:0:0:
448,192,282853,1,0,0:0:0:0:
320,192,282886,1,0,0:0:0:0:
64,192,282918,1,0,0:0:0:0:
192,192,282951,1,0,0:0:0:0:
448,192,282984,1,0,0:0:0:0:
64,192,283016,1,0,0:0:0:0:
192,192,283049,1,0,0:0:0:0:
320,192,283081,128,0,283255:0:0:0:0:
448,192,283081,128,0,283255:0:0:0:0:
64,192,283168,128,0,283342:0:0:0:0:
192,192,283255,128,0,283429:0:0:0:0:
448,192,283342,128,0,283516:0:0:0:0:
320,192,283342,128,0,283516:0:0:0:0:
64,192,283429,128,0,283516:0:0:0:0:
192,192,283516,128,0,283603:0:0:0:0:
448,192,283603,1,0,0:0:0:0:
64,192,283603,1,0,0:0:0:0:
320,192,283603,1,0,0:0:0:0:
192,192,283734,1,0,0:0:0:0:
320,192,283864,1,0,0:0:0:0:
64,192,283994,1,0,0:0:0:0:
192,192,284125,1,0,0:0:0:0:
448,192,284255,1,0,0:0:0:0:
320,192,284386,1,0,0:0:0:0:
192,192,284516,1,0,0:0:0:0:
64,192,284647,1,0,0:0:0:0:
320,192,284777,1,0,0:0:0:0:
448,192,284907,1,0,0:0:0:0:
64,192,285038,1,0,0:0:0:0:
192,192,285168,1,0,0:0:0:0:
320,192,285299,1,0,0:0:0:0:
64,192,285429,1,0,0:0:0:0:
320,192,285560,1,0,0:0:0:0:
192,192,285690,1,0,0:0:0:0:
320,192,285820,1,0,0:0:0:0:
64,192,285951,1,0,0:0:0:0:
448,192,286081,1,0,0:0:0:0:
192,192,286212,1,0,0:0:0:0:
320,192,286342,1,0,0:0:0:0:
64,192,286473,1,0,0:0:0:0:
448,192,286603,1,0,0:0:0:0:
192,192,286734,1,0,0:0:0:0:
64,192,286864,1,0,0:0:0:0:
320,192,286994,1,0,0:0:0:0:
448,192,287125,1,0,0:0:0:0:
64,192,287255,1,0,0:0:0:0:
320,192,287386,1,0,0:0:0:0:
192,192,287516,1,0,0:0:0:0:
448,192,287647,1,0,0:0:0:0:
64,192,287777,1,0,0:0:0:0:
320,192,287907,1,0,0:0:0:0:
192,192,288038,1,0,0:0:0:0:
320,192,288168,1,0,0:0:0:0:
64,192,288299,1,0,0:0:0:0:
320,192,288429,1,0,0:0:0:0:
192,192,288560,1,0,0:0:0:0:
448,192,288690,1,0,0:0:0:0:
64,192,288820,1,0,0:0:0:0:
320,192,288951,1,0,0:0:0:0:
192,192,289081,1,0,0:0:0:0:
64,192,289212,1,0,0:0:0:0:
320,192,289342,1,0,0:0:0:0:
192,192,289473,1,0,0:0:0:0:
448,192,289603,1,0,0:0:0:0:
320,192,289734,1,0,0:0:0:0:
64,192,289864,1,0,0:0:0:0:
192,192,289994,1,0,0:0:0:0:
320,192,290125,1,0,0:0:0:0:
448,192,290255,1,0,0:0:0:0:
192,192,290386,1,0,0:0:0:0:
64,192,290516,1,0,0:0:0:0:
320,192,290647,1,0,0:0:0:0:
192,192,290777,1,0,0:0:0:0:
320,192,290907,1,0,0:0:0:0:
448,192,291038,1,0,0:0:0:0:
64,192,291168,1,0,0:0:0:0:
320,192,291299,1,0,0:0:0:0:
192,192,291429,1,0,0:0:0:0:
448,192,291560,1,0,0:0:0:0:
192,192,291690,1,0,0:0:0:0:
320,192,291820,1,0,0:0:0:0:
192,192,291951,1,0,0:0:0:0:
320,192,292081,1,0,0:0:0:0:
64,192,292212,1,0,0:0:0:0:
192,192,292342,1,0,0:0:0:0:
448,192,292473,1,0,0:0:0:0:
320,192,292603,1,0,0:0:0:0:
192,192,292734,1,0,0:0:0:0:
64,192,292864,1,0,0:0:0:0:
320,192,292994,1,0,0:0:0:0:
448,192,293125,1,0,0:0:0:0:
64,192,293255,1,0,0:0:0:0:
192,192,293386,1,0,0:0:0:0:
320,192,293516,1,0,0:0:0:0:
64,192,293647,1,0,0:0:0:0:
320,192,293777,1,0,0:0:0:0:
192,192,293907,1,0,0:0:0:0:
320,192,294038,1,0,0:0:0:0:
64,192,294168,1,0,0:0:0:0:
448,192,294299,1,0,0:0:0:0:
192,192,294429,1,0,0:0:0:0:
320,192,294560,1,0,0:0:0:0:
64,192,294690,1,0,0:0:0:0:
448,192,294820,1,0,0:0:0:0:
192,192,294951,1,0,0:0:0:0:
64,192,295081,1,0,0:0:0:0:
320,192,295212,1,0,0:0:0:0:
448,192,295342,1,0,0:0:0:0:
64,192,295473,1,0,0:0:0:0:
320,192,295603,1,0,0:0:0:0:
192,192,295734,1,0,0:0:0:0:
448,192,295864,1,0,0:0:0:0:
64,192,295994,1,0,0:0:0:0:
320,192,296125,1,0,0:0:0:0:
192,192,296255,1,0,0:0:0:0:
320,192,296386,1,0,0:0:0:0:
64,192,296516,1,0,0:0:0:0:
320,192,296647,1,0,0:0:0:0:
192,192,296777,1,0,0:0:0:0:
448,192,296907,1,0,0:0:0:0:
64,192,297038,1,0,0:0:0:0:
320,192,297168,1,0,0:0:0:0:
192,192,297299,1,0,0:0:0:0:
64,192,297429,1,0,0:0:0:0:
320,192,297560,1,0,0:0:0:0:
192,192,297690,1,0,0:0:0:0:
448,192,297820,1,0,0:0:0:0:
320,192,297951,1,0,0:0:0:0:
64,192,298081,1,0,0:0:0:0:
192,192,298212,128,0,298277:0:0:0:0:
320,192,298342,128,0,298407:0:0:0:0:
448,192,298473,128,0,298538:0:0:0:0:
192,192,298603,128,0,298734:0:0:0:0:
64,192,298734,128,0,298994:0:0:0:0:
320,192,298864,128,0,298994:0:0:0:0:
192,192,298994,128,0,299386:0:0:0:0:
320,192,299125,128,0,299451:0:0:0:0:
448,192,299255,128,0,299712:0:0:0:0:
64,192,299386,128,0,300103:0:0:0:0:
320,192,299516,128,0,299973:0:0:0:0:
192,192,299647,128,0,299842:0:0:0:0:
448,192,299777,128,0,300234:0:0:0:0:
192,192,299907,128,0,300234:0:0:0:0:
320,192,300038,128,0,300234:0:0:0:0:
64,192,300168,128,0,300299:0:0:0:0:
448,192,300299,1,0,0:0:0:0:
192,192,300299,1,0,0:0:0:0:
