osu file format v14

[General]
AudioFilename: #1f1e33.mp3
AudioLeadIn: 0
PreviewTime: 50370
Countdown: 0
SampleSet: Normal
StackLeniency: 0.7
Mode: 1
LetterboxInBreaks: 0
WidescreenStoryboard: 1

[Editor]
DistanceSpacing: 1.8
BeatDivisor: 4
GridSize: 32
TimelineZoom: 1.400001

[Metadata]
Title:#1f1e33
TitleUnicode:#1f1e33
Artist:Camellia
ArtistUnicode:かめりあ
Creator:Raytoly
Version:#fu7suu
Source:Arcaea
Tags:Rhytoly Tairitsu Hikari Black Fate 5 Main Story かめるかめりあ cametek kamelcamellia Electronic Instrumental dubstep
BeatmapID:2494887
BeatmapSetID:1193771

[Difficulty]
HPDrainRate:6
CircleSize:5
OverallDifficulty:4
ApproachRate:10
SliderMultiplier:1.4
SliderTickRate:1

[Events]
//Background and Video events
0,0,"#1f1e33.jpg",0,-125
//Break Periods
//Storyboard Layer 0 (Background)
//Storyboard Layer 1 (Fail)
//Storyboard Layer 2 (Pass)
//Storyboard Layer 3 (Foreground)
//Storyboard Layer 4 (Overlay)
//Storyboard Sound Samples

[TimingPoints]
1310,331.491712707182,4,1,0,100,1,0
1475,-100,4,1,0,5,0,0
5868,-100,4,1,0,100,0,0
6613,-100,4,1,0,100,0,1
7939,-100,4,1,0,100,0,0
9265,-100,4,1,0,100,0,1
10591,-100,4,1,0,100,0,0
11917,-100,4,1,0,100,0,1
13243,-100,4,1,0,100,0,0
14569,-100,4,1,0,100,0,1
15895,-100,4,1,0,100,0,0
17304,-100,4,1,0,100,0,1
18547,-100,4,1,0,100,0,0
29155,-100,4,1,0,100,0,1
39763,-100,4,1,0,100,0,0
40094,-100,4,1,0,100,0,1
49044,-100,4,1,0,100,0,0
50370,-100,4,1,0,100,0,1
60315,-100,4,1,0,100,0,0
60978,-100,4,1,0,100,0,1
68271,-100,4,1,0,100,0,0
68934,-100,4,1,0,100,0,1
71586,-100,4,1,0,100,0,0
74238,-100,4,1,0,100,0,1
76890,-100,4,1,0,100,0,0
78298,-100,4,1,0,100,0,1
79542,-100,4,1,0,100,0,0
79707,-100,4,1,0,40,0,0
89486,-100,4,1,0,100,0,0
91475,-100,4,1,0,5,0,0
92801,-100,4,1,0,100,0,0
94127,-100,4,1,0,5,0,0
95453,-100,4,1,0,100,0,0
100757,-100,4,1,0,100,0,0
102083,-100,4,1,0,100,0,1
103077,-100,4,1,0,100,0,0
103409,-100,4,1,0,100,0,1
114017,-100,4,1,0,100,0,0
114348,-100,4,1,0,100,0,1
118658,-100,4,1,0,100,0,0
119321,-100,4,1,0,100,0,1
123216,-100,4,1,0,100,0,0
124624,-100,4,1,0,100,0,1
137553,-100,4,1,0,100,0,0
137884,-100,4,1,0,100,0,1
139873,-100,4,1,0,100,0,0
140536,-100,4,1,0,100,0,1
146834,-100,4,1,0,100,0,0
147166,-100,4,1,0,100,0,1
149818,-100,4,1,0,100,0,0
152470,-100,4,1,0,100,0,1
155122,-100,4,1,0,100,0,0
156530,-100,4,1,0,100,0,1
157774,-100,4,1,0,100,0,0

[HitObjects]
246,176,1310,5,4,0:0:0:0:
256,192,2635,12,0,5619,0:0:0:0:
156,195,5950,5,0,0:0:0:0:
207,221,6282,1,8,0:0:0:0:
240,185,6613,1,12,0:0:0:0:
240,185,6945,1,8,0:0:0:0:
240,185,7276,1,8,0:0:0:0:
240,185,7608,1,8,0:0:0:0:
240,185,7939,1,8,0:0:0:0:
340,177,8437,1,8,0:0:0:0:
336,172,8934,1,8,0:0:0:0:
265,180,9265,1,12,0:0:0:0:
265,180,9597,1,8,0:0:0:0:
265,180,9928,1,8,0:0:0:0:
265,180,10260,1,8,0:0:0:0:
265,180,10591,1,8,0:0:0:0:
234,175,11089,1,8,0:0:0:0:
234,175,11586,1,8,0:0:0:0:
240,185,11917,1,12,0:0:0:0:
240,185,12249,1,8,0:0:0:0:
240,185,12580,1,8,0:0:0:0:
240,185,12912,1,8,0:0:0:0:
240,185,13243,1,8,0:0:0:0:
340,177,13741,1,8,0:0:0:0:
336,172,14238,1,8,0:0:0:0:
265,180,14569,1,12,0:0:0:0:
265,180,14901,1,8,0:0:0:0:
265,180,15232,1,8,0:0:0:0:
265,180,15564,1,8,0:0:0:0:
265,180,15895,1,8,0:0:0:0:
234,175,16393,1,8,0:0:0:0:
234,175,16890,1,8,0:0:0:0:
281,161,17304,1,12,0:0:0:0:
281,161,17552,1,12,0:0:0:0:
281,161,17801,1,12,0:0:0:0:
281,161,18050,1,12,0:0:0:0:
268,191,18547,1,4,0:0:0:0:
237,165,19210,1,0,0:0:0:0:
237,165,19542,1,0,0:0:0:0:
237,165,19707,1,0,0:0:0:0:
237,165,19873,1,8,0:0:0:0:
331,156,20536,1,0,0:0:0:0:
331,156,20868,1,8,0:0:0:0:
331,156,21033,1,8,0:0:0:0:
331,156,21199,1,8,0:0:0:0:
259,181,21862,1,8,0:0:0:0:
259,181,22193,1,0,0:0:0:0:
259,181,22359,1,0,0:0:0:0:
259,181,22525,1,8,0:0:0:0:
317,152,23022,1,8,0:0:0:0:
309,150,23188,1,0,0:0:0:0:
287,156,23519,1,8,0:0:0:0:
287,156,23685,1,8,0:0:0:0:
287,156,23851,1,4,0:0:0:0:
239,154,24348,1,0,0:0:0:0:
239,154,24514,1,0,0:0:0:0:
253,159,25011,1,0,0:0:0:0:
253,159,25177,1,0,0:0:0:0:
260,161,25674,1,0,0:0:0:0:
260,161,25840,1,0,0:0:0:0:
259,160,26337,1,0,0:0:0:0:
205,182,26503,5,0,0:0:0:0:
252,174,26834,1,8,0:0:0:0:
205,182,27166,1,8,0:0:0:0:
224,128,27332,1,0,0:0:0:0:
199,152,27497,1,8,0:0:0:0:
205,182,27829,1,0,0:0:0:0:
230,195,27995,1,8,0:0:0:0:
230,195,28160,1,0,0:0:0:0:
230,195,28326,1,0,0:0:0:0:
224,195,28492,1,8,0:0:0:0:
286,192,29155,1,4,0:0:0:0:
264,176,29486,1,8,0:0:0:0:
268,157,29735,1,8,0:0:0:0:
268,157,30149,1,8,0:0:0:0:
295,156,30481,1,0,0:0:0:0:
285,229,30812,1,8,0:0:0:0:
389,217,31061,1,8,0:0:0:0:
383,217,31475,1,0,0:0:0:0:
236,160,31807,1,0,0:0:0:0:
254,176,32138,1,8,0:0:0:0:
309,177,32387,1,8,0:0:0:0:
309,177,32801,1,8,0:0:0:0:
285,172,33133,1,0,0:0:0:0:
284,170,33464,1,0,0:0:0:0:
284,170,33630,1,8,0:0:0:0:
315,208,33796,1,0,0:0:0:0:
350,190,34459,1,4,0:0:0:0:
330,166,34790,1,0,0:0:0:0:
301,157,35039,1,8,0:0:0:0:
307,169,35453,1,8,0:0:0:0:
226,181,35785,1,0,0:0:0:0:
233,124,36116,1,8,0:0:0:0:
286,204,36365,1,8,0:0:0:0:
259,248,36779,1,0,0:0:0:0:
271,250,37111,1,8,0:0:0:0:
249,201,37442,1,8,0:0:0:0:
266,232,37691,1,8,0:0:0:0:
285,167,38105,1,8,0:0:0:0:
262,192,38437,1,0,0:0:0:0:
262,192,38768,1,8,0:0:0:0:
262,192,39100,1,8,0:0:0:0:
262,192,39265,1,8,0:0:0:0:
262,192,39431,1,8,0:0:0:0:
288,192,40094,1,4,0:0:0:0:
256,192,40343,1,8,0:0:0:0:
256,192,40757,1,8,0:0:0:0:
288,192,41089,1,0,0:0:0:0:
320,192,41420,1,0,0:0:0:0:
256,160,41669,1,8,0:0:0:0:
288,192,42083,1,0,0:0:0:0:
224,192,42414,1,8,0:0:0:0:
288,160,42746,1,0,0:0:0:0:
288,128,42995,1,8,0:0:0:0:
288,160,43409,1,8,0:0:0:0:
288,160,43740,1,0,0:0:0:0:
320,192,44072,1,8,0:0:0:0:
320,192,44238,1,8,0:0:0:0:
288,192,44403,1,8,0:0:0:0:
256,192,45066,1,4,0:0:0:0:
256,160,45398,1,0,0:0:0:0:
256,160,45647,1,8,0:0:0:0:
256,224,45895,1,8,0:0:0:0:
288,224,46392,1,4,0:0:0:0:
192,160,46724,1,8,0:0:0:0:
160,160,46972,1,8,0:0:0:0:
256,224,47221,1,0,0:0:0:0:
256,160,47718,1,4,0:0:0:0:
256,160,48050,1,8,0:0:0:0:
288,160,48547,1,12,0:0:0:0:
288,160,48796,1,12,0:0:0:0:
288,160,49044,1,4,0:0:0:0:
384,160,49210,1,4,0:0:0:0:
256,160,50039,1,8,0:0:0:0:
256,160,50370,1,4,0:0:0:0:
256,160,50868,1,8,0:0:0:0:
256,160,51365,1,8,0:0:0:0:
256,160,51530,1,0,0:0:0:0:
256,160,51696,1,8,0:0:0:0:
224,128,52028,1,8,0:0:0:0:
224,128,52359,1,0,0:0:0:0:
224,128,52525,1,8,0:0:0:0:
224,128,52691,1,0,0:0:0:0:
224,128,52856,1,0,0:0:0:0:
224,128,53022,1,8,0:0:0:0:
288,192,53519,1,8,0:0:0:0:
288,192,54017,1,8,0:0:0:0:
192,128,54182,1,0,0:0:0:0:
288,192,54348,1,8,0:0:0:0:
256,192,54680,1,0,0:0:0:0:
256,192,55011,1,8,0:0:0:0:
256,192,55177,1,0,0:0:0:0:
256,192,55343,1,8,0:0:0:0:
256,192,55508,1,8,0:0:0:0:
256,192,55674,1,8,0:0:0:0:
256,192,56171,1,8,0:0:0:0:
288,192,56669,1,8,0:0:0:0:
288,192,56834,1,0,0:0:0:0:
288,192,57000,1,8,0:0:0:0:
256,192,57332,1,0,0:0:0:0:
256,192,57663,1,8,0:0:0:0:
256,192,57829,1,0,0:0:0:0:
256,192,57995,1,0,0:0:0:0:
256,192,58160,1,0,0:0:0:0:
256,192,58326,1,8,0:0:0:0:
256,192,58823,1,8,0:0:0:0:
256,192,59321,1,8,0:0:0:0:
256,192,59486,1,0,0:0:0:0:
256,192,59652,1,8,0:0:0:0:
224,192,59901,1,8,0:0:0:0:
224,192,60149,1,8,0:0:0:0:
256,128,60315,1,12,0:0:0:0:
219,148,60978,5,4,0:0:0:0:
285,149,61309,1,8,0:0:0:0:
316,180,61641,1,0,0:0:0:0:
251,188,61972,1,8,0:0:0:0:
251,188,62138,1,8,0:0:0:0:
251,188,62304,1,0,0:0:0:0:
251,188,62470,1,8,0:0:0:0:
251,188,62635,1,8,0:0:0:0:
288,160,62967,1,0,0:0:0:0:
315,172,63298,1,8,0:0:0:0:
315,172,63630,1,4,0:0:0:0:
306,131,63961,1,8,0:0:0:0:
261,206,64293,1,0,0:0:0:0:
263,192,64624,1,8,0:0:0:0:
263,192,64790,1,8,0:0:0:0:
263,192,64956,1,0,0:0:0:0:
263,192,65122,1,8,0:0:0:0:
263,192,65287,1,8,0:0:0:0:
257,153,65619,1,0,0:0:0:0:
287,199,66282,5,4,0:0:0:0:
290,195,66613,1,8,0:0:0:0:
290,195,66945,1,4,0:0:0:0:
290,195,67276,1,8,0:0:0:0:
290,195,67608,1,4,0:0:0:0:
290,195,67939,1,8,0:0:0:0:
290,195,68271,1,0,0:0:0:0:
253,189,68934,1,8,0:0:0:0:
237,166,69431,1,8,0:0:0:0:
237,166,69928,1,8,0:0:0:0:
237,166,70260,1,0,0:0:0:0:
237,166,70757,1,8,0:0:0:0:
237,166,71254,1,0,0:0:0:0:
237,166,71586,1,8,0:0:0:0:
256,160,72083,1,8,0:0:0:0:
237,166,72580,1,0,0:0:0:0:
237,166,72912,1,8,0:0:0:0:
256,160,73409,1,8,0:0:0:0:
256,192,73906,1,0,0:0:0:0:
253,189,74238,1,8,0:0:0:0:
237,166,74735,1,8,0:0:0:0:
237,166,75232,1,8,0:0:0:0:
237,166,75564,1,0,0:0:0:0:
237,166,76061,1,8,0:0:0:0:
237,166,76558,1,8,0:0:0:0:
237,166,76890,1,8,0:0:0:0:
288,160,77884,1,8,0:0:0:0:
288,192,78298,1,12,0:0:0:0:
288,192,78547,1,12,0:0:0:0:
224,192,78796,1,12,0:0:0:0:
224,192,79044,1,12,0:0:0:0:
320,192,79542,1,4,0:0:0:0:
288,160,80536,1,0,0:0:0:0:
288,160,80868,1,8,0:0:0:0:
288,160,81530,1,8,0:0:0:0:
288,160,82193,1,0,0:0:0:0:
256,192,83188,1,8,0:0:0:0:
256,192,83519,1,0,0:0:0:0:
256,192,84182,1,8,0:0:0:0:
256,192,84514,1,8,0:0:0:0:
256,192,84845,1,0,0:0:0:0:
288,160,85840,1,8,0:0:0:0:
288,160,86171,1,8,0:0:0:0:
288,192,86834,1,8,0:0:0:0:
288,192,87497,1,8,0:0:0:0:
288,192,88492,1,8,0:0:0:0:
288,192,88823,1,0,0:0:0:0:
256,192,89487,1,12,0:0:0:0:
256,192,89736,1,12,0:0:0:0:
256,192,89984,1,12,0:0:0:0:
256,192,90149,1,4,0:0:0:0:
224,192,90647,1,0,0:0:0:0:
224,192,91144,1,0,0:0:0:0:
256,192,91475,12,0,92470,0:0:0:0:
256,192,92801,5,4,0:0:0:0:
256,192,93298,1,0,0:0:0:0:
256,192,93796,1,0,0:0:0:0:
256,192,94127,12,0,95122,0:0:0:0:
256,192,95453,5,4,0:0:0:0:
256,192,95950,1,0,0:0:0:0:
256,192,96116,1,0,0:0:0:0:
256,192,96613,1,0,0:0:0:0:
256,192,96779,1,0,0:0:0:0:
256,192,97276,1,0,0:0:0:0:
256,192,97442,1,0,0:0:0:0:
256,192,97939,1,0,0:0:0:0:
256,192,98105,1,0,0:0:0:0:
256,192,98437,1,8,0:0:0:0:
256,192,98768,1,8,0:0:0:0:
256,192,98934,1,0,0:0:0:0:
256,192,99100,1,8,0:0:0:0:
256,192,99431,1,0,0:0:0:0:
256,192,99763,1,8,0:0:0:0:
256,192,100094,1,8,0:0:0:0:
256,192,100260,1,8,0:0:0:0:
256,192,100426,1,0,0:0:0:0:
192,192,100591,1,8,0:0:0:0:
256,192,100757,1,0,0:0:0:0:
224,192,101420,1,12,0:0:0:0:
224,192,102083,1,0,0:0:0:0:
224,192,102580,1,0,0:0:0:0:
224,192,103077,1,12,0:0:0:0:
288,192,103409,1,4,0:0:0:0:
256,192,103740,1,0,0:0:0:0:
256,192,103989,1,8,0:0:0:0:
256,224,104403,1,8,0:0:0:0:
224,192,104735,1,0,0:0:0:0:
224,192,105066,1,8,0:0:0:0:
224,192,105315,1,8,0:0:0:0:
288,192,105729,1,8,0:0:0:0:
288,192,106061,1,0,0:0:0:0:
256,160,106392,1,8,0:0:0:0:
224,160,106641,1,8,0:0:0:0:
224,160,107055,1,8,0:0:0:0:
256,192,107387,1,0,0:0:0:0:
256,192,107718,1,0,0:0:0:0:
256,160,107884,1,8,0:0:0:0:
256,160,108050,1,0,0:0:0:0:
224,192,108713,1,4,0:0:0:0:
288,160,109044,1,8,0:0:0:0:
288,160,109293,1,8,0:0:0:0:
288,160,109707,1,8,0:0:0:0:
288,160,110039,1,0,0:0:0:0:
256,160,110370,1,8,0:0:0:0:
288,160,110619,1,8,0:0:0:0:
288,160,111033,1,8,0:0:0:0:
256,160,111365,1,0,0:0:0:0:
224,160,111696,1,0,0:0:0:0:
224,160,111945,1,8,0:0:0:0:
256,160,112359,1,8,0:0:0:0:
224,160,112691,1,8,0:0:0:0:
224,160,112856,1,8,0:0:0:0:
224,160,113022,1,8,0:0:0:0:
224,160,113354,1,0,0:0:0:0:
224,160,113519,1,0,0:0:0:0:
224,160,113685,1,8,0:0:0:0:
256,160,114348,1,4,0:0:0:0:
224,160,114597,1,8,0:0:0:0:
128,192,115177,1,8,0:0:0:0:
384,224,115343,1,0,0:0:0:0:
216,180,115674,1,0,0:0:0:0:
224,160,115923,1,8,0:0:0:0:
288,160,116503,1,8,0:0:0:0:
224,160,116669,1,4,0:0:0:0:
256,160,117249,1,8,0:0:0:0:
192,128,117663,1,8,0:0:0:0:
320,160,117995,1,4,0:0:0:0:
352,160,118243,1,4,0:0:0:0:
256,192,118658,1,0,0:0:0:0:
256,160,118823,1,8,0:0:0:0:
288,192,119072,1,8,0:0:0:0:
288,192,119321,1,4,0:0:0:0:
256,160,119486,1,8,0:0:0:0:
256,192,119735,1,8,0:0:0:0:
224,160,120149,1,8,0:0:0:0:
256,160,120647,1,4,0:0:0:0:
288,160,120812,1,8,0:0:0:0:
224,128,121061,1,8,0:0:0:0:
256,192,121475,1,0,0:0:0:0:
288,192,121972,1,4,0:0:0:0:
288,192,122304,1,8,0:0:0:0:
288,192,122470,1,8,0:0:0:0:
256,160,122635,1,0,0:0:0:0:
256,160,122967,1,0,0:0:0:0:
256,160,123133,1,0,0:0:0:0:
256,160,123298,1,8,0:0:0:0:
256,160,124127,1,8,0:0:0:0:
256,160,124624,1,4,0:0:0:0:
256,160,124873,1,0,0:0:0:0:
256,160,125122,1,8,0:0:0:0:
256,160,125370,1,8,0:0:0:0:
256,160,125619,1,0,0:0:0:0:
288,160,125950,1,8,0:0:0:0:
288,160,126613,1,8,0:0:0:0:
288,160,126779,1,0,0:0:0:0:
288,160,126945,1,8,0:0:0:0:
288,160,127111,1,8,0:0:0:0:
224,192,127276,1,0,0:0:0:0:
256,192,127525,1,0,0:0:0:0:
256,192,127774,1,8,0:0:0:0:
256,192,128022,1,0,0:0:0:0:
256,192,128271,1,0,0:0:0:0:
288,192,128602,1,8,0:0:0:0:
224,160,129265,1,8,0:0:0:0:
288,192,129431,1,8,0:0:0:0:
224,160,129597,1,8,0:0:0:0:
224,160,129763,1,8,0:0:0:0:
256,96,129928,1,0,0:0:0:0:
288,192,130177,1,8,0:0:0:0:
288,192,130426,1,8,0:0:0:0:
256,160,130674,1,0,0:0:0:0:
256,160,130923,1,0,0:0:0:0:
256,192,131254,1,8,0:0:0:0:
256,192,131917,1,0,0:0:0:0:
256,192,132083,1,8,0:0:0:0:
256,192,132249,1,8,0:0:0:0:
256,192,132414,1,8,0:0:0:0:
256,192,132580,1,0,0:0:0:0:
256,192,132829,1,8,0:0:0:0:
256,192,133077,1,8,0:0:0:0:
256,192,133326,1,8,0:0:0:0:
256,192,133575,1,0,0:0:0:0:
256,192,133906,1,8,0:0:0:0:
256,192,134569,1,8,0:0:0:0:
256,192,134735,1,0,0:0:0:0:
224,160,134901,1,0,0:0:0:0:
224,160,135066,1,8,0:0:0:0:
256,192,135232,1,4,0:0:0:0:
256,192,135481,1,0,0:0:0:0:
256,192,135729,1,8,0:0:0:0:
256,192,135978,1,8,0:0:0:0:
256,192,136227,1,0,0:0:0:0:
256,192,136558,1,8,0:0:0:0:
352,160,137221,1,8,0:0:0:0:
236,197,137387,1,0,0:0:0:0:
236,197,137553,1,8,0:0:0:0:
288,160,137884,1,4,0:0:0:0:
288,192,138133,1,0,0:0:0:0:
288,192,138381,1,8,0:0:0:0:
288,192,138630,1,0,0:0:0:0:
288,192,138879,1,0,0:0:0:0:
256,192,139210,1,8,0:0:0:0:
256,192,139542,1,0,0:0:0:0:
256,192,139707,1,12,0:0:0:0:
224,192,139873,1,4,0:0:0:0:
224,192,140122,1,12,0:0:0:0:
224,192,140370,1,4,0:0:0:0:
224,192,140536,1,4,0:0:0:0:
256,192,140785,1,0,0:0:0:0:
256,192,141033,1,0,0:0:0:0:
256,192,141282,1,8,0:0:0:0:
256,192,141530,1,8,0:0:0:0:
256,192,141862,1,8,0:0:0:0:
256,192,142111,1,8,0:0:0:0:
256,192,142359,1,8,0:0:0:0:
256,192,142608,1,8,0:0:0:0:
256,192,143188,1,4,0:0:0:0:
256,160,143685,1,4,0:0:0:0:
256,160,144182,1,4,0:0:0:0:
256,160,144680,1,4,0:0:0:0:
256,160,145177,1,4,0:0:0:0:
256,160,145840,1,0,0:0:0:0:
116,148,146006,1,0,0:0:0:0:
256,160,146171,1,8,0:0:0:0:
256,160,146337,1,8,0:0:0:0:
256,160,146503,1,0,0:0:0:0:
224,160,146834,1,8,0:0:0:0:
253,189,147166,1,8,0:0:0:0:
237,166,147663,1,8,0:0:0:0:
237,166,148160,1,8,0:0:0:0:
237,166,148492,1,0,0:0:0:0:
237,166,148989,1,8,0:0:0:0:
237,166,149486,1,0,0:0:0:0:
237,166,149818,1,8,0:0:0:0:
256,160,150315,1,8,0:0:0:0:
237,166,150812,1,0,0:0:0:0:
237,166,151144,1,8,0:0:0:0:
256,160,151641,1,8,0:0:0:0:
256,192,152138,1,0,0:0:0:0:
253,189,152470,1,8,0:0:0:0:
237,166,152967,1,8,0:0:0:0:
237,166,153464,1,8,0:0:0:0:
237,166,153796,1,0,0:0:0:0:
237,166,154293,1,8,0:0:0:0:
237,166,154790,1,8,0:0:0:0:
237,166,155122,1,8,0:0:0:0:
256,160,155619,1,8,0:0:0:0:
256,160,156116,1,8,0:0:0:0:
288,192,156530,1,12,0:0:0:0:
288,192,156779,1,12,0:0:0:0:
224,192,157028,1,12,0:0:0:0:
224,192,157276,1,12,0:0:0:0:
