osu file format v14

[General]
AudioFilename: #1f1e33.mp3
AudioLeadIn: 0
PreviewTime: 50370
Countdown: 0
SampleSet: Normal
StackLeniency: 0.7
Mode: 1
LetterboxInBreaks: 0
WidescreenStoryboard: 1

[Editor]
DistanceSpacing: 1.8
BeatDivisor: 1
GridSize: 32
TimelineZoom: 0.7000008

[Metadata]
Title:#1f1e33
TitleUnicode:#1f1e33
Artist:Camellia
ArtistUnicode:かめりあ
Creator:Raytoly
Version:#kan7an
Source:Arcaea
Tags:Rhytoly Tairitsu Hikari Black Fate 5 Main Story かめるかめりあ cametek kamelcamellia Electronic Instrumental dubstep
BeatmapID:2495193
BeatmapSetID:1193771

[Difficulty]
HPDrainRate:6.5
CircleSize:5
OverallDifficulty:3.5
ApproachRate:10
SliderMultiplier:1.4
SliderTickRate:1

[Events]
//Background and Video events
0,0,"#1f1e33.jpg",0,-125
//Break Periods
//Storyboard Layer 0 (Background)
//Storyboard Layer 1 (Fail)
//Storyboard Layer 2 (Pass)
//Storyboard Layer 3 (Foreground)
//Storyboard Layer 4 (Overlay)
//Storyboard Sound Samples

[TimingPoints]
1310,331.491712707182,4,1,0,100,1,0
1475,-100,4,1,0,5,0,0
5868,-100,4,1,0,100,0,0
6613,-100,4,1,0,100,0,1
7939,-100,4,1,0,100,0,0
9265,-100,4,1,0,100,0,1
10591,-100,4,1,0,100,0,0
11917,-100,4,1,0,100,0,1
13243,-100,4,1,0,100,0,0
14569,-100,4,1,0,100,0,1
15895,-100,4,1,0,100,0,0
17304,-100,4,1,0,100,0,1
18547,-100,4,1,0,100,0,0
29155,-100,4,1,0,100,0,1
39763,-100,4,1,0,100,0,0
40094,-100,4,1,0,100,0,1
49044,-100,4,1,0,100,0,0
50370,-100,4,1,0,100,0,1
60315,-100,4,1,0,100,0,0
60978,-100,4,1,0,100,0,1
68271,-100,4,1,0,100,0,0
68934,-100,4,1,0,100,0,1
71586,-100,4,1,0,100,0,0
74238,-100,4,1,0,100,0,1
76890,-100,4,1,0,100,0,0
78298,-100,4,1,0,100,0,1
79542,-100,4,1,0,100,0,0
79707,-100,4,1,0,40,0,0
89486,-100,4,1,0,100,0,0
90149,-100,4,1,0,100,0,0
91475,-100,4,1,0,40,0,0
92801,-100,4,1,0,100,0,0
94127,-100,4,1,0,40,0,0
95453,-100,4,1,0,100,0,0
102083,-100,4,1,0,100,0,1
103077,-100,4,1,0,100,0,0
103409,-100,4,1,0,100,0,1
114017,-100,4,1,0,100,0,0
114348,-100,4,1,0,100,0,1
118658,-100,4,1,0,100,0,0
119321,-100,4,1,0,100,0,1
123216,-100,4,1,0,100,0,0
124624,-100,4,1,0,100,0,1
137553,-100,4,1,0,100,0,0
137884,-100,4,1,0,100,0,1
139873,-100,4,1,0,100,0,0
140536,-100,4,1,0,100,0,1
146834,-100,4,1,0,100,0,0
147166,-100,4,1,0,100,0,1
149818,-100,4,1,0,100,0,0
152470,-100,4,1,0,100,0,1
155122,-100,4,1,0,100,0,0
156530,-100,4,1,0,100,0,1
157774,-100,4,1,0,100,0,0

[HitObjects]
246,176,1310,5,4,0:0:0:0:
256,192,2635,12,0,5950,0:0:0:0:
240,185,6613,5,12,0:0:0:0:
240,185,7608,1,8,0:0:0:0:
240,185,7939,1,8,0:0:0:0:
340,177,8602,1,8,0:0:0:0:
265,180,9265,1,12,0:0:0:0:
265,180,10260,1,8,0:0:0:0:
265,180,10591,1,8,0:0:0:0:
234,175,11254,1,8,0:0:0:0:
234,175,11586,1,8,0:0:0:0:
240,185,11917,1,12,0:0:0:0:
240,185,12912,1,8,0:0:0:0:
240,185,13243,1,8,0:0:0:0:
340,177,13906,1,8,0:0:0:0:
265,180,14569,1,12,0:0:0:0:
265,180,15564,1,8,0:0:0:0:
265,180,15895,1,8,0:0:0:0:
234,175,16890,1,8,0:0:0:0:
281,161,17304,1,12,0:0:0:0:
281,161,18050,1,12,0:0:0:0:
268,191,18547,1,4,0:0:0:0:
237,165,19210,1,0,0:0:0:0:
237,165,19542,1,0,0:0:0:0:
237,165,19873,1,8,0:0:0:0:
331,156,20536,1,0,0:0:0:0:
331,156,20868,1,8,0:0:0:0:
331,156,21199,1,8,0:0:0:0:
259,181,21862,1,8,0:0:0:0:
259,181,22193,1,0,0:0:0:0:
259,181,22525,1,8,0:0:0:0:
287,156,23851,1,4,0:0:0:0:
239,154,24514,1,0,0:0:0:0:
253,159,25177,1,0,0:0:0:0:
260,161,25840,1,0,0:0:0:0:
205,182,26503,5,0,0:0:0:0:
143,74,26834,1,0,0:0:0:0:
143,74,27166,1,8,0:0:0:0:
205,182,27829,1,0,0:0:0:0:
186,172,28160,1,8,0:0:0:0:
228,179,28492,1,0,0:0:0:0:
286,192,29155,1,4,0:0:0:0:
268,157,30149,1,8,0:0:0:0:
291,181,30481,1,0,0:0:0:0:
285,229,30812,1,8,0:0:0:0:
383,217,31475,1,0,0:0:0:0:
236,160,31807,1,8,0:0:0:0:
264,171,32138,1,0,0:0:0:0:
309,177,32801,1,8,0:0:0:0:
285,172,33133,1,0,0:0:0:0:
350,190,34459,1,4,0:0:0:0:
307,169,35453,1,8,0:0:0:0:
229,186,35785,1,0,0:0:0:0:
233,124,36116,1,8,0:0:0:0:
259,248,36779,1,0,0:0:0:0:
271,250,37111,1,8,0:0:0:0:
266,232,37442,1,0,0:0:0:0:
285,167,38105,1,8,0:0:0:0:
262,192,38437,1,0,0:0:0:0:
288,192,40094,1,4,0:0:0:0:
256,192,40757,1,8,0:0:0:0:
249,167,41089,1,8,0:0:0:0:
320,192,41420,1,0,0:0:0:0:
288,192,42083,1,8,0:0:0:0:
224,192,42414,1,0,0:0:0:0:
288,128,42746,1,8,0:0:0:0:
288,160,43409,1,8,0:0:0:0:
288,160,43740,1,0,0:0:0:0:
256,192,45066,1,4,0:0:0:0:
256,224,45895,1,8,0:0:0:0:
288,224,46392,1,4,0:0:0:0:
256,224,47221,1,0,0:0:0:0:
256,160,47718,1,4,0:0:0:0:
256,160,48050,1,8,0:0:0:0:
288,160,48547,1,8,0:0:0:0:
192,128,49044,1,0,0:0:0:0:
256,160,50370,1,4,0:0:0:0:
256,160,50868,1,8,0:0:0:0:
256,160,51365,1,8,0:0:0:0:
256,160,51696,1,8,0:0:0:0:
224,128,53022,1,8,0:0:0:0:
288,192,53519,1,0,0:0:0:0:
288,192,54017,1,8,0:0:0:0:
288,192,54348,1,0,0:0:0:0:
256,192,55674,1,8,0:0:0:0:
256,192,56171,1,0,0:0:0:0:
288,192,56669,1,0,0:0:0:0:
288,192,57000,1,8,0:0:0:0:
256,192,58326,1,8,0:0:0:0:
256,192,58823,1,0,0:0:0:0:
256,192,59321,1,8,0:0:0:0:
256,192,59652,1,0,0:0:0:0:
256,128,60315,1,12,0:0:0:0:
219,148,60978,5,4,0:0:0:0:
316,180,61641,1,8,0:0:0:0:
303,158,62304,1,0,0:0:0:0:
288,160,62967,1,0,0:0:0:0:
303,158,63298,1,8,0:0:0:0:
315,172,63630,1,4,0:0:0:0:
261,206,64293,1,8,0:0:0:0:
295,98,64956,1,0,0:0:0:0:
257,153,65619,1,0,0:0:0:0:
287,199,66282,5,4,0:0:0:0:
290,195,66945,1,4,0:0:0:0:
290,195,67608,1,4,0:0:0:0:
253,189,68934,1,8,0:0:0:0:
237,166,69431,1,8,0:0:0:0:
237,166,70260,1,0,0:0:0:0:
237,166,70757,1,8,0:0:0:0:
237,166,71586,1,8,0:0:0:0:
256,160,72083,1,8,0:0:0:0:
237,166,72912,1,8,0:0:0:0:
256,160,73409,1,8,0:0:0:0:
253,189,74238,1,8,0:0:0:0:
237,166,74735,1,8,0:0:0:0:
237,166,75564,1,0,0:0:0:0:
237,166,76061,1,8,0:0:0:0:
237,166,76890,1,8,0:0:0:0:
288,128,77387,1,8,0:0:0:0:
288,160,77884,1,8,0:0:0:0:
288,192,78298,1,12,0:0:0:0:
224,192,79044,1,12,0:0:0:0:
320,192,79542,1,4,0:0:0:0:
288,160,80868,1,8,0:0:0:0:
288,160,81530,1,8,0:0:0:0:
288,160,82193,1,0,0:0:0:0:
256,192,83519,1,0,0:0:0:0:
256,192,84182,1,8,0:0:0:0:
256,192,84845,1,0,0:0:0:0:
288,160,86171,1,8,0:0:0:0:
288,192,86834,1,8,0:0:0:0:
288,192,87497,1,8,0:0:0:0:
288,192,88823,1,0,0:0:0:0:
256,192,89487,1,12,0:0:0:0:
256,192,90149,1,4,0:0:0:0:
224,192,91475,1,0,0:0:0:0:
256,192,92801,5,4,0:0:0:0:
256,192,94127,1,0,0:0:0:0:
256,192,95453,5,4,0:0:0:0:
256,192,96116,1,0,0:0:0:0:
256,192,96779,1,0,0:0:0:0:
256,192,97442,1,0,0:0:0:0:
256,192,98105,1,0,0:0:0:0:
233,90,98437,1,0,0:0:0:0:
233,90,98768,1,8,0:0:0:0:
256,192,99431,1,0,0:0:0:0:
256,192,99763,1,8,0:0:0:0:
256,192,100094,1,8,0:0:0:0:
256,192,100426,1,8,0:0:0:0:
256,192,100757,1,0,0:0:0:0:
224,192,102083,1,0,0:0:0:0:
224,192,103077,1,12,0:0:0:0:
288,192,103409,1,4,0:0:0:0:
256,224,104403,1,8,0:0:0:0:
155,165,104735,1,0,0:0:0:0:
224,192,105066,1,8,0:0:0:0:
288,192,105729,1,0,0:0:0:0:
288,192,106061,1,8,0:0:0:0:
224,160,106392,1,0,0:0:0:0:
256,160,107055,1,8,0:0:0:0:
256,192,107387,1,0,0:0:0:0:
224,192,108713,1,4,0:0:0:0:
288,160,109707,1,8,0:0:0:0:
256,160,110039,1,0,0:0:0:0:
288,160,110370,1,8,0:0:0:0:
288,160,111033,1,0,0:0:0:0:
256,160,111365,1,0,0:0:0:0:
331,203,111696,1,8,0:0:0:0:
224,160,112359,1,0,0:0:0:0:
224,160,112691,1,8,0:0:0:0:
224,160,114017,1,0,0:0:0:0:
256,160,114348,1,4,0:0:0:0:
384,224,115343,1,0,0:0:0:0:
256,192,116337,1,8,0:0:0:0:
224,160,116669,1,4,0:0:0:0:
288,224,117663,1,8,0:0:0:0:
320,160,117995,1,0,0:0:0:0:
256,192,118658,1,0,0:0:0:0:
288,192,119321,1,4,0:0:0:0:
224,160,120149,1,8,0:0:0:0:
256,160,120647,1,4,0:0:0:0:
256,192,121475,1,0,0:0:0:0:
288,192,121972,1,4,0:0:0:0:
256,160,122635,1,0,0:0:0:0:
256,160,122967,1,0,0:0:0:0:
256,160,123298,1,8,0:0:0:0:
256,160,124624,1,4,0:0:0:0:
256,192,125619,1,0,0:0:0:0:
256,160,125950,1,8,0:0:0:0:
192,128,126282,1,0,0:0:0:0:
256,160,126613,1,8,0:0:0:0:
256,160,126945,1,8,0:0:0:0:
224,192,127276,1,0,0:0:0:0:
256,192,128271,1,8,0:0:0:0:
256,192,128602,5,0,0:0:0:0:
256,192,128934,1,0,0:0:0:0:
256,192,129265,1,8,0:0:0:0:
256,192,129597,1,8,0:0:0:0:
256,96,129928,1,0,0:0:0:0:
256,160,130923,1,8,0:0:0:0:
224,224,131254,1,0,0:0:0:0:
224,224,131586,1,0,0:0:0:0:
224,224,131917,1,8,0:0:0:0:
224,224,132249,1,0,0:0:0:0:
256,192,132580,1,8,0:0:0:0:
256,192,133575,1,8,0:0:0:0:
224,192,133906,1,0,0:0:0:0:
256,192,135232,1,4,0:0:0:0:
256,192,136227,1,0,0:0:0:0:
256,160,136558,1,8,0:0:0:0:
256,160,136890,1,0,0:0:0:0:
256,160,137221,1,8,0:0:0:0:
288,160,137884,1,4,0:0:0:0:
288,192,138879,1,8,0:0:0:0:
224,192,139210,1,0,0:0:0:0:
224,192,139542,1,0,0:0:0:0:
224,192,139873,1,8,0:0:0:0:
224,192,140536,1,4,0:0:0:0:
256,192,141530,1,8,0:0:0:0:
224,192,141862,1,0,0:0:0:0:
256,192,143188,1,4,0:0:0:0:
256,160,143685,1,4,0:0:0:0:
256,160,144182,1,4,0:0:0:0:
256,160,144680,1,4,0:0:0:0:
256,160,145177,1,4,0:0:0:0:
256,160,145840,1,0,0:0:0:0:
224,160,146834,1,8,0:0:0:0:
253,189,147166,1,8,0:0:0:0:
237,166,147663,1,8,0:0:0:0:
237,166,148492,1,0,0:0:0:0:
237,166,148989,1,8,0:0:0:0:
237,166,149818,1,8,0:0:0:0:
256,160,150315,1,8,0:0:0:0:
237,166,151144,1,8,0:0:0:0:
256,160,151641,1,8,0:0:0:0:
253,189,152470,1,8,0:0:0:0:
237,166,152967,1,8,0:0:0:0:
237,166,153796,1,0,0:0:0:0:
237,166,154293,1,8,0:0:0:0:
237,166,155122,1,8,0:0:0:0:
256,160,155619,1,8,0:0:0:0:
256,160,156116,1,8,0:0:0:0:
288,192,156530,1,12,0:0:0:0:
224,192,157276,1,12,0:0:0:0:
