osu file format v14

[General]
AudioFilename: #1f1e33.mp3
AudioLeadIn: 0
PreviewTime: 50370
Countdown: 0
SampleSet: Normal
StackLeniency: 0.7
Mode: 1
LetterboxInBreaks: 0
WidescreenStoryboard: 0

[Editor]
DistanceSpacing: 1.8
BeatDivisor: 2
GridSize: 32
TimelineZoom: 1.500001

[Metadata]
Title:#1f1e33
TitleUnicode:#1f1e33
Artist:Camellia
ArtistUnicode:かめりあ
Creator:Raytoly
Version:#7a1r17su
Source:Arcaea
Tags:Rhytoly Tairitsu Hikari Black Fate 5 Main Story かめるかめりあ cametek kamelcamellia Electronic Instrumental dubstep
BeatmapID:2487194
BeatmapSetID:1193771

[Difficulty]
HPDrainRate:4.5
CircleSize:5
OverallDifficulty:7.5
ApproachRate:10
SliderMultiplier:1.4
SliderTickRate:1

[Events]
//Background and Video events
0,0,"#1f1e33.jpg",0,-125
//Break Periods
//Storyboard Layer 0 (Background)
//Storyboard Layer 1 (Fail)
//Storyboard Layer 2 (Pass)
//Storyboard Layer 3 (Foreground)
//Storyboard Layer 4 (Overlay)
//Storyboard Sound Samples

[TimingPoints]
1310,331.491712707182,4,1,0,100,1,0
1475,-200,4,1,0,5,0,0
3961,-166.666666666667,4,1,0,5,0,0
5287,-142.857142857143,4,1,0,5,0,0
5868,-117.647058823529,4,1,0,100,0,0
6116,-111.111111111111,4,1,0,100,0,0
6199,-108.108108108108,4,1,0,100,0,0
6282,-105.263157894737,4,1,0,100,0,0
6448,-100,4,1,0,100,0,0
6613,-83.3333333333333,4,1,0,100,0,1
6696,-85.0969679950303,4,1,0,100,0,1
6779,-86.936942027839,4,1,0,100,0,1
6862,-88.8581637105037,4,1,0,100,0,1
6945,-90.8663011418259,4,1,0,100,0,1
7028,-92.9672160409353,4,1,0,100,0,1
7111,-95.1676711614358,4,1,0,100,0,1
7193,-97.474722367622,4,1,0,100,0,1
7276,-99.8965072185216,4,1,0,100,0,1
7359,-102.441592925793,4,1,0,100,0,1
7442,-105.119862923699,4,1,0,100,0,1
7525,-107.941819359365,4,1,0,100,0,1
7608,-110.91958995246,4,1,0,100,0,1
7691,-114.066185763627,4,1,0,100,0,1
7774,-117.396658656301,4,1,0,100,0,1
7856,-120.927319053429,4,1,0,100,0,1
7939,-125,4,1,0,100,0,0
8105,-129.007621770294,4,1,0,100,0,0
8188,-131.109368813277,4,1,0,100,0,0
8271,-133.280731871155,4,1,0,100,0,0
8437,-137.846615314208,4,1,0,100,0,0
8519,-140.248913772163,4,1,0,100,0,0
8685,-145.313776036596,4,1,0,100,0,0
8768,-147.985911741202,4,1,0,100,0,0
8851,-150.758162800725,4,1,0,100,0,0
8934,-153.636263074446,4,1,0,100,0,0
9100,-159.73522289453,4,1,0,100,0,0
9265,-83.3333333333333,4,1,0,100,0,1
9348,-85.0969679950303,4,1,0,100,0,1
9431,-86.936942027839,4,1,0,100,0,1
9514,-88.8581637105037,4,1,0,100,0,1
9597,-90.8663011418259,4,1,0,100,0,1
9680,-92.9672160409353,4,1,0,100,0,1
9763,-95.1676711614358,4,1,0,100,0,1
9845,-97.474722367622,4,1,0,100,0,1
9928,-99.8965072185216,4,1,0,100,0,1
10011,-102.441592925793,4,1,0,100,0,1
10094,-105.119862923699,4,1,0,100,0,1
10177,-107.941819359365,4,1,0,100,0,1
10260,-110.91958995246,4,1,0,100,0,1
10343,-114.066185763627,4,1,0,100,0,1
10426,-117.396658656301,4,1,0,100,0,1
10508,-120.927319053429,4,1,0,100,0,1
10591,-124.676930902798,4,1,0,100,0,0
10757,-129.032258064516,4,1,0,100,0,0
10840,-131.147540983607,4,1,0,100,0,0
10923,-133.333333333333,4,1,0,100,0,0
11089,-137.931034482759,4,1,0,100,0,0
11171,-140.350877192982,4,1,0,100,0,0
11254,-142.857142857143,4,1,0,100,0,0
11337,-145.454545454545,4,1,0,100,0,0
11503,-150.943396226415,4,1,0,100,0,0
11586,-153.846153846154,4,1,0,100,0,0
11751,-160,4,1,0,100,0,0
11917,-83.3333333333333,4,1,0,100,0,1
12000,-85.0969679950303,4,1,0,100,0,1
12083,-86.936942027839,4,1,0,100,0,1
12166,-88.8581637105037,4,1,0,100,0,1
12249,-90.8663011418259,4,1,0,100,0,1
12332,-92.9672160409353,4,1,0,100,0,1
12415,-95.1676711614358,4,1,0,100,0,1
12497,-97.474722367622,4,1,0,100,0,1
12580,-99.8965072185216,4,1,0,100,0,1
12663,-102.441592925793,4,1,0,100,0,1
12746,-105.119862923699,4,1,0,100,0,1
12829,-107.941819359365,4,1,0,100,0,1
12912,-110.91958995246,4,1,0,100,0,1
12995,-114.066185763627,4,1,0,100,0,1
13078,-117.396658656301,4,1,0,100,0,1
13160,-120.927319053429,4,1,0,100,0,1
13243,-124.676930902798,4,1,0,100,0,0
13409,-129.032258064516,4,1,0,100,0,0
13492,-131.147540983607,4,1,0,100,0,0
13575,-133.333333333333,4,1,0,100,0,0
13741,-137.931034482759,4,1,0,100,0,0
13823,-140.350877192982,4,1,0,100,0,0
13906,-142.857142857143,4,1,0,100,0,0
13989,-145.454545454545,4,1,0,100,0,0
14072,-148.148148148148,4,1,0,100,0,0
14238,-153.846153846154,4,1,0,100,0,0
14321,-156.862745098039,4,1,0,100,0,0
14403,-160,4,1,0,100,0,0
14569,-83.3333333333333,4,1,0,100,0,1
14652,-85.0969679950303,4,1,0,100,0,1
14735,-86.936942027839,4,1,0,100,0,1
14818,-88.8581637105037,4,1,0,100,0,1
14901,-90.8663011418259,4,1,0,100,0,1
14984,-92.9672160409353,4,1,0,100,0,1
15067,-95.1676711614358,4,1,0,100,0,1
15149,-97.474722367622,4,1,0,100,0,1
15232,-99.8965072185216,4,1,0,100,0,1
15315,-102.441592925793,4,1,0,100,0,1
15398,-105.119862923699,4,1,0,100,0,1
15481,-107.941819359365,4,1,0,100,0,1
15564,-110.91958995246,4,1,0,100,0,1
15647,-114.066185763627,4,1,0,100,0,1
15730,-117.396658656301,4,1,0,100,0,1
15812,-120.927319053429,4,1,0,100,0,1
15895,-124.676930902798,4,1,0,100,0,0
16061,-133.333333333333,4,1,0,100,0,0
16144,-129.032258064516,4,1,0,100,0,0
16227,-125,4,1,0,100,0,0
16393,-117.647058823529,4,1,0,100,0,0
16475,-114.285714285714,4,1,0,100,0,0
16558,-111.111111111111,4,1,0,100,0,0
16641,-108.108108108108,4,1,0,100,0,0
16807,-102.564102564103,4,1,0,100,0,0
16890,-100,4,1,0,100,0,0
16972,-97.5609756097561,4,1,0,100,0,0
17055,-95.2380952380952,4,1,0,100,0,0
17304,-50,4,1,0,100,0,1
18547,-66.6666666666667,4,1,0,100,0,0
18796,-125,4,1,0,100,0,0
21365,-111.111111111111,4,1,0,100,0,0
23519,-105.263157894737,4,1,0,100,0,0
23575,-100,4,1,0,100,0,0
23630,-94.3396226415094,4,1,0,100,0,0
23685,-89.2857142857143,4,1,0,100,0,0
23740,-83.3333333333333,4,1,0,100,0,0
23796,-76.9230769230769,4,1,0,100,0,0
23851,-66.6666666666667,4,1,0,100,0,0
26503,-80,4,1,0,100,0,0
27884,-79.475651442046,4,1,0,100,0,0
27939,-78.9580693172891,4,1,0,100,0,0
27995,-78.4472465800923,4,1,0,100,0,0
28077,-77.6932561476731,4,1,0,100,0,0
28160,-76.9535623727861,4,1,0,100,0,0
28216,-76.468267198478,4,1,0,100,0,0
28271,-75.9890545365845,4,1,0,100,0,0
28326,-75.5157537189621,4,1,0,100,0,0
28381,-75.0483686736101,4,1,0,100,0,0
28437,-74.5866779242826,4,1,0,100,0,0
28492,-74.0740740740741,4,1,0,100,0,0
28823,-66.6666666666667,4,1,0,100,0,0
29155,-50,4,1,0,100,0,1
29486,-80,4,1,0,100,0,1
39763,-80,4,1,0,100,0,0
40094,-50,4,1,0,100,0,1
40315,-80,4,1,0,100,0,1
45066,-76.9230769230769,4,1,0,100,0,1
46392,-74.0740740740741,4,1,0,100,0,1
47718,-71.4285714285714,4,1,0,100,0,1
48547,-66.6666666666667,4,1,0,100,0,1
49044,-50,4,1,0,100,0,0
49542,-71.4285714285714,4,1,0,100,0,0
49624,-74.0740740740741,4,1,0,100,0,0
49707,-76.9230769230769,4,1,0,100,0,0
49790,-80,4,1,0,100,0,0
49873,-83.3333333333333,4,1,0,100,0,0
49956,-86.9565217391304,4,1,0,100,0,0
50039,-90.9090909090909,4,1,0,100,0,0
50122,-95.2380952380952,4,1,0,100,0,0
50205,-100,4,1,0,100,0,0
50287,-105.263157894737,4,1,0,100,0,0
50370,-90.9090909090909,4,1,0,100,0,1
55757,-86.9565217391304,4,1,0,100,0,1
58409,-83.3333333333333,4,1,0,100,0,1
60315,-66.6666666666667,4,1,0,100,0,0
60647,-86.9565217391304,4,1,0,100,0,0
60729,-90.9090909090909,4,1,0,100,0,0
60812,-95.2380952380952,4,1,0,100,0,0
60895,-100,4,1,0,100,0,0
60978,-50,4,1,0,100,0,1
61309,-58.8235294117647,4,1,0,100,0,1
61641,-71.4285714285714,4,1,0,100,0,1
61972,-90.9090909090909,4,1,0,100,0,1
63133,-100,4,1,0,100,0,1
63298,-111.111111111111,4,1,0,100,0,1
63630,-50,4,1,0,100,0,1
63961,-58.8235294117647,4,1,0,100,0,1
64293,-71.4285714285714,4,1,0,100,0,1
64624,-90.9090909090909,4,1,0,100,0,1
65702,-50,4,1,0,100,0,1
66282,-71.4285714285714,4,1,0,100,0,1
66613,-90.9090909090909,4,1,0,100,0,1
66696,-83.3333333333333,4,1,0,100,0,1
66779,-76.9230769230769,4,1,0,100,0,1
66862,-71.4285714285714,4,1,0,100,0,1
66945,-62.5,4,1,0,100,0,1
67276,-76.9230769230769,4,1,0,100,0,1
67359,-71.4285714285714,4,1,0,100,0,1
67442,-66.6666666666667,4,1,0,100,0,1
67525,-62.5,4,1,0,100,0,1
67608,-55.5555555555556,4,1,0,100,0,1
67939,-66.6666666666667,4,1,0,100,0,1
68022,-62.5,4,1,0,100,0,1
68105,-58.8235294117647,4,1,0,100,0,1
68188,-55.5555555555556,4,1,0,100,0,1
68271,-50,4,1,0,100,0,0
68934,-66.6666666666667,4,1,0,100,0,1
71586,-66.6666666666667,4,1,0,100,0,0
71641,-100,4,1,0,100,0,0
73906,-90.9090909090909,4,1,0,100,0,0
74072,-83.3333333333333,4,1,0,100,0,0
74155,-76.9230769230769,4,1,0,100,0,0
74238,-66.6666666666667,4,1,0,100,0,1
76890,-66.6666666666667,4,1,0,100,0,0
77055,-100,4,1,0,100,0,0
78298,-50,4,1,0,100,0,1
79542,-50,4,1,0,100,0,0
80205,-148.148148148148,4,1,0,40,0,0
80868,-153.846153846154,4,1,0,40,0,0
81199,-160,4,1,0,40,0,0
81530,-166.666666666667,4,1,0,40,0,0
81696,-170.212765957447,4,1,0,40,0,0
81862,-173.913043478261,4,1,0,40,0,0
82193,-181.818181818182,4,1,0,40,0,0
82856,-200,4,1,0,40,0,0
83188,-210.526315789474,4,1,0,40,0,0
83519,-222.222222222222,4,1,0,40,0,0
83685,-228.571428571429,4,1,0,40,0,0
83851,-235.294117647059,4,1,0,40,0,0
84182,-250,4,1,0,40,0,0
84514,-200,4,1,0,40,0,0
84680,-181.818181818182,4,1,0,40,0,0
84845,-166.666666666667,4,1,0,40,0,0
85840,-161.290322580645,4,1,0,40,0,0
86006,-158.730158730159,4,1,0,40,0,0
86171,-153.846153846154,4,1,0,40,0,0
87166,-147.058823529412,4,1,0,40,0,0
87332,-140.845070422535,4,1,0,40,0,0
87497,-133.333333333333,4,1,0,40,0,0
88492,-128.205128205128,4,1,0,40,0,0
88658,-123.456790123457,4,1,0,40,0,0
88823,-117.647058823529,4,1,0,40,0,0
89486,-66.6666666666667,4,1,0,100,0,0
90149,-66.6666666666667,4,1,0,100,0,0
91475,-33.3333333333333,4,1,0,5,0,0
92801,-66.6666666666667,4,1,0,100,0,0
94127,-33.3333333333333,4,1,0,5,0,0
95453,-66.6666666666667,4,1,0,100,0,0
98105,-80,4,1,0,100,0,0
99431,-80,4,1,0,100,0,0
99486,-79.4729354918183,4,1,0,100,0,0
99542,-78.9527704527152,4,1,0,100,0,0
99597,-78.4393702887353,4,1,0,100,0,0
99680,-77.6816079471392,4,1,0,100,0,0
99763,-76.9384054207723,4,1,0,100,0,0
99818,-76.4507874813364,4,1,0,100,0,0
99873,-75.9693114369519,4,1,0,100,0,0
99928,-75.4938619715524,4,1,0,100,0,0
100011,-74.7916864553004,4,1,0,100,0,0
100094,-74.1025074806481,4,1,0,100,0,0
100149,-73.6500679053626,4,1,0,100,0,0
100205,-73.2031196241459,4,1,0,100,0,0
100260,-72.7615632676345,4,1,0,100,0,0
100343,-72.1090750713159,4,1,0,100,0,0
100426,-71.4682362997178,4,1,0,100,0,0
100481,-71.0473011616944,4,1,0,100,0,0
100536,-70.6312954556531,4,1,0,100,0,0
100591,-70.2201330952403,4,1,0,100,0,0
100647,-69.8137299870216,4,1,0,100,0,0
100702,-69.4119557929136,4,1,0,100,0,0
100757,-69.0148271454639,4,1,0,100,0,0
101420,-66.6666666666667,4,1,0,100,0,0
102083,-50,4,1,0,100,0,1
103077,-50,4,1,0,100,0,0
103409,-50,4,1,0,100,0,1
103740,-80,4,1,0,100,0,1
114017,-80,4,1,0,100,0,0
114348,-100,4,1,0,100,0,1
116834,-111.111111111111,4,1,0,100,0,1
118492,-100,4,1,0,100,0,1
118658,-100,4,1,0,100,0,0
119321,-76.9230769230769,4,1,0,100,0,1
120647,-74.0740740740741,4,1,0,100,0,1
121972,-71.4285714285714,4,1,0,100,0,1
122635,-76.9230769230769,4,1,0,100,0,1
122718,-75.4716981132076,4,1,0,100,0,1
122801,-74.0740740740741,4,1,0,100,0,1
122884,-72.7272727272727,4,1,0,100,0,1
122967,-71.4285714285714,4,1,0,100,0,1
123050,-70.1754385964912,4,1,0,100,0,1
123133,-68.9655172413793,4,1,0,100,0,1
123216,-67.7966101694915,4,1,0,100,0,1
123298,-66.7714087498589,4,1,0,100,0,0
124127,-71.4285714285714,4,1,0,100,0,0
124182,-74.0740740740741,4,1,0,100,0,0
124238,-76.9230769230769,4,1,0,100,0,0
124293,-80,4,1,0,100,0,0
124376,-85.1063829787234,4,1,0,100,0,0
124459,-90.9090909090909,4,1,0,100,0,0
124542,-97.5609756097561,4,1,0,100,0,0
124624,-50,4,1,0,100,0,1
125950,-62.5,4,1,0,100,0,1
126033,-64.5053503962886,4,1,0,100,0,1
126116,-66.6436523920406,4,1,0,100,0,1
126199,-68.9285810293381,4,1,0,100,0,1
126282,-71.3757533710768,4,1,0,100,0,1
126365,-74.0030859286832,4,1,0,100,0,1
126448,-76.831234047915,4,1,0,100,0,1
126530,-79.8841360490744,4,1,0,100,0,1
126613,-83.1896232591532,4,1,0,100,0,1
126696,-86.7805458843458,4,1,0,100,0,1
126779,-90.6954618711743,4,1,0,100,0,1
126862,-94.9802915894952,4,1,0,100,0,1
126945,-99.6900635922916,4,1,0,100,0,1
127028,-104.891290666353,4,1,0,100,0,1
127111,-110.665130634653,4,1,0,100,0,1
127193,-117.111651906695,4,1,0,100,0,1
127276,-50,4,1,0,100,0,1
128602,-62.5,4,1,0,100,0,1
128685,-64.5053503962886,4,1,0,100,0,1
128768,-66.6436523920406,4,1,0,100,0,1
128851,-68.9285810293381,4,1,0,100,0,1
128934,-71.3757533710768,4,1,0,100,0,1
129017,-74.0030859286832,4,1,0,100,0,1
129100,-76.831234047915,4,1,0,100,0,1
129182,-79.8841360490744,4,1,0,100,0,1
129265,-83.1896232591532,4,1,0,100,0,1
129348,-86.7805458843458,4,1,0,100,0,1
129431,-90.6954618711743,4,1,0,100,0,1
129514,-94.9802915894952,4,1,0,100,0,1
129597,-99.6900635922916,4,1,0,100,0,1
129680,-104.891290666353,4,1,0,100,0,1
129763,-110.665130634653,4,1,0,100,0,1
129845,-117.111651906695,4,1,0,100,0,1
129928,-50,4,1,0,100,0,1
131254,-62.5,4,1,0,100,0,1
131337,-64.5053503962886,4,1,0,100,0,1
131420,-66.6436523920406,4,1,0,100,0,1
131503,-68.9285810293381,4,1,0,100,0,1
131586,-71.3757533710768,4,1,0,100,0,1
131669,-74.0030859286832,4,1,0,100,0,1
131751,-76.831234047915,4,1,0,100,0,1
131834,-79.8841360490744,4,1,0,100,0,1
131917,-83.1896232591532,4,1,0,100,0,1
132000,-86.7805458843458,4,1,0,100,0,1
132083,-90.6954618711743,4,1,0,100,0,1
132166,-94.9802915894952,4,1,0,100,0,1
132249,-99.6900635922916,4,1,0,100,0,1
132332,-104.891290666353,4,1,0,100,0,1
132414,-110.665130634653,4,1,0,100,0,1
132497,-117.111651906695,4,1,0,100,0,1
132580,-50,4,1,0,100,0,1
133906,-62.5,4,1,0,100,0,1
133989,-64.5053503962886,4,1,0,100,0,1
134072,-66.6436523920406,4,1,0,100,0,1
134155,-68.9285810293381,4,1,0,100,0,1
134238,-71.3757533710768,4,1,0,100,0,1
134321,-74.0030859286832,4,1,0,100,0,1
134403,-76.831234047915,4,1,0,100,0,1
134486,-79.8841360490744,4,1,0,100,0,1
134569,-83.1896232591532,4,1,0,100,0,1
134652,-86.7805458843458,4,1,0,100,0,1
134735,-90.6954618711743,4,1,0,100,0,1
134818,-94.9802915894952,4,1,0,100,0,1
134901,-99.6900635922916,4,1,0,100,0,1
134984,-104.891290666353,4,1,0,100,0,1
135066,-110.665130634653,4,1,0,100,0,1
135149,-117.111651906695,4,1,0,100,0,1
135232,-50,4,1,0,100,0,1
136558,-62.5,4,1,0,100,0,1
136641,-64.5053503962886,4,1,0,100,0,1
136724,-66.6436523920406,4,1,0,100,0,1
136807,-68.9285810293381,4,1,0,100,0,1
136890,-71.3757533710768,4,1,0,100,0,1
136972,-74.0030859286832,4,1,0,100,0,1
137055,-76.831234047915,4,1,0,100,0,1
137138,-79.8841360490744,4,1,0,100,0,1
137221,-83.1896232591532,4,1,0,100,0,1
137304,-86.7805458843458,4,1,0,100,0,1
137387,-90.6954618711743,4,1,0,100,0,1
137470,-94.9802915894952,4,1,0,100,0,1
137553,-99.6900635922916,4,1,0,100,0,0
137608,-103.098310424889,4,1,0,100,0,0
137663,-106.747738015431,4,1,0,100,0,0
137718,-110.665130634653,4,1,0,100,0,0
137801,-117.111651906695,4,1,0,100,0,0
137884,-50,4,1,0,100,0,1
139210,-62.5,4,1,0,100,0,1
139293,-64.4947001480153,4,1,0,100,0,1
139376,-66.6208759179524,4,1,0,100,0,1
139459,-68.8920640475741,4,1,0,100,0,1
139542,-71.3235220696374,4,1,0,100,0,1
139624,-73.9329442981804,4,1,0,100,0,1
139707,-66.6666666666667,4,1,0,100,0,1
139873,-83.0479252967302,4,1,0,100,0,0
140536,-50,4,1,0,100,0,1
141862,-62.5,4,1,0,100,0,1
141945,-64.5053503962886,4,1,0,100,0,1
142028,-66.6436523920406,4,1,0,100,0,1
142111,-68.9285810293381,4,1,0,100,0,1
142193,-71.3757533710768,4,1,0,100,0,1
142276,-74.0030859286832,4,1,0,100,0,1
142359,-76.831234047915,4,1,0,100,0,1
142442,-79.8841360490744,4,1,0,100,0,1
142525,-83.1896232591532,4,1,0,100,0,1
142608,-86.7805458843458,4,1,0,100,0,1
142691,-90.6954618711743,4,1,0,100,0,1
142774,-94.9802915894952,4,1,0,100,0,1
142856,-99.6900635922916,4,1,0,100,0,1
142939,-104.891290666353,4,1,0,100,0,1
143022,-110.665130634653,4,1,0,100,0,1
143105,-117.111651906695,4,1,0,100,0,1
143188,-50,4,1,0,100,0,1
143354,-100,4,1,0,100,0,1
143685,-50,4,1,0,100,0,1
143851,-90.9090909090909,4,1,0,100,0,1
144182,-50,4,1,0,100,0,1
144348,-83.3333333333333,4,1,0,100,0,1
144680,-50,4,1,0,100,0,1
144845,-76.9230769230769,4,1,0,100,0,1
145177,-50,4,1,0,100,0,1
145343,-71.4285714285714,4,1,0,100,0,1
145840,-66.6666666666667,4,1,0,100,0,1
146834,-66.6666666666667,4,1,0,100,0,0
147166,-66.6666666666667,4,1,0,100,0,1
149818,-66.6666666666667,4,1,0,100,0,0
149984,-100,4,1,0,100,0,0
152138,-90.9090909090909,4,1,0,100,0,0
152304,-83.3333333333333,4,1,0,100,0,0
152387,-76.9230769230769,4,1,0,100,0,0
152470,-66.6666666666667,4,1,0,100,0,1
155122,-66.6666666666667,4,1,0,100,0,0
155287,-90.9090909090909,4,1,0,100,0,0
156530,-50,4,1,0,100,0,1
156779,-47.6190476190476,4,1,0,100,0,1
157000,-44.4444444444445,4,1,0,100,0,1
157221,-40,4,1,0,100,0,1
157774,-33.3333333333333,4,1,0,100,0,0

[HitObjects]
246,176,1310,5,4,0:0:0:0:
256,192,2635,12,0,5619,0:0:0:0:
156,195,5950,5,0,0:0:0:0:
207,221,6116,1,0,0:0:0:0:
207,221,6199,1,0,0:0:0:0:
207,221,6282,1,8,0:0:0:0:
207,221,6448,1,0,0:0:0:0:
240,185,6613,1,8,0:0:0:0:
240,185,6696,1,0,0:0:0:0:
240,185,6779,1,0,0:0:0:0:
240,185,6862,1,0,0:0:0:0:
240,185,6945,1,8,0:0:0:0:
240,185,7028,1,0,0:0:0:0:
240,185,7111,1,0,0:0:0:0:
240,185,7193,1,0,0:0:0:0:
240,185,7276,1,8,0:0:0:0:
240,185,7359,1,0,0:0:0:0:
240,185,7442,1,0,0:0:0:0:
240,185,7525,1,0,0:0:0:0:
240,185,7608,1,8,0:0:0:0:
240,185,7691,1,0,0:0:0:0:
240,185,7774,1,0,0:0:0:0:
236,169,7856,1,0,0:0:0:0:
240,185,7939,1,8,0:0:0:0:
315,174,8105,1,0,0:0:0:0:
340,177,8188,1,8,0:0:0:0:
315,174,8271,1,0,0:0:0:0:
340,177,8437,1,8,0:0:0:0:
315,174,8519,1,0,0:0:0:0:
340,177,8685,1,8,0:0:0:0:
315,174,8768,1,0,0:0:0:0:
315,174,8851,1,0,0:0:0:0:
336,172,8934,1,8,0:0:0:0:
233,172,9100,1,0,0:0:0:0:
265,180,9265,1,8,0:0:0:0:
265,180,9348,1,8,0:0:0:0:
265,180,9431,1,0,0:0:0:0:
265,180,9514,1,0,0:0:0:0:
265,180,9597,1,8,0:0:0:0:
265,180,9680,1,8,0:0:0:0:
265,180,9763,1,0,0:0:0:0:
265,180,9845,1,0,0:0:0:0:
265,180,9928,1,8,0:0:0:0:
265,180,10011,1,8,0:0:0:0:
265,180,10094,1,0,0:0:0:0:
265,180,10177,1,0,0:0:0:0:
265,180,10260,1,8,0:0:0:0:
265,180,10343,1,8,0:0:0:0:
265,180,10426,1,0,0:0:0:0:
265,180,10508,1,0,0:0:0:0:
265,180,10591,1,8,0:0:0:0:
264,161,10757,1,0,0:0:0:0:
234,175,10840,1,8,0:0:0:0:
264,161,10923,1,0,0:0:0:0:
234,175,11089,1,8,0:0:0:0:
264,161,11171,1,0,0:0:0:0:
264,161,11254,1,0,0:0:0:0:
234,175,11337,1,8,0:0:0:0:
264,161,11503,1,0,0:0:0:0:
234,175,11586,1,8,0:0:0:0:
277,163,11751,1,8,0:0:0:0:
240,185,11917,1,8,0:0:0:0:
240,185,12000,1,0,0:0:0:0:
240,185,12083,1,0,0:0:0:0:
240,185,12166,1,0,0:0:0:0:
240,185,12249,1,8,0:0:0:0:
240,185,12332,1,0,0:0:0:0:
240,185,12415,1,0,0:0:0:0:
240,185,12497,1,0,0:0:0:0:
240,185,12580,1,8,0:0:0:0:
240,185,12663,1,0,0:0:0:0:
240,185,12746,1,0,0:0:0:0:
240,185,12829,1,0,0:0:0:0:
240,185,12912,1,8,0:0:0:0:
240,185,12995,1,0,0:0:0:0:
240,185,13078,1,0,0:0:0:0:
236,169,13160,1,0,0:0:0:0:
240,185,13243,1,8,0:0:0:0:
253,171,13409,1,0,0:0:0:0:
340,177,13492,1,8,0:0:0:0:
253,171,13575,1,0,0:0:0:0:
340,177,13741,1,8,0:0:0:0:
253,171,13823,1,0,0:0:0:0:
276,162,13906,1,0,0:0:0:0:
340,177,13989,1,8,0:0:0:0:
261,164,14072,1,0,0:0:0:0:
336,172,14238,1,8,0:0:0:0:
342,142,14321,1,0,0:0:0:0:
224,152,14403,1,8,0:0:0:0:
265,180,14569,1,8,0:0:0:0:
265,180,14652,1,8,0:0:0:0:
265,180,14735,1,0,0:0:0:0:
265,180,14818,1,0,0:0:0:0:
265,180,14901,1,8,0:0:0:0:
265,180,14984,1,8,0:0:0:0:
265,180,15067,1,0,0:0:0:0:
265,180,15149,1,0,0:0:0:0:
265,180,15232,1,8,0:0:0:0:
265,180,15315,1,8,0:0:0:0:
265,180,15398,1,0,0:0:0:0:
265,180,15481,1,0,0:0:0:0:
265,180,15564,1,8,0:0:0:0:
265,180,15647,1,8,0:0:0:0:
265,180,15730,1,0,0:0:0:0:
265,180,15812,1,0,0:0:0:0:
265,180,15895,1,8,0:0:0:0:
327,153,16061,1,0,0:0:0:0:
234,175,16144,1,8,0:0:0:0:
274,165,16227,1,0,0:0:0:0:
234,175,16393,1,8,0:0:0:0:
274,165,16475,1,0,0:0:0:0:
274,165,16558,1,0,0:0:0:0:
234,175,16641,1,8,0:0:0:0:
274,165,16807,1,0,0:0:0:0:
234,175,16890,1,8,0:0:0:0:
318,186,16972,1,0,0:0:0:0:
277,163,17055,1,8,0:0:0:0:
281,161,17304,1,12,0:0:0:0:
281,161,17552,1,12,0:0:0:0:
281,161,17801,1,12,0:0:0:0:
281,161,18050,1,12,0:0:0:0:
268,191,18547,1,4,0:0:0:0:
228,154,18796,1,8,0:0:0:0:
237,165,18879,1,0,0:0:0:0:
237,165,19044,1,8,0:0:0:0:
237,165,19210,1,0,0:0:0:0:
162,167,19265,1,0,0:0:0:0:
237,165,19321,1,0,0:0:0:0:
237,165,19376,1,8,0:0:0:0:
237,165,19542,1,0,0:0:0:0:
238,155,19597,1,0,0:0:0:0:
237,165,19652,1,0,0:0:0:0:
237,165,19707,1,0,0:0:0:0:
237,165,19873,1,8,0:0:0:0:
302,220,20122,1,8,0:0:0:0:
302,220,20205,1,0,0:0:0:0:
254,186,20370,1,8,0:0:0:0:
331,156,20536,1,0,0:0:0:0:
331,156,20591,1,0,0:0:0:0:
331,156,20647,1,0,0:0:0:0:
331,156,20702,1,8,0:0:0:0:
331,156,20868,1,8,0:0:0:0:
331,156,20923,1,8,0:0:0:0:
331,156,20978,1,8,0:0:0:0:
331,156,21033,1,0,0:0:0:0:
331,156,21199,1,8,0:0:0:0:
315,137,21448,1,0,0:0:0:0:
291,162,21530,1,8,0:0:0:0:
309,137,21696,1,0,0:0:0:0:
259,181,21862,1,8,0:0:0:0:
259,181,21917,1,8,0:0:0:0:
259,181,21972,1,8,0:0:0:0:
259,181,22028,1,8,0:0:0:0:
259,181,22193,1,0,0:0:0:0:
259,181,22249,1,0,0:0:0:0:
259,181,22304,1,0,0:0:0:0:
259,181,22359,1,0,0:0:0:0:
259,181,22525,1,8,0:0:0:0:
408,124,22774,1,0,0:0:0:0:
408,124,22856,1,8,0:0:0:0:
317,152,23022,1,8,0:0:0:0:
317,152,23077,1,8,0:0:0:0:
317,152,23133,1,8,0:0:0:0:
309,150,23188,1,0,0:0:0:0:
287,156,23354,1,8,0:0:0:0:
287,156,23519,1,8,0:0:0:0:
287,156,23575,1,8,0:0:0:0:
287,156,23630,1,8,0:0:0:0:
287,156,23685,1,8,0:0:0:0:
287,156,23740,1,8,0:0:0:0:
287,156,23796,1,8,0:0:0:0:
287,156,23851,1,4,0:0:0:0:
239,154,24100,1,4,0:0:0:0:
239,154,24348,1,4,0:0:0:0:
239,154,24514,1,4,0:0:0:0:
246,156,24763,1,4,0:0:0:0:
253,159,25011,1,4,0:0:0:0:
253,159,25177,1,4,0:0:0:0:
259,160,25426,1,4,0:0:0:0:
260,161,25674,1,4,0:0:0:0:
260,161,25840,1,4,0:0:0:0:
260,161,26089,1,4,0:0:0:0:
259,160,26337,1,4,0:0:0:0:
205,182,26503,5,0,0:0:0:0:
205,182,26586,1,0,0:0:0:0:
205,182,26669,1,0,0:0:0:0:
205,182,26751,1,8,0:0:0:0:
205,182,26834,1,0,0:0:0:0:
205,182,26917,1,0,0:0:0:0:
205,182,27000,1,8,0:0:0:0:
205,182,27083,1,0,0:0:0:0:
205,182,27166,1,8,0:0:0:0:
205,182,27249,1,0,0:0:0:0:
205,182,27332,1,0,0:0:0:0:
205,182,27414,1,8,0:0:0:0:
205,182,27497,1,0,0:0:0:0:
205,182,27580,1,0,0:0:0:0:
205,182,27663,1,8,0:0:0:0:
205,182,27746,1,8,0:0:0:0:
205,182,27829,1,0,0:0:0:0:
230,195,27884,1,0,0:0:0:0:
230,195,27939,1,0,0:0:0:0:
230,195,27995,1,8,0:0:0:0:
230,195,28077,1,8,0:0:0:0:
230,195,28160,1,0,0:0:0:0:
230,195,28216,1,0,0:0:0:0:
230,195,28271,1,0,0:0:0:0:
230,195,28326,1,0,0:0:0:0:
224,160,28381,1,0,0:0:0:0:
224,195,28437,1,0,0:0:0:0:
224,195,28492,1,8,0:0:0:0:
318,193,28823,1,12,0:0:0:0:
286,192,29155,1,4,0:0:0:0:
264,176,29486,1,8,0:0:0:0:
264,176,29569,1,0,0:0:0:0:
264,176,29652,1,0,0:0:0:0:
268,157,29735,1,8,0:0:0:0:
419,156,29818,1,0,0:0:0:0:
268,157,29901,1,8,0:0:0:0:
268,157,30066,1,0,0:0:0:0:
267,179,30149,1,8,0:0:0:0:
271,180,30232,1,8,0:0:0:0:
276,182,30315,1,8,0:0:0:0:
295,156,30481,1,0,0:0:0:0:
244,146,30564,1,0,0:0:0:0:
295,156,30647,1,8,0:0:0:0:
220,160,30729,1,0,0:0:0:0:
285,229,30812,1,8,0:0:0:0:
285,229,30978,1,0,0:0:0:0:
389,217,31061,1,8,0:0:0:0:
276,136,31144,1,0,0:0:0:0:
389,217,31227,1,8,0:0:0:0:
383,217,31392,1,8,0:0:0:0:
286,150,31475,1,0,0:0:0:0:
253,159,31558,1,0,0:0:0:0:
272,167,31641,1,8,0:0:0:0:
259,162,31724,1,0,0:0:0:0:
236,160,31807,1,8,0:0:0:0:
159,114,31890,1,8,0:0:0:0:
218,188,31972,1,8,0:0:0:0:
254,176,32138,1,0,0:0:0:0:
119,187,32221,1,0,0:0:0:0:
254,176,32304,1,0,0:0:0:0:
309,177,32387,1,8,0:0:0:0:
254,64,32470,1,0,0:0:0:0:
299,163,32553,1,8,0:0:0:0:
309,177,32718,1,8,0:0:0:0:
319,154,32801,1,0,0:0:0:0:
319,154,32884,1,8,0:0:0:0:
319,154,32967,1,8,0:0:0:0:
285,172,33133,1,0,0:0:0:0:
285,172,33216,1,8,0:0:0:0:
284,170,33298,1,8,0:0:0:0:
304,210,33381,1,8,0:0:0:0:
284,170,33464,1,0,0:0:0:0:
284,170,33630,1,0,0:0:0:0:
204,208,33713,1,8,0:0:0:0:
135,201,33796,1,0,0:0:0:0:
315,208,33961,1,8,0:0:0:0:
315,208,34044,1,0,0:0:0:0:
315,208,34127,1,8,0:0:0:0:
315,208,34210,1,8,0:0:0:0:
331,208,34293,1,0,0:0:0:0:
359,198,34376,1,8,0:0:0:0:
350,190,34459,1,4,0:0:0:0:
330,166,34790,1,0,0:0:0:0:
330,166,34873,1,0,0:0:0:0:
330,166,34956,1,0,0:0:0:0:
301,157,35039,1,8,0:0:0:0:
301,157,35205,1,8,0:0:0:0:
366,157,35287,1,0,0:0:0:0:
260,159,35370,1,8,0:0:0:0:
307,169,35453,1,8,0:0:0:0:
307,169,35536,1,0,0:0:0:0:
307,169,35619,1,8,0:0:0:0:
226,181,35785,1,0,0:0:0:0:
234,182,35868,1,0,0:0:0:0:
234,182,35950,1,8,0:0:0:0:
233,124,36033,1,0,0:0:0:0:
233,124,36116,1,8,0:0:0:0:
233,124,36199,1,0,0:0:0:0:
164,148,36282,1,0,0:0:0:0:
286,204,36365,1,8,0:0:0:0:
259,185,36530,1,8,0:0:0:0:
225,148,36613,1,0,0:0:0:0:
259,185,36696,1,8,0:0:0:0:
259,248,36779,1,0,0:0:0:0:
270,250,36862,1,0,0:0:0:0:
271,250,36945,1,8,0:0:0:0:
271,250,37028,1,8,0:0:0:0:
271,250,37111,1,0,0:0:0:0:
309,193,37193,1,8,0:0:0:0:
309,193,37276,1,8,0:0:0:0:
249,201,37442,1,8,0:0:0:0:
255,203,37525,1,8,0:0:0:0:
219,195,37608,1,0,0:0:0:0:
266,232,37691,1,8,0:0:0:0:
228,145,37856,1,0,0:0:0:0:
285,167,37939,1,8,0:0:0:0:
285,167,38022,1,0,0:0:0:0:
285,167,38105,1,8,0:0:0:0:
285,167,38188,1,8,0:0:0:0:
285,167,38271,1,8,0:0:0:0:
262,192,38437,1,0,0:0:0:0:
262,192,38519,1,8,0:0:0:0:
262,192,38602,1,8,0:0:0:0:
262,192,38685,1,0,0:0:0:0:
262,192,38768,1,8,0:0:0:0:
262,192,38851,1,0,0:0:0:0:
262,192,38934,1,0,0:0:0:0:
262,192,39017,1,8,0:0:0:0:
262,192,39100,1,0,0:0:0:0:
262,192,39182,1,0,0:0:0:0:
262,192,39265,1,8,0:0:0:0:
262,192,39348,1,8,0:0:0:0:
262,192,39431,1,0,0:0:0:0:
262,192,39514,1,8,0:0:0:0:
262,192,39597,1,8,0:0:0:0:
262,192,39680,1,8,0:0:0:0:
269,193,39763,1,0,0:0:0:0:
288,192,40094,1,4,0:0:0:0:
256,192,40343,1,8,0:0:0:0:
288,160,40426,1,0,0:0:0:0:
288,160,40508,1,8,0:0:0:0:
256,192,40591,1,0,0:0:0:0:
256,192,40674,1,8,0:0:0:0:
256,192,40757,1,0,0:0:0:0:
256,192,40840,1,0,0:0:0:0:
256,192,40923,1,8,0:0:0:0:
288,192,41089,1,0,0:0:0:0:
288,192,41171,1,0,0:0:0:0:
288,192,41254,1,8,0:0:0:0:
320,192,41420,1,8,0:0:0:0:
256,160,41503,1,0,0:0:0:0:
256,160,41586,1,0,0:0:0:0:
256,160,41669,1,8,0:0:0:0:
288,192,41751,1,0,0:0:0:0:
256,160,41834,1,8,0:0:0:0:
288,192,42000,1,8,0:0:0:0:
288,192,42083,1,0,0:0:0:0:
288,224,42166,1,8,0:0:0:0:
256,224,42249,1,8,0:0:0:0:
256,224,42332,1,8,0:0:0:0:
224,192,42414,1,8,0:0:0:0:
224,160,42497,1,0,0:0:0:0:
224,160,42580,1,8,0:0:0:0:
288,160,42746,1,0,0:0:0:0:
288,160,42829,1,0,0:0:0:0:
288,160,42912,1,0,0:0:0:0:
288,128,42995,1,8,0:0:0:0:
320,160,43160,1,8,0:0:0:0:
320,160,43243,1,0,0:0:0:0:
288,160,43326,1,8,0:0:0:0:
288,160,43409,1,0,0:0:0:0:
288,160,43492,1,8,0:0:0:0:
288,160,43575,1,8,0:0:0:0:
288,160,43740,1,0,0:0:0:0:
256,192,43823,1,8,0:0:0:0:
256,192,43906,1,0,0:0:0:0:
320,192,44072,1,8,0:0:0:0:
320,192,44155,1,0,0:0:0:0:
288,192,44238,1,0,0:0:0:0:
288,192,44321,1,8,0:0:0:0:
288,192,44403,1,0,0:0:0:0:
256,192,44569,1,8,0:0:0:0:
256,192,44652,1,8,0:0:0:0:
256,192,44735,1,0,0:0:0:0:
256,192,44818,1,8,0:0:0:0:
256,192,44901,1,0,0:0:0:0:
256,192,44984,1,8,0:0:0:0:
256,192,45066,1,4,0:0:0:0:
256,160,45398,1,0,0:0:0:0:
256,160,45481,1,0,0:0:0:0:
256,160,45564,1,0,0:0:0:0:
256,160,45647,1,8,0:0:0:0:
256,224,45812,1,0,0:0:0:0:
256,224,45895,1,8,0:0:0:0:
256,224,45978,1,8,0:0:0:0:
256,224,46061,1,8,0:0:0:0:
256,224,46144,1,8,0:0:0:0:
288,224,46227,1,8,0:0:0:0:
288,224,46309,1,8,0:0:0:0:
288,224,46392,1,4,0:0:0:0:
192,160,46724,1,8,0:0:0:0:
192,160,46807,1,8,0:0:0:0:
192,160,46890,1,8,0:0:0:0:
160,160,46972,1,8,0:0:0:0:
352,224,47138,1,8,0:0:0:0:
256,224,47221,1,0,0:0:0:0:
288,160,47304,1,0,0:0:0:0:
288,160,47387,1,0,0:0:0:0:
288,160,47470,1,0,0:0:0:0:
288,160,47553,1,8,0:0:0:0:
256,160,47718,1,4,0:0:0:0:
256,160,47967,1,0,0:0:0:0:
256,160,48050,1,8,0:0:0:0:
320,160,48216,1,0,0:0:0:0:
288,160,48298,1,8,0:0:0:0:
256,160,48381,1,0,0:0:0:0:
288,160,48547,1,12,0:0:0:0:
288,160,48796,1,12,0:0:0:0:
288,160,49044,1,4,0:0:0:0:
384,160,49210,1,4,0:0:0:0:
256,160,49542,1,8,0:0:0:0:
256,160,49624,1,8,0:0:0:0:
256,160,49707,1,0,0:0:0:0:
256,160,49790,1,8,0:0:0:0:
256,160,49873,1,0,0:0:0:0:
256,160,49956,1,0,0:0:0:0:
256,160,50039,1,8,0:0:0:0:
256,160,50122,1,8,0:0:0:0:
256,160,50205,1,8,0:0:0:0:
256,160,50287,1,8,0:0:0:0:
256,160,50370,1,4,0:0:0:0:
256,160,50536,1,0,0:0:0:0:
256,160,50619,1,0,0:0:0:0:
256,160,50702,1,0,0:0:0:0:
256,160,50868,1,8,0:0:0:0:
256,160,51033,1,0,0:0:0:0:
256,160,51116,1,8,0:0:0:0:
256,160,51199,1,0,0:0:0:0:
256,192,51282,1,0,0:0:0:0:
256,160,51365,1,8,0:0:0:0:
256,160,51530,1,0,0:0:0:0:
256,160,51613,1,0,0:0:0:0:
256,160,51696,1,8,0:0:0:0:
224,128,51862,1,0,0:0:0:0:
224,128,51945,1,8,0:0:0:0:
224,128,52028,1,0,0:0:0:0:
224,128,52111,1,0,0:0:0:0:
224,128,52193,1,8,0:0:0:0:
224,128,52276,1,8,0:0:0:0:
224,128,52359,1,8,0:0:0:0:
224,128,52442,1,0,0:0:0:0:
224,128,52525,1,8,0:0:0:0:
224,128,52608,1,8,0:0:0:0:
224,128,52691,1,0,0:0:0:0:
224,128,52774,1,8,0:0:0:0:
224,128,52856,1,0,0:0:0:0:
224,128,52939,1,0,0:0:0:0:
224,128,53022,1,8,0:0:0:0:
256,192,53188,1,0,0:0:0:0:
288,192,53271,1,0,0:0:0:0:
288,192,53354,1,0,0:0:0:0:
288,192,53519,1,8,0:0:0:0:
288,192,53685,1,0,0:0:0:0:
288,192,53768,1,8,0:0:0:0:
288,192,53851,1,0,0:0:0:0:
288,192,53934,1,0,0:0:0:0:
288,192,54017,1,8,0:0:0:0:
288,192,54182,1,0,0:0:0:0:
288,192,54265,1,0,0:0:0:0:
288,192,54348,1,8,0:0:0:0:
256,192,54514,1,0,0:0:0:0:
256,192,54597,1,0,0:0:0:0:
256,192,54680,1,0,0:0:0:0:
256,192,54763,1,8,0:0:0:0:
256,192,54845,1,0,0:0:0:0:
256,192,54928,1,0,0:0:0:0:
256,192,55011,1,8,0:0:0:0:
256,192,55094,1,0,0:0:0:0:
256,192,55177,1,8,0:0:0:0:
256,192,55260,1,8,0:0:0:0:
256,192,55343,1,0,0:0:0:0:
256,192,55426,1,8,0:0:0:0:
256,192,55508,1,8,0:0:0:0:
256,192,55591,1,0,0:0:0:0:
256,192,55674,1,8,0:0:0:0:
320,224,55840,1,0,0:0:0:0:
320,224,55923,1,0,0:0:0:0:
320,224,56006,1,8,0:0:0:0:
256,192,56089,1,0,0:0:0:0:
256,192,56171,1,8,0:0:0:0:
288,192,56337,1,0,0:0:0:0:
288,192,56420,1,8,0:0:0:0:
288,192,56503,1,0,0:0:0:0:
288,192,56586,1,0,0:0:0:0:
288,192,56669,1,8,0:0:0:0:
288,192,56834,1,0,0:0:0:0:
288,192,56917,1,0,0:0:0:0:
288,192,57000,1,8,0:0:0:0:
256,192,57166,1,8,0:0:0:0:
256,192,57249,1,8,0:0:0:0:
256,192,57332,1,0,0:0:0:0:
256,192,57414,1,8,0:0:0:0:
256,192,57497,1,0,0:0:0:0:
256,192,57580,1,8,0:0:0:0:
256,192,57663,1,8,0:0:0:0:
256,192,57746,1,0,0:0:0:0:
256,192,57829,1,8,0:0:0:0:
256,192,57912,1,0,0:0:0:0:
256,192,57995,1,0,0:0:0:0:
256,192,58077,1,8,0:0:0:0:
256,192,58160,1,8,0:0:0:0:
256,192,58243,1,0,0:0:0:0:
256,192,58326,1,8,0:0:0:0:
256,192,58492,1,0,0:0:0:0:
288,192,58575,1,8,0:0:0:0:
288,192,58658,1,0,0:0:0:0:
256,192,58740,1,0,0:0:0:0:
256,192,58823,1,8,0:0:0:0:
256,192,58989,1,0,0:0:0:0:
256,192,59072,1,0,0:0:0:0:
256,192,59155,1,8,0:0:0:0:
256,192,59238,1,0,0:0:0:0:
256,192,59321,1,8,0:0:0:0:
256,192,59403,1,8,0:0:0:0:
256,192,59486,1,0,0:0:0:0:
256,192,59569,1,0,0:0:0:0:
256,192,59652,1,8,0:0:0:0:
224,192,59818,1,0,0:0:0:0:
224,192,59901,1,8,0:0:0:0:
288,192,60066,1,0,0:0:0:0:
224,192,60149,1,8,0:0:0:0:
256,128,60315,1,12,0:0:0:0:
192,192,60647,1,8,0:0:0:0:
192,224,60729,1,8,0:0:0:0:
224,224,60812,1,8,0:0:0:0:
224,224,60895,1,8,0:0:0:0:
219,148,60978,5,4,0:0:0:0:
285,149,61309,1,12,0:0:0:0:
316,180,61641,1,4,0:0:0:0:
251,188,61972,1,8,0:0:0:0:
251,188,62055,1,8,0:0:0:0:
251,188,62138,1,8,0:0:0:0:
251,188,62221,1,8,0:0:0:0:
251,188,62304,1,0,0:0:0:0:
251,188,62387,1,8,0:0:0:0:
251,188,62470,1,8,0:0:0:0:
251,188,62553,1,8,0:0:0:0:
251,188,62635,1,8,0:0:0:0:
251,188,62718,1,8,0:0:0:0:
251,188,62801,1,8,0:0:0:0:
251,188,62884,1,8,0:0:0:0:
288,160,62967,1,4,0:0:0:0:
320,192,63133,1,0,0:0:0:0:
315,172,63298,1,8,0:0:0:0:
315,172,63630,1,4,0:0:0:0:
306,131,63961,1,12,0:0:0:0:
261,206,64293,1,4,0:0:0:0:
263,192,64624,1,8,0:0:0:0:
263,192,64707,1,8,0:0:0:0:
263,192,64790,1,8,0:0:0:0:
263,192,64873,1,8,0:0:0:0:
263,192,64956,1,0,0:0:0:0:
263,192,65039,1,8,0:0:0:0:
263,192,65122,1,8,0:0:0:0:
263,192,65205,1,8,0:0:0:0:
263,192,65287,1,8,0:0:0:0:
263,192,65370,1,8,0:0:0:0:
263,192,65453,1,8,0:0:0:0:
263,192,65536,1,8,0:0:0:0:
257,153,65619,1,0,0:0:0:0:
256,192,65702,12,0,66116,0:0:0:0:
287,199,66282,5,4,0:0:0:0:
290,195,66613,1,8,0:0:0:0:
290,195,66696,1,8,0:0:0:0:
290,195,66779,1,8,0:0:0:0:
290,195,66862,1,8,0:0:0:0:
290,195,66945,1,4,0:0:0:0:
290,195,67276,1,8,0:0:0:0:
290,195,67359,1,8,0:0:0:0:
290,195,67442,1,8,0:0:0:0:
290,195,67525,1,8,0:0:0:0:
290,195,67608,1,4,0:0:0:0:
290,195,67939,1,8,0:0:0:0:
290,195,68022,1,8,0:0:0:0:
290,195,68105,1,8,0:0:0:0:
290,195,68188,1,8,0:0:0:0:
290,195,68271,1,0,0:0:0:0:
253,189,68934,1,12,0:0:0:0:
253,189,69182,1,4,0:0:0:0:
237,166,69431,1,12,0:0:0:0:
237,166,69680,1,4,0:0:0:0:
237,166,69763,1,12,0:0:0:0:
237,166,69928,1,12,0:0:0:0:
237,166,70094,1,4,0:0:0:0:
237,166,70177,1,12,0:0:0:0:
237,166,70260,1,4,0:0:0:0:
237,166,70508,1,4,0:0:0:0:
237,166,70757,1,12,0:0:0:0:
237,166,71006,1,12,0:0:0:0:
237,166,71089,1,4,0:0:0:0:
237,166,71254,1,4,0:0:0:0:
237,166,71420,1,12,0:0:0:0:
237,166,71503,1,4,0:0:0:0:
237,166,71586,1,12,0:0:0:0:
237,166,71834,1,8,0:0:0:0:
237,166,72083,1,8,0:0:0:0:
237,166,72332,1,8,0:0:0:0:
237,166,72414,1,8,0:0:0:0:
237,166,72580,1,0,0:0:0:0:
237,166,72746,1,0,0:0:0:0:
237,166,72829,1,0,0:0:0:0:
237,166,72912,1,8,0:0:0:0:
288,192,73160,1,8,0:0:0:0:
288,192,73409,1,8,0:0:0:0:
288,192,73658,1,8,0:0:0:0:
288,192,73740,1,8,0:0:0:0:
256,192,73906,1,0,0:0:0:0:
288,192,74072,1,0,0:0:0:0:
288,192,74155,1,0,0:0:0:0:
253,189,74238,1,12,0:0:0:0:
253,189,74486,1,4,0:0:0:0:
237,166,74735,1,12,0:0:0:0:
237,166,74984,1,4,0:0:0:0:
237,166,75066,1,12,0:0:0:0:
237,166,75232,1,12,0:0:0:0:
237,166,75398,1,4,0:0:0:0:
237,166,75481,1,12,0:0:0:0:
237,166,75564,1,4,0:0:0:0:
237,166,75812,1,4,0:0:0:0:
237,166,76061,1,12,0:0:0:0:
237,166,76309,1,12,0:0:0:0:
237,166,76392,1,4,0:0:0:0:
237,166,76558,1,12,0:0:0:0:
237,166,76724,1,12,0:0:0:0:
237,166,76807,1,4,0:0:0:0:
237,166,76890,1,12,0:0:0:0:
224,192,77138,1,8,0:0:0:0:
288,192,77387,1,8,0:0:0:0:
256,192,77635,1,8,0:0:0:0:
256,192,77718,1,8,0:0:0:0:
256,160,77884,1,8,0:0:0:0:
256,192,78050,1,8,0:0:0:0:
288,192,78133,1,0,0:0:0:0:
288,192,78298,1,12,0:0:0:0:
288,192,78547,1,12,0:0:0:0:
224,192,78796,1,12,0:0:0:0:
224,192,79044,1,12,0:0:0:0:
320,192,79542,1,4,0:0:0:0:
288,160,80536,1,0,0:0:0:0:
288,160,80868,1,8,0:0:0:0:
288,160,81199,1,8,0:0:0:0:
288,160,81530,1,0,0:0:0:0:
288,160,81696,1,0,0:0:0:0:
288,160,81862,1,8,0:0:0:0:
288,160,82193,1,0,0:0:0:0:
256,192,82856,1,0,0:0:0:0:
256,192,83188,1,8,0:0:0:0:
256,192,83519,1,0,0:0:0:0:
256,192,83685,1,0,0:0:0:0:
256,192,83851,1,0,0:0:0:0:
256,192,84182,1,8,0:0:0:0:
256,192,84514,1,8,0:0:0:0:
256,192,84680,1,8,0:0:0:0:
256,192,84845,1,0,0:0:0:0:
288,160,85094,1,0,0:0:0:0:
288,160,85343,1,0,0:0:0:0:
288,160,85591,1,0,0:0:0:0:
288,160,85840,1,8,0:0:0:0:
288,160,86006,1,0,0:0:0:0:
288,160,86171,1,8,0:0:0:0:
288,192,86420,1,0,0:0:0:0:
288,192,86669,1,0,0:0:0:0:
288,192,86834,1,8,0:0:0:0:
288,192,87166,1,0,0:0:0:0:
288,192,87332,1,0,0:0:0:0:
288,192,87497,1,8,0:0:0:0:
288,192,87746,1,0,0:0:0:0:
288,192,87995,1,8,0:0:0:0:
288,192,88243,1,0,0:0:0:0:
288,192,88492,1,8,0:0:0:0:
288,192,88658,1,8,0:0:0:0:
288,192,88823,1,0,0:0:0:0:
288,192,89072,1,8,0:0:0:0:
256,192,89321,1,8,0:0:0:0:
256,192,89487,1,12,0:0:0:0:
256,192,89736,1,12,0:0:0:0:
256,192,89984,1,12,0:0:0:0:
256,192,90149,1,4,0:0:0:0:
224,192,90398,1,4,0:0:0:0:
224,192,90647,1,4,0:0:0:0:
224,192,90895,1,4,0:0:0:0:
224,192,91144,1,4,0:0:0:0:
224,192,91309,1,4,0:0:0:0:
256,192,91475,12,0,92635,0:0:0:0:
256,192,92801,5,4,0:0:0:0:
256,192,93050,1,4,0:0:0:0:
256,192,93298,1,4,0:0:0:0:
256,192,93547,1,4,0:0:0:0:
256,192,93796,1,4,0:0:0:0:
256,192,93961,1,4,0:0:0:0:
256,192,94127,12,0,95287,0:0:0:0:
256,192,95453,5,4,0:0:0:0:
256,192,95702,1,4,0:0:0:0:
256,192,95950,1,4,0:0:0:0:
256,192,96116,1,4,0:0:0:0:
256,192,96365,1,4,0:0:0:0:
256,192,96613,1,4,0:0:0:0:
256,192,96779,1,4,0:0:0:0:
256,192,97028,1,4,0:0:0:0:
256,192,97276,1,4,0:0:0:0:
256,192,97442,1,4,0:0:0:0:
256,192,97691,1,4,0:0:0:0:
256,192,97939,1,4,0:0:0:0:
256,192,98105,1,0,0:0:0:0:
256,192,98188,1,0,0:0:0:0:
256,192,98271,1,8,0:0:0:0:
256,192,98354,1,0,0:0:0:0:
256,192,98437,1,8,0:0:0:0:
256,192,98519,1,8,0:0:0:0:
256,192,98602,1,8,0:0:0:0:
256,192,98685,1,0,0:0:0:0:
256,192,98768,1,8,0:0:0:0:
256,192,98851,1,8,0:0:0:0:
256,192,98934,1,0,0:0:0:0:
256,192,99017,1,8,0:0:0:0:
256,192,99100,1,0,0:0:0:0:
256,192,99182,1,8,0:0:0:0:
256,192,99265,1,8,0:0:0:0:
256,192,99348,1,8,0:0:0:0:
256,192,99431,1,0,0:0:0:0:
256,192,99486,1,0,0:0:0:0:
256,192,99542,1,0,0:0:0:0:
256,192,99597,1,8,0:0:0:0:
256,192,99680,1,8,0:0:0:0:
256,192,99763,1,0,0:0:0:0:
256,192,99818,1,8,0:0:0:0:
256,192,99873,1,8,0:0:0:0:
256,192,99928,1,0,0:0:0:0:
256,192,100011,1,0,0:0:0:0:
256,192,100094,1,8,0:0:0:0:
256,192,100149,1,8,0:0:0:0:
256,192,100205,1,8,0:0:0:0:
256,192,100260,1,0,0:0:0:0:
256,192,100343,1,0,0:0:0:0:
256,192,100426,1,8,0:0:0:0:
256,192,100481,1,8,0:0:0:0:
256,192,100536,1,8,0:0:0:0:
256,192,100591,1,8,0:0:0:0:
192,192,100647,1,8,0:0:0:0:
256,192,100702,1,8,0:0:0:0:
256,192,100757,1,0,0:0:0:0:
224,192,101420,1,12,0:0:0:0:
224,192,102083,1,4,0:0:0:0:
224,192,102332,1,4,0:0:0:0:
224,192,102580,1,4,0:0:0:0:
224,192,102829,1,4,0:0:0:0:
224,192,103077,1,12,0:0:0:0:
288,192,103409,1,4,0:0:0:0:
256,192,103740,1,0,0:0:0:0:
256,192,103823,1,0,0:0:0:0:
256,192,103906,1,0,0:0:0:0:
256,192,103989,1,8,0:0:0:0:
256,224,104155,1,8,0:0:0:0:
256,224,104238,1,0,0:0:0:0:
256,224,104321,1,8,0:0:0:0:
256,224,104403,1,0,0:0:0:0:
256,224,104486,1,0,0:0:0:0:
256,224,104569,1,8,0:0:0:0:
224,192,104735,1,0,0:0:0:0:
224,192,104818,1,0,0:0:0:0:
224,192,104901,1,8,0:0:0:0:
224,192,104984,1,0,0:0:0:0:
224,192,105066,1,8,0:0:0:0:
224,192,105149,1,8,0:0:0:0:
224,192,105232,1,0,0:0:0:0:
224,192,105315,1,8,0:0:0:0:
288,192,105481,1,8,0:0:0:0:
288,192,105564,1,0,0:0:0:0:
288,192,105647,1,8,0:0:0:0:
288,192,105729,1,8,0:0:0:0:
288,192,105812,1,0,0:0:0:0:
288,192,105895,1,8,0:0:0:0:
288,192,105978,1,8,0:0:0:0:
288,192,106061,1,0,0:0:0:0:
256,160,106144,1,0,0:0:0:0:
256,160,106227,1,8,0:0:0:0:
256,160,106392,1,8,0:0:0:0:
256,160,106475,1,8,0:0:0:0:
256,160,106558,1,0,0:0:0:0:
224,160,106641,1,8,0:0:0:0:
224,160,106807,1,8,0:0:0:0:
224,160,106890,1,0,0:0:0:0:
224,160,106972,1,8,0:0:0:0:
224,160,107055,1,0,0:0:0:0:
224,160,107138,1,8,0:0:0:0:
192,192,107221,1,8,0:0:0:0:
256,192,107387,1,0,0:0:0:0:
256,192,107470,1,8,0:0:0:0:
256,192,107553,1,8,0:0:0:0:
256,192,107635,1,8,0:0:0:0:
256,192,107718,1,0,0:0:0:0:
256,160,107884,1,8,0:0:0:0:
256,160,107967,1,8,0:0:0:0:
256,160,108050,1,8,0:0:0:0:
256,160,108216,1,0,0:0:0:0:
256,160,108298,1,8,0:0:0:0:
256,192,108381,1,0,0:0:0:0:
256,192,108464,1,0,0:0:0:0:
256,192,108547,1,8,0:0:0:0:
256,192,108630,1,8,0:0:0:0:
224,192,108713,1,4,0:0:0:0:
288,160,109044,1,8,0:0:0:0:
288,160,109127,1,0,0:0:0:0:
288,160,109210,1,0,0:0:0:0:
288,160,109293,1,8,0:0:0:0:
288,160,109459,1,8,0:0:0:0:
288,160,109542,1,0,0:0:0:0:
288,160,109624,1,8,0:0:0:0:
288,160,109707,1,8,0:0:0:0:
288,160,109790,1,0,0:0:0:0:
288,160,109873,1,8,0:0:0:0:
288,160,110039,1,0,0:0:0:0:
256,160,110122,1,0,0:0:0:0:
256,160,110205,1,8,0:0:0:0:
256,160,110287,1,0,0:0:0:0:
256,160,110370,1,8,0:0:0:0:
256,160,110536,1,0,0:0:0:0:
288,160,110619,1,8,0:0:0:0:
288,160,110702,1,0,0:0:0:0:
288,160,110785,1,8,0:0:0:0:
288,160,110950,1,8,0:0:0:0:
288,160,111033,1,0,0:0:0:0:
256,160,111116,1,8,0:0:0:0:
256,160,111199,1,8,0:0:0:0:
256,160,111282,1,8,0:0:0:0:
256,160,111365,1,0,0:0:0:0:
256,160,111448,1,8,0:0:0:0:
224,160,111613,1,0,0:0:0:0:
224,160,111696,1,0,0:0:0:0:
224,160,111862,1,8,0:0:0:0:
224,160,111945,1,0,0:0:0:0:
256,160,112111,1,8,0:0:0:0:
256,160,112193,1,0,0:0:0:0:
256,160,112276,1,0,0:0:0:0:
256,160,112359,1,8,0:0:0:0:
256,160,112442,1,0,0:0:0:0:
256,160,112525,1,8,0:0:0:0:
224,160,112691,1,8,0:0:0:0:
224,160,112774,1,8,0:0:0:0:
224,160,112856,1,8,0:0:0:0:
224,160,112939,1,0,0:0:0:0:
224,160,113022,1,8,0:0:0:0:
224,160,113105,1,0,0:0:0:0:
224,160,113188,1,0,0:0:0:0:
224,160,113271,1,8,0:0:0:0:
224,160,113354,1,8,0:0:0:0:
224,160,113437,1,8,0:0:0:0:
224,160,113519,1,0,0:0:0:0:
224,160,113602,1,0,0:0:0:0:
224,160,113685,1,8,0:0:0:0:
224,160,113768,1,8,0:0:0:0:
224,160,113851,1,8,0:0:0:0:
224,160,113934,1,8,0:0:0:0:
224,160,114017,1,0,0:0:0:0:
256,160,114348,1,4,0:0:0:0:
224,160,114514,1,0,0:0:0:0:
224,160,114597,1,8,0:0:0:0:
224,160,114763,1,8,0:0:0:0:
256,128,114845,1,0,0:0:0:0:
224,160,114928,1,8,0:0:0:0:
384,224,115094,1,0,0:0:0:0:
384,224,115177,1,8,0:0:0:0:
384,224,115343,1,0,0:0:0:0:
160,192,115426,1,8,0:0:0:0:
128,192,115508,1,8,0:0:0:0:
224,160,115591,1,0,0:0:0:0:
224,160,115757,1,8,0:0:0:0:
288,160,115840,1,0,0:0:0:0:
288,160,115923,1,8,0:0:0:0:
288,160,116089,1,8,0:0:0:0:
320,192,116171,1,0,0:0:0:0:
288,160,116254,1,8,0:0:0:0:
288,160,116337,1,0,0:0:0:0:
224,160,116420,1,0,0:0:0:0:
224,160,116503,1,8,0:0:0:0:
224,160,116586,1,8,0:0:0:0:
224,160,116669,1,4,0:0:0:0:
256,160,117000,1,0,0:0:0:0:
256,160,117249,1,8,0:0:0:0:
256,160,117332,1,0,0:0:0:0:
256,160,117414,1,8,0:0:0:0:
224,128,117580,1,8,0:0:0:0:
256,160,117663,1,0,0:0:0:0:
352,192,117746,1,0,0:0:0:0:
352,192,117829,1,8,0:0:0:0:
320,160,117995,1,4,0:0:0:0:
352,160,118243,1,4,0:0:0:0:
256,192,118492,1,8,0:0:0:0:
256,192,118575,1,8,0:0:0:0:
256,192,118658,1,0,0:0:0:0:
256,160,118740,1,0,0:0:0:0:
256,160,118823,1,8,0:0:0:0:
320,192,118989,1,0,0:0:0:0:
288,192,119072,1,8,0:0:0:0:
288,192,119321,1,4,0:0:0:0:
256,160,119486,1,8,0:0:0:0:
256,160,119569,1,0,0:0:0:0:
256,192,119735,1,8,0:0:0:0:
256,192,119818,1,0,0:0:0:0:
256,192,119901,1,8,0:0:0:0:
224,160,120066,1,0,0:0:0:0:
224,160,120149,1,8,0:0:0:0:
256,160,120232,1,8,0:0:0:0:
256,160,120315,1,8,0:0:0:0:
256,160,120398,1,8,0:0:0:0:
256,160,120481,1,8,0:0:0:0:
256,160,120564,1,8,0:0:0:0:
256,160,120647,1,4,0:0:0:0:
288,160,120812,1,8,0:0:0:0:
288,160,120895,1,0,0:0:0:0:
224,128,121061,1,8,0:0:0:0:
224,128,121144,1,0,0:0:0:0:
224,128,121227,1,8,0:0:0:0:
256,192,121392,1,8,0:0:0:0:
256,192,121475,1,0,0:0:0:0:
256,192,121558,1,0,0:0:0:0:
256,192,121641,1,0,0:0:0:0:
256,192,121724,1,0,0:0:0:0:
256,192,121807,1,8,0:0:0:0:
288,192,121972,1,4,0:0:0:0:
288,192,122138,1,4,0:0:0:0:
288,192,122304,1,12,0:0:0:0:
288,192,122470,1,12,0:0:0:0:
256,160,122635,1,0,0:0:0:0:
224,160,122718,1,8,0:0:0:0:
256,160,122801,1,8,0:0:0:0:
256,160,122884,1,8,0:0:0:0:
256,160,122967,1,0,0:0:0:0:
256,160,123050,1,8,0:0:0:0:
256,160,123133,1,0,0:0:0:0:
256,160,123216,1,0,0:0:0:0:
256,160,123298,1,8,0:0:0:0:
224,128,123354,1,8,0:0:0:0:
288,192,123409,1,8,0:0:0:0:
288,192,123464,1,0,0:0:0:0:
288,192,123547,1,8,0:0:0:0:
288,192,123630,1,0,0:0:0:0:
288,192,123713,1,8,0:0:0:0:
288,192,123796,1,0,0:0:0:0:
288,192,123879,1,8,0:0:0:0:
288,224,123961,1,0,0:0:0:0:
288,224,124044,1,8,0:0:0:0:
256,160,124127,1,8,0:0:0:0:
256,160,124182,1,8,0:0:0:0:
256,160,124238,1,8,0:0:0:0:
256,160,124293,1,8,0:0:0:0:
256,160,124376,1,8,0:0:0:0:
256,160,124459,1,8,0:0:0:0:
256,160,124542,1,8,0:0:0:0:
256,160,124624,1,4,0:0:0:0:
256,160,124873,1,4,0:0:0:0:
256,160,125122,1,12,0:0:0:0:
256,160,125370,1,12,0:0:0:0:
256,160,125619,1,4,0:0:0:0:
288,160,125950,1,8,0:0:0:0:
288,160,126033,1,8,0:0:0:0:
288,160,126116,1,0,0:0:0:0:
288,160,126199,1,8,0:0:0:0:
288,160,126282,1,0,0:0:0:0:
288,160,126365,1,0,0:0:0:0:
288,160,126448,1,8,0:0:0:0:
288,160,126530,1,0,0:0:0:0:
288,160,126613,1,8,0:0:0:0:
288,160,126696,1,8,0:0:0:0:
288,160,126779,1,8,0:0:0:0:
288,160,126862,1,0,0:0:0:0:
288,160,126945,1,8,0:0:0:0:
288,160,127028,1,0,0:0:0:0:
288,160,127111,1,8,0:0:0:0:
288,160,127193,1,8,0:0:0:0:
224,192,127276,1,4,0:0:0:0:
256,192,127525,1,4,0:0:0:0:
256,192,127774,1,12,0:0:0:0:
256,192,128022,1,4,0:0:0:0:
256,192,128271,1,4,0:0:0:0:
288,192,128602,1,8,0:0:0:0:
288,192,128685,1,0,0:0:0:0:
288,192,128768,1,0,0:0:0:0:
288,192,128851,1,8,0:0:0:0:
288,192,128934,1,0,0:0:0:0:
288,192,129017,1,8,0:0:0:0:
288,192,129100,1,8,0:0:0:0:
224,160,129182,1,8,0:0:0:0:
224,160,129265,1,0,0:0:0:0:
288,192,129348,1,8,0:0:0:0:
224,160,129431,1,0,0:0:0:0:
224,160,129514,1,0,0:0:0:0:
224,160,129597,1,8,0:0:0:0:
224,160,129680,1,0,0:0:0:0:
224,160,129763,1,8,0:0:0:0:
224,128,129845,1,8,0:0:0:0:
256,96,129928,1,4,0:0:0:0:
288,192,130177,1,12,0:0:0:0:
288,192,130426,1,12,0:0:0:0:
256,160,130674,1,4,0:0:0:0:
256,160,130923,1,4,0:0:0:0:
256,192,131254,1,8,0:0:0:0:
256,192,131337,1,0,0:0:0:0:
256,192,131420,1,0,0:0:0:0:
256,192,131503,1,8,0:0:0:0:
256,192,131586,1,0,0:0:0:0:
256,192,131669,1,0,0:0:0:0:
256,192,131751,1,8,0:0:0:0:
256,192,131834,1,8,0:0:0:0:
256,192,131917,1,0,0:0:0:0:
256,192,132000,1,8,0:0:0:0:
256,192,132083,1,8,0:0:0:0:
256,192,132166,1,0,0:0:0:0:
256,192,132249,1,0,0:0:0:0:
256,192,132332,1,8,0:0:0:0:
256,192,132414,1,8,0:0:0:0:
256,192,132497,1,8,0:0:0:0:
256,192,132580,1,4,0:0:0:0:
256,192,132829,1,12,0:0:0:0:
256,192,133077,1,12,0:0:0:0:
256,192,133326,1,12,0:0:0:0:
256,192,133575,1,4,0:0:0:0:
256,192,133906,1,8,0:0:0:0:
256,192,133989,1,8,0:0:0:0:
256,192,134072,1,8,0:0:0:0:
256,192,134155,1,0,0:0:0:0:
256,192,134238,1,8,0:0:0:0:
256,192,134321,1,0,0:0:0:0:
256,192,134403,1,8,0:0:0:0:
256,192,134486,1,8,0:0:0:0:
256,192,134569,1,0,0:0:0:0:
256,192,134652,1,0,0:0:0:0:
256,192,134735,1,8,0:0:0:0:
256,192,134818,1,0,0:0:0:0:
256,192,134901,1,0,0:0:0:0:
256,192,134984,1,8,0:0:0:0:
256,192,135066,1,8,0:0:0:0:
256,192,135149,1,8,0:0:0:0:
256,192,135232,1,4,0:0:0:0:
256,192,135481,1,4,0:0:0:0:
256,192,135729,1,12,0:0:0:0:
256,192,135978,1,12,0:0:0:0:
256,192,136227,1,4,0:0:0:0:
256,192,136558,1,8,0:0:0:0:
256,192,136641,1,8,0:0:0:0:
256,192,136724,1,0,0:0:0:0:
256,192,136807,1,0,0:0:0:0:
256,192,136890,1,8,0:0:0:0:
256,192,136972,1,8,0:0:0:0:
256,192,137055,1,8,0:0:0:0:
256,192,137138,1,0,0:0:0:0:
352,160,137221,1,8,0:0:0:0:
352,160,137304,1,8,0:0:0:0:
256,192,137387,1,0,0:0:0:0:
256,192,137470,1,8,0:0:0:0:
288,160,137553,1,0,0:0:0:0:
352,256,137608,1,0,0:0:0:0:
352,256,137663,1,0,0:0:0:0:
320,224,137718,1,8,0:0:0:0:
288,160,137801,1,8,0:0:0:0:
288,160,137884,1,4,0:0:0:0:
288,192,138133,1,4,0:0:0:0:
288,192,138381,1,12,0:0:0:0:
288,192,138630,1,4,0:0:0:0:
288,192,138879,1,4,0:0:0:0:
256,192,139210,1,8,0:0:0:0:
256,192,139293,1,8,0:0:0:0:
256,192,139376,1,0,0:0:0:0:
256,192,139459,1,8,0:0:0:0:
256,192,139542,1,0,0:0:0:0:
256,192,139624,1,0,0:0:0:0:
256,192,139707,1,12,0:0:0:0:
224,192,139873,1,4,0:0:0:0:
224,192,140122,1,12,0:0:0:0:
224,192,140370,1,4,0:0:0:0:
224,192,140536,1,4,0:0:0:0:
256,192,140785,1,4,0:0:0:0:
256,192,141033,1,4,0:0:0:0:
256,192,141282,1,12,0:0:0:0:
256,192,141530,1,12,0:0:0:0:
256,192,141862,1,8,0:0:0:0:
256,192,141945,1,8,0:0:0:0:
256,192,142028,1,0,0:0:0:0:
256,192,142111,1,8,0:0:0:0:
256,192,142193,1,8,0:0:0:0:
256,192,142276,1,0,0:0:0:0:
256,192,142359,1,8,0:0:0:0:
256,192,142442,1,0,0:0:0:0:
256,192,142525,1,0,0:0:0:0:
256,192,142608,1,8,0:0:0:0:
256,192,142691,1,0,0:0:0:0:
256,192,142774,1,0,0:0:0:0:
256,192,142856,1,8,0:0:0:0:
256,192,142939,1,8,0:0:0:0:
256,192,143022,1,8,0:0:0:0:
256,192,143105,1,8,0:0:0:0:
256,192,143188,1,4,0:0:0:0:
256,160,143437,1,8,0:0:0:0:
256,160,143519,1,0,0:0:0:0:
256,160,143685,1,4,0:0:0:0:
256,160,143934,1,8,0:0:0:0:
256,160,144017,1,0,0:0:0:0:
256,160,144182,1,4,0:0:0:0:
256,160,144431,1,8,0:0:0:0:
256,160,144514,1,8,0:0:0:0:
256,160,144680,1,4,0:0:0:0:
256,160,144928,1,8,0:0:0:0:
256,160,145011,1,8,0:0:0:0:
256,160,145177,1,4,0:0:0:0:
287,142,145398,1,8,0:0:0:0:
288,160,145508,1,8,0:0:0:0:
288,160,145619,1,8,0:0:0:0:
288,160,145729,1,8,0:0:0:0:
256,160,145840,1,0,0:0:0:0:
256,160,145895,1,0,0:0:0:0:
256,160,145950,1,0,0:0:0:0:
256,160,146006,1,8,0:0:0:0:
160,160,146089,1,8,0:0:0:0:
256,160,146171,1,0,0:0:0:0:
256,160,146227,1,0,0:0:0:0:
256,160,146282,1,0,0:0:0:0:
256,160,146337,1,8,0:0:0:0:
224,160,146420,1,8,0:0:0:0:
256,160,146503,1,0,0:0:0:0:
256,160,146558,1,0,0:0:0:0:
256,160,146613,1,0,0:0:0:0:
256,160,146669,1,0,0:0:0:0:
256,160,146724,1,0,0:0:0:0:
224,160,146779,1,0,0:0:0:0:
224,160,146834,1,8,0:0:0:0:
253,189,147166,1,12,0:0:0:0:
253,189,147414,1,4,0:0:0:0:
237,166,147663,1,12,0:0:0:0:
237,166,147912,1,4,0:0:0:0:
237,166,147995,1,12,0:0:0:0:
237,166,148160,1,12,0:0:0:0:
237,166,148326,1,4,0:0:0:0:
237,166,148409,1,12,0:0:0:0:
237,166,148492,1,4,0:0:0:0:
237,166,148740,1,4,0:0:0:0:
237,166,148989,1,12,0:0:0:0:
237,166,149238,1,12,0:0:0:0:
237,166,149321,1,4,0:0:0:0:
237,166,149486,1,4,0:0:0:0:
237,166,149652,1,12,0:0:0:0:
237,166,149735,1,4,0:0:0:0:
237,166,149818,1,12,0:0:0:0:
237,166,150066,1,8,0:0:0:0:
237,166,150315,1,8,0:0:0:0:
237,166,150564,1,8,0:0:0:0:
237,166,150647,1,8,0:0:0:0:
237,166,150812,1,0,0:0:0:0:
237,166,150978,1,0,0:0:0:0:
237,166,151061,1,0,0:0:0:0:
237,166,151144,1,8,0:0:0:0:
288,192,151392,1,8,0:0:0:0:
288,192,151641,1,8,0:0:0:0:
288,192,151890,1,8,0:0:0:0:
288,192,151972,1,8,0:0:0:0:
256,192,152138,1,0,0:0:0:0:
288,192,152304,1,0,0:0:0:0:
288,192,152387,1,0,0:0:0:0:
253,189,152470,1,12,0:0:0:0:
253,189,152718,1,4,0:0:0:0:
237,166,152967,1,12,0:0:0:0:
237,166,153216,1,4,0:0:0:0:
237,166,153298,1,12,0:0:0:0:
237,166,153464,1,12,0:0:0:0:
237,166,153630,1,4,0:0:0:0:
237,166,153713,1,12,0:0:0:0:
237,166,153796,1,4,0:0:0:0:
237,166,154044,1,4,0:0:0:0:
237,166,154293,1,12,0:0:0:0:
237,166,154542,1,12,0:0:0:0:
237,166,154624,1,4,0:0:0:0:
237,166,154790,1,12,0:0:0:0:
237,166,154956,1,12,0:0:0:0:
237,166,155039,1,4,0:0:0:0:
237,166,155122,1,12,0:0:0:0:
224,192,155370,1,8,0:0:0:0:
288,192,155619,1,8,0:0:0:0:
256,192,155868,1,8,0:0:0:0:
256,192,155950,1,8,0:0:0:0:
256,160,156116,1,8,0:0:0:0:
256,192,156282,1,8,0:0:0:0:
288,192,156365,1,0,0:0:0:0:
288,192,156530,1,12,0:0:0:0:
288,192,156779,1,12,0:0:0:0:
224,192,157028,1,12,0:0:0:0:
224,192,157276,1,12,0:0:0:0:
