osu file format v14

[General]
AudioFilename: #1f1e33.mp3
AudioLeadIn: 0
PreviewTime: 50370
Countdown: 0
SampleSet: Normal
StackLeniency: 0.7
Mode: 1
LetterboxInBreaks: 0
WidescreenStoryboard: 1

[Editor]
DistanceSpacing: 1.8
BeatDivisor: 4
GridSize: 32
TimelineZoom: 1.600001

[Metadata]
Title:#1f1e33
TitleUnicode:#1f1e33
Artist:Camellia
ArtistUnicode:かめりあ
Creator:Raytoly
Version:#0n1
Source:Arcaea
Tags:Rhytoly Tairitsu Hikari Black Fate 5 Main Story かめるかめりあ cametek kamelcamellia Electronic Instrumental dubstep
BeatmapID:2494886
BeatmapSetID:1193771

[Difficulty]
HPDrainRate:5
CircleSize:5
OverallDifficulty:6
ApproachRate:10
SliderMultiplier:1.4
SliderTickRate:1

[Events]
//Background and Video events
0,0,"#1f1e33.jpg",0,-125
//Break Periods
//Storyboard Layer 0 (Background)
//Storyboard Layer 1 (Fail)
//Storyboard Layer 2 (Pass)
//Storyboard Layer 3 (Foreground)
//Storyboard Layer 4 (Overlay)
//Storyboard Sound Samples

[TimingPoints]
1310,331.491712707182,4,1,0,100,1,0
1475,-100,4,1,0,5,0,0
5868,-100,4,1,0,100,0,0
6613,-100,4,1,0,100,0,1
7939,-100,4,1,0,100,0,0
9265,-100,4,1,0,100,0,1
10591,-100,4,1,0,100,0,0
11917,-100,4,1,0,100,0,1
13243,-100,4,1,0,100,0,0
14569,-100,4,1,0,100,0,1
15895,-100,4,1,0,100,0,0
17304,-66.6666666666667,4,1,0,100,0,1
18547,-100,4,1,0,100,0,0
23851,-100,4,1,0,100,0,0
28492,-100,4,1,0,100,0,0
28823,-66.6666666666667,4,1,0,100,0,0
29155,-80,4,1,0,100,0,1
29486,-90.9090909090909,4,1,0,100,0,1
39763,-90.9090909090909,4,1,0,100,0,0
40094,-80,4,1,0,100,0,1
40315,-90.9090909090909,4,1,0,100,0,1
49044,-80,4,1,0,100,0,0
49542,-100,4,1,0,100,0,0
50370,-83.3333333333333,4,1,0,100,0,1
50536,-95.2380952380952,4,1,0,100,0,1
60315,-95.2380952380952,4,1,0,100,0,0
60978,-80,4,1,0,100,0,1
61972,-100,4,1,0,100,0,1
63630,-80,4,1,0,100,0,1
64624,-100,4,1,0,100,0,1
66282,-80,4,1,0,100,0,1
66613,-100,4,1,0,100,0,1
66945,-80,4,1,0,100,0,1
67276,-100,4,1,0,100,0,1
67608,-80,4,1,0,100,0,1
67939,-100,4,1,0,100,0,1
68271,-100,4,1,0,100,0,0
68934,-100,4,1,0,100,0,1
71586,-100,4,1,0,100,0,0
74238,-100,4,1,0,100,0,1
76890,-100,4,1,0,100,0,0
78298,-66.6666666666667,4,1,0,100,0,1
79542,-66.6666666666667,4,1,0,100,0,0
79707,-125,4,1,0,40,0,0
89486,-100,4,1,0,100,0,0
90149,-100,4,1,0,100,0,0
91475,-100,4,1,0,5,0,0
92801,-100,4,1,0,100,0,0
94127,-100,4,1,0,5,0,0
95453,-100,4,1,0,100,0,0
102083,-66.6666666666667,4,1,0,100,0,1
103077,-66.6666666666667,4,1,0,100,0,0
103409,-80,4,1,0,100,0,1
103740,-90.9090909090909,4,1,0,100,0,1
114017,-90.9090909090909,4,1,0,100,0,0
114348,-100,4,1,0,100,0,1
117000,-111.111111111111,4,1,0,100,0,1
118658,-111.111111111111,4,1,0,100,0,0
119321,-100,4,1,0,100,0,1
123216,-100,4,1,0,100,0,0
124624,-66.6666666666667,4,1,0,100,0,1
125950,-100,4,1,0,100,0,1
127276,-66.6666666666667,4,1,0,100,0,1
128602,-100,4,1,0,100,0,1
129928,-66.6666666666667,4,1,0,100,0,1
131254,-100,4,1,0,100,0,1
132580,-66.6666666666667,4,1,0,100,0,1
133906,-100,4,1,0,100,0,1
135232,-66.6666666666667,4,1,0,100,0,1
136558,-100,4,1,0,100,0,1
137553,-100,4,1,0,100,0,0
137884,-66.6666666666667,4,1,0,100,0,1
139210,-100,4,1,0,100,0,1
139873,-100,4,1,0,100,0,0
140536,-66.6666666666667,4,1,0,100,0,1
141862,-100,4,1,0,100,0,1
143188,-90.9090909090909,4,1,0,100,0,1
143685,-83.3333333333333,4,1,0,100,0,1
144182,-76.9230769230769,4,1,0,100,0,1
144680,-71.4285714285714,4,1,0,100,0,1
145177,-66.6666666666667,4,1,0,100,0,1
145840,-83.3333333333333,4,1,0,100,0,1
146834,-83.3333333333333,4,1,0,100,0,0
147166,-100,4,1,0,100,0,1
149818,-100,4,1,0,100,0,0
152470,-100,4,1,0,100,0,1
155122,-100,4,1,0,100,0,0
156530,-66.6666666666667,4,1,0,100,0,1
157774,-66.6666666666667,4,1,0,100,0,0

[HitObjects]
246,176,1310,5,4,0:0:0:0:
256,192,2635,12,0,5619,0:0:0:0:
156,195,5950,5,0,0:0:0:0:
207,221,6116,1,0,0:0:0:0:
207,221,6199,1,0,0:0:0:0:
207,221,6282,1,8,0:0:0:0:
207,221,6448,1,0,0:0:0:0:
240,185,6613,1,12,0:0:0:0:
240,185,6945,1,8,0:0:0:0:
240,185,7111,1,0,0:0:0:0:
240,185,7193,1,0,0:0:0:0:
240,185,7276,1,8,0:0:0:0:
240,185,7442,1,0,0:0:0:0:
240,185,7525,1,0,0:0:0:0:
240,185,7608,1,8,0:0:0:0:
240,185,7774,1,0,0:0:0:0:
236,169,7856,1,0,0:0:0:0:
240,185,7939,1,8,0:0:0:0:
340,177,8188,1,8,0:0:0:0:
315,174,8271,1,0,0:0:0:0:
340,177,8437,1,8,0:0:0:0:
315,174,8602,1,0,0:0:0:0:
340,177,8685,1,8,0:0:0:0:
315,174,8768,1,0,0:0:0:0:
336,172,8934,1,8,0:0:0:0:
233,172,9100,1,0,0:0:0:0:
265,180,9265,1,12,0:0:0:0:
265,180,9597,1,8,0:0:0:0:
265,180,9763,1,0,0:0:0:0:
265,180,9845,1,0,0:0:0:0:
265,180,9928,1,8,0:0:0:0:
265,180,10094,1,0,0:0:0:0:
265,180,10177,1,0,0:0:0:0:
265,180,10260,1,8,0:0:0:0:
265,180,10426,1,0,0:0:0:0:
265,180,10508,1,0,0:0:0:0:
265,180,10591,1,8,0:0:0:0:
234,175,10840,1,8,0:0:0:0:
264,161,10923,1,0,0:0:0:0:
234,175,11089,1,8,0:0:0:0:
264,161,11254,1,0,0:0:0:0:
234,175,11337,1,8,0:0:0:0:
264,161,11503,1,0,0:0:0:0:
234,175,11586,1,8,0:0:0:0:
277,163,11751,1,8,0:0:0:0:
240,185,11917,1,12,0:0:0:0:
240,185,12249,1,8,0:0:0:0:
240,185,12415,1,0,0:0:0:0:
240,185,12497,1,0,0:0:0:0:
240,185,12580,1,8,0:0:0:0:
240,185,12746,1,0,0:0:0:0:
240,185,12829,1,0,0:0:0:0:
240,185,12912,1,8,0:0:0:0:
240,185,13078,1,0,0:0:0:0:
236,169,13160,1,0,0:0:0:0:
240,185,13243,1,8,0:0:0:0:
340,177,13492,1,8,0:0:0:0:
253,171,13575,1,0,0:0:0:0:
340,177,13741,1,8,0:0:0:0:
276,162,13906,1,0,0:0:0:0:
340,177,13989,1,8,0:0:0:0:
261,164,14072,1,0,0:0:0:0:
336,172,14238,1,8,0:0:0:0:
342,142,14321,1,0,0:0:0:0:
224,152,14403,1,8,0:0:0:0:
265,180,14569,1,12,0:0:0:0:
265,180,14901,1,8,0:0:0:0:
265,180,15067,1,0,0:0:0:0:
265,180,15149,1,0,0:0:0:0:
265,180,15232,1,8,0:0:0:0:
265,180,15398,1,0,0:0:0:0:
265,180,15481,1,0,0:0:0:0:
265,180,15564,1,8,0:0:0:0:
265,180,15730,1,0,0:0:0:0:
265,180,15812,1,0,0:0:0:0:
265,180,15895,1,8,0:0:0:0:
234,175,16144,1,8,0:0:0:0:
274,165,16227,1,0,0:0:0:0:
234,175,16393,1,8,0:0:0:0:
274,165,16558,1,0,0:0:0:0:
234,175,16641,1,8,0:0:0:0:
274,165,16807,1,0,0:0:0:0:
234,175,16890,1,8,0:0:0:0:
318,186,16972,1,0,0:0:0:0:
277,163,17055,1,8,0:0:0:0:
281,161,17304,1,12,0:0:0:0:
281,161,17552,1,12,0:0:0:0:
281,161,17801,1,12,0:0:0:0:
281,161,18050,1,12,0:0:0:0:
268,191,18547,1,4,0:0:0:0:
237,165,18879,1,0,0:0:0:0:
237,165,19044,1,8,0:0:0:0:
237,165,19210,1,0,0:0:0:0:
162,167,19293,1,0,0:0:0:0:
237,165,19376,1,8,0:0:0:0:
237,165,19542,1,0,0:0:0:0:
238,155,19624,1,0,0:0:0:0:
237,165,19707,1,0,0:0:0:0:
237,165,19873,1,8,0:0:0:0:
302,220,20205,1,0,0:0:0:0:
254,186,20370,1,8,0:0:0:0:
331,156,20536,1,0,0:0:0:0:
331,156,20619,1,0,0:0:0:0:
331,156,20702,1,8,0:0:0:0:
331,156,20868,1,8,0:0:0:0:
331,156,20950,1,8,0:0:0:0:
331,156,21033,1,0,0:0:0:0:
331,156,21199,1,8,0:0:0:0:
291,162,21530,1,8,0:0:0:0:
309,137,21696,1,0,0:0:0:0:
259,181,21862,1,8,0:0:0:0:
259,181,21945,1,8,0:0:0:0:
259,181,22028,1,8,0:0:0:0:
259,181,22193,1,0,0:0:0:0:
259,181,22276,1,0,0:0:0:0:
259,181,22359,1,0,0:0:0:0:
259,181,22525,1,8,0:0:0:0:
408,124,22774,1,0,0:0:0:0:
408,124,22856,1,8,0:0:0:0:
317,152,23022,1,8,0:0:0:0:
317,152,23105,1,8,0:0:0:0:
309,150,23188,1,0,0:0:0:0:
287,156,23354,1,8,0:0:0:0:
287,156,23519,1,8,0:0:0:0:
287,156,23602,1,8,0:0:0:0:
287,156,23685,1,8,0:0:0:0:
287,156,23768,1,8,0:0:0:0:
287,156,23851,1,4,0:0:0:0:
239,154,24100,1,4,0:0:0:0:
239,154,24348,1,4,0:0:0:0:
239,154,24514,1,4,0:0:0:0:
246,156,24763,1,4,0:0:0:0:
253,159,25011,1,4,0:0:0:0:
253,159,25177,1,4,0:0:0:0:
259,160,25426,1,4,0:0:0:0:
260,161,25674,1,4,0:0:0:0:
260,161,25840,1,4,0:0:0:0:
260,161,26089,1,4,0:0:0:0:
259,160,26337,1,4,0:0:0:0:
205,182,26503,5,0,0:0:0:0:
205,182,26586,1,0,0:0:0:0:
205,182,26669,1,0,0:0:0:0:
205,182,26751,1,0,0:0:0:0:
252,174,26834,1,8,0:0:0:0:
199,152,27000,1,0,0:0:0:0:
199,152,27083,1,0,0:0:0:0:
205,182,27166,1,8,0:0:0:0:
205,182,27332,1,0,0:0:0:0:
205,182,27414,1,8,0:0:0:0:
199,152,27497,1,0,0:0:0:0:
205,182,27580,1,0,0:0:0:0:
205,182,27663,1,8,0:0:0:0:
205,182,27829,1,0,0:0:0:0:
230,195,27912,1,0,0:0:0:0:
230,195,27995,1,8,0:0:0:0:
230,195,28077,1,8,0:0:0:0:
230,195,28160,1,0,0:0:0:0:
230,195,28243,1,0,0:0:0:0:
230,195,28326,1,0,0:0:0:0:
224,160,28409,1,0,0:0:0:0:
224,195,28492,1,8,0:0:0:0:
318,193,28823,1,12,0:0:0:0:
286,192,29155,1,4,0:0:0:0:
264,176,29486,1,8,0:0:0:0:
264,176,29569,1,0,0:0:0:0:
264,176,29652,1,0,0:0:0:0:
268,157,29735,1,8,0:0:0:0:
268,157,29901,1,8,0:0:0:0:
268,157,30066,1,0,0:0:0:0:
267,179,30149,1,8,0:0:0:0:
276,182,30315,1,8,0:0:0:0:
295,156,30481,1,0,0:0:0:0:
295,156,30647,1,8,0:0:0:0:
220,160,30729,1,0,0:0:0:0:
285,229,30812,1,8,0:0:0:0:
285,229,30978,1,0,0:0:0:0:
389,217,31061,1,8,0:0:0:0:
389,217,31227,1,8,0:0:0:0:
383,217,31392,1,8,0:0:0:0:
286,150,31475,1,0,0:0:0:0:
253,159,31558,1,0,0:0:0:0:
272,167,31641,1,8,0:0:0:0:
259,162,31724,1,8,0:0:0:0:
236,160,31807,1,0,0:0:0:0:
254,176,32138,1,8,0:0:0:0:
254,176,32304,1,0,0:0:0:0:
309,177,32387,1,8,0:0:0:0:
271,194,32470,1,0,0:0:0:0:
299,163,32553,1,8,0:0:0:0:
309,177,32718,1,8,0:0:0:0:
319,154,32801,1,0,0:0:0:0:
319,154,32967,1,8,0:0:0:0:
285,172,33133,1,0,0:0:0:0:
285,172,33216,1,8,0:0:0:0:
284,170,33298,1,8,0:0:0:0:
284,170,33464,1,0,0:0:0:0:
284,170,33630,1,0,0:0:0:0:
204,208,33713,1,8,0:0:0:0:
135,201,33796,1,0,0:0:0:0:
315,208,33961,1,8,0:0:0:0:
315,208,34127,1,8,0:0:0:0:
315,208,34210,1,8,0:0:0:0:
331,208,34293,1,0,0:0:0:0:
258,132,34376,1,8,0:0:0:0:
350,190,34459,1,4,0:0:0:0:
330,166,34790,1,0,0:0:0:0:
330,166,34956,1,0,0:0:0:0:
301,157,35039,1,8,0:0:0:0:
301,157,35205,1,8,0:0:0:0:
366,157,35287,1,0,0:0:0:0:
260,159,35370,1,8,0:0:0:0:
307,169,35453,1,8,0:0:0:0:
307,169,35619,1,8,0:0:0:0:
226,181,35785,1,0,0:0:0:0:
234,182,35868,1,0,0:0:0:0:
234,182,35950,1,8,0:0:0:0:
233,124,36116,1,8,0:0:0:0:
164,148,36282,1,0,0:0:0:0:
286,204,36365,1,8,0:0:0:0:
259,185,36530,1,8,0:0:0:0:
259,185,36696,1,8,0:0:0:0:
259,248,36779,1,0,0:0:0:0:
270,250,36862,1,0,0:0:0:0:
271,250,36945,1,8,0:0:0:0:
271,250,37028,1,0,0:0:0:0:
271,250,37111,1,8,0:0:0:0:
249,201,37442,1,8,0:0:0:0:
219,195,37608,1,0,0:0:0:0:
266,232,37691,1,8,0:0:0:0:
228,145,37856,1,0,0:0:0:0:
285,167,38022,1,0,0:0:0:0:
285,167,38105,1,8,0:0:0:0:
285,167,38271,1,8,0:0:0:0:
262,192,38437,1,0,0:0:0:0:
262,192,38519,1,8,0:0:0:0:
262,192,38602,1,8,0:0:0:0:
262,192,38768,1,8,0:0:0:0:
262,192,38934,1,0,0:0:0:0:
262,192,39017,1,8,0:0:0:0:
262,192,39100,1,0,0:0:0:0:
262,192,39182,1,0,0:0:0:0:
262,192,39265,1,8,0:0:0:0:
262,192,39431,1,8,0:0:0:0:
262,192,39514,1,8,0:0:0:0:
262,192,39597,1,8,0:0:0:0:
262,192,39680,1,8,0:0:0:0:
269,193,39763,1,0,0:0:0:0:
288,192,40094,1,4,0:0:0:0:
256,192,40343,1,8,0:0:0:0:
288,160,40426,1,0,0:0:0:0:
288,160,40508,1,8,0:0:0:0:
256,192,40674,1,8,0:0:0:0:
256,192,40757,1,0,0:0:0:0:
256,192,40840,1,0,0:0:0:0:
256,192,40923,1,8,0:0:0:0:
288,192,41089,1,0,0:0:0:0:
288,192,41254,1,8,0:0:0:0:
320,192,41420,1,0,0:0:0:0:
256,160,41503,1,0,0:0:0:0:
256,160,41586,1,0,0:0:0:0:
256,160,41669,1,8,0:0:0:0:
256,160,41834,1,8,0:0:0:0:
288,192,42000,1,8,0:0:0:0:
288,192,42083,1,0,0:0:0:0:
288,224,42166,1,0,0:0:0:0:
256,224,42249,1,8,0:0:0:0:
256,224,42332,1,8,0:0:0:0:
224,192,42414,1,0,0:0:0:0:
288,160,42746,1,0,0:0:0:0:
288,160,42912,1,0,0:0:0:0:
288,128,42995,1,8,0:0:0:0:
320,160,43160,1,8,0:0:0:0:
320,160,43243,1,0,0:0:0:0:
288,160,43326,1,8,0:0:0:0:
288,160,43409,1,0,0:0:0:0:
288,160,43575,1,8,0:0:0:0:
288,160,43740,1,0,0:0:0:0:
256,192,43823,1,8,0:0:0:0:
256,192,43906,1,0,0:0:0:0:
320,192,44072,1,8,0:0:0:0:
320,192,44155,1,0,0:0:0:0:
288,192,44321,1,8,0:0:0:0:
288,192,44403,1,0,0:0:0:0:
256,192,44569,1,8,0:0:0:0:
256,192,44735,1,0,0:0:0:0:
256,192,44818,1,8,0:0:0:0:
256,192,44901,1,0,0:0:0:0:
256,192,44984,1,8,0:0:0:0:
256,192,45066,1,4,0:0:0:0:
256,160,45398,1,0,0:0:0:0:
256,160,45564,1,0,0:0:0:0:
256,160,45647,1,8,0:0:0:0:
256,224,45812,1,0,0:0:0:0:
256,224,45895,1,8,0:0:0:0:
288,224,46392,1,4,0:0:0:0:
192,160,46724,1,8,0:0:0:0:
192,160,46890,1,8,0:0:0:0:
160,160,46972,1,8,0:0:0:0:
352,224,47138,1,8,0:0:0:0:
256,224,47221,1,0,0:0:0:0:
256,160,47718,1,4,0:0:0:0:
256,160,47967,1,0,0:0:0:0:
256,160,48050,1,8,0:0:0:0:
320,160,48216,1,0,0:0:0:0:
288,160,48547,1,12,0:0:0:0:
288,160,48796,1,12,0:0:0:0:
288,160,49044,1,4,0:0:0:0:
384,160,49210,1,4,0:0:0:0:
256,160,49707,1,0,0:0:0:0:
256,160,50039,1,8,0:0:0:0:
256,160,50370,1,4,0:0:0:0:
256,160,50702,1,0,0:0:0:0:
256,160,50868,1,8,0:0:0:0:
256,160,51033,1,0,0:0:0:0:
256,160,51116,1,8,0:0:0:0:
256,160,51199,1,0,0:0:0:0:
256,160,51365,1,8,0:0:0:0:
256,160,51530,1,0,0:0:0:0:
256,160,51613,1,0,0:0:0:0:
256,160,51696,1,8,0:0:0:0:
224,128,51862,1,0,0:0:0:0:
224,128,52028,1,8,0:0:0:0:
224,128,52111,1,8,0:0:0:0:
224,128,52193,1,0,0:0:0:0:
224,128,52276,1,8,0:0:0:0:
224,128,52359,1,0,0:0:0:0:
224,128,52525,1,8,0:0:0:0:
224,128,52691,1,0,0:0:0:0:
224,128,52774,1,0,0:0:0:0:
224,128,52856,1,0,0:0:0:0:
224,128,52939,1,0,0:0:0:0:
224,128,53022,1,8,0:0:0:0:
288,192,53354,1,0,0:0:0:0:
288,192,53519,1,8,0:0:0:0:
288,192,53685,1,0,0:0:0:0:
288,192,53768,1,8,0:0:0:0:
288,192,53851,1,0,0:0:0:0:
288,192,54017,1,8,0:0:0:0:
288,192,54182,1,0,0:0:0:0:
288,192,54265,1,0,0:0:0:0:
288,192,54348,1,8,0:0:0:0:
256,192,54514,1,0,0:0:0:0:
256,192,54680,1,0,0:0:0:0:
256,192,54763,1,8,0:0:0:0:
256,192,54845,1,0,0:0:0:0:
256,192,54928,1,0,0:0:0:0:
256,192,55011,1,8,0:0:0:0:
256,192,55177,1,8,0:0:0:0:
256,192,55260,1,8,0:0:0:0:
256,192,55343,1,0,0:0:0:0:
256,192,55426,1,8,0:0:0:0:
256,192,55508,1,8,0:0:0:0:
256,192,55591,1,0,0:0:0:0:
256,192,55674,1,8,0:0:0:0:
320,224,56006,1,0,0:0:0:0:
256,192,56171,1,8,0:0:0:0:
288,192,56337,1,0,0:0:0:0:
288,192,56420,1,8,0:0:0:0:
288,192,56503,1,0,0:0:0:0:
288,192,56669,1,8,0:0:0:0:
288,192,56834,1,0,0:0:0:0:
288,192,56917,1,0,0:0:0:0:
288,192,57000,1,8,0:0:0:0:
256,192,57166,1,8,0:0:0:0:
256,192,57332,1,0,0:0:0:0:
256,192,57414,1,8,0:0:0:0:
256,192,57497,1,0,0:0:0:0:
256,192,57580,1,8,0:0:0:0:
256,192,57663,1,0,0:0:0:0:
256,192,57829,1,0,0:0:0:0:
256,192,57995,1,8,0:0:0:0:
256,192,58077,1,8,0:0:0:0:
256,192,58160,1,0,0:0:0:0:
256,192,58243,1,0,0:0:0:0:
256,192,58326,1,8,0:0:0:0:
288,192,58658,1,0,0:0:0:0:
256,192,58823,1,8,0:0:0:0:
256,192,58989,1,0,0:0:0:0:
256,192,59072,1,0,0:0:0:0:
256,192,59155,1,0,0:0:0:0:
256,192,59238,1,0,0:0:0:0:
256,192,59321,1,8,0:0:0:0:
256,192,59486,1,0,0:0:0:0:
256,192,59569,1,0,0:0:0:0:
256,192,59652,1,8,0:0:0:0:
224,192,59818,1,0,0:0:0:0:
224,192,59901,1,8,0:0:0:0:
288,192,60066,1,0,0:0:0:0:
224,192,60149,1,8,0:0:0:0:
256,128,60315,1,12,0:0:0:0:
192,192,60647,1,8,0:0:0:0:
219,148,60978,5,4,0:0:0:0:
285,149,61309,1,12,0:0:0:0:
316,180,61641,1,4,0:0:0:0:
251,188,61972,1,8,0:0:0:0:
251,188,62055,1,8,0:0:0:0:
251,188,62138,1,8,0:0:0:0:
251,188,62221,1,8,0:0:0:0:
251,188,62304,1,0,0:0:0:0:
251,188,62470,1,8,0:0:0:0:
251,188,62553,1,8,0:0:0:0:
251,188,62635,1,8,0:0:0:0:
251,188,62718,1,8,0:0:0:0:
251,188,62801,1,8,0:0:0:0:
288,160,62967,1,4,0:0:0:0:
315,172,63298,1,8,0:0:0:0:
315,172,63630,1,4,0:0:0:0:
306,131,63961,1,12,0:0:0:0:
261,206,64293,1,4,0:0:0:0:
263,192,64624,1,8,0:0:0:0:
263,192,64707,1,8,0:0:0:0:
263,192,64790,1,8,0:0:0:0:
263,192,64873,1,8,0:0:0:0:
263,192,64956,1,0,0:0:0:0:
263,192,65122,1,8,0:0:0:0:
263,192,65205,1,8,0:0:0:0:
263,192,65287,1,8,0:0:0:0:
263,192,65370,1,8,0:0:0:0:
263,192,65453,1,8,0:0:0:0:
257,153,65619,1,0,0:0:0:0:
256,192,65785,12,0,66116,0:0:0:0:
287,199,66282,5,4,0:0:0:0:
290,195,66613,1,8,0:0:0:0:
290,195,66696,1,8,0:0:0:0:
290,195,66779,1,8,0:0:0:0:
290,195,66945,1,4,0:0:0:0:
290,195,67276,1,8,0:0:0:0:
290,195,67359,1,8,0:0:0:0:
290,195,67442,1,8,0:0:0:0:
290,195,67608,1,4,0:0:0:0:
290,195,67939,1,8,0:0:0:0:
290,195,68022,1,8,0:0:0:0:
290,195,68105,1,8,0:0:0:0:
290,195,68271,1,0,0:0:0:0:
253,189,68934,1,8,0:0:0:0:
253,189,69182,1,0,0:0:0:0:
237,166,69431,1,8,0:0:0:0:
237,166,69680,1,0,0:0:0:0:
237,166,69763,1,8,0:0:0:0:
237,166,69928,1,8,0:0:0:0:
237,166,70094,1,0,0:0:0:0:
237,166,70177,1,8,0:0:0:0:
237,166,70260,1,0,0:0:0:0:
237,166,70508,1,0,0:0:0:0:
237,166,70757,1,8,0:0:0:0:
237,166,71006,1,8,0:0:0:0:
237,166,71089,1,0,0:0:0:0:
237,166,71254,1,0,0:0:0:0:
237,166,71420,1,8,0:0:0:0:
237,166,71503,1,0,0:0:0:0:
237,166,71586,1,8,0:0:0:0:
237,166,71834,1,8,0:0:0:0:
237,166,72083,1,8,0:0:0:0:
237,166,72332,1,8,0:0:0:0:
237,166,72414,1,8,0:0:0:0:
237,166,72580,1,0,0:0:0:0:
237,166,72746,1,0,0:0:0:0:
237,166,72829,1,0,0:0:0:0:
237,166,72912,1,8,0:0:0:0:
288,192,73160,1,8,0:0:0:0:
288,192,73409,1,8,0:0:0:0:
288,192,73658,1,8,0:0:0:0:
288,192,73740,1,8,0:0:0:0:
256,192,73906,1,0,0:0:0:0:
288,192,74072,1,0,0:0:0:0:
288,192,74155,1,0,0:0:0:0:
253,189,74238,1,8,0:0:0:0:
253,189,74486,1,0,0:0:0:0:
237,166,74735,1,8,0:0:0:0:
237,166,74984,1,0,0:0:0:0:
237,166,75066,1,8,0:0:0:0:
237,166,75232,1,8,0:0:0:0:
237,166,75398,1,0,0:0:0:0:
237,166,75481,1,8,0:0:0:0:
237,166,75564,1,0,0:0:0:0:
237,166,75812,1,0,0:0:0:0:
237,166,76061,1,8,0:0:0:0:
237,166,76309,1,8,0:0:0:0:
237,166,76392,1,0,0:0:0:0:
237,166,76558,1,8,0:0:0:0:
237,166,76724,1,8,0:0:0:0:
237,166,76807,1,0,0:0:0:0:
237,166,76890,1,8,0:0:0:0:
224,192,77138,1,8,0:0:0:0:
288,192,77387,1,8,0:0:0:0:
256,192,77635,1,8,0:0:0:0:
256,192,77718,1,8,0:0:0:0:
256,160,77884,1,8,0:0:0:0:
256,192,78050,1,8,0:0:0:0:
288,192,78133,1,0,0:0:0:0:
288,192,78298,1,12,0:0:0:0:
288,192,78547,1,12,0:0:0:0:
224,192,78796,1,12,0:0:0:0:
224,192,79044,1,12,0:0:0:0:
320,192,79542,1,4,0:0:0:0:
288,160,80536,1,0,0:0:0:0:
288,160,80868,1,8,0:0:0:0:
288,160,81530,1,8,0:0:0:0:
288,160,82193,1,0,0:0:0:0:
256,192,82856,1,0,0:0:0:0:
256,192,83188,1,8,0:0:0:0:
256,192,83519,1,0,0:0:0:0:
256,192,84182,1,8,0:0:0:0:
256,192,84514,1,8,0:0:0:0:
256,192,84845,1,0,0:0:0:0:
288,160,85343,1,0,0:0:0:0:
288,160,85840,1,8,0:0:0:0:
288,160,86171,1,8,0:0:0:0:
288,192,86834,1,8,0:0:0:0:
288,192,87497,1,8,0:0:0:0:
288,192,87995,1,8,0:0:0:0:
288,192,88492,1,8,0:0:0:0:
288,192,88823,1,0,0:0:0:0:
288,192,89072,1,8,0:0:0:0:
256,192,89321,1,8,0:0:0:0:
256,192,89487,1,12,0:0:0:0:
256,192,89736,1,12,0:0:0:0:
256,192,89984,1,12,0:0:0:0:
256,192,90149,1,4,0:0:0:0:
224,192,90398,1,4,0:0:0:0:
224,192,90647,1,4,0:0:0:0:
224,192,90895,1,4,0:0:0:0:
224,192,91144,1,4,0:0:0:0:
224,192,91309,1,4,0:0:0:0:
256,192,91475,12,0,92635,0:0:0:0:
256,192,92801,5,4,0:0:0:0:
256,192,93050,1,4,0:0:0:0:
256,192,93298,1,4,0:0:0:0:
256,192,93547,1,4,0:0:0:0:
256,192,93796,1,4,0:0:0:0:
256,192,93961,1,4,0:0:0:0:
256,192,94127,12,0,95287,0:0:0:0:
256,192,95453,5,4,0:0:0:0:
256,192,95702,1,4,0:0:0:0:
256,192,95950,1,4,0:0:0:0:
256,192,96116,1,4,0:0:0:0:
256,192,96365,1,4,0:0:0:0:
256,192,96613,1,4,0:0:0:0:
256,192,96779,1,4,0:0:0:0:
256,192,97028,1,4,0:0:0:0:
256,192,97276,1,4,0:0:0:0:
256,192,97442,1,4,0:0:0:0:
256,192,97691,1,4,0:0:0:0:
256,192,97939,1,4,0:0:0:0:
256,192,98105,1,0,0:0:0:0:
256,192,98188,1,0,0:0:0:0:
256,192,98271,1,8,0:0:0:0:
256,192,98437,1,8,0:0:0:0:
256,192,98519,1,8,0:0:0:0:
256,192,98602,1,0,0:0:0:0:
213,103,98685,1,0,0:0:0:0:
256,192,98768,1,8,0:0:0:0:
256,192,98934,1,0,0:0:0:0:
256,192,99017,1,8,0:0:0:0:
256,192,99100,1,0,0:0:0:0:
256,192,99265,1,8,0:0:0:0:
256,192,99431,1,0,0:0:0:0:
256,192,99514,1,0,0:0:0:0:
256,192,99597,1,8,0:0:0:0:
256,192,99763,1,0,0:0:0:0:
256,192,99845,1,8,0:0:0:0:
256,192,99928,1,8,0:0:0:0:
256,192,100094,1,8,0:0:0:0:
256,192,100177,1,8,0:0:0:0:
256,192,100260,1,0,0:0:0:0:
256,192,100343,1,0,0:0:0:0:
256,192,100426,1,8,0:0:0:0:
256,192,100508,1,8,0:0:0:0:
192,192,100591,1,8,0:0:0:0:
256,192,100674,1,8,0:0:0:0:
256,192,100757,1,0,0:0:0:0:
224,192,101420,1,12,0:0:0:0:
224,192,102083,1,4,0:0:0:0:
224,192,102332,1,4,0:0:0:0:
224,192,102580,1,4,0:0:0:0:
224,192,102829,1,4,0:0:0:0:
224,192,103077,1,12,0:0:0:0:
288,192,103409,1,4,0:0:0:0:
256,192,103740,1,0,0:0:0:0:
256,192,103906,1,0,0:0:0:0:
256,192,103989,1,8,0:0:0:0:
256,224,104155,1,8,0:0:0:0:
256,224,104321,1,8,0:0:0:0:
256,224,104403,1,0,0:0:0:0:
256,224,104486,1,0,0:0:0:0:
256,224,104569,1,8,0:0:0:0:
224,192,104735,1,0,0:0:0:0:
224,192,104901,1,8,0:0:0:0:
224,192,104984,1,0,0:0:0:0:
224,192,105066,1,8,0:0:0:0:
224,192,105232,1,0,0:0:0:0:
224,192,105315,1,8,0:0:0:0:
288,192,105481,1,8,0:0:0:0:
288,192,105564,1,0,0:0:0:0:
288,192,105647,1,8,0:0:0:0:
288,192,105729,1,8,0:0:0:0:
288,192,105895,1,8,0:0:0:0:
288,192,106061,1,0,0:0:0:0:
256,160,106227,1,8,0:0:0:0:
256,160,106392,1,8,0:0:0:0:
256,160,106558,1,0,0:0:0:0:
224,160,106641,1,8,0:0:0:0:
224,160,106807,1,8,0:0:0:0:
224,160,106890,1,0,0:0:0:0:
224,160,106972,1,8,0:0:0:0:
224,160,107055,1,0,0:0:0:0:
192,192,107221,1,8,0:0:0:0:
256,192,107387,1,0,0:0:0:0:
256,192,107470,1,8,0:0:0:0:
256,192,107553,1,8,0:0:0:0:
256,192,107718,1,0,0:0:0:0:
256,160,107884,1,8,0:0:0:0:
256,160,107967,1,8,0:0:0:0:
256,160,108050,1,8,0:0:0:0:
256,160,108216,1,0,0:0:0:0:
256,192,108381,1,8,0:0:0:0:
256,192,108464,1,0,0:0:0:0:
256,192,108547,1,8,0:0:0:0:
256,192,108630,1,8,0:0:0:0:
224,192,108713,1,4,0:0:0:0:
288,160,109044,1,8,0:0:0:0:
288,160,109210,1,0,0:0:0:0:
288,160,109293,1,8,0:0:0:0:
288,160,109459,1,8,0:0:0:0:
288,160,109542,1,0,0:0:0:0:
288,160,109624,1,8,0:0:0:0:
288,160,109707,1,8,0:0:0:0:
288,160,109873,1,8,0:0:0:0:
288,160,110039,1,0,0:0:0:0:
256,160,110205,1,8,0:0:0:0:
256,160,110287,1,0,0:0:0:0:
256,160,110370,1,8,0:0:0:0:
256,160,110536,1,0,0:0:0:0:
288,160,110619,1,8,0:0:0:0:
288,160,110785,1,8,0:0:0:0:
288,160,110950,1,8,0:0:0:0:
288,160,111033,1,0,0:0:0:0:
256,160,111116,1,0,0:0:0:0:
256,160,111199,1,8,0:0:0:0:
256,160,111365,1,0,0:0:0:0:
256,160,111448,1,8,0:0:0:0:
224,160,111696,1,0,0:0:0:0:
224,160,111862,1,8,0:0:0:0:
224,160,111945,1,0,0:0:0:0:
256,160,112111,1,8,0:0:0:0:
256,160,112193,1,0,0:0:0:0:
256,160,112276,1,0,0:0:0:0:
256,160,112359,1,8,0:0:0:0:
256,160,112525,1,8,0:0:0:0:
224,160,112691,1,8,0:0:0:0:
224,160,112774,1,8,0:0:0:0:
224,160,112856,1,8,0:0:0:0:
224,160,113022,1,8,0:0:0:0:
224,160,113188,1,0,0:0:0:0:
224,160,113271,1,8,0:0:0:0:
224,160,113354,1,8,0:0:0:0:
224,160,113437,1,8,0:0:0:0:
224,160,113519,1,0,0:0:0:0:
224,160,113685,1,8,0:0:0:0:
224,160,113768,1,8,0:0:0:0:
224,160,113851,1,8,0:0:0:0:
224,160,113934,1,8,0:0:0:0:
224,160,114017,1,0,0:0:0:0:
256,160,114348,1,4,0:0:0:0:
224,160,114514,1,0,0:0:0:0:
224,160,114597,1,8,0:0:0:0:
224,160,114763,1,8,0:0:0:0:
224,160,114928,1,8,0:0:0:0:
384,224,115094,1,0,0:0:0:0:
384,224,115177,1,8,0:0:0:0:
384,224,115343,1,0,0:0:0:0:
128,192,115508,1,8,0:0:0:0:
224,160,115591,1,0,0:0:0:0:
224,160,115757,1,8,0:0:0:0:
288,160,115923,1,8,0:0:0:0:
288,160,116089,1,8,0:0:0:0:
288,160,116254,1,8,0:0:0:0:
288,160,116337,1,0,0:0:0:0:
224,160,116503,1,8,0:0:0:0:
224,160,116586,1,8,0:0:0:0:
224,160,116669,1,4,0:0:0:0:
256,160,117000,1,0,0:0:0:0:
256,160,117249,1,8,0:0:0:0:
256,160,117414,1,8,0:0:0:0:
224,128,117580,1,8,0:0:0:0:
256,160,117663,1,0,0:0:0:0:
320,160,117995,1,4,0:0:0:0:
352,160,118243,1,4,0:0:0:0:
256,192,118492,1,8,0:0:0:0:
256,192,118658,1,0,0:0:0:0:
256,160,118740,1,0,0:0:0:0:
256,160,118823,1,8,0:0:0:0:
320,192,118989,1,0,0:0:0:0:
288,192,119072,1,8,0:0:0:0:
288,192,119321,1,4,0:0:0:0:
256,160,119486,1,8,0:0:0:0:
256,160,119569,1,0,0:0:0:0:
256,192,119735,1,8,0:0:0:0:
256,192,119901,1,8,0:0:0:0:
224,160,120066,1,0,0:0:0:0:
224,160,120149,1,8,0:0:0:0:
256,160,120647,1,4,0:0:0:0:
288,160,120812,1,8,0:0:0:0:
288,160,120895,1,0,0:0:0:0:
224,128,121061,1,8,0:0:0:0:
224,128,121227,1,8,0:0:0:0:
256,192,121392,1,8,0:0:0:0:
256,192,121475,1,0,0:0:0:0:
288,192,121972,1,4,0:0:0:0:
288,192,122138,1,4,0:0:0:0:
288,192,122304,1,12,0:0:0:0:
288,192,122470,1,12,0:0:0:0:
256,160,122635,1,0,0:0:0:0:
224,160,122718,1,8,0:0:0:0:
256,160,122884,1,8,0:0:0:0:
256,160,122967,1,0,0:0:0:0:
256,160,123133,1,0,0:0:0:0:
256,160,123298,1,8,0:0:0:0:
224,128,123381,1,0,0:0:0:0:
288,192,123464,1,8,0:0:0:0:
256,160,124127,1,8,0:0:0:0:
256,160,124210,1,8,0:0:0:0:
256,160,124293,1,8,0:0:0:0:
256,160,124459,1,8,0:0:0:0:
256,160,124624,1,4,0:0:0:0:
256,160,124873,1,4,0:0:0:0:
256,160,125122,1,12,0:0:0:0:
256,160,125370,1,12,0:0:0:0:
256,160,125619,1,4,0:0:0:0:
288,160,125950,1,8,0:0:0:0:
288,160,126116,1,0,0:0:0:0:
288,160,126199,1,0,0:0:0:0:
288,160,126282,1,8,0:0:0:0:
288,160,126448,1,0,0:0:0:0:
288,160,126613,1,8,0:0:0:0:
288,160,126696,1,8,0:0:0:0:
288,160,126779,1,0,0:0:0:0:
288,160,126862,1,0,0:0:0:0:
288,160,126945,1,8,0:0:0:0:
288,160,127111,1,8,0:0:0:0:
224,192,127276,1,4,0:0:0:0:
256,192,127525,1,4,0:0:0:0:
256,192,127774,1,12,0:0:0:0:
256,192,128022,1,4,0:0:0:0:
256,192,128271,1,4,0:0:0:0:
288,192,128602,1,8,0:0:0:0:
288,192,128768,1,0,0:0:0:0:
288,192,128851,1,8,0:0:0:0:
288,192,128934,1,0,0:0:0:0:
288,192,129100,1,8,0:0:0:0:
224,160,129265,1,0,0:0:0:0:
288,192,129348,1,8,0:0:0:0:
224,160,129431,1,0,0:0:0:0:
224,160,129514,1,0,0:0:0:0:
224,160,129597,1,8,0:0:0:0:
224,160,129763,1,8,0:0:0:0:
256,96,129928,1,4,0:0:0:0:
288,192,130177,1,12,0:0:0:0:
288,192,130426,1,12,0:0:0:0:
256,160,130674,1,4,0:0:0:0:
256,160,130923,1,4,0:0:0:0:
256,192,131254,1,8,0:0:0:0:
256,192,131420,1,0,0:0:0:0:
256,192,131503,1,8,0:0:0:0:
256,192,131586,1,0,0:0:0:0:
256,192,131751,1,8,0:0:0:0:
256,192,131917,1,0,0:0:0:0:
256,192,132000,1,8,0:0:0:0:
256,192,132083,1,8,0:0:0:0:
256,192,132166,1,8,0:0:0:0:
256,192,132249,1,0,0:0:0:0:
256,192,132414,1,8,0:0:0:0:
256,192,132580,1,4,0:0:0:0:
256,192,132829,1,12,0:0:0:0:
256,192,133077,1,12,0:0:0:0:
256,192,133326,1,12,0:0:0:0:
256,192,133575,1,4,0:0:0:0:
256,192,133906,1,8,0:0:0:0:
256,192,134072,1,8,0:0:0:0:
256,192,134155,1,8,0:0:0:0:
256,192,134238,1,0,0:0:0:0:
256,192,134403,1,8,0:0:0:0:
256,192,134569,1,0,0:0:0:0:
256,192,134652,1,0,0:0:0:0:
256,192,134735,1,8,0:0:0:0:
256,192,134818,1,0,0:0:0:0:
256,192,134901,1,0,0:0:0:0:
256,192,135066,1,8,0:0:0:0:
256,192,135232,1,4,0:0:0:0:
256,192,135481,1,4,0:0:0:0:
256,192,135729,1,12,0:0:0:0:
256,192,135978,1,12,0:0:0:0:
256,192,136227,1,4,0:0:0:0:
256,192,136558,1,8,0:0:0:0:
256,192,136724,1,0,0:0:0:0:
256,192,136807,1,0,0:0:0:0:
256,192,136890,1,8,0:0:0:0:
256,192,137055,1,8,0:0:0:0:
352,160,137221,1,8,0:0:0:0:
352,160,137304,1,8,0:0:0:0:
256,192,137387,1,0,0:0:0:0:
256,192,137470,1,8,0:0:0:0:
288,160,137553,1,0,0:0:0:0:
288,160,137884,1,4,0:0:0:0:
288,192,138133,1,4,0:0:0:0:
288,192,138381,1,12,0:0:0:0:
288,192,138630,1,4,0:0:0:0:
288,192,138879,1,4,0:0:0:0:
256,192,139210,1,8,0:0:0:0:
256,192,139376,1,0,0:0:0:0:
256,192,139459,1,8,0:0:0:0:
256,192,139542,1,0,0:0:0:0:
256,192,139707,1,12,0:0:0:0:
224,192,139873,1,4,0:0:0:0:
224,192,140122,1,12,0:0:0:0:
224,192,140370,1,4,0:0:0:0:
224,192,140536,1,4,0:0:0:0:
256,192,140785,1,4,0:0:0:0:
256,192,141033,1,4,0:0:0:0:
256,192,141282,1,12,0:0:0:0:
256,192,141530,1,12,0:0:0:0:
256,192,141862,1,8,0:0:0:0:
256,192,142028,1,0,0:0:0:0:
256,192,142111,1,8,0:0:0:0:
256,192,142276,1,0,0:0:0:0:
256,192,142359,1,8,0:0:0:0:
256,192,142525,1,0,0:0:0:0:
256,192,142608,1,8,0:0:0:0:
256,192,142774,1,0,0:0:0:0:
256,192,142856,1,8,0:0:0:0:
256,192,143022,1,8,0:0:0:0:
256,192,143188,1,4,0:0:0:0:
256,160,143437,1,8,0:0:0:0:
256,160,143685,1,4,0:0:0:0:
256,160,143934,1,8,0:0:0:0:
256,160,144182,1,4,0:0:0:0:
256,160,144431,1,8,0:0:0:0:
256,160,144680,1,4,0:0:0:0:
256,160,144928,1,8,0:0:0:0:
256,160,145177,1,4,0:0:0:0:
256,160,145840,1,0,0:0:0:0:
116,148,145923,1,0,0:0:0:0:
116,148,146006,1,0,0:0:0:0:
116,148,146089,1,0,0:0:0:0:
256,160,146171,1,8,0:0:0:0:
268,134,146254,1,8,0:0:0:0:
256,160,146337,1,8,0:0:0:0:
224,160,146420,1,8,0:0:0:0:
256,160,146503,1,0,0:0:0:0:
256,160,146669,1,0,0:0:0:0:
224,160,146834,1,8,0:0:0:0:
253,189,147166,1,8,0:0:0:0:
253,189,147414,1,0,0:0:0:0:
237,166,147663,1,8,0:0:0:0:
237,166,147912,1,0,0:0:0:0:
237,166,147995,1,8,0:0:0:0:
237,166,148160,1,8,0:0:0:0:
237,166,148326,1,0,0:0:0:0:
237,166,148409,1,8,0:0:0:0:
237,166,148492,1,0,0:0:0:0:
237,166,148740,1,0,0:0:0:0:
237,166,148989,1,8,0:0:0:0:
237,166,149238,1,8,0:0:0:0:
237,166,149321,1,0,0:0:0:0:
237,166,149486,1,0,0:0:0:0:
237,166,149652,1,8,0:0:0:0:
237,166,149735,1,0,0:0:0:0:
237,166,149818,1,8,0:0:0:0:
237,166,150066,1,8,0:0:0:0:
237,166,150315,1,8,0:0:0:0:
237,166,150564,1,8,0:0:0:0:
237,166,150647,1,8,0:0:0:0:
237,166,150812,1,0,0:0:0:0:
237,166,150978,1,0,0:0:0:0:
237,166,151061,1,0,0:0:0:0:
237,166,151144,1,8,0:0:0:0:
288,192,151392,1,8,0:0:0:0:
288,192,151641,1,8,0:0:0:0:
288,192,151890,1,8,0:0:0:0:
288,192,151972,1,8,0:0:0:0:
256,192,152138,1,0,0:0:0:0:
288,192,152304,1,0,0:0:0:0:
288,192,152387,1,0,0:0:0:0:
253,189,152470,1,8,0:0:0:0:
253,189,152718,1,0,0:0:0:0:
237,166,152967,1,8,0:0:0:0:
237,166,153216,1,0,0:0:0:0:
237,166,153298,1,8,0:0:0:0:
237,166,153464,1,8,0:0:0:0:
237,166,153630,1,0,0:0:0:0:
237,166,153713,1,8,0:0:0:0:
237,166,153796,1,0,0:0:0:0:
237,166,154044,1,0,0:0:0:0:
237,166,154293,1,8,0:0:0:0:
237,166,154542,1,8,0:0:0:0:
237,166,154624,1,0,0:0:0:0:
237,166,154790,1,8,0:0:0:0:
237,166,154956,1,8,0:0:0:0:
237,166,155039,1,0,0:0:0:0:
237,166,155122,1,8,0:0:0:0:
224,192,155370,1,8,0:0:0:0:
288,192,155619,1,8,0:0:0:0:
256,192,155868,1,8,0:0:0:0:
256,192,155950,1,8,0:0:0:0:
256,160,156116,1,8,0:0:0:0:
256,192,156282,1,8,0:0:0:0:
288,192,156365,1,0,0:0:0:0:
288,192,156530,1,12,0:0:0:0:
288,192,156779,1,12,0:0:0:0:
224,192,157028,1,12,0:0:0:0:
224,192,157276,1,12,0:0:0:0:
