osu file format v14

[General]
AudioFilename: audio.mp3
AudioLeadIn: 0
PreviewTime: 306209
Countdown: 0
SampleSet: Normal
StackLeniency: 0.7
Mode: 3
LetterboxInBreaks: 0
SpecialStyle: 0
WidescreenStoryboard: 0

[Editor]
DistanceSpacing: 1.8
BeatDivisor: 8
GridSize: 32
TimelineZoom: 2.4

[Metadata]
Title:#1f1e33 (Another long "#ant1p01e" version)
TitleUnicode:#1f1e33 (Another long "#ant1p01e" version)
Artist:Camellia
ArtistUnicode:かめりあ
Creator:-mint-
Version:0pp0s1t10n
Source:Arcaea
Tags:opposition edp sound collection memories of wrath irocd-005 lowiro ost original soundtrack black fate 5 main story wacca reverse kamelcamellia cametek masaya oya かめるかめりあ かめてく 大箭将也 大箭マサヤ dubstep dark violet steel grey gray jaguar antipole marathon hybrid qqqant video game electronic instrumental
BeatmapID:3372264
BeatmapSetID:1646845

[Difficulty]
HPDrainRate:8.6
CircleSize:4
OverallDifficulty:8.3
ApproachRate:5
SliderMultiplier:1.4
SliderTickRate:1

[Events]
//Background and Video events
0,0,"Conflict.jpg",0,0
//Break Periods
//Storyboard Layer 0 (Background)
//Storyboard Layer 1 (Fail)
//Storyboard Layer 2 (Pass)
//Storyboard Layer 3 (Foreground)
//Storyboard Layer 4 (Overlay)
//Storyboard Sound Samples

[TimingPoints]
1900,331.491712707182,4,1,1,30,1,0
9855,-100,4,1,1,40,0,0
10518,-100,4,1,1,50,0,0
11181,-100,4,1,1,60,0,0
12839,-100,4,1,1,30,0,0
22452,-100,4,1,1,40,0,0
22783,-100,4,1,1,50,0,0
23115,-100,4,1,1,60,0,0
35214,-100,4,1,1,40,0,0
39524,-100,4,1,1,50,0,0
40353,-100,4,1,1,60,0,0
45656,-100,4,1,1,60,0,1
54938,-100,4,1,1,60,0,0
56596,-100,4,1,1,60,0,1
65877,-100,4,1,1,60,0,0
77645,-100,4,1,1,40,0,0
81955,-100,4,1,1,50,0,0
82783,-100,4,1,1,60,0,0
88170,-100,4,1,1,40,0,0
90408,-100,4,1,1,50,0,0
90739,-100,4,1,1,60,0,0
93391,-100,4,1,1,60,0,1
102673,-100,4,1,1,60,0,0
103999,-100,4,1,1,60,0,1
114607,-100,4,1,1,60,0,0
125214,-100,4,1,1,60,0,1
135159,-100,4,1,1,60,0,0
135822,-100,4,1,1,60,0,1
146430,-100,4,1,1,60,0,0
146596,-100,4,1,1,30,0,0
155380,-100,4,1,1,40,0,0
155877,-100,4,1,1,50,0,0
156375,-100,4,1,1,60,0,0
157203,-100,4,1,1,40,0,0
159192,-100,4,1,1,60,0,0
159855,-100,4,1,1,40,0,0
162341,-100,4,1,1,60,0,0
167645,-100,4,1,1,60,0,1
180905,-100,4,1,1,60,0,0
181237,-100,4,1,1,40,0,0
186209,-100,4,1,1,60,0,0
186540,-100,4,1,1,50,0,0
186872,-100,4,1,1,40,0,0
188861,-100,4,1,1,60,0,0
191513,-100,4,1,1,60,0,1
200795,-100,4,1,1,60,0,0
202120,-100,4,1,1,60,0,1
209413,-100,4,1,1,60,0,0
210076,-100,4,1,1,60,0,1
212728,-100,4,1,1,60,0,0
215380,-100,4,1,1,60,0,1
218032,-100,4,1,1,60,0,0
219441,-100,4,1,1,60,0,1
220353,-100,4,1,1,60,0,0
221679,-100,4,1,1,30,0,0
231292,-100,4,1,1,40,0,0
241237,-100,4,1,1,60,0,0
243225,-100,4,1,1,30,0,0
244220,-100,4,1,1,40,0,0
244551,-100,4,1,1,60,0,0
245877,-100,4,1,1,30,0,0
246375,-100,4,1,1,40,0,0
246872,-100,4,1,1,50,0,0
247203,-100,4,1,1,60,0,0
252839,-100,4,1,1,30,0,0
256485,-100,4,1,1,40,0,0
257148,-100,4,1,1,50,0,0
257811,-100,4,1,1,60,0,0
263115,-100,4,1,1,60,0,1
272397,-100,4,1,1,60,0,0
284330,-100,4,1,1,60,0,1
305546,-100,4,1,1,60,0,0
306209,-100,4,1,1,60,0,1
316154,-100,4,1,1,60,0,0
316817,-100,4,1,1,60,0,1
326430,-100,4,1,1,60,0,0
326761,-100,4,1,1,60,0,1
336706,-100,4,1,1,60,0,0
345325,-100,4,1,1,60,0,1
352949,-100,4,1,1,60,0,0
353281,-100,4,1,1,60,0,1
355933,-100,4,1,1,60,0,0
358585,-100,4,1,1,60,0,1
361237,-100,4,1,1,60,0,0
363888,-100,4,1,1,60,0,1
366540,-100,4,1,1,60,0,0
369192,-100,4,1,1,60,0,1
371844,-100,4,1,1,60,0,0
373253,-100,4,1,1,60,0,1
374496,-100,4,1,1,60,0,0

[HitObjects]
64,192,1900,5,0,0:0:0:0:
192,192,1900,1,0,0:0:0:0:
448,192,2231,1,0,0:0:0:0:
64,192,2397,1,0,0:0:0:0:
448,192,2728,1,0,0:0:0:0:
320,192,2977,1,0,0:0:0:0:
320,192,3143,1,0,0:0:0:0:
64,192,3225,1,0,0:0:0:0:
448,192,3557,1,0,0:0:0:0:
64,192,3723,1,0,0:0:0:0:
448,192,4054,1,0,0:0:0:0:
192,192,4220,1,0,0:0:0:0:
320,192,4275,1,0,0:0:0:0:
192,192,4330,1,0,0:0:0:0:
448,192,4386,1,0,0:0:0:0:
64,192,4427,1,0,0:0:0:0:
320,192,4469,1,0,0:0:0:0:
448,192,4510,1,0,0:0:0:0:
64,192,4551,1,0,0:0:0:0:
448,192,4883,1,0,0:0:0:0:
64,192,5049,1,0,0:0:0:0:
448,192,5380,1,0,0:0:0:0:
320,192,5629,1,0,0:0:0:0:
320,192,5795,1,0,0:0:0:0:
64,192,5877,1,0,0:0:0:0:
64,192,6043,1,0,0:0:0:0:
448,192,6209,1,0,0:0:0:0:
192,192,6458,1,0,0:0:0:0:
192,192,6623,1,0,0:0:0:0:
448,192,6706,1,0,0:0:0:0:
192,192,6789,1,0,0:0:0:0:
320,192,6872,1,0,0:0:0:0:
192,192,6927,1,0,0:0:0:0:
320,192,6982,1,0,0:0:0:0:
64,192,7038,1,0,0:0:0:0:
448,192,7079,1,0,0:0:0:0:
192,192,7120,1,0,0:0:0:0:
64,192,7162,1,0,0:0:0:0:
320,192,7203,1,0,0:0:0:0:
448,192,7203,1,0,0:0:0:0:
192,192,7369,1,0,0:0:0:0:
64,192,7535,1,0,0:0:0:0:
448,192,7701,1,0,0:0:0:0:
192,192,7866,1,0,0:0:0:0:
64,192,8032,1,0,0:0:0:0:
448,192,8198,1,0,0:0:0:0:
320,192,8281,1,0,0:0:0:0:
192,192,8364,1,0,0:0:0:0:
320,192,8446,1,0,0:0:0:0:
64,192,8529,1,0,0:0:0:0:
64,192,8695,1,0,0:0:0:0:
448,192,8861,1,0,0:0:0:0:
64,192,9027,1,0,0:0:0:0:
320,192,9109,1,0,0:0:0:0:
192,192,9192,1,0,0:0:0:0:
320,192,9275,1,0,0:0:0:0:
448,192,9358,1,0,0:0:0:0:
320,192,9441,1,0,0:0:0:0:
192,192,9524,1,0,0:0:0:0:
320,192,9579,1,0,0:0:0:0:
192,192,9634,1,0,0:0:0:0:
448,192,9690,1,0,0:0:0:0:
64,192,9731,1,0,0:0:0:0:
320,192,9772,1,0,0:0:0:0:
448,192,9814,1,0,0:0:0:0:
192,192,9855,1,0,0:0:0:0:
448,192,9938,1,0,0:0:0:0:
192,192,10021,1,0,0:0:0:0:
320,192,10104,1,0,0:0:0:0:
64,192,10187,1,0,0:0:0:0:
320,192,10270,1,0,0:0:0:0:
192,192,10353,128,0,10435:0:0:0:0:
448,192,10435,128,0,10518:0:0:0:0:
192,192,10518,128,0,10601:0:0:0:0:
320,192,10601,128,0,10684:0:0:0:0:
64,192,10684,128,0,10767:0:0:0:0:
320,192,10767,128,0,10850:0:0:0:0:
192,192,10850,128,0,10933:0:0:0:0:
448,192,10933,128,0,11098:0:0:0:0:
192,192,11016,128,0,11264:0:0:0:0:
320,192,11098,128,0,11181:0:0:0:0:
64,192,11181,128,0,11347:0:0:0:0:
320,192,11264,128,0,11485:0:0:0:0:
192,192,11347,128,0,11430:0:0:0:0:
448,192,11430,128,0,11540:0:0:0:0:
192,192,11513,1,0,0:0:0:0:
320,192,11568,1,0,0:0:0:0:
448,192,11623,1,0,0:0:0:0:
64,192,11679,1,0,0:0:0:0:
192,192,11734,1,0,0:0:0:0:
320,192,11789,1,0,0:0:0:0:
64,192,11844,1,0,0:0:0:0:
192,192,12010,1,0,0:0:0:0:
320,192,12010,1,0,0:0:0:0:
320,192,12093,1,0,0:0:0:0:
64,192,12176,1,0,0:0:0:0:
192,192,12176,1,0,0:0:0:0:
448,192,12259,1,0,0:0:0:0:
192,192,12259,128,0,12507:0:0:0:0:
320,192,12507,1,0,0:0:0:0:
448,192,12507,1,0,0:0:0:0:
64,192,12507,128,0,13502:0:0:0:0:
448,192,12839,1,0,0:0:0:0:
192,192,13004,1,0,0:0:0:0:
448,192,13336,1,0,0:0:0:0:
192,192,13502,128,0,13667:0:0:0:0:
320,192,13833,128,0,14413:0:0:0:0:
64,192,14165,1,0,0:0:0:0:
192,192,14330,1,0,0:0:0:0:
448,192,14496,128,0,15159:0:0:0:0:
64,192,14662,1,0,0:0:0:0:
320,192,14828,1,0,0:0:0:0:
192,192,14993,1,0,0:0:0:0:
320,192,15159,128,0,16154:0:0:0:0:
64,192,15159,1,0,0:0:0:0:
448,192,15325,1,0,0:0:0:0:
64,192,15491,1,0,0:0:0:0:
192,192,15656,1,0,0:0:0:0:
448,192,15822,1,0,0:0:0:0:
64,192,15988,1,0,0:0:0:0:
192,192,16154,128,0,16402:0:0:0:0:
64,192,16237,1,0,0:0:0:0:
320,192,16319,1,0,0:0:0:0:
64,192,16402,1,0,0:0:0:0:
448,192,16485,128,0,17148:0:0:0:0:
320,192,16651,1,0,0:0:0:0:
64,192,16817,1,0,0:0:0:0:
320,192,16982,1,0,0:0:0:0:
64,192,17065,1,0,0:0:0:0:
192,192,17148,128,0,17480:0:0:0:0:
64,192,17231,1,0,0:0:0:0:
448,192,17314,1,0,0:0:0:0:
320,192,17397,1,0,0:0:0:0:
448,192,17480,128,0,17728:0:0:0:0:
64,192,17562,1,0,0:0:0:0:
320,192,17645,1,0,0:0:0:0:
64,192,17811,128,0,18806:0:0:0:0:
192,192,17811,1,0,0:0:0:0:
320,192,17977,1,0,0:0:0:0:
448,192,18143,1,0,0:0:0:0:
192,192,18308,1,0,0:0:0:0:
320,192,18474,1,0,0:0:0:0:
448,192,18640,1,0,0:0:0:0:
192,192,18806,128,0,18971:0:0:0:0:
448,192,18888,1,0,0:0:0:0:
64,192,18971,1,0,0:0:0:0:
448,192,19054,1,0,0:0:0:0:
320,192,19137,128,0,19800:0:0:0:0:
192,192,19303,1,0,0:0:0:0:
448,192,19469,1,0,0:0:0:0:
64,192,19634,1,0,0:0:0:0:
448,192,19800,128,0,20463:0:0:0:0:
192,192,19966,1,0,0:0:0:0:
64,192,20132,1,0,0:0:0:0:
320,192,20214,1,0,0:0:0:0:
64,192,20297,1,0,0:0:0:0:
320,192,20463,128,0,21458:0:0:0:0:
192,192,20463,1,0,0:0:0:0:
448,192,20629,1,0,0:0:0:0:
192,192,20795,1,0,0:0:0:0:
64,192,20960,1,0,0:0:0:0:
448,192,21126,1,0,0:0:0:0:
192,192,21292,1,0,0:0:0:0:
448,192,21458,128,0,21789:0:0:0:0:
64,192,21540,1,0,0:0:0:0:
192,192,21623,1,0,0:0:0:0:
64,192,21706,1,0,0:0:0:0:
320,192,21789,128,0,22452:0:0:0:0:
192,192,21955,1,0,0:0:0:0:
64,192,22120,1,0,0:0:0:0:
448,192,22286,1,0,0:0:0:0:
64,192,22452,128,0,23032:0:0:0:0:
192,192,22535,1,0,0:0:0:0:
448,192,22618,1,0,0:0:0:0:
192,192,22701,1,0,0:0:0:0:
320,192,22783,1,0,0:0:0:0:
192,192,22866,128,0,23115:0:0:0:0:
448,192,22949,1,0,0:0:0:0:
64,192,23115,5,0,0:0:0:0:
448,192,23115,128,0,23364:0:0:0:0:
320,192,23115,1,0,0:0:0:0:
192,192,23198,128,0,23446:0:0:0:0:
320,192,23281,128,0,23529:0:0:0:0:
64,192,23364,128,0,23612:0:0:0:0:
448,192,23446,128,0,23695:0:0:0:0:
192,192,23529,128,0,23778:0:0:0:0:
320,192,23612,128,0,23861:0:0:0:0:
64,192,23695,128,0,23944:0:0:0:0:
448,192,23778,128,0,24027:0:0:0:0:
192,192,23861,128,0,24109:0:0:0:0:
320,192,23944,128,0,24192:0:0:0:0:
64,192,24027,128,0,24275:0:0:0:0:
448,192,24109,128,0,24358:0:0:0:0:
192,192,24192,128,0,24358:0:0:0:0:
320,192,24275,128,0,24441:0:0:0:0:
64,192,24358,128,0,24441:0:0:0:0:
448,192,24441,1,0,0:0:0:0:
192,192,24441,1,0,0:0:0:0:
64,192,24607,1,0,0:0:0:0:
192,192,24607,1,0,0:0:0:0:
448,192,24690,1,0,0:0:0:0:
320,192,24772,1,0,0:0:0:0:
64,192,24772,1,0,0:0:0:0:
192,192,24855,1,0,0:0:0:0:
448,192,24938,1,0,0:0:0:0:
320,192,24938,1,0,0:0:0:0:
448,192,25021,1,0,0:0:0:0:
64,192,25021,1,0,0:0:0:0:
320,192,25104,1,0,0:0:0:0:
192,192,25104,1,0,0:0:0:0:
64,192,25270,1,0,0:0:0:0:
448,192,25270,1,0,0:0:0:0:
320,192,25353,1,0,0:0:0:0:
192,192,25435,1,0,0:0:0:0:
448,192,25518,1,0,0:0:0:0:
320,192,25601,1,0,0:0:0:0:
320,192,25684,1,0,0:0:0:0:
192,192,25767,1,0,0:0:0:0:
64,192,25767,1,0,0:0:0:0:
448,192,25767,128,0,26016:0:0:0:0:
320,192,25850,128,0,26098:0:0:0:0:
192,192,25933,128,0,26181:0:0:0:0:
64,192,26016,128,0,26264:0:0:0:0:
448,192,26098,128,0,26347:0:0:0:0:
320,192,26181,128,0,26430:0:0:0:0:
192,192,26264,128,0,26513:0:0:0:0:
64,192,26347,128,0,26596:0:0:0:0:
448,192,26430,128,0,26679:0:0:0:0:
320,192,26513,128,0,26761:0:0:0:0:
192,192,26596,128,0,26844:0:0:0:0:
64,192,26679,128,0,26927:0:0:0:0:
448,192,26761,128,0,27010:0:0:0:0:
320,192,26844,128,0,27010:0:0:0:0:
192,192,26927,128,0,27093:0:0:0:0:
64,192,27010,128,0,27093:0:0:0:0:
320,192,27093,1,0,0:0:0:0:
448,192,27093,1,0,0:0:0:0:
320,192,27259,1,0,0:0:0:0:
448,192,27259,1,0,0:0:0:0:
64,192,27341,1,0,0:0:0:0:
448,192,27424,1,0,0:0:0:0:
192,192,27424,1,0,0:0:0:0:
320,192,27507,1,0,0:0:0:0:
192,192,27590,1,0,0:0:0:0:
64,192,27590,1,0,0:0:0:0:
64,192,27673,1,0,0:0:0:0:
448,192,27673,1,0,0:0:0:0:
192,192,27756,1,0,0:0:0:0:
320,192,27756,1,0,0:0:0:0:
64,192,27839,1,0,0:0:0:0:
448,192,27839,1,0,0:0:0:0:
192,192,28004,1,0,0:0:0:0:
64,192,28087,1,0,0:0:0:0:
320,192,28087,1,0,0:0:0:0:
192,192,28253,1,0,0:0:0:0:
192,192,28336,1,0,0:0:0:0:
64,192,28419,1,0,0:0:0:0:
320,192,28419,1,0,0:0:0:0:
448,192,28419,128,0,28667:0:0:0:0:
192,192,28502,128,0,28750:0:0:0:0:
64,192,28585,128,0,28833:0:0:0:0:
320,192,28667,128,0,28916:0:0:0:0:
448,192,28750,128,0,28999:0:0:0:0:
192,192,28833,128,0,29082:0:0:0:0:
64,192,28916,128,0,29165:0:0:0:0:
320,192,28999,128,0,29248:0:0:0:0:
448,192,29082,128,0,29330:0:0:0:0:
192,192,29165,128,0,29413:0:0:0:0:
64,192,29248,128,0,29496:0:0:0:0:
320,192,29330,128,0,29579:0:0:0:0:
448,192,29413,128,0,29662:0:0:0:0:
192,192,29496,128,0,29662:0:0:0:0:
64,192,29579,128,0,29745:0:0:0:0:
320,192,29662,128,0,29745:0:0:0:0:
192,192,29745,1,0,0:0:0:0:
448,192,29745,1,0,0:0:0:0:
320,192,29911,1,0,0:0:0:0:
448,192,29911,1,0,0:0:0:0:
64,192,29993,1,0,0:0:0:0:
192,192,30076,1,0,0:0:0:0:
448,192,30076,1,0,0:0:0:0:
320,192,30159,1,0,0:0:0:0:
192,192,30242,1,0,0:0:0:0:
64,192,30242,1,0,0:0:0:0:
448,192,30325,1,0,0:0:0:0:
64,192,30325,1,0,0:0:0:0:
320,192,30408,1,0,0:0:0:0:
192,192,30408,1,0,0:0:0:0:
64,192,30574,1,0,0:0:0:0:
448,192,30574,1,0,0:0:0:0:
320,192,30656,1,0,0:0:0:0:
192,192,30739,1,0,0:0:0:0:
448,192,30822,1,0,0:0:0:0:
320,192,30905,1,0,0:0:0:0:
320,192,30988,1,0,0:0:0:0:
448,192,31071,1,0,0:0:0:0:
192,192,31071,1,0,0:0:0:0:
64,192,31071,128,0,31319:0:0:0:0:
320,192,31154,128,0,31402:0:0:0:0:
192,192,31237,128,0,31485:0:0:0:0:
448,192,31319,128,0,31568:0:0:0:0:
64,192,31402,128,0,31651:0:0:0:0:
320,192,31485,128,0,31734:0:0:0:0:
192,192,31568,128,0,31817:0:0:0:0:
448,192,31651,128,0,31899:0:0:0:0:
64,192,31734,128,0,31982:0:0:0:0:
320,192,31817,128,0,32065:0:0:0:0:
192,192,31899,128,0,32148:0:0:0:0:
448,192,31982,128,0,32231:0:0:0:0:
64,192,32065,128,0,32314:0:0:0:0:
320,192,32148,128,0,32397:0:0:0:0:
192,192,32231,128,0,32314:0:0:0:0:
448,192,32314,128,0,32397:0:0:0:0:
192,192,32397,1,0,0:0:0:0:
64,192,32397,1,0,0:0:0:0:
192,192,32562,1,0,0:0:0:0:
64,192,32562,1,0,0:0:0:0:
448,192,32645,1,0,0:0:0:0:
320,192,32728,1,0,0:0:0:0:
64,192,32728,1,0,0:0:0:0:
320,192,32894,1,0,0:0:0:0:
448,192,32894,1,0,0:0:0:0:
64,192,32977,1,0,0:0:0:0:
448,192,32977,1,0,0:0:0:0:
192,192,33060,1,0,0:0:0:0:
320,192,33060,1,0,0:0:0:0:
64,192,33143,1,0,0:0:0:0:
448,192,33143,1,0,0:0:0:0:
320,192,33308,5,0,0:0:0:0:
192,192,33391,5,0,0:0:0:0:
448,192,33391,1,0,0:0:0:0:
64,192,33557,5,0,0:0:0:0:
192,192,33557,1,0,0:0:0:0:
192,192,33640,1,0,0:0:0:0:
64,192,33640,1,0,0:0:0:0:
320,192,33723,5,0,0:0:0:0:
448,192,33723,1,0,0:0:0:0:
192,192,33806,128,0,33971:0:0:0:0:
448,192,33806,128,0,33971:0:0:0:0:
64,192,33806,128,0,34220:0:0:0:0:
320,192,34054,128,0,34220:0:0:0:0:
192,192,34054,128,0,34469:0:0:0:0:
448,192,34054,128,0,34220:0:0:0:0:
320,192,34303,128,0,34469:0:0:0:0:
64,192,34303,128,0,34469:0:0:0:0:
448,192,34303,128,0,34634:0:0:0:0:
192,192,34551,128,0,34634:0:0:0:0:
64,192,34551,128,0,34634:0:0:0:0:
320,192,34551,128,0,34634:0:0:0:0:
64,192,34717,1,0,0:0:0:0:
192,192,34717,1,0,0:0:0:0:
448,192,34800,1,0,0:0:0:0:
64,192,34883,1,0,0:0:0:0:
320,192,34924,1,0,0:0:0:0:
192,192,34966,1,0,0:0:0:0:
320,192,35049,1,0,0:0:0:0:
64,192,35049,1,0,0:0:0:0:
448,192,35049,128,0,35132:0:0:0:0:
192,192,35214,1,0,0:0:0:0:
320,192,35297,1,0,0:0:0:0:
192,192,35380,1,0,0:0:0:0:
448,192,35546,1,0,0:0:0:0:
192,192,35712,1,0,0:0:0:0:
320,192,35795,1,0,0:0:0:0:
192,192,35877,1,0,0:0:0:0:
448,192,36043,1,0,0:0:0:0:
64,192,36085,1,0,0:0:0:0:
192,192,36126,1,0,0:0:0:0:
320,192,36167,1,0,0:0:0:0:
64,192,36209,1,0,0:0:0:0:
448,192,36292,1,0,0:0:0:0:
64,192,36375,128,0,36458:0:0:0:0:
320,192,36540,1,0,0:0:0:0:
192,192,36623,1,0,0:0:0:0:
320,192,36706,1,0,0:0:0:0:
64,192,36872,1,0,0:0:0:0:
320,192,37038,1,0,0:0:0:0:
64,192,37079,1,0,0:0:0:0:
192,192,37120,1,0,0:0:0:0:
448,192,37162,1,0,0:0:0:0:
320,192,37203,1,0,0:0:0:0:
64,192,37369,1,0,0:0:0:0:
448,192,37411,1,0,0:0:0:0:
320,192,37452,1,0,0:0:0:0:
192,192,37493,1,0,0:0:0:0:
448,192,37535,1,0,0:0:0:0:
64,192,37618,1,0,0:0:0:0:
448,192,37701,128,0,37783:0:0:0:0:
192,192,37866,1,0,0:0:0:0:
320,192,37949,1,0,0:0:0:0:
192,192,38032,1,0,0:0:0:0:
448,192,38198,1,0,0:0:0:0:
192,192,38364,1,0,0:0:0:0:
320,192,38446,1,0,0:0:0:0:
192,192,38529,1,0,0:0:0:0:
448,192,38695,1,0,0:0:0:0:
64,192,38737,1,0,0:0:0:0:
192,192,38778,1,0,0:0:0:0:
320,192,38819,1,0,0:0:0:0:
64,192,38861,1,0,0:0:0:0:
448,192,38944,1,0,0:0:0:0:
64,192,39027,128,0,39109:0:0:0:0:
320,192,39192,1,0,0:0:0:0:
192,192,39275,1,0,0:0:0:0:
320,192,39358,1,0,0:0:0:0:
192,192,39524,5,0,0:0:0:0:
320,192,39565,1,0,0:0:0:0:
192,192,39607,1,0,0:0:0:0:
64,192,39648,1,0,0:0:0:0:
448,192,39690,1,0,0:0:0:0:
320,192,39731,1,0,0:0:0:0:
192,192,39772,1,0,0:0:0:0:
448,192,39814,1,0,0:0:0:0:
64,192,39855,1,0,0:0:0:0:
320,192,39938,1,0,0:0:0:0:
192,192,40021,1,0,0:0:0:0:
448,192,40062,1,0,0:0:0:0:
320,192,40104,1,0,0:0:0:0:
64,192,40145,1,0,0:0:0:0:
192,192,40187,1,0,0:0:0:0:
320,192,40270,1,0,0:0:0:0:
192,192,40353,128,0,40518:0:0:0:0:
64,192,40353,128,0,40518:0:0:0:0:
448,192,40353,128,0,40435:0:0:0:0:
448,192,40518,1,0,0:0:0:0:
64,192,40601,128,0,40767:0:0:0:0:
192,192,40601,128,0,40767:0:0:0:0:
320,192,40684,1,0,0:0:0:0:
192,192,40850,128,0,40933:0:0:0:0:
64,192,40850,128,0,40933:0:0:0:0:
64,192,41016,1,0,0:0:0:0:
320,192,41016,128,0,41181:0:0:0:0:
448,192,41016,128,0,41181:0:0:0:0:
64,192,41181,1,0,0:0:0:0:
320,192,41264,128,0,41430:0:0:0:0:
448,192,41264,128,0,41430:0:0:0:0:
192,192,41347,1,0,0:0:0:0:
320,192,41513,128,0,41596:0:0:0:0:
448,192,41513,128,0,41596:0:0:0:0:
448,192,41679,5,0,0:0:0:0:
192,192,41679,128,0,41844:0:0:0:0:
64,192,41679,128,0,41844:0:0:0:0:
448,192,41844,1,0,0:0:0:0:
64,192,41927,128,0,42093:0:0:0:0:
192,192,41927,128,0,42093:0:0:0:0:
320,192,42010,1,0,0:0:0:0:
192,192,42176,128,0,42259:0:0:0:0:
64,192,42176,128,0,42259:0:0:0:0:
64,192,42341,1,0,0:0:0:0:
320,192,42341,128,0,42507:0:0:0:0:
448,192,42341,128,0,42507:0:0:0:0:
64,192,42507,1,0,0:0:0:0:
320,192,42590,128,0,42756:0:0:0:0:
448,192,42590,128,0,42756:0:0:0:0:
192,192,42673,1,0,0:0:0:0:
320,192,42839,128,0,42922:0:0:0:0:
448,192,42839,128,0,42922:0:0:0:0:
448,192,43004,1,0,0:0:0:0:
192,192,43004,128,0,43087:0:0:0:0:
64,192,43004,128,0,43087:0:0:0:0:
448,192,43087,1,0,0:0:0:0:
192,192,43170,1,0,0:0:0:0:
320,192,43253,1,0,0:0:0:0:
64,192,43336,1,0,0:0:0:0:
64,192,43419,1,0,0:0:0:0:
320,192,43502,1,0,0:0:0:0:
192,192,43585,1,0,0:0:0:0:
448,192,43667,1,0,0:0:0:0:
448,192,43750,1,0,0:0:0:0:
192,192,43833,1,0,0:0:0:0:
320,192,43916,1,0,0:0:0:0:
64,192,43999,1,0,0:0:0:0:
64,192,44082,1,0,0:0:0:0:
320,192,44165,1,0,0:0:0:0:
192,192,44248,1,0,0:0:0:0:
448,192,44330,5,0,0:0:0:0:
64,192,44372,1,0,0:0:0:0:
320,192,44413,1,0,0:0:0:0:
192,192,44455,1,0,0:0:0:0:
64,192,44496,1,0,0:0:0:0:
448,192,44538,1,0,0:0:0:0:
192,192,44579,1,0,0:0:0:0:
320,192,44620,1,0,0:0:0:0:
64,192,44662,1,0,0:0:0:0:
448,192,44703,1,0,0:0:0:0:
192,192,44745,1,0,0:0:0:0:
64,192,44786,1,0,0:0:0:0:
320,192,44828,1,0,0:0:0:0:
448,192,44861,1,0,0:0:0:0:
192,192,44894,1,0,0:0:0:0:
320,192,44927,1,0,0:0:0:0:
448,192,44960,1,0,0:0:0:0:
320,192,45159,1,0,0:0:0:0:
192,192,45159,1,0,0:0:0:0:
192,192,45242,1,0,0:0:0:0:
320,192,45325,1,0,0:0:0:0:
448,192,45325,1,0,0:0:0:0:
64,192,45408,1,0,0:0:0:0:
320,192,45408,128,0,45656:0:0:0:0:
64,192,45656,5,0,0:0:0:0:
448,192,45656,1,0,0:0:0:0:
192,192,45698,1,0,0:0:0:0:
320,192,45739,1,0,0:0:0:0:
64,192,45781,1,0,0:0:0:0:
192,192,45822,1,0,0:0:0:0:
448,192,45877,1,0,0:0:0:0:
64,192,45988,1,0,0:0:0:0:
448,192,45988,1,0,0:0:0:0:
320,192,46029,1,0,0:0:0:0:
192,192,46071,1,0,0:0:0:0:
448,192,46112,1,0,0:0:0:0:
64,192,46154,1,0,0:0:0:0:
192,192,46237,1,0,0:0:0:0:
320,192,46319,1,0,0:0:0:0:
192,192,46402,1,0,0:0:0:0:
320,192,46485,1,0,0:0:0:0:
448,192,46485,1,0,0:0:0:0:
192,192,46568,1,0,0:0:0:0:
192,192,46651,1,0,0:0:0:0:
448,192,46651,1,0,0:0:0:0:
448,192,46734,1,0,0:0:0:0:
64,192,46775,1,0,0:0:0:0:
320,192,46817,1,0,0:0:0:0:
448,192,46872,1,0,0:0:0:0:
192,192,46982,1,0,0:0:0:0:
64,192,46982,1,0,0:0:0:0:
320,192,47024,1,0,0:0:0:0:
64,192,47065,1,0,0:0:0:0:
448,192,47148,1,0,0:0:0:0:
192,192,47190,1,0,0:0:0:0:
320,192,47231,1,0,0:0:0:0:
448,192,47314,1,0,0:0:0:0:
192,192,47314,1,0,0:0:0:0:
64,192,47361,1,0,0:0:0:0:
320,192,47409,1,0,0:0:0:0:
64,192,47456,1,0,0:0:0:0:
192,192,47503,1,0,0:0:0:0:
320,192,47551,1,0,0:0:0:0:
448,192,47645,1,0,0:0:0:0:
64,192,47728,1,0,0:0:0:0:
448,192,47811,1,0,0:0:0:0:
320,192,47811,1,0,0:0:0:0:
192,192,47894,1,0,0:0:0:0:
192,192,47977,1,0,0:0:0:0:
320,192,47977,1,0,0:0:0:0:
64,192,48060,1,0,0:0:0:0:
448,192,48060,1,0,0:0:0:0:
448,192,48143,1,0,0:0:0:0:
64,192,48225,1,0,0:0:0:0:
192,192,48225,1,0,0:0:0:0:
64,192,48308,1,0,0:0:0:0:
448,192,48308,1,0,0:0:0:0:
320,192,48341,1,0,0:0:0:0:
192,192,48375,1,0,0:0:0:0:
448,192,48408,1,0,0:0:0:0:
320,192,48441,1,0,0:0:0:0:
64,192,48474,1,0,0:0:0:0:
192,192,48529,1,0,0:0:0:0:
448,192,48640,1,0,0:0:0:0:
192,192,48640,1,0,0:0:0:0:
320,192,48681,1,0,0:0:0:0:
64,192,48723,1,0,0:0:0:0:
192,192,48764,1,0,0:0:0:0:
448,192,48806,1,0,0:0:0:0:
320,192,48888,1,0,0:0:0:0:
192,192,48971,1,0,0:0:0:0:
320,192,49054,1,0,0:0:0:0:
192,192,49137,1,0,0:0:0:0:
64,192,49137,1,0,0:0:0:0:
320,192,49220,1,0,0:0:0:0:
320,192,49303,1,0,0:0:0:0:
64,192,49303,1,0,0:0:0:0:
448,192,49350,1,0,0:0:0:0:
64,192,49398,1,0,0:0:0:0:
320,192,49445,1,0,0:0:0:0:
192,192,49492,1,0,0:0:0:0:
448,192,49540,1,0,0:0:0:0:
64,192,49634,1,0,0:0:0:0:
192,192,49634,1,0,0:0:0:0:
64,192,49717,1,0,0:0:0:0:
448,192,49745,1,0,0:0:0:0:
320,192,49772,1,0,0:0:0:0:
192,192,49800,1,0,0:0:0:0:
64,192,49841,1,0,0:0:0:0:
320,192,49883,1,0,0:0:0:0:
192,192,49966,1,0,0:0:0:0:
448,192,49966,1,0,0:0:0:0:
64,192,50013,1,0,0:0:0:0:
192,192,50061,1,0,0:0:0:0:
320,192,50132,1,0,0:0:0:0:
320,192,50214,1,0,0:0:0:0:
64,192,50256,1,0,0:0:0:0:
320,192,50297,1,0,0:0:0:0:
64,192,50463,1,0,0:0:0:0:
192,192,50463,1,0,0:0:0:0:
448,192,50504,1,0,0:0:0:0:
320,192,50546,1,0,0:0:0:0:
448,192,50629,1,0,0:0:0:0:
64,192,50629,1,0,0:0:0:0:
448,192,50712,1,0,0:0:0:0:
192,192,50712,1,0,0:0:0:0:
64,192,50753,1,0,0:0:0:0:
320,192,50795,1,0,0:0:0:0:
192,192,50877,1,0,0:0:0:0:
64,192,50877,1,0,0:0:0:0:
448,192,50960,5,0,0:0:0:0:
64,192,50960,1,0,0:0:0:0:
320,192,51002,1,0,0:0:0:0:
192,192,51043,1,0,0:0:0:0:
448,192,51085,1,0,0:0:0:0:
320,192,51126,1,0,0:0:0:0:
64,192,51181,1,0,0:0:0:0:
64,192,51292,1,0,0:0:0:0:
448,192,51292,1,0,0:0:0:0:
192,192,51333,1,0,0:0:0:0:
320,192,51375,1,0,0:0:0:0:
64,192,51416,1,0,0:0:0:0:
448,192,51458,1,0,0:0:0:0:
320,192,51540,1,0,0:0:0:0:
192,192,51623,1,0,0:0:0:0:
320,192,51706,1,0,0:0:0:0:
64,192,51789,1,0,0:0:0:0:
192,192,51789,1,0,0:0:0:0:
320,192,51872,1,0,0:0:0:0:
64,192,51955,1,0,0:0:0:0:
320,192,51955,1,0,0:0:0:0:
64,192,52038,1,0,0:0:0:0:
448,192,52079,1,0,0:0:0:0:
192,192,52120,1,0,0:0:0:0:
64,192,52176,1,0,0:0:0:0:
448,192,52286,1,0,0:0:0:0:
320,192,52286,1,0,0:0:0:0:
192,192,52328,1,0,0:0:0:0:
448,192,52369,1,0,0:0:0:0:
64,192,52452,1,0,0:0:0:0:
320,192,52493,1,0,0:0:0:0:
192,192,52535,1,0,0:0:0:0:
320,192,52618,1,0,0:0:0:0:
64,192,52618,1,0,0:0:0:0:
448,192,52665,1,0,0:0:0:0:
192,192,52712,1,0,0:0:0:0:
448,192,52760,1,0,0:0:0:0:
320,192,52807,1,0,0:0:0:0:
192,192,52855,1,0,0:0:0:0:
64,192,52949,1,0,0:0:0:0:
448,192,53032,1,0,0:0:0:0:
64,192,53115,1,0,0:0:0:0:
192,192,53115,1,0,0:0:0:0:
320,192,53198,1,0,0:0:0:0:
192,192,53281,1,0,0:0:0:0:
320,192,53281,1,0,0:0:0:0:
64,192,53364,1,0,0:0:0:0:
448,192,53364,1,0,0:0:0:0:
64,192,53446,1,0,0:0:0:0:
320,192,53529,1,0,0:0:0:0:
448,192,53529,1,0,0:0:0:0:
64,192,53612,1,0,0:0:0:0:
448,192,53612,1,0,0:0:0:0:
192,192,53645,1,0,0:0:0:0:
320,192,53679,1,0,0:0:0:0:
64,192,53712,1,0,0:0:0:0:
192,192,53745,1,0,0:0:0:0:
448,192,53778,1,0,0:0:0:0:
320,192,53833,1,0,0:0:0:0:
320,192,53944,1,0,0:0:0:0:
64,192,53944,1,0,0:0:0:0:
192,192,53985,1,0,0:0:0:0:
448,192,54027,1,0,0:0:0:0:
320,192,54068,1,0,0:0:0:0:
64,192,54109,1,0,0:0:0:0:
192,192,54192,1,0,0:0:0:0:
320,192,54275,1,0,0:0:0:0:
192,192,54358,1,0,0:0:0:0:
448,192,54441,1,0,0:0:0:0:
320,192,54441,1,0,0:0:0:0:
192,192,54524,1,0,0:0:0:0:
448,192,54607,1,0,0:0:0:0:
192,192,54607,1,0,0:0:0:0:
64,192,54654,1,0,0:0:0:0:
448,192,54701,1,0,0:0:0:0:
192,192,54749,1,0,0:0:0:0:
320,192,54796,1,0,0:0:0:0:
64,192,54843,1,0,0:0:0:0:
448,192,54938,1,0,0:0:0:0:
320,192,54938,1,0,0:0:0:0:
448,192,55021,1,0,0:0:0:0:
448,192,55104,1,0,0:0:0:0:
64,192,55187,1,0,0:0:0:0:
192,192,55270,1,0,0:0:0:0:
448,192,55325,1,0,0:0:0:0:
320,192,55380,1,0,0:0:0:0:
64,192,55435,1,0,0:0:0:0:
448,192,55498,1,0,0:0:0:0:
192,192,55560,1,0,0:0:0:0:
320,192,55601,1,0,0:0:0:0:
448,192,55643,1,0,0:0:0:0:
64,192,55684,1,0,0:0:0:0:
192,192,55767,1,0,0:0:0:0:
320,192,55850,1,0,0:0:0:0:
448,192,55933,1,0,0:0:0:0:
64,192,56016,1,0,0:0:0:0:
64,192,56098,1,0,0:0:0:0:
64,192,56181,1,0,0:0:0:0:
192,192,56264,1,0,0:0:0:0:
320,192,56264,1,0,0:0:0:0:
448,192,56319,1,0,0:0:0:0:
448,192,56430,1,0,0:0:0:0:
64,192,56513,1,0,0:0:0:0:
64,192,56596,1,0,0:0:0:0:
448,192,56596,1,0,0:0:0:0:
320,192,56596,1,0,0:0:0:0:
192,192,56637,1,0,0:0:0:0:
320,192,56679,1,0,0:0:0:0:
64,192,56720,1,0,0:0:0:0:
448,192,56761,1,0,0:0:0:0:
320,192,56844,1,0,0:0:0:0:
192,192,56927,1,0,0:0:0:0:
320,192,57010,1,0,0:0:0:0:
64,192,57093,1,0,0:0:0:0:
192,192,57093,1,0,0:0:0:0:
320,192,57176,1,0,0:0:0:0:
64,192,57259,1,0,0:0:0:0:
320,192,57259,1,0,0:0:0:0:
64,192,57341,1,0,0:0:0:0:
448,192,57383,1,0,0:0:0:0:
192,192,57424,1,0,0:0:0:0:
64,192,57480,1,0,0:0:0:0:
448,192,57590,1,0,0:0:0:0:
320,192,57590,1,0,0:0:0:0:
192,192,57632,1,0,0:0:0:0:
448,192,57673,1,0,0:0:0:0:
64,192,57756,1,0,0:0:0:0:
320,192,57797,1,0,0:0:0:0:
192,192,57839,1,0,0:0:0:0:
320,192,57922,1,0,0:0:0:0:
64,192,57922,1,0,0:0:0:0:
448,192,57969,1,0,0:0:0:0:
192,192,58016,1,0,0:0:0:0:
448,192,58064,1,0,0:0:0:0:
320,192,58111,1,0,0:0:0:0:
192,192,58158,1,0,0:0:0:0:
64,192,58253,1,0,0:0:0:0:
448,192,58336,1,0,0:0:0:0:
64,192,58419,1,0,0:0:0:0:
192,192,58419,1,0,0:0:0:0:
320,192,58502,1,0,0:0:0:0:
192,192,58585,1,0,0:0:0:0:
320,192,58585,1,0,0:0:0:0:
64,192,58667,1,0,0:0:0:0:
448,192,58667,1,0,0:0:0:0:
64,192,58750,1,0,0:0:0:0:
320,192,58833,1,0,0:0:0:0:
448,192,58833,1,0,0:0:0:0:
64,192,58916,1,0,0:0:0:0:
448,192,58916,1,0,0:0:0:0:
192,192,58949,1,0,0:0:0:0:
320,192,58982,1,0,0:0:0:0:
64,192,59016,1,0,0:0:0:0:
192,192,59049,1,0,0:0:0:0:
448,192,59082,1,0,0:0:0:0:
320,192,59137,1,0,0:0:0:0:
320,192,59248,1,0,0:0:0:0:
64,192,59248,1,0,0:0:0:0:
192,192,59289,1,0,0:0:0:0:
448,192,59330,1,0,0:0:0:0:
320,192,59372,1,0,0:0:0:0:
64,192,59413,1,0,0:0:0:0:
192,192,59496,1,0,0:0:0:0:
320,192,59579,1,0,0:0:0:0:
192,192,59662,1,0,0:0:0:0:
448,192,59745,1,0,0:0:0:0:
320,192,59745,1,0,0:0:0:0:
192,192,59828,1,0,0:0:0:0:
448,192,59911,1,0,0:0:0:0:
192,192,59911,1,0,0:0:0:0:
64,192,59958,1,0,0:0:0:0:
448,192,60005,1,0,0:0:0:0:
192,192,60053,1,0,0:0:0:0:
320,192,60100,1,0,0:0:0:0:
64,192,60147,1,0,0:0:0:0:
320,192,60242,1,0,0:0:0:0:
448,192,60242,1,0,0:0:0:0:
448,192,60325,1,0,0:0:0:0:
64,192,60353,1,0,0:0:0:0:
192,192,60380,1,0,0:0:0:0:
320,192,60408,1,0,0:0:0:0:
448,192,60449,1,0,0:0:0:0:
192,192,60491,1,0,0:0:0:0:
64,192,60574,1,0,0:0:0:0:
320,192,60574,1,0,0:0:0:0:
448,192,60621,1,0,0:0:0:0:
320,192,60668,1,0,0:0:0:0:
192,192,60739,1,0,0:0:0:0:
192,192,60822,1,0,0:0:0:0:
320,192,60822,1,0,0:0:0:0:
448,192,60864,1,0,0:0:0:0:
192,192,60905,1,0,0:0:0:0:
320,192,61071,1,0,0:0:0:0:
448,192,61071,1,0,0:0:0:0:
64,192,61112,1,0,0:0:0:0:
192,192,61154,1,0,0:0:0:0:
448,192,61237,1,0,0:0:0:0:
320,192,61319,1,0,0:0:0:0:
64,192,61319,1,0,0:0:0:0:
448,192,61361,1,0,0:0:0:0:
64,192,61402,1,0,0:0:0:0:
192,192,61402,1,0,0:0:0:0:
448,192,61485,1,0,0:0:0:0:
320,192,61485,1,0,0:0:0:0:
64,192,61568,5,0,0:0:0:0:
448,192,61568,1,0,0:0:0:0:
192,192,61609,1,0,0:0:0:0:
320,192,61651,1,0,0:0:0:0:
64,192,61692,1,0,0:0:0:0:
192,192,61734,1,0,0:0:0:0:
448,192,61789,1,0,0:0:0:0:
64,192,61899,1,0,0:0:0:0:
448,192,61899,1,0,0:0:0:0:
320,192,61941,1,0,0:0:0:0:
192,192,61982,1,0,0:0:0:0:
448,192,62024,1,0,0:0:0:0:
64,192,62065,1,0,0:0:0:0:
192,192,62148,1,0,0:0:0:0:
320,192,62231,1,0,0:0:0:0:
192,192,62314,1,0,0:0:0:0:
320,192,62397,1,0,0:0:0:0:
448,192,62397,1,0,0:0:0:0:
64,192,62452,1,0,0:0:0:0:
192,192,62507,1,0,0:0:0:0:
448,192,62562,1,0,0:0:0:0:
192,192,62618,1,0,0:0:0:0:
320,192,62673,1,0,0:0:0:0:
64,192,62728,1,0,0:0:0:0:
448,192,62770,1,0,0:0:0:0:
192,192,62811,1,0,0:0:0:0:
64,192,62853,1,0,0:0:0:0:
448,192,62894,1,0,0:0:0:0:
320,192,62894,1,0,0:0:0:0:
192,192,62935,1,0,0:0:0:0:
448,192,62977,1,0,0:0:0:0:
64,192,63060,1,0,0:0:0:0:
320,192,63101,1,0,0:0:0:0:
192,192,63143,1,0,0:0:0:0:
64,192,63225,1,0,0:0:0:0:
320,192,63225,1,0,0:0:0:0:
448,192,63273,1,0,0:0:0:0:
192,192,63320,1,0,0:0:0:0:
448,192,63368,1,0,0:0:0:0:
320,192,63415,1,0,0:0:0:0:
192,192,63462,1,0,0:0:0:0:
448,192,63557,1,0,0:0:0:0:
64,192,63640,1,0,0:0:0:0:
320,192,63723,1,0,0:0:0:0:
448,192,63723,128,0,64054:0:0:0:0:
192,192,63806,1,0,0:0:0:0:
320,192,63888,1,0,0:0:0:0:
64,192,64054,1,0,0:0:0:0:
320,192,64109,1,0,0:0:0:0:
192,192,64165,1,0,0:0:0:0:
448,192,64220,1,0,0:0:0:0:
64,192,64220,1,0,0:0:0:0:
320,192,64253,1,0,0:0:0:0:
192,192,64286,1,0,0:0:0:0:
448,192,64319,1,0,0:0:0:0:
320,192,64353,1,0,0:0:0:0:
64,192,64386,1,0,0:0:0:0:
192,192,64469,1,0,0:0:0:0:
448,192,64469,1,0,0:0:0:0:
64,192,64551,1,0,0:0:0:0:
448,192,64551,1,0,0:0:0:0:
192,192,64717,1,0,0:0:0:0:
64,192,64717,1,0,0:0:0:0:
320,192,64800,1,0,0:0:0:0:
192,192,64883,1,0,0:0:0:0:
320,192,64966,1,0,0:0:0:0:
64,192,65049,128,0,65214:0:0:0:0:
320,192,65049,128,0,65214:0:0:0:0:
192,192,65214,1,0,0:0:0:0:
192,192,65297,128,0,65463:0:0:0:0:
448,192,65297,128,0,65463:0:0:0:0:
64,192,65380,1,0,0:0:0:0:
320,192,65463,1,0,0:0:0:0:
192,192,65546,128,0,65629:0:0:0:0:
64,192,65546,128,0,65629:0:0:0:0:
448,192,65546,128,0,65629:0:0:0:0:
192,192,65712,128,0,65877:0:0:0:0:
64,192,65712,128,0,65877:0:0:0:0:
448,192,65712,128,0,65877:0:0:0:0:
192,192,66043,1,0,0:0:0:0:
448,192,66126,1,0,0:0:0:0:
320,192,66209,1,0,0:0:0:0:
64,192,66292,1,0,0:0:0:0:
448,192,66375,1,0,0:0:0:0:
320,192,66375,1,0,0:0:0:0:
192,192,66430,1,0,0:0:0:0:
320,192,66485,1,0,0:0:0:0:
448,192,66540,1,0,0:0:0:0:
192,192,66623,1,0,0:0:0:0:
64,192,66706,1,0,0:0:0:0:
64,192,66789,1,0,0:0:0:0:
192,192,66872,1,0,0:0:0:0:
448,192,66872,1,0,0:0:0:0:
320,192,66872,128,0,66927:0:0:0:0:
64,192,67038,1,0,0:0:0:0:
448,192,67120,1,0,0:0:0:0:
320,192,67203,1,0,0:0:0:0:
64,192,67203,1,0,0:0:0:0:
192,192,67369,128,0,67424:0:0:0:0:
448,192,67452,1,0,0:0:0:0:
192,192,67535,1,0,0:0:0:0:
320,192,67618,1,0,0:0:0:0:
64,192,67701,1,0,0:0:0:0:
192,192,67701,1,0,0:0:0:0:
448,192,67783,1,0,0:0:0:0:
64,192,67866,1,0,0:0:0:0:
320,192,67866,128,0,67922:0:0:0:0:
192,192,68032,1,0,0:0:0:0:
192,192,68115,1,0,0:0:0:0:
320,192,68198,1,0,0:0:0:0:
448,192,68198,128,0,68253:0:0:0:0:
64,192,68364,1,0,0:0:0:0:
320,192,68446,1,0,0:0:0:0:
448,192,68529,1,0,0:0:0:0:
192,192,68529,1,0,0:0:0:0:
64,192,68612,1,0,0:0:0:0:
320,192,68695,1,0,0:0:0:0:
320,192,68778,1,0,0:0:0:0:
192,192,68861,1,0,0:0:0:0:
64,192,68944,1,0,0:0:0:0:
320,192,69027,1,0,0:0:0:0:
448,192,69027,1,0,0:0:0:0:
64,192,69109,1,0,0:0:0:0:
64,192,69192,1,0,0:0:0:0:
448,192,69192,1,0,0:0:0:0:
320,192,69275,1,0,0:0:0:0:
192,192,69275,1,0,0:0:0:0:
320,192,69358,1,0,0:0:0:0:
192,192,69441,1,0,0:0:0:0:
64,192,69441,1,0,0:0:0:0:
320,192,69524,128,0,69579:0:0:0:0:
192,192,69524,1,0,0:0:0:0:
64,192,69690,1,0,0:0:0:0:
448,192,69772,1,0,0:0:0:0:
320,192,69855,1,0,0:0:0:0:
64,192,69855,1,0,0:0:0:0:
192,192,70021,128,0,70076:0:0:0:0:
448,192,70104,1,0,0:0:0:0:
192,192,70187,1,0,0:0:0:0:
320,192,70270,1,0,0:0:0:0:
192,192,70353,1,0,0:0:0:0:
64,192,70353,1,0,0:0:0:0:
320,192,70518,128,0,70574:0:0:0:0:
64,192,70518,1,0,0:0:0:0:
448,192,70684,1,0,0:0:0:0:
448,192,70767,1,0,0:0:0:0:
64,192,70850,128,0,70905:0:0:0:0:
192,192,70850,1,0,0:0:0:0:
192,192,71016,1,0,0:0:0:0:
320,192,71098,1,0,0:0:0:0:
448,192,71181,1,0,0:0:0:0:
64,192,71181,1,0,0:0:0:0:
320,192,71264,1,0,0:0:0:0:
192,192,71347,1,0,0:0:0:0:
192,192,71430,1,0,0:0:0:0:
320,192,71513,1,0,0:0:0:0:
448,192,71596,1,0,0:0:0:0:
64,192,71679,1,0,0:0:0:0:
192,192,71679,1,0,0:0:0:0:
320,192,71734,1,0,0:0:0:0:
192,192,71789,1,0,0:0:0:0:
448,192,71844,1,0,0:0:0:0:
64,192,71844,1,0,0:0:0:0:
320,192,71927,1,0,0:0:0:0:
64,192,71927,1,0,0:0:0:0:
448,192,71969,1,0,0:0:0:0:
192,192,72010,1,0,0:0:0:0:
448,192,72093,1,0,0:0:0:0:
320,192,72093,1,0,0:0:0:0:
192,192,72176,1,0,0:0:0:0:
320,192,72176,128,0,72231:0:0:0:0:
64,192,72341,1,0,0:0:0:0:
448,192,72424,1,0,0:0:0:0:
320,192,72507,1,0,0:0:0:0:
64,192,72507,1,0,0:0:0:0:
192,192,72673,128,0,72728:0:0:0:0:
448,192,72756,1,0,0:0:0:0:
192,192,72839,1,0,0:0:0:0:
320,192,72922,1,0,0:0:0:0:
64,192,73004,1,0,0:0:0:0:
192,192,73004,1,0,0:0:0:0:
448,192,73087,1,0,0:0:0:0:
64,192,73170,1,0,0:0:0:0:
320,192,73170,128,0,73225:0:0:0:0:
192,192,73336,1,0,0:0:0:0:
192,192,73419,1,0,0:0:0:0:
320,192,73502,1,0,0:0:0:0:
448,192,73502,128,0,73557:0:0:0:0:
64,192,73585,1,0,0:0:0:0:
320,192,73667,1,0,0:0:0:0:
192,192,73750,1,0,0:0:0:0:
448,192,73833,1,0,0:0:0:0:
64,192,73833,1,0,0:0:0:0:
320,192,73916,1,0,0:0:0:0:
192,192,73999,1,0,0:0:0:0:
192,192,74082,1,0,0:0:0:0:
448,192,74165,1,0,0:0:0:0:
64,192,74248,1,0,0:0:0:0:
320,192,74330,1,0,0:0:0:0:
448,192,74330,1,0,0:0:0:0:
64,192,74413,1,0,0:0:0:0:
448,192,74496,1,0,0:0:0:0:
64,192,74496,1,0,0:0:0:0:
192,192,74579,1,0,0:0:0:0:
320,192,74579,1,0,0:0:0:0:
320,192,74662,1,0,0:0:0:0:
64,192,74745,1,0,0:0:0:0:
192,192,74745,1,0,0:0:0:0:
320,192,74828,1,0,0:0:0:0:
192,192,74828,128,0,74883:0:0:0:0:
448,192,74993,1,0,0:0:0:0:
64,192,75076,1,0,0:0:0:0:
192,192,75159,1,0,0:0:0:0:
448,192,75159,1,0,0:0:0:0:
64,192,75325,128,0,75380:0:0:0:0:
320,192,75408,1,0,0:0:0:0:
64,192,75491,1,0,0:0:0:0:
192,192,75574,1,0,0:0:0:0:
320,192,75656,1,0,0:0:0:0:
448,192,75656,1,0,0:0:0:0:
64,192,75739,1,0,0:0:0:0:
192,192,75822,128,0,75877:0:0:0:0:
448,192,75822,1,0,0:0:0:0:
64,192,75988,1,0,0:0:0:0:
192,192,75988,1,0,0:0:0:0:
192,192,76071,1,0,0:0:0:0:
64,192,76154,1,0,0:0:0:0:
448,192,76154,1,0,0:0:0:0:
320,192,76319,1,0,0:0:0:0:
448,192,76319,1,0,0:0:0:0:
64,192,76402,1,0,0:0:0:0:
448,192,76402,1,0,0:0:0:0:
320,192,76485,1,0,0:0:0:0:
192,192,76568,1,0,0:0:0:0:
64,192,76568,1,0,0:0:0:0:
64,192,76651,1,0,0:0:0:0:
448,192,76651,1,0,0:0:0:0:
320,192,76734,1,0,0:0:0:0:
448,192,76817,1,0,0:0:0:0:
64,192,76817,1,0,0:0:0:0:
192,192,76982,1,0,0:0:0:0:
320,192,77065,1,0,0:0:0:0:
64,192,77148,1,0,0:0:0:0:
64,192,77231,1,0,0:0:0:0:
64,192,77314,1,0,0:0:0:0:
64,192,77397,1,0,0:0:0:0:
320,192,77480,1,0,0:0:0:0:
448,192,77480,128,0,77562:0:0:0:0:
192,192,77480,1,0,0:0:0:0:
192,192,77645,1,0,0:0:0:0:
64,192,77811,1,0,0:0:0:0:
448,192,77977,1,0,0:0:0:0:
320,192,78143,1,0,0:0:0:0:
64,192,78308,1,0,0:0:0:0:
192,192,78391,1,0,0:0:0:0:
448,192,78474,1,0,0:0:0:0:
192,192,78557,1,0,0:0:0:0:
320,192,78640,1,0,0:0:0:0:
448,192,78723,1,0,0:0:0:0:
64,192,78806,128,0,78888:0:0:0:0:
320,192,78971,1,0,0:0:0:0:
448,192,79137,1,0,0:0:0:0:
64,192,79303,1,0,0:0:0:0:
192,192,79469,1,0,0:0:0:0:
448,192,79634,1,0,0:0:0:0:
320,192,79717,1,0,0:0:0:0:
64,192,79800,1,0,0:0:0:0:
320,192,79883,1,0,0:0:0:0:
192,192,79966,1,0,0:0:0:0:
448,192,80132,128,0,80214:0:0:0:0:
192,192,80297,1,0,0:0:0:0:
320,192,80380,1,0,0:0:0:0:
64,192,80463,1,0,0:0:0:0:
448,192,80629,1,0,0:0:0:0:
320,192,80795,1,0,0:0:0:0:
64,192,80960,1,0,0:0:0:0:
192,192,81043,1,0,0:0:0:0:
448,192,81126,1,0,0:0:0:0:
192,192,81209,1,0,0:0:0:0:
320,192,81292,1,0,0:0:0:0:
448,192,81375,1,0,0:0:0:0:
64,192,81458,128,0,81540:0:0:0:0:
448,192,81540,1,0,0:0:0:0:
320,192,81623,1,0,0:0:0:0:
192,192,81706,1,0,0:0:0:0:
448,192,81789,1,0,0:0:0:0:
192,192,81955,5,0,0:0:0:0:
320,192,81996,1,0,0:0:0:0:
192,192,82038,1,0,0:0:0:0:
64,192,82079,1,0,0:0:0:0:
448,192,82120,1,0,0:0:0:0:
192,192,82203,1,0,0:0:0:0:
448,192,82286,1,0,0:0:0:0:
64,192,82369,1,0,0:0:0:0:
320,192,82452,1,0,0:0:0:0:
64,192,82535,1,0,0:0:0:0:
192,192,82618,1,0,0:0:0:0:
320,192,82701,1,0,0:0:0:0:
64,192,82783,1,0,0:0:0:0:
192,192,82783,128,0,82866:0:0:0:0:
448,192,82783,1,0,0:0:0:0:
320,192,82866,128,0,82949:0:0:0:0:
64,192,82949,128,0,83032:0:0:0:0:
192,192,83032,128,0,83115:0:0:0:0:
448,192,83115,128,0,83198:0:0:0:0:
64,192,83198,128,0,83281:0:0:0:0:
320,192,83281,128,0,83364:0:0:0:0:
448,192,83364,128,0,83446:0:0:0:0:
192,192,83446,128,0,83529:0:0:0:0:
320,192,83529,128,0,83612:0:0:0:0:
448,192,83612,128,0,83944:0:0:0:0:
64,192,83695,128,0,83778:0:0:0:0:
192,192,83778,128,0,83861:0:0:0:0:
320,192,83861,128,0,84275:0:0:0:0:
64,192,83944,128,0,84027:0:0:0:0:
192,192,84027,128,0,84192:0:0:0:0:
448,192,84109,1,0,0:0:0:0:
64,192,84192,128,0,84441:0:0:0:0:
448,192,84275,128,0,84358:0:0:0:0:
192,192,84358,128,0,84855:0:0:0:0:
320,192,84441,128,0,84524:0:0:0:0:
448,192,84524,128,0,84690:0:0:0:0:
64,192,84607,1,0,0:0:0:0:
320,192,84690,128,0,84772:0:0:0:0:
64,192,84772,128,0,84938:0:0:0:0:
448,192,84855,128,0,85021:0:0:0:0:
320,192,84938,128,0,85270:0:0:0:0:
192,192,85021,128,0,85104:0:0:0:0:
64,192,85104,128,0,85187:0:0:0:0:
448,192,85187,128,0,85601:0:0:0:0:
192,192,85270,128,0,85435:0:0:0:0:
64,192,85353,128,0,85684:0:0:0:0:
320,192,85435,128,0,85518:0:0:0:0:
192,192,85518,128,0,85933:0:0:0:0:
320,192,85601,128,0,85767:0:0:0:0:
448,192,85684,128,0,86016:0:0:0:0:
64,192,85767,128,0,85850:0:0:0:0:
320,192,85850,128,0,86264:0:0:0:0:
64,192,85933,128,0,86098:0:0:0:0:
192,192,86016,128,0,86347:0:0:0:0:
448,192,86098,128,0,86181:0:0:0:0:
64,192,86181,128,0,86679:0:0:0:0:
448,192,86264,128,0,86430:0:0:0:0:
320,192,86347,128,0,86596:0:0:0:0:
192,192,86430,128,0,86513:0:0:0:0:
448,192,86513,128,0,86679:0:0:0:0:
192,192,86596,128,0,86679:0:0:0:0:
320,192,86679,128,0,86761:0:0:0:0:
64,192,86761,5,0,0:0:0:0:
192,192,86761,1,0,0:0:0:0:
448,192,86761,1,0,0:0:0:0:
320,192,86872,1,0,0:0:0:0:
192,192,86872,1,0,0:0:0:0:
64,192,86872,1,0,0:0:0:0:
64,192,86982,1,0,0:0:0:0:
192,192,86982,1,0,0:0:0:0:
448,192,86982,1,0,0:0:0:0:
64,192,87093,1,0,0:0:0:0:
320,192,87093,1,0,0:0:0:0:
448,192,87093,1,0,0:0:0:0:
192,192,87203,1,0,0:0:0:0:
320,192,87203,1,0,0:0:0:0:
448,192,87203,1,0,0:0:0:0:
64,192,87314,128,0,87424:0:0:0:0:
320,192,87314,128,0,87424:0:0:0:0:
448,192,87314,128,0,87424:0:0:0:0:
192,192,87590,5,0,0:0:0:0:
320,192,87590,1,0,0:0:0:0:
192,192,87673,1,0,0:0:0:0:
320,192,87756,1,0,0:0:0:0:
448,192,87756,1,0,0:0:0:0:
64,192,87839,1,0,0:0:0:0:
320,192,87839,128,0,88087:0:0:0:0:
64,192,88087,1,0,0:0:0:0:
192,192,88087,128,0,88170:0:0:0:0:
448,192,88170,1,0,0:0:0:0:
192,192,88253,1,0,0:0:0:0:
320,192,88336,1,0,0:0:0:0:
448,192,88419,1,0,0:0:0:0:
320,192,88502,1,0,0:0:0:0:
64,192,88585,128,0,88667:0:0:0:0:
448,192,88667,1,0,0:0:0:0:
192,192,88750,1,0,0:0:0:0:
64,192,88833,1,0,0:0:0:0:
320,192,88916,1,0,0:0:0:0:
448,192,88999,1,0,0:0:0:0:
192,192,89082,128,0,89165:0:0:0:0:
320,192,89165,1,0,0:0:0:0:
192,192,89248,1,0,0:0:0:0:
64,192,89330,1,0,0:0:0:0:
448,192,89413,128,0,89496:0:0:0:0:
64,192,89496,1,0,0:0:0:0:
192,192,89579,1,0,0:0:0:0:
448,192,89662,1,0,0:0:0:0:
64,192,89745,128,0,89828:0:0:0:0:
320,192,89828,1,0,0:0:0:0:
448,192,89911,1,0,0:0:0:0:
320,192,89993,1,0,0:0:0:0:
192,192,90076,128,0,90325:0:0:0:0:
64,192,90159,1,0,0:0:0:0:
320,192,90242,1,0,0:0:0:0:
448,192,90325,1,0,0:0:0:0:
192,192,90408,1,0,0:0:0:0:
320,192,90463,1,0,0:0:0:0:
448,192,90518,1,0,0:0:0:0:
64,192,90574,1,0,0:0:0:0:
192,192,90629,1,0,0:0:0:0:
320,192,90684,1,0,0:0:0:0:
192,192,90739,1,0,0:0:0:0:
448,192,90739,1,0,0:0:0:0:
64,192,90739,1,0,0:0:0:0:
320,192,90822,1,0,0:0:0:0:
192,192,90905,1,0,0:0:0:0:
64,192,90905,1,0,0:0:0:0:
448,192,90988,1,0,0:0:0:0:
320,192,91071,1,0,0:0:0:0:
64,192,91071,1,0,0:0:0:0:
448,192,91154,1,0,0:0:0:0:
192,192,91237,1,0,0:0:0:0:
320,192,91237,1,0,0:0:0:0:
64,192,91319,1,0,0:0:0:0:
448,192,91402,1,0,0:0:0:0:
192,192,91402,1,0,0:0:0:0:
320,192,91485,1,0,0:0:0:0:
448,192,91568,1,0,0:0:0:0:
64,192,91568,1,0,0:0:0:0:
192,192,91651,1,0,0:0:0:0:
64,192,91734,1,0,0:0:0:0:
320,192,91734,1,0,0:0:0:0:
448,192,91775,1,0,0:0:0:0:
192,192,91817,1,0,0:0:0:0:
320,192,91858,1,0,0:0:0:0:
64,192,91899,1,0,0:0:0:0:
448,192,91899,1,0,0:0:0:0:
320,192,91982,1,0,0:0:0:0:
192,192,92065,1,0,0:0:0:0:
64,192,92065,1,0,0:0:0:0:
192,192,92148,1,0,0:0:0:0:
448,192,92148,1,0,0:0:0:0:
64,192,92231,1,0,0:0:0:0:
320,192,92231,1,0,0:0:0:0:
192,192,92314,1,0,0:0:0:0:
320,192,92397,1,0,0:0:0:0:
448,192,92397,1,0,0:0:0:0:
64,192,92480,1,0,0:0:0:0:
448,192,92480,1,0,0:0:0:0:
192,192,92562,1,0,0:0:0:0:
320,192,92562,1,0,0:0:0:0:
448,192,92645,1,0,0:0:0:0:
192,192,92728,1,0,0:0:0:0:
64,192,92728,1,0,0:0:0:0:
64,192,92811,1,0,0:0:0:0:
320,192,92811,1,0,0:0:0:0:
192,192,92894,1,0,0:0:0:0:
448,192,92894,1,0,0:0:0:0:
320,192,92977,1,0,0:0:0:0:
448,192,93060,1,0,0:0:0:0:
192,192,93101,1,0,0:0:0:0:
64,192,93143,1,0,0:0:0:0:
320,192,93184,1,0,0:0:0:0:
192,192,93225,1,0,0:0:0:0:
448,192,93267,1,0,0:0:0:0:
64,192,93308,1,0,0:0:0:0:
320,192,93350,1,0,0:0:0:0:
192,192,93391,1,0,0:0:0:0:
64,192,93391,1,0,0:0:0:0:
448,192,93433,1,0,0:0:0:0:
320,192,93474,1,0,0:0:0:0:
192,192,93516,1,0,0:0:0:0:
448,192,93557,1,0,0:0:0:0:
64,192,93598,1,0,0:0:0:0:
192,192,93640,1,0,0:0:0:0:
320,192,93681,1,0,0:0:0:0:
64,192,93723,1,0,0:0:0:0:
448,192,93723,1,0,0:0:0:0:
448,192,93806,1,0,0:0:0:0:
192,192,93888,1,0,0:0:0:0:
192,192,93971,1,0,0:0:0:0:
320,192,93971,1,0,0:0:0:0:
64,192,94013,1,0,0:0:0:0:
320,192,94054,1,0,0:0:0:0:
192,192,94109,1,0,0:0:0:0:
448,192,94165,1,0,0:0:0:0:
320,192,94220,1,0,0:0:0:0:
64,192,94220,1,0,0:0:0:0:
64,192,94303,1,0,0:0:0:0:
448,192,94386,1,0,0:0:0:0:
448,192,94469,1,0,0:0:0:0:
192,192,94551,1,0,0:0:0:0:
192,192,94634,1,0,0:0:0:0:
448,192,94717,1,0,0:0:0:0:
320,192,94717,1,0,0:0:0:0:
64,192,94759,1,0,0:0:0:0:
320,192,94800,1,0,0:0:0:0:
192,192,94841,1,0,0:0:0:0:
448,192,94883,1,0,0:0:0:0:
64,192,94938,1,0,0:0:0:0:
320,192,94993,1,0,0:0:0:0:
448,192,95049,1,0,0:0:0:0:
192,192,95049,1,0,0:0:0:0:
192,192,95132,1,0,0:0:0:0:
320,192,95214,1,0,0:0:0:0:
320,192,95297,1,0,0:0:0:0:
64,192,95297,1,0,0:0:0:0:
448,192,95339,1,0,0:0:0:0:
64,192,95380,1,0,0:0:0:0:
320,192,95435,1,0,0:0:0:0:
192,192,95491,1,0,0:0:0:0:
64,192,95546,1,0,0:0:0:0:
448,192,95546,1,0,0:0:0:0:
320,192,95587,1,0,0:0:0:0:
192,192,95629,1,0,0:0:0:0:
448,192,95670,1,0,0:0:0:0:
64,192,95712,1,0,0:0:0:0:
320,192,95753,1,0,0:0:0:0:
64,192,95795,1,0,0:0:0:0:
448,192,95877,1,0,0:0:0:0:
192,192,95919,1,0,0:0:0:0:
320,192,95960,1,0,0:0:0:0:
64,192,96043,1,0,0:0:0:0:
192,192,96043,1,0,0:0:0:0:
448,192,96085,1,0,0:0:0:0:
64,192,96126,1,0,0:0:0:0:
320,192,96167,1,0,0:0:0:0:
192,192,96209,1,0,0:0:0:0:
448,192,96264,1,0,0:0:0:0:
64,192,96319,1,0,0:0:0:0:
192,192,96375,1,0,0:0:0:0:
320,192,96375,1,0,0:0:0:0:
320,192,96458,1,0,0:0:0:0:
64,192,96540,1,0,0:0:0:0:
64,192,96623,1,0,0:0:0:0:
448,192,96623,1,0,0:0:0:0:
192,192,96665,1,0,0:0:0:0:
448,192,96706,1,0,0:0:0:0:
64,192,96761,1,0,0:0:0:0:
320,192,96817,1,0,0:0:0:0:
448,192,96872,1,0,0:0:0:0:
192,192,96872,1,0,0:0:0:0:
192,192,96955,1,0,0:0:0:0:
320,192,97038,1,0,0:0:0:0:
320,192,97120,1,0,0:0:0:0:
64,192,97203,1,0,0:0:0:0:
64,192,97286,1,0,0:0:0:0:
448,192,97369,1,0,0:0:0:0:
320,192,97369,1,0,0:0:0:0:
192,192,97411,1,0,0:0:0:0:
448,192,97452,1,0,0:0:0:0:
64,192,97493,1,0,0:0:0:0:
320,192,97535,1,0,0:0:0:0:
192,192,97590,1,0,0:0:0:0:
448,192,97645,1,0,0:0:0:0:
320,192,97701,1,0,0:0:0:0:
64,192,97701,1,0,0:0:0:0:
64,192,97783,1,0,0:0:0:0:
448,192,97866,1,0,0:0:0:0:
448,192,97949,1,0,0:0:0:0:
192,192,97949,1,0,0:0:0:0:
320,192,97991,1,0,0:0:0:0:
192,192,98032,1,0,0:0:0:0:
448,192,98087,1,0,0:0:0:0:
64,192,98143,1,0,0:0:0:0:
192,192,98198,1,0,0:0:0:0:
320,192,98198,1,0,0:0:0:0:
320,192,98281,1,0,0:0:0:0:
64,192,98322,1,0,0:0:0:0:
448,192,98364,1,0,0:0:0:0:
192,192,98405,1,0,0:0:0:0:
64,192,98446,1,0,0:0:0:0:
448,192,98529,1,0,0:0:0:0:
192,192,98571,1,0,0:0:0:0:
448,192,98612,1,0,0:0:0:0:
64,192,98695,1,0,0:0:0:0:
192,192,98695,1,0,0:0:0:0:
320,192,98737,1,0,0:0:0:0:
448,192,98778,1,0,0:0:0:0:
192,192,98819,1,0,0:0:0:0:
320,192,98861,1,0,0:0:0:0:
64,192,98902,1,0,0:0:0:0:
192,192,98944,1,0,0:0:0:0:
448,192,98985,1,0,0:0:0:0:
320,192,99027,1,0,0:0:0:0:
64,192,99027,1,0,0:0:0:0:
320,192,99109,1,0,0:0:0:0:
192,192,99192,1,0,0:0:0:0:
448,192,99275,1,0,0:0:0:0:
192,192,99275,1,0,0:0:0:0:
64,192,99317,1,0,0:0:0:0:
448,192,99358,1,0,0:0:0:0:
192,192,99413,1,0,0:0:0:0:
320,192,99469,1,0,0:0:0:0:
64,192,99524,1,0,0:0:0:0:
448,192,99524,1,0,0:0:0:0:
64,192,99607,1,0,0:0:0:0:
320,192,99690,1,0,0:0:0:0:
320,192,99772,1,0,0:0:0:0:
192,192,99855,1,0,0:0:0:0:
192,192,99938,1,0,0:0:0:0:
448,192,100021,1,0,0:0:0:0:
320,192,100021,1,0,0:0:0:0:
64,192,100062,1,0,0:0:0:0:
448,192,100104,1,0,0:0:0:0:
192,192,100145,1,0,0:0:0:0:
320,192,100187,1,0,0:0:0:0:
64,192,100242,1,0,0:0:0:0:
448,192,100297,1,0,0:0:0:0:
192,192,100353,1,0,0:0:0:0:
320,192,100353,1,0,0:0:0:0:
192,192,100435,1,0,0:0:0:0:
448,192,100518,1,0,0:0:0:0:
64,192,100601,1,0,0:0:0:0:
448,192,100601,1,0,0:0:0:0:
320,192,100643,1,0,0:0:0:0:
64,192,100684,1,0,0:0:0:0:
448,192,100739,1,0,0:0:0:0:
192,192,100795,1,0,0:0:0:0:
320,192,100850,1,0,0:0:0:0:
64,192,100850,1,0,0:0:0:0:
448,192,100891,1,0,0:0:0:0:
192,192,100933,1,0,0:0:0:0:
320,192,100974,1,0,0:0:0:0:
64,192,101016,1,0,0:0:0:0:
448,192,101057,1,0,0:0:0:0:
64,192,101098,1,0,0:0:0:0:
320,192,101181,1,0,0:0:0:0:
192,192,101223,1,0,0:0:0:0:
448,192,101264,1,0,0:0:0:0:
64,192,101347,1,0,0:0:0:0:
320,192,101375,1,0,0:0:0:0:
448,192,101402,1,0,0:0:0:0:
192,192,101513,1,0,0:0:0:0:
64,192,101513,1,0,0:0:0:0:
320,192,101554,1,0,0:0:0:0:
64,192,101596,1,0,0:0:0:0:
448,192,101637,1,0,0:0:0:0:
192,192,101679,1,0,0:0:0:0:
320,192,101679,1,0,0:0:0:0:
64,192,101734,1,0,0:0:0:0:
192,192,101789,1,0,0:0:0:0:
448,192,101844,1,0,0:0:0:0:
320,192,101927,1,0,0:0:0:0:
64,192,101927,1,0,0:0:0:0:
192,192,101969,1,0,0:0:0:0:
320,192,102010,1,0,0:0:0:0:
64,192,102065,1,0,0:0:0:0:
448,192,102120,1,0,0:0:0:0:
192,192,102176,1,0,0:0:0:0:
320,192,102176,1,0,0:0:0:0:
64,192,102259,1,0,0:0:0:0:
320,192,102341,1,0,0:0:0:0:
192,192,102341,1,0,0:0:0:0:
64,192,102452,1,0,0:0:0:0:
448,192,102452,1,0,0:0:0:0:
448,192,102562,1,0,0:0:0:0:
64,192,102562,1,0,0:0:0:0:
448,192,102673,1,0,0:0:0:0:
320,192,102673,128,0,102756:0:0:0:0:
192,192,102756,128,0,102839:0:0:0:0:
64,192,102839,128,0,102922:0:0:0:0:
320,192,102922,128,0,103004:0:0:0:0:
192,192,103004,128,0,103087:0:0:0:0:
448,192,103087,128,0,103170:0:0:0:0:
64,192,103170,128,0,103253:0:0:0:0:
320,192,103253,128,0,103336:0:0:0:0:
192,192,103336,128,0,103419:0:0:0:0:
64,192,103419,128,0,103502:0:0:0:0:
320,192,103502,128,0,103585:0:0:0:0:
448,192,103585,128,0,103916:0:0:0:0:
320,192,103667,128,0,103833:0:0:0:0:
192,192,103750,128,0,103916:0:0:0:0:
64,192,103833,128,0,103916:0:0:0:0:
320,192,103916,128,0,103999:0:0:0:0:
192,192,103999,1,0,0:0:0:0:
64,192,103999,1,0,0:0:0:0:
448,192,104040,1,0,0:0:0:0:
320,192,104082,1,0,0:0:0:0:
192,192,104123,1,0,0:0:0:0:
448,192,104165,1,0,0:0:0:0:
64,192,104206,1,0,0:0:0:0:
192,192,104248,1,0,0:0:0:0:
320,192,104289,1,0,0:0:0:0:
64,192,104330,1,0,0:0:0:0:
448,192,104330,1,0,0:0:0:0:
448,192,104413,1,0,0:0:0:0:
192,192,104496,1,0,0:0:0:0:
192,192,104579,1,0,0:0:0:0:
320,192,104579,1,0,0:0:0:0:
64,192,104620,1,0,0:0:0:0:
320,192,104662,1,0,0:0:0:0:
192,192,104717,1,0,0:0:0:0:
448,192,104772,1,0,0:0:0:0:
320,192,104828,1,0,0:0:0:0:
64,192,104828,1,0,0:0:0:0:
64,192,104911,1,0,0:0:0:0:
448,192,104993,1,0,0:0:0:0:
448,192,105076,1,0,0:0:0:0:
192,192,105159,1,0,0:0:0:0:
192,192,105242,1,0,0:0:0:0:
448,192,105325,1,0,0:0:0:0:
320,192,105325,1,0,0:0:0:0:
64,192,105366,1,0,0:0:0:0:
320,192,105408,1,0,0:0:0:0:
192,192,105449,1,0,0:0:0:0:
448,192,105491,1,0,0:0:0:0:
64,192,105546,1,0,0:0:0:0:
320,192,105601,1,0,0:0:0:0:
448,192,105656,1,0,0:0:0:0:
192,192,105656,1,0,0:0:0:0:
192,192,105739,1,0,0:0:0:0:
320,192,105822,1,0,0:0:0:0:
320,192,105905,1,0,0:0:0:0:
64,192,105905,1,0,0:0:0:0:
448,192,105946,1,0,0:0:0:0:
64,192,105988,1,0,0:0:0:0:
320,192,106043,1,0,0:0:0:0:
192,192,106098,1,0,0:0:0:0:
64,192,106154,1,0,0:0:0:0:
448,192,106154,1,0,0:0:0:0:
320,192,106195,1,0,0:0:0:0:
192,192,106237,1,0,0:0:0:0:
448,192,106278,1,0,0:0:0:0:
64,192,106319,1,0,0:0:0:0:
320,192,106361,1,0,0:0:0:0:
64,192,106402,1,0,0:0:0:0:
448,192,106485,1,0,0:0:0:0:
192,192,106527,1,0,0:0:0:0:
320,192,106568,1,0,0:0:0:0:
64,192,106651,1,0,0:0:0:0:
192,192,106651,1,0,0:0:0:0:
448,192,106692,1,0,0:0:0:0:
64,192,106734,1,0,0:0:0:0:
320,192,106775,1,0,0:0:0:0:
192,192,106817,1,0,0:0:0:0:
448,192,106872,1,0,0:0:0:0:
64,192,106927,1,0,0:0:0:0:
192,192,106982,1,0,0:0:0:0:
320,192,106982,1,0,0:0:0:0:
320,192,107065,1,0,0:0:0:0:
64,192,107148,1,0,0:0:0:0:
64,192,107231,1,0,0:0:0:0:
448,192,107231,1,0,0:0:0:0:
192,192,107272,1,0,0:0:0:0:
448,192,107314,1,0,0:0:0:0:
64,192,107369,1,0,0:0:0:0:
320,192,107424,1,0,0:0:0:0:
448,192,107480,1,0,0:0:0:0:
192,192,107480,1,0,0:0:0:0:
192,192,107562,1,0,0:0:0:0:
320,192,107645,1,0,0:0:0:0:
320,192,107728,1,0,0:0:0:0:
64,192,107811,1,0,0:0:0:0:
64,192,107894,1,0,0:0:0:0:
448,192,107977,1,0,0:0:0:0:
320,192,107977,1,0,0:0:0:0:
192,192,108018,1,0,0:0:0:0:
448,192,108060,1,0,0:0:0:0:
64,192,108101,1,0,0:0:0:0:
320,192,108143,1,0,0:0:0:0:
192,192,108198,1,0,0:0:0:0:
448,192,108253,1,0,0:0:0:0:
320,192,108308,1,0,0:0:0:0:
64,192,108308,1,0,0:0:0:0:
192,192,108391,1,0,0:0:0:0:
192,192,108474,1,0,0:0:0:0:
320,192,108557,1,0,0:0:0:0:
448,192,108557,1,0,0:0:0:0:
64,192,108640,1,0,0:0:0:0:
448,192,108640,1,0,0:0:0:0:
192,192,108806,1,0,0:0:0:0:
320,192,108888,1,0,0:0:0:0:
64,192,108930,1,0,0:0:0:0:
448,192,108971,1,0,0:0:0:0:
192,192,109013,1,0,0:0:0:0:
64,192,109054,1,0,0:0:0:0:
448,192,109137,1,0,0:0:0:0:
192,192,109179,1,0,0:0:0:0:
448,192,109220,1,0,0:0:0:0:
64,192,109303,128,0,109386:0:0:0:0:
192,192,109303,128,0,109469:0:0:0:0:
320,192,109303,1,0,0:0:0:0:
448,192,109386,1,0,0:0:0:0:
64,192,109469,1,0,0:0:0:0:
192,192,109551,1,0,0:0:0:0:
448,192,109551,128,0,109634:0:0:0:0:
320,192,109551,128,0,109717:0:0:0:0:
64,192,109634,1,0,0:0:0:0:
448,192,109717,1,0,0:0:0:0:
192,192,109800,128,0,109883:0:0:0:0:
320,192,109800,128,0,109883:0:0:0:0:
64,192,109883,1,0,0:0:0:0:
192,192,109966,1,0,0:0:0:0:
320,192,109966,128,0,110132:0:0:0:0:
448,192,109966,128,0,110049:0:0:0:0:
64,192,110049,1,0,0:0:0:0:
448,192,110132,1,0,0:0:0:0:
64,192,110214,128,0,110297:0:0:0:0:
192,192,110214,128,0,110380:0:0:0:0:
320,192,110214,1,0,0:0:0:0:
448,192,110297,1,0,0:0:0:0:
64,192,110380,1,0,0:0:0:0:
192,192,110463,128,0,110546:0:0:0:0:
448,192,110463,128,0,110546:0:0:0:0:
320,192,110546,1,0,0:0:0:0:
192,192,110629,128,0,110712:0:0:0:0:
64,192,110629,128,0,110795:0:0:0:0:
448,192,110629,1,0,0:0:0:0:
320,192,110712,1,0,0:0:0:0:
192,192,110795,1,0,0:0:0:0:
320,192,110877,128,0,110960:0:0:0:0:
448,192,110877,128,0,111043:0:0:0:0:
64,192,110877,1,0,0:0:0:0:
192,192,110960,1,0,0:0:0:0:
320,192,111043,1,0,0:0:0:0:
64,192,111126,128,0,111209:0:0:0:0:
448,192,111126,128,0,111209:0:0:0:0:
192,192,111209,1,0,0:0:0:0:
320,192,111292,1,0,0:0:0:0:
448,192,111292,1,0,0:0:0:0:
64,192,111375,1,0,0:0:0:0:
448,192,111375,1,0,0:0:0:0:
448,192,111458,1,0,0:0:0:0:
64,192,111540,1,0,0:0:0:0:
192,192,111623,1,0,0:0:0:0:
192,192,111748,1,0,0:0:0:0:
448,192,111789,1,0,0:0:0:0:
64,192,111872,1,0,0:0:0:0:
320,192,111955,1,0,0:0:0:0:
448,192,111955,1,0,0:0:0:0:
192,192,111955,1,0,0:0:0:0:
448,192,112038,1,0,0:0:0:0:
64,192,112038,1,0,0:0:0:0:
320,192,112120,1,0,0:0:0:0:
192,192,112120,1,0,0:0:0:0:
448,192,112203,1,0,0:0:0:0:
192,192,112286,1,0,0:0:0:0:
64,192,112286,1,0,0:0:0:0:
320,192,112369,1,0,0:0:0:0:
64,192,112369,1,0,0:0:0:0:
448,192,112452,1,0,0:0:0:0:
192,192,112452,1,0,0:0:0:0:
64,192,112535,1,0,0:0:0:0:
448,192,112618,1,0,0:0:0:0:
320,192,112618,1,0,0:0:0:0:
320,192,112701,1,0,0:0:0:0:
192,192,112701,1,0,0:0:0:0:
448,192,112783,1,0,0:0:0:0:
64,192,112783,1,0,0:0:0:0:
320,192,112866,1,0,0:0:0:0:
192,192,112949,1,0,0:0:0:0:
64,192,112949,1,0,0:0:0:0:
192,192,113032,1,0,0:0:0:0:
448,192,113032,1,0,0:0:0:0:
320,192,113115,1,0,0:0:0:0:
64,192,113115,1,0,0:0:0:0:
192,192,113198,1,0,0:0:0:0:
448,192,113281,1,0,0:0:0:0:
64,192,113322,1,0,0:0:0:0:
192,192,113364,1,0,0:0:0:0:
320,192,113405,1,0,0:0:0:0:
64,192,113446,1,0,0:0:0:0:
448,192,113488,1,0,0:0:0:0:
320,192,113529,1,0,0:0:0:0:
192,192,113571,1,0,0:0:0:0:
448,192,113612,1,0,0:0:0:0:
64,192,113654,1,0,0:0:0:0:
320,192,113695,1,0,0:0:0:0:
448,192,113737,1,0,0:0:0:0:
192,192,113778,1,0,0:0:0:0:
64,192,113819,1,0,0:0:0:0:
320,192,113861,1,0,0:0:0:0:
192,192,113902,1,0,0:0:0:0:
448,192,113944,1,0,0:0:0:0:
64,192,113999,1,0,0:0:0:0:
192,192,114054,1,0,0:0:0:0:
320,192,114109,1,0,0:0:0:0:
64,192,114151,1,0,0:0:0:0:
192,192,114192,1,0,0:0:0:0:
320,192,114234,1,0,0:0:0:0:
448,192,114275,1,0,0:0:0:0:
64,192,114317,1,0,0:0:0:0:
192,192,114399,1,0,0:0:0:0:
448,192,114441,1,0,0:0:0:0:
64,192,114482,1,0,0:0:0:0:
320,192,114524,1,0,0:0:0:0:
448,192,114565,1,0,0:0:0:0:
64,192,114607,1,0,0:0:0:0:
192,192,114607,1,0,0:0:0:0:
320,192,114648,1,0,0:0:0:0:
448,192,114690,1,0,0:0:0:0:
192,192,114731,1,0,0:0:0:0:
320,192,114772,1,0,0:0:0:0:
64,192,114814,1,0,0:0:0:0:
192,192,114855,1,0,0:0:0:0:
320,192,114938,1,0,0:0:0:0:
448,192,114938,1,0,0:0:0:0:
64,192,115021,1,0,0:0:0:0:
448,192,115062,1,0,0:0:0:0:
192,192,115104,1,0,0:0:0:0:
320,192,115187,1,0,0:0:0:0:
64,192,115214,1,0,0:0:0:0:
448,192,115270,1,0,0:0:0:0:
320,192,115353,1,0,0:0:0:0:
64,192,115380,1,0,0:0:0:0:
192,192,115435,1,0,0:0:0:0:
320,192,115518,1,0,0:0:0:0:
192,192,115601,1,0,0:0:0:0:
64,192,115601,1,0,0:0:0:0:
64,192,115767,1,0,0:0:0:0:
448,192,115795,1,0,0:0:0:0:
320,192,115822,1,0,0:0:0:0:
192,192,115850,1,0,0:0:0:0:
448,192,115933,1,0,0:0:0:0:
320,192,115933,1,0,0:0:0:0:
192,192,115988,1,0,0:0:0:0:
64,192,116098,1,0,0:0:0:0:
448,192,116140,1,0,0:0:0:0:
320,192,116181,1,0,0:0:0:0:
64,192,116264,1,0,0:0:0:0:
192,192,116264,1,0,0:0:0:0:
448,192,116347,1,0,0:0:0:0:
192,192,116388,1,0,0:0:0:0:
320,192,116430,1,0,0:0:0:0:
64,192,116513,1,0,0:0:0:0:
448,192,116540,1,0,0:0:0:0:
192,192,116596,1,0,0:0:0:0:
64,192,116679,1,0,0:0:0:0:
448,192,116706,1,0,0:0:0:0:
320,192,116761,1,0,0:0:0:0:
64,192,116844,1,0,0:0:0:0:
320,192,116927,1,0,0:0:0:0:
448,192,116927,1,0,0:0:0:0:
320,192,117093,128,0,117176:0:0:0:0:
64,192,117259,1,0,0:0:0:0:
192,192,117259,1,0,0:0:0:0:
320,192,117300,1,0,0:0:0:0:
448,192,117341,1,0,0:0:0:0:
192,192,117383,1,0,0:0:0:0:
320,192,117424,1,0,0:0:0:0:
64,192,117466,1,0,0:0:0:0:
192,192,117507,1,0,0:0:0:0:
320,192,117590,1,0,0:0:0:0:
448,192,117590,1,0,0:0:0:0:
64,192,117673,1,0,0:0:0:0:
448,192,117714,1,0,0:0:0:0:
192,192,117756,1,0,0:0:0:0:
320,192,117839,1,0,0:0:0:0:
64,192,117866,1,0,0:0:0:0:
448,192,117922,1,0,0:0:0:0:
320,192,118004,1,0,0:0:0:0:
64,192,118032,1,0,0:0:0:0:
192,192,118087,1,0,0:0:0:0:
320,192,118170,1,0,0:0:0:0:
192,192,118253,1,0,0:0:0:0:
64,192,118253,1,0,0:0:0:0:
64,192,118419,1,0,0:0:0:0:
448,192,118446,1,0,0:0:0:0:
320,192,118474,1,0,0:0:0:0:
192,192,118502,1,0,0:0:0:0:
448,192,118585,1,0,0:0:0:0:
320,192,118585,1,0,0:0:0:0:
192,192,118640,1,0,0:0:0:0:
64,192,118750,1,0,0:0:0:0:
448,192,118792,1,0,0:0:0:0:
320,192,118833,1,0,0:0:0:0:
64,192,118916,1,0,0:0:0:0:
192,192,118916,1,0,0:0:0:0:
448,192,118999,1,0,0:0:0:0:
192,192,119040,1,0,0:0:0:0:
320,192,119082,1,0,0:0:0:0:
64,192,119165,1,0,0:0:0:0:
448,192,119192,1,0,0:0:0:0:
192,192,119248,1,0,0:0:0:0:
64,192,119330,1,0,0:0:0:0:
448,192,119358,1,0,0:0:0:0:
320,192,119413,1,0,0:0:0:0:
192,192,119496,1,0,0:0:0:0:
320,192,119579,1,0,0:0:0:0:
448,192,119579,1,0,0:0:0:0:
448,192,119745,128,0,119828:0:0:0:0:
64,192,119911,1,0,0:0:0:0:
192,192,119911,1,0,0:0:0:0:
320,192,119952,1,0,0:0:0:0:
448,192,119993,1,0,0:0:0:0:
192,192,120035,1,0,0:0:0:0:
320,192,120076,1,0,0:0:0:0:
64,192,120118,1,0,0:0:0:0:
192,192,120159,1,0,0:0:0:0:
320,192,120242,1,0,0:0:0:0:
448,192,120242,1,0,0:0:0:0:
64,192,120325,1,0,0:0:0:0:
448,192,120366,1,0,0:0:0:0:
192,192,120408,1,0,0:0:0:0:
320,192,120491,1,0,0:0:0:0:
64,192,120518,1,0,0:0:0:0:
448,192,120574,1,0,0:0:0:0:
320,192,120656,1,0,0:0:0:0:
64,192,120684,1,0,0:0:0:0:
192,192,120739,1,0,0:0:0:0:
320,192,120822,1,0,0:0:0:0:
192,192,120905,1,0,0:0:0:0:
64,192,120905,1,0,0:0:0:0:
64,192,121071,1,0,0:0:0:0:
448,192,121098,1,0,0:0:0:0:
320,192,121126,1,0,0:0:0:0:
192,192,121154,1,0,0:0:0:0:
448,192,121237,1,0,0:0:0:0:
320,192,121237,1,0,0:0:0:0:
192,192,121292,1,0,0:0:0:0:
64,192,121402,5,0,0:0:0:0:
448,192,121444,1,0,0:0:0:0:
320,192,121485,1,0,0:0:0:0:
64,192,121568,1,0,0:0:0:0:
192,192,121568,1,0,0:0:0:0:
448,192,121651,1,0,0:0:0:0:
192,192,121692,1,0,0:0:0:0:
320,192,121734,1,0,0:0:0:0:
64,192,121817,1,0,0:0:0:0:
448,192,121844,1,0,0:0:0:0:
192,192,121899,1,0,0:0:0:0:
64,192,121982,1,0,0:0:0:0:
448,192,122010,1,0,0:0:0:0:
320,192,122065,1,0,0:0:0:0:
64,192,122148,1,0,0:0:0:0:
320,192,122231,1,0,0:0:0:0:
448,192,122231,1,0,0:0:0:0:
320,192,122397,128,0,122480:0:0:0:0:
448,192,122562,128,0,122645:0:0:0:0:
64,192,122562,128,0,122728:0:0:0:0:
192,192,122562,128,0,122728:0:0:0:0:
448,192,122811,128,0,122894:0:0:0:0:
64,192,122811,128,0,122977:0:0:0:0:
192,192,122811,128,0,122977:0:0:0:0:
448,192,123060,128,0,123225:0:0:0:0:
320,192,123060,128,0,123225:0:0:0:0:
192,192,123060,128,0,123143:0:0:0:0:
192,192,123308,128,0,123391:0:0:0:0:
320,192,123308,128,0,123474:0:0:0:0:
448,192,123308,128,0,123474:0:0:0:0:
448,192,123557,128,0,123640:0:0:0:0:
320,192,123557,128,0,123640:0:0:0:0:
192,192,123557,128,0,123640:0:0:0:0:
192,192,123723,128,0,123806:0:0:0:0:
320,192,123723,128,0,123806:0:0:0:0:
448,192,123723,128,0,123806:0:0:0:0:
448,192,123888,128,0,124054:0:0:0:0:
320,192,123888,128,0,124054:0:0:0:0:
64,192,123888,128,0,123971:0:0:0:0:
448,192,124137,128,0,124303:0:0:0:0:
320,192,124137,128,0,124303:0:0:0:0:
64,192,124137,128,0,124220:0:0:0:0:
320,192,124386,128,0,124469:0:0:0:0:
192,192,124386,128,0,124469:0:0:0:0:
64,192,124386,128,0,124469:0:0:0:0:
192,192,124551,1,0,0:0:0:0:
64,192,124551,1,0,0:0:0:0:
320,192,124717,1,0,0:0:0:0:
192,192,124717,1,0,0:0:0:0:
192,192,124800,1,0,0:0:0:0:
320,192,124883,1,0,0:0:0:0:
448,192,124883,1,0,0:0:0:0:
320,192,124966,1,0,0:0:0:0:
64,192,125049,1,0,0:0:0:0:
448,192,125049,1,0,0:0:0:0:
64,192,125132,1,0,0:0:0:0:
192,192,125214,1,0,0:0:0:0:
320,192,125214,1,0,0:0:0:0:
448,192,125214,1,0,0:0:0:0:
64,192,125270,1,0,0:0:0:0:
320,192,125325,1,0,0:0:0:0:
192,192,125380,1,0,0:0:0:0:
64,192,125463,1,0,0:0:0:0:
448,192,125463,1,0,0:0:0:0:
320,192,125546,1,0,0:0:0:0:
448,192,125629,1,0,0:0:0:0:
192,192,125712,128,0,125795:0:0:0:0:
64,192,125712,128,0,125795:0:0:0:0:
320,192,125795,1,0,0:0:0:0:
192,192,125877,128,0,125960:0:0:0:0:
64,192,125877,128,0,126043:0:0:0:0:
320,192,125960,1,0,0:0:0:0:
192,192,126043,1,0,0:0:0:0:
320,192,126126,128,0,126209:0:0:0:0:
448,192,126126,128,0,126292:0:0:0:0:
192,192,126209,1,0,0:0:0:0:
320,192,126292,1,0,0:0:0:0:
192,192,126375,128,0,126458:0:0:0:0:
64,192,126375,128,0,126458:0:0:0:0:
320,192,126458,1,0,0:0:0:0:
192,192,126540,128,0,126706:0:0:0:0:
64,192,126540,128,0,126623:0:0:0:0:
448,192,126623,1,0,0:0:0:0:
64,192,126706,1,0,0:0:0:0:
320,192,126789,128,0,126955:0:0:0:0:
448,192,126789,128,0,126872:0:0:0:0:
64,192,126872,1,0,0:0:0:0:
448,192,126955,1,0,0:0:0:0:
192,192,127038,128,0,127120:0:0:0:0:
64,192,127038,128,0,127120:0:0:0:0:
448,192,127120,1,0,0:0:0:0:
192,192,127203,128,0,127286:0:0:0:0:
64,192,127203,128,0,127369:0:0:0:0:
320,192,127286,1,0,0:0:0:0:
192,192,127369,1,0,0:0:0:0:
448,192,127452,1,0,0:0:0:0:
320,192,127452,1,0,0:0:0:0:
448,192,127535,1,0,0:0:0:0:
64,192,127618,1,0,0:0:0:0:
448,192,127701,1,0,0:0:0:0:
64,192,127701,1,0,0:0:0:0:
320,192,127783,1,0,0:0:0:0:
192,192,127866,1,0,0:0:0:0:
64,192,127866,1,0,0:0:0:0:
448,192,127908,1,0,0:0:0:0:
320,192,127949,1,0,0:0:0:0:
192,192,127991,1,0,0:0:0:0:
448,192,128032,1,0,0:0:0:0:
64,192,128115,1,0,0:0:0:0:
320,192,128115,1,0,0:0:0:0:
192,192,128198,1,0,0:0:0:0:
192,192,128281,1,0,0:0:0:0:
64,192,128364,1,0,0:0:0:0:
448,192,128364,1,0,0:0:0:0:
448,192,128446,1,0,0:0:0:0:
192,192,128529,1,0,0:0:0:0:
64,192,128529,1,0,0:0:0:0:
320,192,128571,1,0,0:0:0:0:
64,192,128612,1,0,0:0:0:0:
192,192,128695,1,0,0:0:0:0:
448,192,128778,1,0,0:0:0:0:
320,192,128778,1,0,0:0:0:0:
64,192,128819,1,0,0:0:0:0:
448,192,128861,1,0,0:0:0:0:
320,192,128944,1,0,0:0:0:0:
192,192,129027,1,0,0:0:0:0:
64,192,129027,1,0,0:0:0:0:
448,192,129068,1,0,0:0:0:0:
192,192,129109,1,0,0:0:0:0:
448,192,129192,1,0,0:0:0:0:
320,192,129192,1,0,0:0:0:0:
64,192,129234,1,0,0:0:0:0:
320,192,129275,1,0,0:0:0:0:
448,192,129358,1,0,0:0:0:0:
192,192,129441,1,0,0:0:0:0:
64,192,129441,1,0,0:0:0:0:
320,192,129482,1,0,0:0:0:0:
192,192,129524,1,0,0:0:0:0:
64,192,129607,1,0,0:0:0:0:
320,192,129690,1,0,0:0:0:0:
448,192,129690,1,0,0:0:0:0:
192,192,129731,1,0,0:0:0:0:
448,192,129772,1,0,0:0:0:0:
192,192,129855,1,0,0:0:0:0:
64,192,129855,1,0,0:0:0:0:
320,192,129938,1,0,0:0:0:0:
64,192,129980,1,0,0:0:0:0:
448,192,130021,1,0,0:0:0:0:
64,192,130104,1,0,0:0:0:0:
192,192,130104,1,0,0:0:0:0:
192,192,130187,1,0,0:0:0:0:
320,192,130187,1,0,0:0:0:0:
320,192,130270,1,0,0:0:0:0:
192,192,130353,1,0,0:0:0:0:
64,192,130353,1,0,0:0:0:0:
448,192,130435,1,0,0:0:0:0:
320,192,130518,1,0,0:0:0:0:
192,192,130518,1,0,0:0:0:0:
64,192,130518,1,0,0:0:0:0:
448,192,130574,1,0,0:0:0:0:
192,192,130629,1,0,0:0:0:0:
320,192,130684,1,0,0:0:0:0:
448,192,130767,1,0,0:0:0:0:
64,192,130767,1,0,0:0:0:0:
192,192,130850,1,0,0:0:0:0:
64,192,130933,1,0,0:0:0:0:
320,192,131016,128,0,131098:0:0:0:0:
448,192,131016,128,0,131098:0:0:0:0:
192,192,131098,1,0,0:0:0:0:
320,192,131181,128,0,131264:0:0:0:0:
448,192,131181,128,0,131347:0:0:0:0:
192,192,131264,1,0,0:0:0:0:
320,192,131347,1,0,0:0:0:0:
192,192,131430,128,0,131513:0:0:0:0:
64,192,131430,128,0,131596:0:0:0:0:
320,192,131513,1,0,0:0:0:0:
192,192,131596,1,0,0:0:0:0:
320,192,131679,128,0,131761:0:0:0:0:
448,192,131679,128,0,131761:0:0:0:0:
192,192,131761,1,0,0:0:0:0:
320,192,131844,128,0,132010:0:0:0:0:
448,192,131844,128,0,131927:0:0:0:0:
64,192,131927,1,0,0:0:0:0:
448,192,132010,1,0,0:0:0:0:
192,192,132093,128,0,132259:0:0:0:0:
64,192,132093,128,0,132176:0:0:0:0:
448,192,132176,1,0,0:0:0:0:
64,192,132259,1,0,0:0:0:0:
320,192,132341,128,0,132424:0:0:0:0:
448,192,132341,128,0,132424:0:0:0:0:
64,192,132424,1,0,0:0:0:0:
320,192,132507,128,0,132590:0:0:0:0:
448,192,132507,128,0,132673:0:0:0:0:
192,192,132590,1,0,0:0:0:0:
320,192,132673,1,0,0:0:0:0:
64,192,132756,1,0,0:0:0:0:
192,192,132756,1,0,0:0:0:0:
64,192,132839,1,0,0:0:0:0:
448,192,132922,1,0,0:0:0:0:
64,192,133004,1,0,0:0:0:0:
448,192,133004,1,0,0:0:0:0:
192,192,133087,1,0,0:0:0:0:
320,192,133170,1,0,0:0:0:0:
448,192,133170,1,0,0:0:0:0:
64,192,133212,1,0,0:0:0:0:
192,192,133253,1,0,0:0:0:0:
320,192,133295,1,0,0:0:0:0:
64,192,133336,1,0,0:0:0:0:
448,192,133419,1,0,0:0:0:0:
192,192,133419,1,0,0:0:0:0:
320,192,133502,1,0,0:0:0:0:
320,192,133585,1,0,0:0:0:0:
448,192,133667,1,0,0:0:0:0:
64,192,133667,1,0,0:0:0:0:
64,192,133750,1,0,0:0:0:0:
320,192,133833,1,0,0:0:0:0:
448,192,133833,1,0,0:0:0:0:
192,192,133875,1,0,0:0:0:0:
448,192,133916,1,0,0:0:0:0:
320,192,133999,1,0,0:0:0:0:
64,192,134082,1,0,0:0:0:0:
192,192,134082,1,0,0:0:0:0:
448,192,134123,1,0,0:0:0:0:
64,192,134165,1,0,0:0:0:0:
192,192,134248,1,0,0:0:0:0:
320,192,134330,1,0,0:0:0:0:
448,192,134330,1,0,0:0:0:0:
64,192,134372,1,0,0:0:0:0:
320,192,134413,1,0,0:0:0:0:
64,192,134496,1,0,0:0:0:0:
192,192,134496,1,0,0:0:0:0:
448,192,134538,1,0,0:0:0:0:
192,192,134579,1,0,0:0:0:0:
64,192,134662,1,0,0:0:0:0:
320,192,134745,1,0,0:0:0:0:
448,192,134745,1,0,0:0:0:0:
192,192,134786,1,0,0:0:0:0:
320,192,134828,1,0,0:0:0:0:
448,192,134911,1,0,0:0:0:0:
192,192,134993,1,0,0:0:0:0:
64,192,134993,1,0,0:0:0:0:
320,192,135035,1,0,0:0:0:0:
64,192,135076,1,0,0:0:0:0:
320,192,135159,1,0,0:0:0:0:
448,192,135159,1,0,0:0:0:0:
192,192,135242,1,0,0:0:0:0:
64,192,135325,1,0,0:0:0:0:
64,192,135408,1,0,0:0:0:0:
448,192,135491,1,0,0:0:0:0:
448,192,135574,1,0,0:0:0:0:
64,192,135656,1,0,0:0:0:0:
64,192,135739,1,0,0:0:0:0:
192,192,135822,1,0,0:0:0:0:
448,192,135822,1,0,0:0:0:0:
320,192,135822,1,0,0:0:0:0:
64,192,135877,1,0,0:0:0:0:
320,192,135933,1,0,0:0:0:0:
192,192,135988,1,0,0:0:0:0:
448,192,136071,1,0,0:0:0:0:
64,192,136071,1,0,0:0:0:0:
320,192,136154,1,0,0:0:0:0:
448,192,136237,1,0,0:0:0:0:
192,192,136319,1,0,0:0:0:0:
64,192,136361,1,0,0:0:0:0:
320,192,136402,1,0,0:0:0:0:
64,192,136485,1,0,0:0:0:0:
448,192,136485,1,0,0:0:0:0:
192,192,136527,1,0,0:0:0:0:
320,192,136568,1,0,0:0:0:0:
448,192,136609,1,0,0:0:0:0:
192,192,136651,1,0,0:0:0:0:
448,192,136734,1,0,0:0:0:0:
320,192,136775,1,0,0:0:0:0:
192,192,136817,1,0,0:0:0:0:
64,192,136858,1,0,0:0:0:0:
448,192,136899,1,0,0:0:0:0:
64,192,136982,1,0,0:0:0:0:
320,192,136982,1,0,0:0:0:0:
192,192,137065,1,0,0:0:0:0:
64,192,137148,1,0,0:0:0:0:
320,192,137148,1,0,0:0:0:0:
448,192,137231,1,0,0:0:0:0:
320,192,137314,1,0,0:0:0:0:
64,192,137314,1,0,0:0:0:0:
192,192,137397,1,0,0:0:0:0:
64,192,137480,1,0,0:0:0:0:
320,192,137480,1,0,0:0:0:0:
448,192,137562,1,0,0:0:0:0:
192,192,137645,1,0,0:0:0:0:
64,192,137687,1,0,0:0:0:0:
320,192,137728,1,0,0:0:0:0:
64,192,137811,1,0,0:0:0:0:
448,192,137811,1,0,0:0:0:0:
192,192,137853,1,0,0:0:0:0:
320,192,137894,1,0,0:0:0:0:
448,192,137935,1,0,0:0:0:0:
64,192,137977,1,0,0:0:0:0:
320,192,138060,1,0,0:0:0:0:
192,192,138143,1,0,0:0:0:0:
320,192,138225,1,0,0:0:0:0:
64,192,138308,1,0,0:0:0:0:
448,192,138391,1,0,0:0:0:0:
192,192,138474,1,0,0:0:0:0:
64,192,138474,1,0,0:0:0:0:
320,192,138521,1,0,0:0:0:0:
192,192,138569,1,0,0:0:0:0:
448,192,138616,1,0,0:0:0:0:
320,192,138664,1,0,0:0:0:0:
64,192,138711,1,0,0:0:0:0:
192,192,138758,1,0,0:0:0:0:
448,192,138806,1,0,0:0:0:0:
64,192,138853,1,0,0:0:0:0:
448,192,138900,1,0,0:0:0:0:
192,192,138948,1,0,0:0:0:0:
64,192,138995,1,0,0:0:0:0:
320,192,139054,1,0,0:0:0:0:
448,192,139054,1,0,0:0:0:0:
192,192,139137,1,0,0:0:0:0:
448,192,139137,1,0,0:0:0:0:
64,192,139192,1,0,0:0:0:0:
192,192,139248,1,0,0:0:0:0:
64,192,139303,1,0,0:0:0:0:
320,192,139386,1,0,0:0:0:0:
448,192,139441,1,0,0:0:0:0:
320,192,139496,1,0,0:0:0:0:
448,192,139551,1,0,0:0:0:0:
64,192,139634,1,0,0:0:0:0:
192,192,139634,1,0,0:0:0:0:
320,192,139690,1,0,0:0:0:0:
64,192,139717,1,0,0:0:0:0:
320,192,139800,1,0,0:0:0:0:
448,192,139800,1,0,0:0:0:0:
192,192,139855,1,0,0:0:0:0:
448,192,139883,1,0,0:0:0:0:
192,192,139966,1,0,0:0:0:0:
64,192,139966,1,0,0:0:0:0:
64,192,140049,1,0,0:0:0:0:
320,192,140132,1,0,0:0:0:0:
448,192,140132,1,0,0:0:0:0:
448,192,140214,1,0,0:0:0:0:
192,192,140297,1,0,0:0:0:0:
64,192,140353,1,0,0:0:0:0:
320,192,140380,1,0,0:0:0:0:
192,192,140463,1,0,0:0:0:0:
448,192,140463,1,0,0:0:0:0:
192,192,140546,128,0,140712:0:0:0:0:
64,192,140629,128,0,140877:0:0:0:0:
448,192,140712,128,0,140960:0:0:0:0:
192,192,140795,128,0,141043:0:0:0:0:
320,192,140877,128,0,141043:0:0:0:0:
64,192,140960,128,0,141043:0:0:0:0:
448,192,141043,128,0,141126:0:0:0:0:
320,192,141126,1,0,0:0:0:0:
64,192,141126,1,0,0:0:0:0:
192,192,141126,1,0,0:0:0:0:
448,192,141181,1,0,0:0:0:0:
192,192,141237,1,0,0:0:0:0:
320,192,141292,1,0,0:0:0:0:
64,192,141375,1,0,0:0:0:0:
448,192,141375,1,0,0:0:0:0:
192,192,141458,1,0,0:0:0:0:
64,192,141540,1,0,0:0:0:0:
320,192,141623,1,0,0:0:0:0:
448,192,141665,1,0,0:0:0:0:
192,192,141706,1,0,0:0:0:0:
448,192,141789,1,0,0:0:0:0:
64,192,141789,1,0,0:0:0:0:
320,192,141830,1,0,0:0:0:0:
192,192,141872,1,0,0:0:0:0:
64,192,141913,1,0,0:0:0:0:
320,192,141955,1,0,0:0:0:0:
64,192,142038,1,0,0:0:0:0:
192,192,142079,1,0,0:0:0:0:
320,192,142120,1,0,0:0:0:0:
448,192,142162,1,0,0:0:0:0:
64,192,142203,1,0,0:0:0:0:
448,192,142286,1,0,0:0:0:0:
192,192,142286,1,0,0:0:0:0:
320,192,142369,1,0,0:0:0:0:
448,192,142452,1,0,0:0:0:0:
192,192,142452,1,0,0:0:0:0:
64,192,142535,1,0,0:0:0:0:
192,192,142618,1,0,0:0:0:0:
448,192,142618,1,0,0:0:0:0:
320,192,142701,1,0,0:0:0:0:
448,192,142783,1,0,0:0:0:0:
192,192,142783,1,0,0:0:0:0:
64,192,142866,1,0,0:0:0:0:
320,192,142949,1,0,0:0:0:0:
448,192,142991,1,0,0:0:0:0:
192,192,143032,1,0,0:0:0:0:
448,192,143115,1,0,0:0:0:0:
64,192,143115,1,0,0:0:0:0:
320,192,143156,1,0,0:0:0:0:
192,192,143198,1,0,0:0:0:0:
64,192,143239,1,0,0:0:0:0:
448,192,143281,1,0,0:0:0:0:
192,192,143364,1,0,0:0:0:0:
320,192,143446,1,0,0:0:0:0:
192,192,143529,1,0,0:0:0:0:
448,192,143612,1,0,0:0:0:0:
64,192,143695,1,0,0:0:0:0:
448,192,143778,128,0,144027:0:0:0:0:
320,192,143778,128,0,143861:0:0:0:0:
192,192,143778,128,0,143944:0:0:0:0:
64,192,143861,128,0,144027:0:0:0:0:
320,192,143944,128,0,144027:0:0:0:0:
192,192,144027,1,0,0:0:0:0:
448,192,144109,128,0,144192:0:0:0:0:
64,192,144109,128,0,144192:0:0:0:0:
320,192,144192,1,0,0:0:0:0:
192,192,144275,128,0,144358:0:0:0:0:
448,192,144275,128,0,144441:0:0:0:0:
64,192,144275,128,0,144524:0:0:0:0:
320,192,144358,128,0,144524:0:0:0:0:
192,192,144441,128,0,144524:0:0:0:0:
448,192,144524,1,0,0:0:0:0:
64,192,144607,128,0,144690:0:0:0:0:
320,192,144607,128,0,144690:0:0:0:0:
192,192,144690,1,0,0:0:0:0:
320,192,144772,128,0,145021:0:0:0:0:
448,192,144772,128,0,144855:0:0:0:0:
64,192,144772,128,0,144938:0:0:0:0:
192,192,144855,128,0,145021:0:0:0:0:
448,192,144938,128,0,145021:0:0:0:0:
64,192,145021,1,0,0:0:0:0:
192,192,145104,128,0,145187:0:0:0:0:
320,192,145104,128,0,145187:0:0:0:0:
448,192,145187,1,0,0:0:0:0:
320,192,145270,128,0,145435:0:0:0:0:
64,192,145270,128,0,145353:0:0:0:0:
192,192,145270,128,0,145518:0:0:0:0:
448,192,145353,128,0,145518:0:0:0:0:
64,192,145435,128,0,145518:0:0:0:0:
320,192,145518,1,0,0:0:0:0:
192,192,145601,128,0,145684:0:0:0:0:
448,192,145601,128,0,145684:0:0:0:0:
64,192,145684,1,0,0:0:0:0:
192,192,145767,128,0,146016:0:0:0:0:
448,192,145767,128,0,145850:0:0:0:0:
320,192,145767,128,0,145933:0:0:0:0:
64,192,145850,128,0,146016:0:0:0:0:
448,192,145933,128,0,146016:0:0:0:0:
320,192,146016,1,0,0:0:0:0:
192,192,146098,5,0,0:0:0:0:
64,192,146098,1,0,0:0:0:0:
448,192,146154,1,0,0:0:0:0:
64,192,146209,1,0,0:0:0:0:
448,192,146264,1,0,0:0:0:0:
64,192,146319,1,0,0:0:0:0:
448,192,146375,1,0,0:0:0:0:
320,192,146430,128,0,147424:0:0:0:0:
192,192,146430,1,0,0:0:0:0:
64,192,146430,1,0,0:0:0:0:
448,192,146596,1,0,0:0:0:0:
64,192,146761,1,0,0:0:0:0:
192,192,146927,1,0,0:0:0:0:
448,192,147093,1,0,0:0:0:0:
64,192,147259,1,0,0:0:0:0:
448,192,147424,128,0,147756:0:0:0:0:
192,192,147590,1,0,0:0:0:0:
64,192,147756,128,0,148419:0:0:0:0:
448,192,147922,1,0,0:0:0:0:
192,192,148087,1,0,0:0:0:0:
320,192,148253,1,0,0:0:0:0:
192,192,148419,128,0,149082:0:0:0:0:
448,192,148585,1,0,0:0:0:0:
64,192,148750,1,0,0:0:0:0:
448,192,148916,1,0,0:0:0:0:
64,192,149082,128,0,150076:0:0:0:0:
320,192,149082,1,0,0:0:0:0:
192,192,149248,1,0,0:0:0:0:
448,192,149413,1,0,0:0:0:0:
192,192,149579,1,0,0:0:0:0:
320,192,149745,1,0,0:0:0:0:
448,192,149911,1,0,0:0:0:0:
320,192,150076,128,0,150408:0:0:0:0:
64,192,150242,1,0,0:0:0:0:
192,192,150408,128,0,151071:0:0:0:0:
448,192,150574,1,0,0:0:0:0:
320,192,150739,1,0,0:0:0:0:
64,192,150905,1,0,0:0:0:0:
320,192,151071,128,0,151402:0:0:0:0:
448,192,151237,1,0,0:0:0:0:
192,192,151402,128,0,151734:0:0:0:0:
320,192,151568,5,0,0:0:0:0:
448,192,151734,128,0,152728:0:0:0:0:
64,192,151734,1,0,0:0:0:0:
192,192,151899,1,0,0:0:0:0:
320,192,152065,1,0,0:0:0:0:
192,192,152231,1,0,0:0:0:0:
64,192,152397,1,0,0:0:0:0:
320,192,152562,1,0,0:0:0:0:
64,192,152728,128,0,153060:0:0:0:0:
448,192,152894,1,0,0:0:0:0:
320,192,153060,1,0,0:0:0:0:
192,192,153115,128,0,153723:0:0:0:0:
448,192,153225,1,0,0:0:0:0:
320,192,153391,1,0,0:0:0:0:
64,192,153557,1,0,0:0:0:0:
320,192,153723,128,0,154386:0:0:0:0:
448,192,153888,1,0,0:0:0:0:
192,192,154054,1,0,0:0:0:0:
64,192,154220,1,0,0:0:0:0:
192,192,154386,128,0,155380:0:0:0:0:
448,192,154386,1,0,0:0:0:0:
64,192,154551,1,0,0:0:0:0:
320,192,154717,1,0,0:0:0:0:
448,192,154883,1,0,0:0:0:0:
64,192,155049,1,0,0:0:0:0:
448,192,155214,1,0,0:0:0:0:
320,192,155380,128,0,155435:0:0:0:0:
64,192,155435,128,0,155491:0:0:0:0:
192,192,155491,128,0,155546:0:0:0:0:
320,192,155546,128,0,155629:0:0:0:0:
448,192,155629,128,0,156375:0:0:0:0:
64,192,155712,1,0,0:0:0:0:
320,192,155795,1,0,0:0:0:0:
192,192,155877,1,0,0:0:0:0:
320,192,155960,1,0,0:0:0:0:
64,192,156043,1,0,0:0:0:0:
192,192,156126,1,0,0:0:0:0:
320,192,156209,1,0,0:0:0:0:
192,192,156292,1,0,0:0:0:0:
64,192,156375,1,0,0:0:0:0:
320,192,156416,1,0,0:0:0:0:
64,192,156458,1,0,0:0:0:0:
448,192,156499,1,0,0:0:0:0:
192,192,156540,1,0,0:0:0:0:
64,192,156596,1,0,0:0:0:0:
320,192,156651,1,0,0:0:0:0:
192,192,156706,1,0,0:0:0:0:
320,192,156789,1,0,0:0:0:0:
64,192,156872,1,0,0:0:0:0:
192,192,156955,1,0,0:0:0:0:
320,192,157038,5,0,0:0:0:0:
64,192,157038,1,0,0:0:0:0:
448,192,157038,128,0,157120:0:0:0:0:
192,192,157203,1,0,0:0:0:0:
320,192,157286,1,0,0:0:0:0:
192,192,157369,1,0,0:0:0:0:
448,192,157535,1,0,0:0:0:0:
192,192,157701,1,0,0:0:0:0:
320,192,157783,1,0,0:0:0:0:
192,192,157866,1,0,0:0:0:0:
448,192,158032,1,0,0:0:0:0:
64,192,158074,1,0,0:0:0:0:
192,192,158115,1,0,0:0:0:0:
320,192,158156,1,0,0:0:0:0:
64,192,158198,1,0,0:0:0:0:
448,192,158281,1,0,0:0:0:0:
64,192,158364,128,0,158446:0:0:0:0:
320,192,158529,1,0,0:0:0:0:
192,192,158612,1,0,0:0:0:0:
320,192,158695,1,0,0:0:0:0:
64,192,158861,1,0,0:0:0:0:
320,192,159027,1,0,0:0:0:0:
64,192,159068,1,0,0:0:0:0:
192,192,159109,1,0,0:0:0:0:
64,192,159192,1,0,0:0:0:0:
448,192,159192,128,0,159358:0:0:0:0:
320,192,159192,128,0,159275:0:0:0:0:
192,192,159275,1,0,0:0:0:0:
320,192,159358,1,0,0:0:0:0:
448,192,159441,1,0,0:0:0:0:
64,192,159441,128,0,159607:0:0:0:0:
192,192,159441,128,0,159524:0:0:0:0:
320,192,159524,1,0,0:0:0:0:
192,192,159607,1,0,0:0:0:0:
448,192,159690,128,0,159772:0:0:0:0:
64,192,159690,1,0,0:0:0:0:
320,192,159690,1,0,0:0:0:0:
192,192,159855,1,0,0:0:0:0:
320,192,159938,1,0,0:0:0:0:
192,192,160021,1,0,0:0:0:0:
448,192,160187,1,0,0:0:0:0:
192,192,160353,1,0,0:0:0:0:
320,192,160435,1,0,0:0:0:0:
192,192,160518,1,0,0:0:0:0:
448,192,160684,1,0,0:0:0:0:
64,192,160725,1,0,0:0:0:0:
192,192,160767,1,0,0:0:0:0:
320,192,160808,1,0,0:0:0:0:
64,192,160850,1,0,0:0:0:0:
448,192,160933,1,0,0:0:0:0:
64,192,161016,128,0,161098:0:0:0:0:
320,192,161181,1,0,0:0:0:0:
192,192,161264,1,0,0:0:0:0:
320,192,161347,1,0,0:0:0:0:
192,192,161513,5,0,0:0:0:0:
192,192,161596,1,0,0:0:0:0:
320,192,161679,128,0,161844:0:0:0:0:
64,192,161844,1,0,0:0:0:0:
448,192,161927,1,0,0:0:0:0:
192,192,162010,1,0,0:0:0:0:
320,192,162093,1,0,0:0:0:0:
192,192,162176,1,0,0:0:0:0:
320,192,162259,1,0,0:0:0:0:
448,192,162341,128,0,162424:0:0:0:0:
192,192,162341,128,0,162507:0:0:0:0:
64,192,162341,128,0,162507:0:0:0:0:
320,192,162424,1,0,0:0:0:0:
448,192,162507,1,0,0:0:0:0:
64,192,162590,128,0,162756:0:0:0:0:
192,192,162590,128,0,162673:0:0:0:0:
320,192,162673,1,0,0:0:0:0:
192,192,162756,1,0,0:0:0:0:
320,192,162839,128,0,162922:0:0:0:0:
448,192,162839,128,0,162922:0:0:0:0:
64,192,162922,1,0,0:0:0:0:
192,192,163004,1,0,0:0:0:0:
448,192,163004,128,0,163170:0:0:0:0:
320,192,163004,128,0,163170:0:0:0:0:
64,192,163087,1,0,0:0:0:0:
192,192,163170,1,0,0:0:0:0:
320,192,163253,128,0,163336:0:0:0:0:
448,192,163253,128,0,163419:0:0:0:0:
64,192,163336,1,0,0:0:0:0:
320,192,163419,1,0,0:0:0:0:
192,192,163502,128,0,163585:0:0:0:0:
64,192,163502,128,0,163585:0:0:0:0:
448,192,163585,1,0,0:0:0:0:
192,192,163667,128,0,163833:0:0:0:0:
64,192,163667,128,0,163833:0:0:0:0:
320,192,163667,1,0,0:0:0:0:
448,192,163750,1,0,0:0:0:0:
320,192,163833,1,0,0:0:0:0:
64,192,163916,128,0,164082:0:0:0:0:
192,192,163916,128,0,163999:0:0:0:0:
448,192,163999,1,0,0:0:0:0:
192,192,164082,1,0,0:0:0:0:
320,192,164165,128,0,164248:0:0:0:0:
448,192,164165,128,0,164248:0:0:0:0:
64,192,164248,1,0,0:0:0:0:
192,192,164330,1,0,0:0:0:0:
448,192,164330,128,0,164496:0:0:0:0:
320,192,164330,128,0,164496:0:0:0:0:
64,192,164413,1,0,0:0:0:0:
192,192,164496,1,0,0:0:0:0:
320,192,164579,128,0,164745:0:0:0:0:
448,192,164579,128,0,164662:0:0:0:0:
64,192,164662,1,0,0:0:0:0:
448,192,164745,1,0,0:0:0:0:
192,192,164828,128,0,164911:0:0:0:0:
64,192,164828,128,0,164911:0:0:0:0:
320,192,164911,1,0,0:0:0:0:
192,192,164993,1,0,0:0:0:0:
64,192,164993,128,0,165159:0:0:0:0:
448,192,165076,128,0,165242:0:0:0:0:
192,192,165159,128,0,165325:0:0:0:0:
320,192,165242,128,0,165408:0:0:0:0:
64,192,165325,128,0,165491:0:0:0:0:
448,192,165408,128,0,165574:0:0:0:0:
192,192,165491,128,0,165656:0:0:0:0:
320,192,165574,128,0,165739:0:0:0:0:
64,192,165656,128,0,165905:0:0:0:0:
448,192,165739,128,0,165988:0:0:0:0:
320,192,165822,128,0,166071:0:0:0:0:
192,192,165905,128,0,166154:0:0:0:0:
64,192,165988,128,0,166319:0:0:0:0:
448,192,166071,128,0,166319:0:0:0:0:
320,192,166154,128,0,166319:0:0:0:0:
192,192,166237,128,0,166319:0:0:0:0:
192,192,166485,128,0,166651:0:0:0:0:
448,192,166485,128,0,166651:0:0:0:0:
64,192,166485,128,0,166899:0:0:0:0:
448,192,166734,128,0,166899:0:0:0:0:
192,192,166734,128,0,167148:0:0:0:0:
320,192,166734,128,0,166899:0:0:0:0:
64,192,166982,128,0,167148:0:0:0:0:
320,192,166982,128,0,167148:0:0:0:0:
448,192,166982,128,0,167314:0:0:0:0:
320,192,167231,128,0,167314:0:0:0:0:
64,192,167231,128,0,167314:0:0:0:0:
192,192,167231,128,0,167314:0:0:0:0:
64,192,167397,1,0,0:0:0:0:
192,192,167397,1,0,0:0:0:0:
448,192,167480,1,0,0:0:0:0:
192,192,167562,1,0,0:0:0:0:
320,192,167604,1,0,0:0:0:0:
64,192,167645,5,0,0:0:0:0:
448,192,167645,1,0,0:0:0:0:
192,192,167687,1,0,0:0:0:0:
320,192,167728,1,0,0:0:0:0:
64,192,167770,1,0,0:0:0:0:
192,192,167811,1,0,0:0:0:0:
448,192,167866,1,0,0:0:0:0:
448,192,167977,1,0,0:0:0:0:
64,192,167977,1,0,0:0:0:0:
320,192,168018,1,0,0:0:0:0:
192,192,168060,1,0,0:0:0:0:
448,192,168101,1,0,0:0:0:0:
64,192,168143,1,0,0:0:0:0:
192,192,168225,1,0,0:0:0:0:
320,192,168308,1,0,0:0:0:0:
192,192,168391,1,0,0:0:0:0:
448,192,168474,1,0,0:0:0:0:
320,192,168474,1,0,0:0:0:0:
192,192,168557,1,0,0:0:0:0:
448,192,168640,1,0,0:0:0:0:
192,192,168640,1,0,0:0:0:0:
448,192,168723,1,0,0:0:0:0:
64,192,168764,1,0,0:0:0:0:
320,192,168806,1,0,0:0:0:0:
448,192,168861,1,0,0:0:0:0:
64,192,168971,1,0,0:0:0:0:
192,192,168971,1,0,0:0:0:0:
320,192,169013,1,0,0:0:0:0:
64,192,169054,1,0,0:0:0:0:
448,192,169137,1,0,0:0:0:0:
192,192,169179,1,0,0:0:0:0:
320,192,169220,1,0,0:0:0:0:
192,192,169303,1,0,0:0:0:0:
448,192,169303,1,0,0:0:0:0:
64,192,169350,1,0,0:0:0:0:
320,192,169398,1,0,0:0:0:0:
64,192,169445,1,0,0:0:0:0:
192,192,169492,1,0,0:0:0:0:
320,192,169540,1,0,0:0:0:0:
448,192,169634,1,0,0:0:0:0:
64,192,169717,1,0,0:0:0:0:
320,192,169800,1,0,0:0:0:0:
448,192,169800,1,0,0:0:0:0:
192,192,169883,1,0,0:0:0:0:
320,192,169966,1,0,0:0:0:0:
192,192,169966,1,0,0:0:0:0:
448,192,170049,1,0,0:0:0:0:
64,192,170049,1,0,0:0:0:0:
448,192,170132,1,0,0:0:0:0:
192,192,170214,1,0,0:0:0:0:
64,192,170214,1,0,0:0:0:0:
448,192,170297,1,0,0:0:0:0:
64,192,170297,1,0,0:0:0:0:
320,192,170330,1,0,0:0:0:0:
192,192,170364,1,0,0:0:0:0:
448,192,170397,1,0,0:0:0:0:
320,192,170430,1,0,0:0:0:0:
64,192,170463,1,0,0:0:0:0:
192,192,170518,1,0,0:0:0:0:
192,192,170629,1,0,0:0:0:0:
448,192,170629,1,0,0:0:0:0:
320,192,170670,1,0,0:0:0:0:
64,192,170712,1,0,0:0:0:0:
192,192,170753,1,0,0:0:0:0:
448,192,170795,1,0,0:0:0:0:
320,192,170877,1,0,0:0:0:0:
192,192,170960,1,0,0:0:0:0:
320,192,171043,1,0,0:0:0:0:
64,192,171126,1,0,0:0:0:0:
192,192,171126,1,0,0:0:0:0:
320,192,171209,1,0,0:0:0:0:
64,192,171292,1,0,0:0:0:0:
320,192,171292,1,0,0:0:0:0:
448,192,171339,1,0,0:0:0:0:
64,192,171386,1,0,0:0:0:0:
320,192,171434,1,0,0:0:0:0:
192,192,171481,1,0,0:0:0:0:
448,192,171529,1,0,0:0:0:0:
192,192,171623,1,0,0:0:0:0:
64,192,171623,1,0,0:0:0:0:
64,192,171706,1,0,0:0:0:0:
448,192,171734,1,0,0:0:0:0:
320,192,171761,1,0,0:0:0:0:
192,192,171789,1,0,0:0:0:0:
64,192,171830,1,0,0:0:0:0:
320,192,171872,1,0,0:0:0:0:
448,192,171955,1,0,0:0:0:0:
192,192,171955,1,0,0:0:0:0:
64,192,172002,1,0,0:0:0:0:
192,192,172049,1,0,0:0:0:0:
320,192,172120,1,0,0:0:0:0:
320,192,172203,1,0,0:0:0:0:
64,192,172245,1,0,0:0:0:0:
320,192,172286,1,0,0:0:0:0:
192,192,172452,1,0,0:0:0:0:
64,192,172452,1,0,0:0:0:0:
448,192,172493,1,0,0:0:0:0:
320,192,172535,1,0,0:0:0:0:
64,192,172618,1,0,0:0:0:0:
448,192,172618,1,0,0:0:0:0:
192,192,172701,1,0,0:0:0:0:
448,192,172701,1,0,0:0:0:0:
64,192,172742,1,0,0:0:0:0:
320,192,172783,1,0,0:0:0:0:
64,192,172866,1,0,0:0:0:0:
192,192,172866,1,0,0:0:0:0:
448,192,172949,5,0,0:0:0:0:
64,192,172949,1,0,0:0:0:0:
320,192,172991,1,0,0:0:0:0:
192,192,173032,1,0,0:0:0:0:
448,192,173074,1,0,0:0:0:0:
320,192,173115,1,0,0:0:0:0:
64,192,173170,1,0,0:0:0:0:
448,192,173281,1,0,0:0:0:0:
64,192,173281,1,0,0:0:0:0:
192,192,173322,1,0,0:0:0:0:
320,192,173364,1,0,0:0:0:0:
64,192,173405,1,0,0:0:0:0:
448,192,173446,1,0,0:0:0:0:
320,192,173529,1,0,0:0:0:0:
192,192,173612,1,0,0:0:0:0:
320,192,173695,1,0,0:0:0:0:
192,192,173778,1,0,0:0:0:0:
64,192,173778,1,0,0:0:0:0:
320,192,173861,1,0,0:0:0:0:
320,192,173944,1,0,0:0:0:0:
64,192,173944,1,0,0:0:0:0:
64,192,174027,1,0,0:0:0:0:
448,192,174068,1,0,0:0:0:0:
192,192,174109,1,0,0:0:0:0:
64,192,174165,1,0,0:0:0:0:
320,192,174275,1,0,0:0:0:0:
448,192,174275,1,0,0:0:0:0:
192,192,174317,1,0,0:0:0:0:
448,192,174358,1,0,0:0:0:0:
64,192,174441,1,0,0:0:0:0:
320,192,174482,1,0,0:0:0:0:
192,192,174524,1,0,0:0:0:0:
64,192,174607,1,0,0:0:0:0:
320,192,174607,1,0,0:0:0:0:
448,192,174654,1,0,0:0:0:0:
192,192,174701,1,0,0:0:0:0:
448,192,174749,1,0,0:0:0:0:
320,192,174772,1,0,0:0:0:0:
64,192,174796,1,0,0:0:0:0:
192,192,174855,1,0,0:0:0:0:
320,192,174938,128,0,175104:0:0:0:0:
448,192,174938,128,0,175021:0:0:0:0:
64,192,175021,128,0,175270:0:0:0:0:
448,192,175104,128,0,175270:0:0:0:0:
320,192,175187,128,0,175270:0:0:0:0:
192,192,175270,1,0,0:0:0:0:
320,192,175353,1,0,0:0:0:0:
64,192,175394,1,0,0:0:0:0:
448,192,175435,1,0,0:0:0:0:
320,192,175477,1,0,0:0:0:0:
192,192,175518,1,0,0:0:0:0:
320,192,175601,128,0,175822:0:0:0:0:
448,192,175601,128,0,175739:0:0:0:0:
64,192,175601,128,0,175739:0:0:0:0:
192,192,175739,1,0,0:0:0:0:
448,192,175822,1,0,0:0:0:0:
448,192,175933,128,0,176071:0:0:0:0:
192,192,175933,128,0,176071:0:0:0:0:
64,192,175933,128,0,176154:0:0:0:0:
320,192,176071,1,0,0:0:0:0:
192,192,176154,1,0,0:0:0:0:
192,192,176264,128,0,176402:0:0:0:0:
320,192,176264,128,0,176402:0:0:0:0:
448,192,176264,128,0,176485:0:0:0:0:
64,192,176402,1,0,0:0:0:0:
320,192,176485,1,0,0:0:0:0:
320,192,176596,128,0,176734:0:0:0:0:
64,192,176596,128,0,176734:0:0:0:0:
192,192,176596,128,0,176817:0:0:0:0:
448,192,176734,1,0,0:0:0:0:
64,192,176817,1,0,0:0:0:0:
448,192,176927,128,0,177148:0:0:0:0:
320,192,176927,128,0,177065:0:0:0:0:
64,192,176927,128,0,177065:0:0:0:0:
192,192,177065,1,0,0:0:0:0:
320,192,177148,1,0,0:0:0:0:
320,192,177259,128,0,177397:0:0:0:0:
192,192,177259,128,0,177397:0:0:0:0:
64,192,177259,128,0,177480:0:0:0:0:
448,192,177397,1,0,0:0:0:0:
192,192,177480,1,0,0:0:0:0:
192,192,177590,128,0,177728:0:0:0:0:
448,192,177590,128,0,177728:0:0:0:0:
320,192,177590,128,0,177811:0:0:0:0:
64,192,177728,1,0,0:0:0:0:
448,192,177811,1,0,0:0:0:0:
448,192,177922,128,0,178060:0:0:0:0:
64,192,177922,128,0,178060:0:0:0:0:
192,192,177922,128,0,178143:0:0:0:0:
320,192,178060,1,0,0:0:0:0:
64,192,178143,1,0,0:0:0:0:
64,192,178253,1,0,0:0:0:0:
448,192,178253,1,0,0:0:0:0:
320,192,178253,1,0,0:0:0:0:
448,192,178336,1,0,0:0:0:0:
192,192,178419,1,0,0:0:0:0:
64,192,178419,1,0,0:0:0:0:
320,192,178502,1,0,0:0:0:0:
448,192,178585,1,0,0:0:0:0:
192,192,178585,1,0,0:0:0:0:
64,192,178585,1,0,0:0:0:0:
192,192,178667,1,0,0:0:0:0:
320,192,178750,1,0,0:0:0:0:
448,192,178750,1,0,0:0:0:0:
64,192,178833,1,0,0:0:0:0:
192,192,178916,1,0,0:0:0:0:
320,192,178916,1,0,0:0:0:0:
448,192,178916,1,0,0:0:0:0:
320,192,178999,1,0,0:0:0:0:
192,192,179082,1,0,0:0:0:0:
64,192,179082,1,0,0:0:0:0:
448,192,179165,1,0,0:0:0:0:
320,192,179248,1,0,0:0:0:0:
192,192,179248,1,0,0:0:0:0:
64,192,179248,1,0,0:0:0:0:
64,192,179330,1,0,0:0:0:0:
448,192,179413,1,0,0:0:0:0:
192,192,179413,1,0,0:0:0:0:
320,192,179496,1,0,0:0:0:0:
448,192,179579,1,0,0:0:0:0:
192,192,179579,1,0,0:0:0:0:
64,192,179579,1,0,0:0:0:0:
192,192,179662,1,0,0:0:0:0:
320,192,179745,1,0,0:0:0:0:
448,192,179745,1,0,0:0:0:0:
64,192,179828,1,0,0:0:0:0:
192,192,179911,1,0,0:0:0:0:
320,192,179911,1,0,0:0:0:0:
448,192,179911,1,0,0:0:0:0:
320,192,179993,1,0,0:0:0:0:
64,192,180076,1,0,0:0:0:0:
192,192,180076,1,0,0:0:0:0:
448,192,180159,1,0,0:0:0:0:
192,192,180242,1,0,0:0:0:0:
64,192,180242,1,0,0:0:0:0:
320,192,180242,1,0,0:0:0:0:
448,192,180297,1,0,0:0:0:0:
64,192,180353,1,0,0:0:0:0:
320,192,180408,1,0,0:0:0:0:
192,192,180463,1,0,0:0:0:0:
320,192,180518,1,0,0:0:0:0:
64,192,180574,1,0,0:0:0:0:
448,192,180574,1,0,0:0:0:0:
192,192,180629,1,0,0:0:0:0:
320,192,180684,1,0,0:0:0:0:
192,192,180739,1,0,0:0:0:0:
448,192,180795,1,0,0:0:0:0:
64,192,180850,1,0,0:0:0:0:
448,192,180905,128,0,181126:0:0:0:0:
320,192,180905,128,0,181126:0:0:0:0:
192,192,180905,128,0,181016:0:0:0:0:
448,192,181237,1,0,0:0:0:0:
320,192,181278,1,0,0:0:0:0:
192,192,181319,1,0,0:0:0:0:
448,192,181361,1,0,0:0:0:0:
64,192,181402,1,0,0:0:0:0:
192,192,181485,1,0,0:0:0:0:
192,192,181651,1,0,0:0:0:0:
192,192,181817,1,0,0:0:0:0:
320,192,181899,1,0,0:0:0:0:
448,192,181982,1,0,0:0:0:0:
64,192,182024,1,0,0:0:0:0:
320,192,182065,1,0,0:0:0:0:
192,192,182120,1,0,0:0:0:0:
64,192,182231,1,0,0:0:0:0:
448,192,182397,1,0,0:0:0:0:
320,192,182480,1,0,0:0:0:0:
192,192,182562,1,0,0:0:0:0:
64,192,182629,1,0,0:0:0:0:
448,192,182695,1,0,0:0:0:0:
64,192,182761,1,0,0:0:0:0:
320,192,182811,1,0,0:0:0:0:
192,192,182894,1,0,0:0:0:0:
320,192,182977,1,0,0:0:0:0:
192,192,183060,1,0,0:0:0:0:
448,192,183143,1,0,0:0:0:0:
448,192,183225,1,0,0:0:0:0:
64,192,183308,1,0,0:0:0:0:
64,192,183391,128,0,183557:0:0:0:0:
320,192,183557,128,0,183778:0:0:0:0:
64,192,183888,128,0,184054:0:0:0:0:
448,192,184054,1,0,0:0:0:0:
192,192,184137,1,0,0:0:0:0:
192,192,184303,1,0,0:0:0:0:
192,192,184469,1,0,0:0:0:0:
320,192,184551,1,0,0:0:0:0:
64,192,184607,1,0,0:0:0:0:
448,192,184662,1,0,0:0:0:0:
320,192,184717,1,0,0:0:0:0:
192,192,184883,128,0,185049:0:0:0:0:
320,192,185049,1,0,0:0:0:0:
448,192,185132,1,0,0:0:0:0:
192,192,185214,1,0,0:0:0:0:
320,192,185270,1,0,0:0:0:0:
448,192,185325,1,0,0:0:0:0:
64,192,185380,1,0,0:0:0:0:
192,192,185435,1,0,0:0:0:0:
320,192,185491,1,0,0:0:0:0:
64,192,185546,1,0,0:0:0:0:
448,192,185629,1,0,0:0:0:0:
320,192,185712,1,0,0:0:0:0:
64,192,185795,1,0,0:0:0:0:
64,192,185877,1,0,0:0:0:0:
448,192,185960,1,0,0:0:0:0:
448,192,186043,128,0,186209:0:0:0:0:
64,192,186209,1,0,0:0:0:0:
192,192,186209,1,0,0:0:0:0:
320,192,186256,1,0,0:0:0:0:
64,192,186304,1,0,0:0:0:0:
448,192,186351,1,0,0:0:0:0:
192,192,186398,1,0,0:0:0:0:
320,192,186446,1,0,0:0:0:0:
64,192,186493,1,0,0:0:0:0:
448,192,186540,1,0,0:0:0:0:
320,192,186582,1,0,0:0:0:0:
192,192,186623,1,0,0:0:0:0:
64,192,186665,1,0,0:0:0:0:
448,192,186706,1,0,0:0:0:0:
320,192,186789,1,0,0:0:0:0:
64,192,186872,1,0,0:0:0:0:
192,192,186927,1,0,0:0:0:0:
320,192,186982,1,0,0:0:0:0:
192,192,187038,1,0,0:0:0:0:
64,192,187120,1,0,0:0:0:0:
448,192,187203,1,0,0:0:0:0:
64,192,187286,1,0,0:0:0:0:
448,192,187369,1,0,0:0:0:0:
64,192,187452,1,0,0:0:0:0:
448,192,187535,1,0,0:0:0:0:
64,192,187618,1,0,0:0:0:0:
448,192,187701,5,0,0:0:0:0:
320,192,187756,1,0,0:0:0:0:
192,192,187811,1,0,0:0:0:0:
448,192,187866,5,0,0:0:0:0:
192,192,187922,1,0,0:0:0:0:
64,192,187977,1,0,0:0:0:0:
448,192,188032,5,0,0:0:0:0:
320,192,188087,1,0,0:0:0:0:
64,192,188143,1,0,0:0:0:0:
320,192,188198,5,0,0:0:0:0:
192,192,188253,1,0,0:0:0:0:
64,192,188308,1,0,0:0:0:0:
448,192,188364,5,0,0:0:0:0:
192,192,188419,1,0,0:0:0:0:
448,192,188474,1,0,0:0:0:0:
64,192,188529,1,0,0:0:0:0:
320,192,188612,1,0,0:0:0:0:
448,192,188695,1,0,0:0:0:0:
192,192,188778,1,0,0:0:0:0:
64,192,188861,1,0,0:0:0:0:
448,192,188861,128,0,189027:0:0:0:0:
320,192,188861,128,0,189027:0:0:0:0:
64,192,189027,1,0,0:0:0:0:
192,192,189027,1,0,0:0:0:0:
192,192,189192,1,0,0:0:0:0:
64,192,189192,1,0,0:0:0:0:
448,192,189358,1,0,0:0:0:0:
64,192,189358,128,0,189524:0:0:0:0:
192,192,189358,128,0,189524:0:0:0:0:
320,192,189524,1,0,0:0:0:0:
448,192,189524,1,0,0:0:0:0:
448,192,189690,1,0,0:0:0:0:
320,192,189690,1,0,0:0:0:0:
448,192,189855,5,0,0:0:0:0:
320,192,189855,1,0,0:0:0:0:
192,192,189911,1,0,0:0:0:0:
64,192,189911,1,0,0:0:0:0:
320,192,189966,1,0,0:0:0:0:
448,192,189966,1,0,0:0:0:0:
192,192,190021,5,0,0:0:0:0:
64,192,190021,1,0,0:0:0:0:
320,192,190076,1,0,0:0:0:0:
448,192,190076,1,0,0:0:0:0:
192,192,190132,1,0,0:0:0:0:
64,192,190187,1,0,0:0:0:0:
320,192,190187,128,0,190270:0:0:0:0:
448,192,190187,128,0,190353:0:0:0:0:
192,192,190270,1,0,0:0:0:0:
320,192,190353,1,0,0:0:0:0:
448,192,190435,1,0,0:0:0:0:
192,192,190435,128,0,190518:0:0:0:0:
64,192,190435,128,0,190601:0:0:0:0:
320,192,190518,1,0,0:0:0:0:
192,192,190601,1,0,0:0:0:0:
320,192,190684,128,0,190767:0:0:0:0:
64,192,190684,1,0,0:0:0:0:
448,192,190684,128,0,190767:0:0:0:0:
192,192,190767,1,0,0:0:0:0:
448,192,190850,1,0,0:0:0:0:
320,192,190850,1,0,0:0:0:0:
64,192,191016,1,0,0:0:0:0:
448,192,191098,1,0,0:0:0:0:
192,192,191181,5,0,0:0:0:0:
320,192,191237,1,0,0:0:0:0:
192,192,191292,1,0,0:0:0:0:
448,192,191347,1,0,0:0:0:0:
64,192,191402,1,0,0:0:0:0:
448,192,191458,1,0,0:0:0:0:
64,192,191513,5,0,0:0:0:0:
192,192,191513,1,0,0:0:0:0:
320,192,191560,1,0,0:0:0:0:
64,192,191607,1,0,0:0:0:0:
448,192,191655,1,0,0:0:0:0:
192,192,191702,1,0,0:0:0:0:
320,192,191750,1,0,0:0:0:0:
64,192,191797,1,0,0:0:0:0:
448,192,191844,1,0,0:0:0:0:
320,192,191886,1,0,0:0:0:0:
192,192,191927,1,0,0:0:0:0:
64,192,191969,1,0,0:0:0:0:
448,192,192010,1,0,0:0:0:0:
320,192,192093,1,0,0:0:0:0:
448,192,192176,1,0,0:0:0:0:
64,192,192176,1,0,0:0:0:0:
192,192,192213,1,0,0:0:0:0:
320,192,192249,1,0,0:0:0:0:
192,192,192286,1,0,0:0:0:0:
64,192,192323,1,0,0:0:0:0:
448,192,192507,1,0,0:0:0:0:
320,192,192549,1,0,0:0:0:0:
192,192,192590,1,0,0:0:0:0:
448,192,192632,1,0,0:0:0:0:
192,192,192673,1,0,0:0:0:0:
320,192,192714,1,0,0:0:0:0:
64,192,192756,1,0,0:0:0:0:
320,192,192839,1,0,0:0:0:0:
448,192,192839,1,0,0:0:0:0:
192,192,192922,1,0,0:0:0:0:
448,192,193004,1,0,0:0:0:0:
320,192,193025,1,0,0:0:0:0:
192,192,193087,1,0,0:0:0:0:
448,192,193170,1,0,0:0:0:0:
320,192,193191,1,0,0:0:0:0:
192,192,193253,1,0,0:0:0:0:
448,192,193336,1,0,0:0:0:0:
320,192,193357,1,0,0:0:0:0:
192,192,193419,1,0,0:0:0:0:
448,192,193502,1,0,0:0:0:0:
64,192,193502,1,0,0:0:0:0:
320,192,193522,1,0,0:0:0:0:
192,192,193585,1,0,0:0:0:0:
448,192,193667,1,0,0:0:0:0:
320,192,193688,1,0,0:0:0:0:
192,192,193750,1,0,0:0:0:0:
448,192,193833,1,0,0:0:0:0:
320,192,193854,1,0,0:0:0:0:
192,192,193916,1,0,0:0:0:0:
64,192,193999,1,0,0:0:0:0:
320,192,194032,1,0,0:0:0:0:
192,192,194065,1,0,0:0:0:0:
64,192,194098,1,0,0:0:0:0:
320,192,194165,1,0,0:0:0:0:
448,192,194165,1,0,0:0:0:0:
192,192,194212,1,0,0:0:0:0:
448,192,194259,1,0,0:0:0:0:
64,192,194307,1,0,0:0:0:0:
320,192,194354,1,0,0:0:0:0:
192,192,194401,1,0,0:0:0:0:
448,192,194449,1,0,0:0:0:0:
64,192,194496,1,0,0:0:0:0:
192,192,194538,1,0,0:0:0:0:
320,192,194579,1,0,0:0:0:0:
448,192,194620,1,0,0:0:0:0:
64,192,194662,1,0,0:0:0:0:
192,192,194745,1,0,0:0:0:0:
64,192,194828,1,0,0:0:0:0:
448,192,194828,1,0,0:0:0:0:
320,192,194865,1,0,0:0:0:0:
192,192,194901,1,0,0:0:0:0:
320,192,194938,1,0,0:0:0:0:
448,192,194975,1,0,0:0:0:0:
64,192,195159,1,0,0:0:0:0:
448,192,195187,1,0,0:0:0:0:
192,192,195214,1,0,0:0:0:0:
320,192,195242,1,0,0:0:0:0:
192,192,195325,1,0,0:0:0:0:
320,192,195353,1,0,0:0:0:0:
64,192,195380,1,0,0:0:0:0:
448,192,195408,1,0,0:0:0:0:
64,192,195491,1,0,0:0:0:0:
192,192,195491,1,0,0:0:0:0:
448,192,195518,1,0,0:0:0:0:
320,192,195574,1,0,0:0:0:0:
192,192,195656,1,0,0:0:0:0:
320,192,195684,1,0,0:0:0:0:
64,192,195712,1,0,0:0:0:0:
448,192,195739,1,0,0:0:0:0:
64,192,195822,1,0,0:0:0:0:
448,192,195850,1,0,0:0:0:0:
192,192,195877,1,0,0:0:0:0:
320,192,195905,1,0,0:0:0:0:
192,192,195988,1,0,0:0:0:0:
320,192,196016,1,0,0:0:0:0:
64,192,196043,1,0,0:0:0:0:
448,192,196071,1,0,0:0:0:0:
448,192,196154,1,0,0:0:0:0:
64,192,196154,1,0,0:0:0:0:
192,192,196319,1,0,0:0:0:0:
320,192,196361,1,0,0:0:0:0:
192,192,196402,1,0,0:0:0:0:
448,192,196444,1,0,0:0:0:0:
64,192,196485,1,0,0:0:0:0:
320,192,196540,1,0,0:0:0:0:
448,192,196596,1,0,0:0:0:0:
192,192,196651,1,0,0:0:0:0:
64,192,196692,1,0,0:0:0:0:
320,192,196734,1,0,0:0:0:0:
448,192,196775,1,0,0:0:0:0:
64,192,196817,5,0,0:0:0:0:
192,192,196817,1,0,0:0:0:0:
320,192,196864,1,0,0:0:0:0:
64,192,196911,1,0,0:0:0:0:
448,192,196959,1,0,0:0:0:0:
192,192,197006,1,0,0:0:0:0:
320,192,197053,1,0,0:0:0:0:
64,192,197101,1,0,0:0:0:0:
448,192,197148,1,0,0:0:0:0:
320,192,197190,1,0,0:0:0:0:
192,192,197231,1,0,0:0:0:0:
64,192,197272,1,0,0:0:0:0:
448,192,197314,1,0,0:0:0:0:
320,192,197397,1,0,0:0:0:0:
448,192,197480,1,0,0:0:0:0:
64,192,197480,1,0,0:0:0:0:
192,192,197516,1,0,0:0:0:0:
320,192,197553,1,0,0:0:0:0:
192,192,197590,1,0,0:0:0:0:
64,192,197627,1,0,0:0:0:0:
448,192,197811,1,0,0:0:0:0:
320,192,197853,1,0,0:0:0:0:
192,192,197894,1,0,0:0:0:0:
448,192,197935,1,0,0:0:0:0:
192,192,197977,1,0,0:0:0:0:
320,192,198018,1,0,0:0:0:0:
64,192,198060,1,0,0:0:0:0:
320,192,198143,1,0,0:0:0:0:
448,192,198143,1,0,0:0:0:0:
192,192,198225,1,0,0:0:0:0:
448,192,198308,1,0,0:0:0:0:
320,192,198329,1,0,0:0:0:0:
192,192,198391,1,0,0:0:0:0:
448,192,198474,1,0,0:0:0:0:
320,192,198495,1,0,0:0:0:0:
192,192,198557,1,0,0:0:0:0:
448,192,198640,1,0,0:0:0:0:
320,192,198661,1,0,0:0:0:0:
192,192,198723,1,0,0:0:0:0:
448,192,198806,1,0,0:0:0:0:
64,192,198806,1,0,0:0:0:0:
320,192,198826,1,0,0:0:0:0:
192,192,198888,1,0,0:0:0:0:
448,192,198971,1,0,0:0:0:0:
320,192,198992,1,0,0:0:0:0:
192,192,199054,1,0,0:0:0:0:
448,192,199137,1,0,0:0:0:0:
320,192,199158,1,0,0:0:0:0:
192,192,199220,1,0,0:0:0:0:
64,192,199303,1,0,0:0:0:0:
320,192,199336,1,0,0:0:0:0:
192,192,199369,1,0,0:0:0:0:
64,192,199402,1,0,0:0:0:0:
320,192,199469,1,0,0:0:0:0:
448,192,199469,1,0,0:0:0:0:
192,192,199516,1,0,0:0:0:0:
448,192,199563,1,0,0:0:0:0:
64,192,199611,1,0,0:0:0:0:
320,192,199658,1,0,0:0:0:0:
192,192,199705,1,0,0:0:0:0:
448,192,199753,1,0,0:0:0:0:
64,192,199800,1,0,0:0:0:0:
192,192,199841,1,0,0:0:0:0:
320,192,199883,1,0,0:0:0:0:
448,192,199924,1,0,0:0:0:0:
64,192,199966,1,0,0:0:0:0:
192,192,200049,1,0,0:0:0:0:
64,192,200132,1,0,0:0:0:0:
448,192,200132,1,0,0:0:0:0:
320,192,200168,1,0,0:0:0:0:
192,192,200205,1,0,0:0:0:0:
320,192,200242,1,0,0:0:0:0:
448,192,200279,1,0,0:0:0:0:
192,192,200463,1,0,0:0:0:0:
320,192,200504,1,0,0:0:0:0:
192,192,200546,1,0,0:0:0:0:
448,192,200587,1,0,0:0:0:0:
64,192,200629,1,0,0:0:0:0:
192,192,200670,1,0,0:0:0:0:
320,192,200712,1,0,0:0:0:0:
448,192,200753,1,0,0:0:0:0:
64,192,200795,1,0,0:0:0:0:
192,192,200795,1,0,0:0:0:0:
64,192,200877,1,0,0:0:0:0:
64,192,200960,5,0,0:0:0:0:
448,192,201043,1,0,0:0:0:0:
320,192,201126,1,0,0:0:0:0:
64,192,201181,1,0,0:0:0:0:
192,192,201237,1,0,0:0:0:0:
448,192,201292,1,0,0:0:0:0:
64,192,201354,1,0,0:0:0:0:
320,192,201416,1,0,0:0:0:0:
192,192,201458,1,0,0:0:0:0:
64,192,201499,1,0,0:0:0:0:
448,192,201540,1,0,0:0:0:0:
320,192,201623,1,0,0:0:0:0:
192,192,201706,1,0,0:0:0:0:
64,192,201789,1,0,0:0:0:0:
448,192,201872,1,0,0:0:0:0:
448,192,201955,1,0,0:0:0:0:
448,192,202038,1,0,0:0:0:0:
64,192,202120,5,0,0:0:0:0:
192,192,202120,1,0,0:0:0:0:
320,192,202168,1,0,0:0:0:0:
64,192,202215,1,0,0:0:0:0:
448,192,202263,1,0,0:0:0:0:
192,192,202310,1,0,0:0:0:0:
320,192,202357,1,0,0:0:0:0:
64,192,202405,1,0,0:0:0:0:
448,192,202452,1,0,0:0:0:0:
320,192,202493,1,0,0:0:0:0:
192,192,202535,1,0,0:0:0:0:
64,192,202576,1,0,0:0:0:0:
448,192,202618,1,0,0:0:0:0:
320,192,202701,1,0,0:0:0:0:
448,192,202783,1,0,0:0:0:0:
64,192,202783,1,0,0:0:0:0:
192,192,202820,1,0,0:0:0:0:
320,192,202857,1,0,0:0:0:0:
192,192,202894,1,0,0:0:0:0:
64,192,202931,1,0,0:0:0:0:
192,192,203115,1,0,0:0:0:0:
64,192,203115,1,0,0:0:0:0:
448,192,203115,1,0,0:0:0:0:
448,192,203198,1,0,0:0:0:0:
64,192,203281,1,0,0:0:0:0:
64,192,203364,1,0,0:0:0:0:
448,192,203446,1,0,0:0:0:0:
448,192,203529,1,0,0:0:0:0:
64,192,203612,1,0,0:0:0:0:
64,192,203695,1,0,0:0:0:0:
320,192,203778,1,0,0:0:0:0:
192,192,203778,1,0,0:0:0:0:
448,192,203778,1,0,0:0:0:0:
448,192,203861,1,0,0:0:0:0:
64,192,203944,1,0,0:0:0:0:
64,192,204027,1,0,0:0:0:0:
320,192,204109,1,0,0:0:0:0:
448,192,204109,1,0,0:0:0:0:
192,192,204151,1,0,0:0:0:0:
64,192,204192,1,0,0:0:0:0:
448,192,204275,128,0,204441:0:0:0:0:
64,192,204441,1,0,0:0:0:0:
320,192,204482,1,0,0:0:0:0:
192,192,204524,1,0,0:0:0:0:
64,192,204565,1,0,0:0:0:0:
448,192,204607,1,0,0:0:0:0:
192,192,204648,1,0,0:0:0:0:
64,192,204772,1,0,0:0:0:0:
320,192,204772,1,0,0:0:0:0:
448,192,204772,1,0,0:0:0:0:
192,192,204820,1,0,0:0:0:0:
448,192,204867,1,0,0:0:0:0:
64,192,204914,1,0,0:0:0:0:
320,192,204962,1,0,0:0:0:0:
192,192,205009,1,0,0:0:0:0:
448,192,205057,1,0,0:0:0:0:
64,192,205104,1,0,0:0:0:0:
192,192,205145,1,0,0:0:0:0:
320,192,205187,1,0,0:0:0:0:
448,192,205228,1,0,0:0:0:0:
64,192,205270,1,0,0:0:0:0:
192,192,205353,1,0,0:0:0:0:
64,192,205435,1,0,0:0:0:0:
448,192,205435,1,0,0:0:0:0:
320,192,205472,1,0,0:0:0:0:
192,192,205509,1,0,0:0:0:0:
320,192,205546,1,0,0:0:0:0:
448,192,205583,1,0,0:0:0:0:
448,192,205767,1,0,0:0:0:0:
320,192,205767,1,0,0:0:0:0:
64,192,205767,1,0,0:0:0:0:
64,192,205850,1,0,0:0:0:0:
448,192,205933,1,0,0:0:0:0:
448,192,206016,1,0,0:0:0:0:
64,192,206098,1,0,0:0:0:0:
64,192,206181,1,0,0:0:0:0:
448,192,206264,1,0,0:0:0:0:
448,192,206347,1,0,0:0:0:0:
320,192,206430,1,0,0:0:0:0:
192,192,206430,1,0,0:0:0:0:
64,192,206430,1,0,0:0:0:0:
64,192,206513,1,0,0:0:0:0:
448,192,206596,1,0,0:0:0:0:
448,192,206679,1,0,0:0:0:0:
192,192,206761,1,0,0:0:0:0:
64,192,206761,1,0,0:0:0:0:
320,192,206803,1,0,0:0:0:0:
448,192,206844,1,0,0:0:0:0:
64,192,206886,1,0,0:0:0:0:
320,192,206927,1,0,0:0:0:0:
192,192,206982,1,0,0:0:0:0:
448,192,207038,1,0,0:0:0:0:
320,192,207093,1,0,0:0:0:0:
64,192,207148,1,0,0:0:0:0:
448,192,207203,1,0,0:0:0:0:
192,192,207259,1,0,0:0:0:0:
64,192,207300,1,0,0:0:0:0:
320,192,207341,1,0,0:0:0:0:
448,192,207383,1,0,0:0:0:0:
192,192,207424,1,0,0:0:0:0:
64,192,207424,1,0,0:0:0:0:
320,192,207466,1,0,0:0:0:0:
448,192,207507,1,0,0:0:0:0:
192,192,207549,1,0,0:0:0:0:
320,192,207590,1,0,0:0:0:0:
64,192,207645,1,0,0:0:0:0:
192,192,207701,1,0,0:0:0:0:
448,192,207756,1,0,0:0:0:0:
448,192,207839,1,0,0:0:0:0:
64,192,207922,1,0,0:0:0:0:
64,192,208004,1,0,0:0:0:0:
320,192,208087,1,0,0:0:0:0:
448,192,208087,1,0,0:0:0:0:
192,192,208129,1,0,0:0:0:0:
64,192,208170,1,0,0:0:0:0:
320,192,208212,1,0,0:0:0:0:
192,192,208253,1,0,0:0:0:0:
448,192,208308,1,0,0:0:0:0:
320,192,208364,1,0,0:0:0:0:
64,192,208419,1,0,0:0:0:0:
64,192,208502,1,0,0:0:0:0:
448,192,208585,1,0,0:0:0:0:
448,192,208667,1,0,0:0:0:0:
64,192,208750,1,0,0:0:0:0:
192,192,208750,1,0,0:0:0:0:
320,192,208792,1,0,0:0:0:0:
448,192,208833,1,0,0:0:0:0:
64,192,208875,1,0,0:0:0:0:
320,192,208916,1,0,0:0:0:0:
192,192,208971,1,0,0:0:0:0:
64,192,209027,1,0,0:0:0:0:
448,192,209082,1,0,0:0:0:0:
448,192,209165,1,0,0:0:0:0:
64,192,209248,1,0,0:0:0:0:
64,192,209330,1,0,0:0:0:0:
448,192,209413,1,0,0:0:0:0:
320,192,209469,1,0,0:0:0:0:
64,192,209524,1,0,0:0:0:0:
448,192,209579,1,0,0:0:0:0:
192,192,209634,1,0,0:0:0:0:
64,192,209690,1,0,0:0:0:0:
320,192,209745,1,0,0:0:0:0:
192,192,209800,1,0,0:0:0:0:
320,192,209855,1,0,0:0:0:0:
192,192,209911,1,0,0:0:0:0:
448,192,209952,1,0,0:0:0:0:
64,192,209993,1,0,0:0:0:0:
320,192,210035,1,0,0:0:0:0:
448,192,210076,128,0,210159:0:0:0:0:
64,192,210076,128,0,210242:0:0:0:0:
192,192,210076,128,0,210242:0:0:0:0:
448,192,210325,128,0,210408:0:0:0:0:
64,192,210325,128,0,210491:0:0:0:0:
192,192,210325,128,0,210491:0:0:0:0:
448,192,210574,128,0,210739:0:0:0:0:
320,192,210574,128,0,210739:0:0:0:0:
192,192,210574,128,0,210656:0:0:0:0:
192,192,210822,1,0,0:0:0:0:
448,192,210822,1,0,0:0:0:0:
320,192,210822,1,0,0:0:0:0:
448,192,210905,128,0,210988:0:0:0:0:
320,192,210905,128,0,210988:0:0:0:0:
448,192,211071,128,0,211154:0:0:0:0:
320,192,211071,128,0,211154:0:0:0:0:
192,192,211071,128,0,211154:0:0:0:0:
448,192,211237,1,0,0:0:0:0:
192,192,211237,1,0,0:0:0:0:
192,192,211319,1,0,0:0:0:0:
448,192,211402,128,0,211568:0:0:0:0:
320,192,211402,128,0,211568:0:0:0:0:
64,192,211402,128,0,211485:0:0:0:0:
448,192,211651,128,0,211817:0:0:0:0:
320,192,211651,128,0,211817:0:0:0:0:
64,192,211651,128,0,211734:0:0:0:0:
64,192,211899,128,0,212065:0:0:0:0:
192,192,211899,128,0,212065:0:0:0:0:
320,192,211899,128,0,211982:0:0:0:0:
192,192,212148,1,0,0:0:0:0:
64,192,212148,1,0,0:0:0:0:
320,192,212148,1,0,0:0:0:0:
64,192,212231,128,0,212314:0:0:0:0:
192,192,212231,128,0,212314:0:0:0:0:
64,192,212397,128,0,212480:0:0:0:0:
192,192,212397,128,0,212480:0:0:0:0:
320,192,212397,128,0,212480:0:0:0:0:
64,192,212562,1,0,0:0:0:0:
320,192,212562,1,0,0:0:0:0:
320,192,212645,1,0,0:0:0:0:
64,192,212728,1,0,0:0:0:0:
192,192,212728,1,0,0:0:0:0:
448,192,212783,1,0,0:0:0:0:
320,192,212839,1,0,0:0:0:0:
64,192,212977,1,0,0:0:0:0:
192,192,212977,1,0,0:0:0:0:
448,192,213032,1,0,0:0:0:0:
320,192,213087,1,0,0:0:0:0:
64,192,213225,1,0,0:0:0:0:
192,192,213225,1,0,0:0:0:0:
320,192,213253,1,0,0:0:0:0:
448,192,213281,1,0,0:0:0:0:
192,192,213336,1,0,0:0:0:0:
192,192,213474,1,0,0:0:0:0:
64,192,213474,1,0,0:0:0:0:
64,192,213557,1,0,0:0:0:0:
192,192,213557,1,0,0:0:0:0:
448,192,213612,1,0,0:0:0:0:
448,192,213723,1,0,0:0:0:0:
64,192,213723,1,0,0:0:0:0:
320,192,213764,1,0,0:0:0:0:
448,192,213888,1,0,0:0:0:0:
192,192,213888,1,0,0:0:0:0:
192,192,213971,1,0,0:0:0:0:
448,192,214054,1,0,0:0:0:0:
320,192,214054,1,0,0:0:0:0:
64,192,214109,1,0,0:0:0:0:
192,192,214165,1,0,0:0:0:0:
320,192,214303,1,0,0:0:0:0:
448,192,214303,1,0,0:0:0:0:
64,192,214358,1,0,0:0:0:0:
192,192,214413,1,0,0:0:0:0:
448,192,214551,1,0,0:0:0:0:
320,192,214551,1,0,0:0:0:0:
64,192,214607,1,0,0:0:0:0:
320,192,214662,1,0,0:0:0:0:
192,192,214717,1,0,0:0:0:0:
320,192,214800,1,0,0:0:0:0:
448,192,214800,1,0,0:0:0:0:
448,192,214883,1,0,0:0:0:0:
320,192,214883,1,0,0:0:0:0:
64,192,214938,1,0,0:0:0:0:
64,192,215049,1,0,0:0:0:0:
448,192,215049,1,0,0:0:0:0:
192,192,215090,1,0,0:0:0:0:
64,192,215214,1,0,0:0:0:0:
320,192,215214,1,0,0:0:0:0:
320,192,215297,1,0,0:0:0:0:
448,192,215380,128,0,215463:0:0:0:0:
64,192,215380,128,0,215546:0:0:0:0:
192,192,215380,128,0,215546:0:0:0:0:
448,192,215629,128,0,215712:0:0:0:0:
64,192,215629,128,0,215795:0:0:0:0:
192,192,215629,128,0,215795:0:0:0:0:
448,192,215877,128,0,216043:0:0:0:0:
320,192,215877,128,0,216043:0:0:0:0:
192,192,215877,128,0,215960:0:0:0:0:
192,192,216126,1,0,0:0:0:0:
448,192,216126,1,0,0:0:0:0:
320,192,216126,1,0,0:0:0:0:
448,192,216209,128,0,216292:0:0:0:0:
320,192,216209,128,0,216292:0:0:0:0:
448,192,216375,128,0,216458:0:0:0:0:
320,192,216375,128,0,216458:0:0:0:0:
192,192,216375,128,0,216458:0:0:0:0:
448,192,216540,1,0,0:0:0:0:
192,192,216540,1,0,0:0:0:0:
192,192,216623,1,0,0:0:0:0:
448,192,216706,128,0,216872:0:0:0:0:
320,192,216706,128,0,216872:0:0:0:0:
64,192,216706,128,0,216789:0:0:0:0:
448,192,216955,128,0,217120:0:0:0:0:
320,192,216955,128,0,217120:0:0:0:0:
64,192,216955,128,0,217038:0:0:0:0:
64,192,217203,128,0,217369:0:0:0:0:
192,192,217203,128,0,217369:0:0:0:0:
320,192,217203,128,0,217286:0:0:0:0:
192,192,217452,1,0,0:0:0:0:
64,192,217452,1,0,0:0:0:0:
320,192,217452,1,0,0:0:0:0:
64,192,217535,128,0,217618:0:0:0:0:
192,192,217535,128,0,217618:0:0:0:0:
64,192,217701,128,0,217783:0:0:0:0:
192,192,217701,128,0,217783:0:0:0:0:
320,192,217701,128,0,217783:0:0:0:0:
64,192,217866,1,0,0:0:0:0:
320,192,217866,1,0,0:0:0:0:
320,192,217949,1,0,0:0:0:0:
64,192,218032,1,0,0:0:0:0:
192,192,218032,1,0,0:0:0:0:
448,192,218087,1,0,0:0:0:0:
320,192,218143,1,0,0:0:0:0:
64,192,218281,1,0,0:0:0:0:
192,192,218281,1,0,0:0:0:0:
448,192,218336,1,0,0:0:0:0:
320,192,218391,1,0,0:0:0:0:
64,192,218529,1,0,0:0:0:0:
192,192,218529,1,0,0:0:0:0:
320,192,218557,1,0,0:0:0:0:
448,192,218585,1,0,0:0:0:0:
192,192,218640,1,0,0:0:0:0:
320,192,218695,1,0,0:0:0:0:
192,192,218778,1,0,0:0:0:0:
64,192,218778,1,0,0:0:0:0:
64,192,218861,1,0,0:0:0:0:
192,192,218861,1,0,0:0:0:0:
320,192,218944,1,0,0:0:0:0:
64,192,219027,1,0,0:0:0:0:
320,192,219027,1,0,0:0:0:0:
448,192,219109,1,0,0:0:0:0:
64,192,219192,1,0,0:0:0:0:
192,192,219192,1,0,0:0:0:0:
64,192,219275,1,0,0:0:0:0:
192,192,219275,1,0,0:0:0:0:
448,192,219358,1,0,0:0:0:0:
320,192,219358,1,0,0:0:0:0:
64,192,219441,128,0,219855:0:0:0:0:
448,192,219441,128,0,219607:0:0:0:0:
192,192,219441,128,0,219607:0:0:0:0:
448,192,219690,128,0,219855:0:0:0:0:
192,192,219690,128,0,220104:0:0:0:0:
320,192,219690,128,0,219855:0:0:0:0:
448,192,219938,128,0,220270:0:0:0:0:
64,192,219938,128,0,220104:0:0:0:0:
320,192,219938,128,0,220104:0:0:0:0:
320,192,220187,128,0,220270:0:0:0:0:
64,192,220187,128,0,220270:0:0:0:0:
192,192,220187,128,0,220270:0:0:0:0:
192,192,220353,1,0,0:0:0:0:
64,192,220353,1,0,0:0:0:0:
448,192,220435,1,0,0:0:0:0:
64,192,220518,1,0,0:0:0:0:
320,192,220560,1,0,0:0:0:0:
192,192,220601,1,0,0:0:0:0:
64,192,220684,128,0,221679:0:0:0:0:
320,192,220684,1,0,0:0:0:0:
448,192,220684,1,0,0:0:0:0:
320,192,221679,128,0,221844:0:0:0:0:
448,192,222010,128,0,222590:0:0:0:0:
192,192,222673,128,0,223336:0:0:0:0:
448,192,223336,128,0,224330:0:0:0:0:
320,192,224330,128,0,224579:0:0:0:0:
192,192,224662,128,0,225325:0:0:0:0:
320,192,225325,128,0,225656:0:0:0:0:
192,192,225656,128,0,225905:0:0:0:0:
64,192,225988,128,0,226982:0:0:0:0:
320,192,226982,128,0,227148:0:0:0:0:
448,192,227314,128,0,227977:0:0:0:0:
192,192,227977,128,0,228640:0:0:0:0:
448,192,228640,128,0,229634:0:0:0:0:
192,192,229634,128,0,229966:0:0:0:0:
448,192,229966,128,0,231292:0:0:0:0:
192,192,230463,128,0,230629:0:0:0:0:
192,192,230712,128,0,230877:0:0:0:0:
192,192,230960,128,0,231043:0:0:0:0:
64,192,231043,128,0,231126:0:0:0:0:
192,192,231126,128,0,231209:0:0:0:0:
320,192,231209,128,0,231292:0:0:0:0:
192,192,231292,1,0,0:0:0:0:
64,192,231292,128,0,232286:0:0:0:0:
448,192,231623,1,0,0:0:0:0:
192,192,231706,1,0,0:0:0:0:
320,192,231789,1,0,0:0:0:0:
192,192,231872,1,0,0:0:0:0:
448,192,231955,1,0,0:0:0:0:
320,192,232038,1,0,0:0:0:0:
448,192,232120,1,0,0:0:0:0:
192,192,232203,1,0,0:0:0:0:
320,192,232286,128,0,232452:0:0:0:0:
192,192,232369,1,0,0:0:0:0:
448,192,232452,1,0,0:0:0:0:
64,192,232535,1,0,0:0:0:0:
448,192,232618,128,0,233115:0:0:0:0:
192,192,232701,1,0,0:0:0:0:
64,192,232783,1,0,0:0:0:0:
192,192,232866,1,0,0:0:0:0:
320,192,232949,1,0,0:0:0:0:
64,192,233032,1,0,0:0:0:0:
192,192,233115,1,0,0:0:0:0:
320,192,233198,1,0,0:0:0:0:
192,192,233281,128,0,233944:0:0:0:0:
64,192,233364,1,0,0:0:0:0:
448,192,233446,1,0,0:0:0:0:
320,192,233529,1,0,0:0:0:0:
64,192,233612,1,0,0:0:0:0:
448,192,233695,1,0,0:0:0:0:
64,192,233778,1,0,0:0:0:0:
320,192,233861,1,0,0:0:0:0:
448,192,233944,128,0,234938:0:0:0:0:
64,192,234275,1,0,0:0:0:0:
192,192,234358,1,0,0:0:0:0:
320,192,234441,1,0,0:0:0:0:
64,192,234524,1,0,0:0:0:0:
320,192,234607,1,0,0:0:0:0:
192,192,234690,1,0,0:0:0:0:
64,192,234772,1,0,0:0:0:0:
192,192,234855,1,0,0:0:0:0:
320,192,234938,128,0,235187:0:0:0:0:
64,192,235021,1,0,0:0:0:0:
448,192,235104,1,0,0:0:0:0:
64,192,235187,1,0,0:0:0:0:
192,192,235270,128,0,235933:0:0:0:0:
448,192,235353,1,0,0:0:0:0:
64,192,235435,1,0,0:0:0:0:
448,192,235518,1,0,0:0:0:0:
320,192,235601,1,0,0:0:0:0:
64,192,235684,1,0,0:0:0:0:
448,192,235767,1,0,0:0:0:0:
64,192,235850,1,0,0:0:0:0:
320,192,235933,128,0,236264:0:0:0:0:
448,192,236016,1,0,0:0:0:0:
64,192,236098,1,0,0:0:0:0:
448,192,236181,1,0,0:0:0:0:
192,192,236264,128,0,236596:0:0:0:0:
64,192,236347,1,0,0:0:0:0:
320,192,236430,1,0,0:0:0:0:
64,192,236513,1,0,0:0:0:0:
448,192,236596,128,0,237590:0:0:0:0:
192,192,236927,1,0,0:0:0:0:
64,192,237010,1,0,0:0:0:0:
320,192,237093,1,0,0:0:0:0:
192,192,237176,1,0,0:0:0:0:
320,192,237259,1,0,0:0:0:0:
64,192,237341,1,0,0:0:0:0:
192,192,237424,1,0,0:0:0:0:
320,192,237507,1,0,0:0:0:0:
64,192,237590,128,0,237839:0:0:0:0:
320,192,237673,1,0,0:0:0:0:
192,192,237756,1,0,0:0:0:0:
448,192,237839,1,0,0:0:0:0:
320,192,237922,128,0,239165:0:0:0:0:
448,192,238004,1,0,0:0:0:0:
192,192,238087,1,0,0:0:0:0:
64,192,238170,1,0,0:0:0:0:
448,192,238253,1,0,0:0:0:0:
192,192,238336,1,0,0:0:0:0:
448,192,238419,1,0,0:0:0:0:
64,192,238502,1,0,0:0:0:0:
192,192,238585,1,0,0:0:0:0:
64,192,238667,1,0,0:0:0:0:
448,192,238750,1,0,0:0:0:0:
192,192,238833,1,0,0:0:0:0:
64,192,238916,1,0,0:0:0:0:
448,192,238999,1,0,0:0:0:0:
64,192,239082,1,0,0:0:0:0:
192,192,239165,1,0,0:0:0:0:
448,192,239248,128,0,240242:0:0:0:0:
64,192,239579,1,0,0:0:0:0:
192,192,239662,1,0,0:0:0:0:
320,192,239745,1,0,0:0:0:0:
64,192,239828,1,0,0:0:0:0:
320,192,239911,1,0,0:0:0:0:
192,192,239993,1,0,0:0:0:0:
64,192,240076,1,0,0:0:0:0:
320,192,240159,1,0,0:0:0:0:
192,192,240242,128,0,240574:0:0:0:0:
64,192,240325,1,0,0:0:0:0:
448,192,240408,1,0,0:0:0:0:
64,192,240491,1,0,0:0:0:0:
448,192,240574,128,0,240988:0:0:0:0:
320,192,240656,1,0,0:0:0:0:
192,192,240739,1,0,0:0:0:0:
64,192,240822,1,0,0:0:0:0:
320,192,240905,1,0,0:0:0:0:
64,192,240988,1,0,0:0:0:0:
192,192,241071,1,0,0:0:0:0:
448,192,241071,1,0,0:0:0:0:
320,192,241154,1,0,0:0:0:0:
448,192,241237,1,0,0:0:0:0:
64,192,241237,1,0,0:0:0:0:
192,192,241237,1,0,0:0:0:0:
320,192,241292,1,0,0:0:0:0:
192,192,241347,1,0,0:0:0:0:
448,192,241402,1,0,0:0:0:0:
320,192,241458,1,0,0:0:0:0:
64,192,241485,1,0,0:0:0:0:
192,192,241485,1,0,0:0:0:0:
448,192,241513,1,0,0:0:0:0:
320,192,241568,1,0,0:0:0:0:
192,192,241623,1,0,0:0:0:0:
64,192,241679,1,0,0:0:0:0:
448,192,241734,1,0,0:0:0:0:
320,192,241734,1,0,0:0:0:0:
192,192,241789,1,0,0:0:0:0:
320,192,241844,1,0,0:0:0:0:
64,192,241899,128,0,242065:0:0:0:0:
192,192,241899,128,0,242065:0:0:0:0:
448,192,241982,1,0,0:0:0:0:
320,192,242065,1,0,0:0:0:0:
64,192,242148,128,0,242314:0:0:0:0:
192,192,242148,128,0,242314:0:0:0:0:
448,192,242231,1,0,0:0:0:0:
320,192,242314,1,0,0:0:0:0:
64,192,242397,128,0,242562:0:0:0:0:
192,192,242397,128,0,242562:0:0:0:0:
320,192,242480,1,0,0:0:0:0:
448,192,242562,1,0,0:0:0:0:
64,192,242645,128,0,242811:0:0:0:0:
192,192,242645,128,0,242811:0:0:0:0:
320,192,242728,1,0,0:0:0:0:
448,192,242811,1,0,0:0:0:0:
64,192,242894,128,0,242977:0:0:0:0:
192,192,242894,128,0,242977:0:0:0:0:
320,192,242977,1,0,0:0:0:0:
64,192,243060,128,0,243143:0:0:0:0:
192,192,243060,128,0,243143:0:0:0:0:
320,192,243143,1,0,0:0:0:0:
192,192,243225,1,0,0:0:0:0:
448,192,243391,128,0,243723:0:0:0:0:
64,192,243557,1,0,0:0:0:0:
192,192,243723,128,0,244054:0:0:0:0:
448,192,244054,1,0,0:0:0:0:
64,192,244137,1,0,0:0:0:0:
320,192,244220,1,0,0:0:0:0:
448,192,244275,1,0,0:0:0:0:
192,192,244330,1,0,0:0:0:0:
320,192,244386,1,0,0:0:0:0:
64,192,244441,1,0,0:0:0:0:
192,192,244496,1,0,0:0:0:0:
448,192,244551,128,0,244717:0:0:0:0:
320,192,244551,128,0,244717:0:0:0:0:
64,192,244634,1,0,0:0:0:0:
192,192,244717,1,0,0:0:0:0:
448,192,244800,128,0,244966:0:0:0:0:
320,192,244800,128,0,244966:0:0:0:0:
64,192,244883,1,0,0:0:0:0:
192,192,244966,1,0,0:0:0:0:
448,192,245049,128,0,245214:0:0:0:0:
320,192,245049,128,0,245214:0:0:0:0:
192,192,245132,1,0,0:0:0:0:
64,192,245214,1,0,0:0:0:0:
448,192,245297,128,0,245463:0:0:0:0:
320,192,245297,128,0,245463:0:0:0:0:
192,192,245380,1,0,0:0:0:0:
64,192,245463,5,0,0:0:0:0:
448,192,245546,128,0,245629:0:0:0:0:
320,192,245546,128,0,245629:0:0:0:0:
192,192,245629,1,0,0:0:0:0:
448,192,245712,128,0,245795:0:0:0:0:
320,192,245712,128,0,245795:0:0:0:0:
192,192,245795,1,0,0:0:0:0:
320,192,245877,1,0,0:0:0:0:
192,192,246043,1,0,0:0:0:0:
448,192,246126,1,0,0:0:0:0:
64,192,246209,1,0,0:0:0:0:
320,192,246375,1,0,0:0:0:0:
192,192,246416,1,0,0:0:0:0:
320,192,246458,1,0,0:0:0:0:
192,192,246499,1,0,0:0:0:0:
448,192,246540,1,0,0:0:0:0:
64,192,246706,1,0,0:0:0:0:
320,192,246789,5,0,0:0:0:0:
192,192,246872,1,0,0:0:0:0:
448,192,246913,1,0,0:0:0:0:
320,192,246955,1,0,0:0:0:0:
64,192,246996,1,0,0:0:0:0:
192,192,247038,1,0,0:0:0:0:
320,192,247120,1,0,0:0:0:0:
448,192,247203,5,0,0:0:0:0:
64,192,247203,128,0,247369:0:0:0:0:
192,192,247203,128,0,247369:0:0:0:0:
448,192,247369,1,0,0:0:0:0:
192,192,247452,128,0,247618:0:0:0:0:
64,192,247452,128,0,247618:0:0:0:0:
320,192,247535,1,0,0:0:0:0:
192,192,247701,128,0,247783:0:0:0:0:
64,192,247701,128,0,247783:0:0:0:0:
448,192,247866,128,0,248032:0:0:0:0:
320,192,247866,128,0,248032:0:0:0:0:
64,192,247866,1,0,0:0:0:0:
64,192,248032,1,0,0:0:0:0:
448,192,248115,128,0,248281:0:0:0:0:
320,192,248115,128,0,248281:0:0:0:0:
192,192,248198,1,0,0:0:0:0:
448,192,248364,128,0,248446:0:0:0:0:
320,192,248364,128,0,248446:0:0:0:0:
448,192,248529,5,0,0:0:0:0:
64,192,248529,128,0,248695:0:0:0:0:
192,192,248529,128,0,248695:0:0:0:0:
448,192,248695,1,0,0:0:0:0:
192,192,248778,128,0,248944:0:0:0:0:
64,192,248778,128,0,248944:0:0:0:0:
320,192,248861,1,0,0:0:0:0:
64,192,249027,128,0,249109:0:0:0:0:
192,192,249027,128,0,249109:0:0:0:0:
448,192,249192,128,0,249358:0:0:0:0:
320,192,249192,128,0,249358:0:0:0:0:
64,192,249192,1,0,0:0:0:0:
64,192,249358,1,0,0:0:0:0:
448,192,249441,128,0,249607:0:0:0:0:
320,192,249441,128,0,249607:0:0:0:0:
192,192,249524,1,0,0:0:0:0:
448,192,249690,128,0,249772:0:0:0:0:
320,192,249690,128,0,249772:0:0:0:0:
64,192,249855,128,0,249938:0:0:0:0:
192,192,249855,128,0,249938:0:0:0:0:
448,192,249855,1,0,0:0:0:0:
448,192,249938,1,0,0:0:0:0:
192,192,250021,1,0,0:0:0:0:
320,192,250104,1,0,0:0:0:0:
64,192,250187,1,0,0:0:0:0:
64,192,250270,1,0,0:0:0:0:
320,192,250353,1,0,0:0:0:0:
192,192,250435,1,0,0:0:0:0:
448,192,250518,1,0,0:0:0:0:
448,192,250601,1,0,0:0:0:0:
192,192,250684,1,0,0:0:0:0:
320,192,250767,5,0,0:0:0:0:
64,192,250850,1,0,0:0:0:0:
64,192,250933,1,0,0:0:0:0:
320,192,251016,1,0,0:0:0:0:
192,192,251098,1,0,0:0:0:0:
448,192,251181,5,0,0:0:0:0:
64,192,251223,1,0,0:0:0:0:
320,192,251264,1,0,0:0:0:0:
192,192,251306,1,0,0:0:0:0:
64,192,251347,1,0,0:0:0:0:
448,192,251388,1,0,0:0:0:0:
192,192,251430,1,0,0:0:0:0:
320,192,251471,1,0,0:0:0:0:
64,192,251513,1,0,0:0:0:0:
448,192,251554,1,0,0:0:0:0:
192,192,251596,1,0,0:0:0:0:
64,192,251637,1,0,0:0:0:0:
320,192,251679,1,0,0:0:0:0:
448,192,251720,1,0,0:0:0:0:
192,192,251761,1,0,0:0:0:0:
64,192,251803,5,0,0:0:0:0:
320,192,251844,1,0,0:0:0:0:
192,192,251877,1,0,0:0:0:0:
448,192,251911,1,0,0:0:0:0:
64,192,251944,1,0,0:0:0:0:
320,192,251977,1,0,0:0:0:0:
192,192,252010,1,0,0:0:0:0:
448,192,252065,1,0,0:0:0:0:
320,192,252120,1,0,0:0:0:0:
64,192,252176,1,0,0:0:0:0:
192,192,252209,1,0,0:0:0:0:
448,192,252242,1,0,0:0:0:0:
320,192,252275,1,0,0:0:0:0:
64,192,252308,1,0,0:0:0:0:
192,192,252341,1,0,0:0:0:0:
448,192,252375,1,0,0:0:0:0:
320,192,252408,1,0,0:0:0:0:
64,192,252441,1,0,0:0:0:0:
192,192,252474,1,0,0:0:0:0:
320,192,252507,1,0,0:0:0:0:
448,192,252507,128,0,252673:0:0:0:0:
64,192,252839,128,0,253004:0:0:0:0:
320,192,253170,128,0,253336:0:0:0:0:
192,192,253502,128,0,253667:0:0:0:0:
64,192,253833,128,0,253999:0:0:0:0:
192,192,254165,128,0,254330:0:0:0:0:
448,192,254496,128,0,254662:0:0:0:0:
64,192,254828,128,0,254993:0:0:0:0:
448,192,255159,128,0,255325:0:0:0:0:
64,192,255491,128,0,255656:0:0:0:0:
320,192,255822,128,0,255988:0:0:0:0:
192,192,256154,128,0,256319:0:0:0:0:
64,192,256485,128,0,256651:0:0:0:0:
320,192,256651,1,0,0:0:0:0:
448,192,256734,1,0,0:0:0:0:
192,192,256817,128,0,256982:0:0:0:0:
64,192,256899,1,0,0:0:0:0:
320,192,256982,1,0,0:0:0:0:
448,192,256982,1,0,0:0:0:0:
192,192,257065,1,0,0:0:0:0:
448,192,257148,128,0,257314:0:0:0:0:
64,192,257148,1,0,0:0:0:0:
192,192,257231,1,0,0:0:0:0:
320,192,257314,1,0,0:0:0:0:
448,192,257397,1,0,0:0:0:0:
320,192,257480,1,0,0:0:0:0:
192,192,257480,128,0,257562:0:0:0:0:
64,192,257480,128,0,257728:0:0:0:0:
448,192,257562,1,0,0:0:0:0:
192,192,257645,1,0,0:0:0:0:
320,192,257728,1,0,0:0:0:0:
64,192,257811,1,0,0:0:0:0:
192,192,257811,1,0,0:0:0:0:
448,192,257811,1,0,0:0:0:0:
64,192,257894,1,0,0:0:0:0:
320,192,257977,1,0,0:0:0:0:
448,192,257977,1,0,0:0:0:0:
192,192,258060,1,0,0:0:0:0:
64,192,258143,1,0,0:0:0:0:
320,192,258143,1,0,0:0:0:0:
448,192,258143,1,0,0:0:0:0:
320,192,258225,1,0,0:0:0:0:
192,192,258308,1,0,0:0:0:0:
64,192,258308,1,0,0:0:0:0:
448,192,258391,1,0,0:0:0:0:
320,192,258474,1,0,0:0:0:0:
192,192,258474,1,0,0:0:0:0:
64,192,258474,1,0,0:0:0:0:
192,192,258557,1,0,0:0:0:0:
320,192,258640,1,0,0:0:0:0:
448,192,258640,1,0,0:0:0:0:
64,192,258723,1,0,0:0:0:0:
192,192,258806,1,0,0:0:0:0:
320,192,258806,1,0,0:0:0:0:
448,192,258806,1,0,0:0:0:0:
448,192,258888,1,0,0:0:0:0:
64,192,258971,1,0,0:0:0:0:
320,192,258971,1,0,0:0:0:0:
192,192,259054,1,0,0:0:0:0:
64,192,259137,1,0,0:0:0:0:
320,192,259137,1,0,0:0:0:0:
448,192,259137,1,0,0:0:0:0:
320,192,259220,1,0,0:0:0:0:
192,192,259303,1,0,0:0:0:0:
64,192,259303,1,0,0:0:0:0:
448,192,259386,1,0,0:0:0:0:
320,192,259469,1,0,0:0:0:0:
192,192,259469,1,0,0:0:0:0:
64,192,259469,1,0,0:0:0:0:
192,192,259551,1,0,0:0:0:0:
448,192,259634,1,0,0:0:0:0:
320,192,259634,1,0,0:0:0:0:
64,192,259717,1,0,0:0:0:0:
192,192,259800,1,0,0:0:0:0:
320,192,259800,1,0,0:0:0:0:
448,192,259800,1,0,0:0:0:0:
448,192,259883,1,0,0:0:0:0:
64,192,259966,1,0,0:0:0:0:
192,192,259966,1,0,0:0:0:0:
320,192,260049,1,0,0:0:0:0:
192,192,260132,1,0,0:0:0:0:
64,192,260132,1,0,0:0:0:0:
448,192,260132,1,0,0:0:0:0:
64,192,260214,1,0,0:0:0:0:
192,192,260297,1,0,0:0:0:0:
448,192,260297,1,0,0:0:0:0:
320,192,260380,1,0,0:0:0:0:
192,192,260463,1,0,0:0:0:0:
64,192,260463,1,0,0:0:0:0:
448,192,260463,1,0,0:0:0:0:
320,192,260546,1,0,0:0:0:0:
64,192,260587,1,0,0:0:0:0:
192,192,260629,5,0,0:0:0:0:
320,192,260670,1,0,0:0:0:0:
64,192,260712,5,0,0:0:0:0:
448,192,260712,1,0,0:0:0:0:
192,192,260753,1,0,0:0:0:0:
320,192,260795,1,0,0:0:0:0:
64,192,260836,1,0,0:0:0:0:
448,192,260877,1,0,0:0:0:0:
192,192,260960,1,0,0:0:0:0:
64,192,260960,1,0,0:0:0:0:
320,192,260960,1,0,0:0:0:0:
320,192,261043,1,0,0:0:0:0:
192,192,261126,1,0,0:0:0:0:
448,192,261126,1,0,0:0:0:0:
64,192,261126,1,0,0:0:0:0:
192,192,261209,1,0,0:0:0:0:
320,192,261292,1,0,0:0:0:0:
64,192,261375,5,0,0:0:0:0:
448,192,261375,5,0,0:0:0:0:
192,192,261375,1,0,0:0:0:0:
64,192,261458,1,0,0:0:0:0:
448,192,261540,1,0,0:0:0:0:
64,192,261582,1,0,0:0:0:0:
192,192,261623,1,0,0:0:0:0:
320,192,261623,1,0,0:0:0:0:
448,192,261665,1,0,0:0:0:0:
192,192,261706,1,0,0:0:0:0:
64,192,261789,5,0,0:0:0:0:
320,192,261789,128,0,261872:0:0:0:0:
448,192,261789,128,0,261955:0:0:0:0:
192,192,261872,1,0,0:0:0:0:
320,192,261955,1,0,0:0:0:0:
64,192,262038,128,0,262120:0:0:0:0:
192,192,262038,128,0,262203:0:0:0:0:
448,192,262038,1,0,0:0:0:0:
320,192,262120,1,0,0:0:0:0:
64,192,262203,1,0,0:0:0:0:
448,192,262286,128,0,262369:0:0:0:0:
320,192,262286,128,0,262452:0:0:0:0:
192,192,262286,1,0,0:0:0:0:
64,192,262369,1,0,0:0:0:0:
448,192,262452,1,0,0:0:0:0:
64,192,262535,128,0,262701:0:0:0:0:
192,192,262535,128,0,262618:0:0:0:0:
320,192,262535,1,0,0:0:0:0:
448,192,262618,1,0,0:0:0:0:
192,192,262701,1,0,0:0:0:0:
320,192,262783,1,0,0:0:0:0:
448,192,262783,1,0,0:0:0:0:
320,192,262866,128,0,263115:0:0:0:0:
64,192,262866,1,0,0:0:0:0:
64,192,263115,5,0,0:0:0:0:
448,192,263115,1,0,0:0:0:0:
192,192,263156,1,0,0:0:0:0:
320,192,263198,1,0,0:0:0:0:
64,192,263239,1,0,0:0:0:0:
192,192,263281,1,0,0:0:0:0:
448,192,263336,1,0,0:0:0:0:
64,192,263446,1,0,0:0:0:0:
448,192,263446,1,0,0:0:0:0:
320,192,263488,1,0,0:0:0:0:
192,192,263529,1,0,0:0:0:0:
448,192,263571,1,0,0:0:0:0:
64,192,263612,1,0,0:0:0:0:
192,192,263695,1,0,0:0:0:0:
448,192,263778,1,0,0:0:0:0:
320,192,263778,1,0,0:0:0:0:
192,192,263861,1,0,0:0:0:0:
320,192,263944,1,0,0:0:0:0:
192,192,264027,1,0,0:0:0:0:
192,192,264109,1,0,0:0:0:0:
448,192,264109,1,0,0:0:0:0:
448,192,264192,1,0,0:0:0:0:
64,192,264234,1,0,0:0:0:0:
320,192,264275,1,0,0:0:0:0:
448,192,264330,1,0,0:0:0:0:
192,192,264441,1,0,0:0:0:0:
64,192,264441,1,0,0:0:0:0:
320,192,264482,1,0,0:0:0:0:
64,192,264524,1,0,0:0:0:0:
448,192,264607,1,0,0:0:0:0:
192,192,264648,1,0,0:0:0:0:
320,192,264690,1,0,0:0:0:0:
448,192,264772,1,0,0:0:0:0:
192,192,264772,1,0,0:0:0:0:
64,192,264820,1,0,0:0:0:0:
320,192,264867,1,0,0:0:0:0:
64,192,264914,1,0,0:0:0:0:
192,192,264962,1,0,0:0:0:0:
320,192,265009,1,0,0:0:0:0:
192,192,265104,1,0,0:0:0:0:
448,192,265104,1,0,0:0:0:0:
64,192,265187,1,0,0:0:0:0:
448,192,265270,1,0,0:0:0:0:
192,192,265353,1,0,0:0:0:0:
192,192,265435,1,0,0:0:0:0:
320,192,265435,1,0,0:0:0:0:
448,192,265518,1,0,0:0:0:0:
448,192,265601,1,0,0:0:0:0:
192,192,265622,1,0,0:0:0:0:
64,192,265643,1,0,0:0:0:0:
64,192,265767,1,0,0:0:0:0:
448,192,265767,1,0,0:0:0:0:
320,192,265800,1,0,0:0:0:0:
192,192,265833,1,0,0:0:0:0:
448,192,265866,1,0,0:0:0:0:
320,192,265899,1,0,0:0:0:0:
64,192,265933,1,0,0:0:0:0:
192,192,265988,1,0,0:0:0:0:
448,192,266098,1,0,0:0:0:0:
192,192,266098,1,0,0:0:0:0:
320,192,266140,1,0,0:0:0:0:
64,192,266181,1,0,0:0:0:0:
192,192,266223,1,0,0:0:0:0:
448,192,266264,1,0,0:0:0:0:
320,192,266347,1,0,0:0:0:0:
64,192,266430,1,0,0:0:0:0:
192,192,266430,1,0,0:0:0:0:
320,192,266513,1,0,0:0:0:0:
192,192,266596,1,0,0:0:0:0:
320,192,266679,1,0,0:0:0:0:
320,192,266761,1,0,0:0:0:0:
64,192,266761,1,0,0:0:0:0:
448,192,266809,1,0,0:0:0:0:
64,192,266856,1,0,0:0:0:0:
320,192,266903,1,0,0:0:0:0:
192,192,266951,1,0,0:0:0:0:
448,192,266998,1,0,0:0:0:0:
64,192,267093,1,0,0:0:0:0:
192,192,267093,1,0,0:0:0:0:
64,192,267176,1,0,0:0:0:0:
448,192,267203,1,0,0:0:0:0:
320,192,267231,1,0,0:0:0:0:
192,192,267259,1,0,0:0:0:0:
64,192,267300,1,0,0:0:0:0:
320,192,267341,1,0,0:0:0:0:
192,192,267424,1,0,0:0:0:0:
448,192,267424,1,0,0:0:0:0:
320,192,267590,1,0,0:0:0:0:
320,192,267673,1,0,0:0:0:0:
320,192,267756,1,0,0:0:0:0:
64,192,267756,1,0,0:0:0:0:
192,192,267922,1,0,0:0:0:0:
448,192,267963,1,0,0:0:0:0:
320,192,268004,1,0,0:0:0:0:
448,192,268087,1,0,0:0:0:0:
64,192,268087,1,0,0:0:0:0:
192,192,268170,1,0,0:0:0:0:
64,192,268212,1,0,0:0:0:0:
320,192,268253,1,0,0:0:0:0:
192,192,268336,1,0,0:0:0:0:
448,192,268419,5,0,0:0:0:0:
64,192,268419,1,0,0:0:0:0:
320,192,268460,1,0,0:0:0:0:
192,192,268502,1,0,0:0:0:0:
448,192,268543,1,0,0:0:0:0:
320,192,268585,1,0,0:0:0:0:
64,192,268640,1,0,0:0:0:0:
64,192,268750,1,0,0:0:0:0:
448,192,268750,1,0,0:0:0:0:
192,192,268792,1,0,0:0:0:0:
320,192,268833,1,0,0:0:0:0:
64,192,268875,1,0,0:0:0:0:
448,192,268916,1,0,0:0:0:0:
320,192,268999,1,0,0:0:0:0:
64,192,269082,1,0,0:0:0:0:
192,192,269082,1,0,0:0:0:0:
320,192,269165,1,0,0:0:0:0:
192,192,269248,1,0,0:0:0:0:
320,192,269330,1,0,0:0:0:0:
64,192,269413,1,0,0:0:0:0:
320,192,269413,1,0,0:0:0:0:
64,192,269496,1,0,0:0:0:0:
448,192,269538,1,0,0:0:0:0:
192,192,269579,1,0,0:0:0:0:
64,192,269634,1,0,0:0:0:0:
448,192,269745,1,0,0:0:0:0:
320,192,269745,1,0,0:0:0:0:
192,192,269786,1,0,0:0:0:0:
448,192,269828,1,0,0:0:0:0:
64,192,269911,1,0,0:0:0:0:
320,192,269952,1,0,0:0:0:0:
192,192,269993,1,0,0:0:0:0:
320,192,270076,1,0,0:0:0:0:
64,192,270076,1,0,0:0:0:0:
448,192,270124,1,0,0:0:0:0:
192,192,270171,1,0,0:0:0:0:
448,192,270218,1,0,0:0:0:0:
320,192,270266,1,0,0:0:0:0:
192,192,270313,1,0,0:0:0:0:
320,192,270408,1,0,0:0:0:0:
64,192,270408,1,0,0:0:0:0:
448,192,270491,1,0,0:0:0:0:
64,192,270574,1,0,0:0:0:0:
320,192,270656,1,0,0:0:0:0:
192,192,270739,1,0,0:0:0:0:
320,192,270739,1,0,0:0:0:0:
64,192,270822,1,0,0:0:0:0:
64,192,270905,1,0,0:0:0:0:
320,192,270926,1,0,0:0:0:0:
448,192,270946,1,0,0:0:0:0:
64,192,271071,1,0,0:0:0:0:
192,192,271071,1,0,0:0:0:0:
64,192,271154,1,0,0:0:0:0:
192,192,271154,1,0,0:0:0:0:
448,192,271237,1,0,0:0:0:0:
320,192,271237,1,0,0:0:0:0:
192,192,271319,1,0,0:0:0:0:
320,192,271402,1,0,0:0:0:0:
64,192,271402,1,0,0:0:0:0:
192,192,271444,1,0,0:0:0:0:
448,192,271485,1,0,0:0:0:0:
320,192,271527,1,0,0:0:0:0:
64,192,271568,1,0,0:0:0:0:
448,192,271651,1,0,0:0:0:0:
192,192,271651,1,0,0:0:0:0:
320,192,271734,1,0,0:0:0:0:
192,192,271817,1,0,0:0:0:0:
448,192,271899,1,0,0:0:0:0:
64,192,271899,1,0,0:0:0:0:
448,192,271982,1,0,0:0:0:0:
192,192,272065,1,0,0:0:0:0:
448,192,272148,1,0,0:0:0:0:
320,192,272148,1,0,0:0:0:0:
64,192,272231,1,0,0:0:0:0:
192,192,272231,1,0,0:0:0:0:
192,192,272314,1,0,0:0:0:0:
64,192,272355,1,0,0:0:0:0:
448,192,272397,1,0,0:0:0:0:
320,192,272397,1,0,0:0:0:0:
448,192,272480,1,0,0:0:0:0:
448,192,272562,1,0,0:0:0:0:
64,192,272645,1,0,0:0:0:0:
192,192,272728,1,0,0:0:0:0:
448,192,272783,1,0,0:0:0:0:
320,192,272839,1,0,0:0:0:0:
64,192,272894,1,0,0:0:0:0:
448,192,272956,1,0,0:0:0:0:
192,192,273018,1,0,0:0:0:0:
320,192,273060,1,0,0:0:0:0:
448,192,273101,1,0,0:0:0:0:
64,192,273143,1,0,0:0:0:0:
192,192,273225,1,0,0:0:0:0:
320,192,273308,1,0,0:0:0:0:
448,192,273391,1,0,0:0:0:0:
64,192,273474,1,0,0:0:0:0:
64,192,273557,1,0,0:0:0:0:
64,192,273640,1,0,0:0:0:0:
320,192,273723,1,0,0:0:0:0:
448,192,273723,128,0,273888:0:0:0:0:
192,192,273888,128,0,273944:0:0:0:0:
192,192,274054,1,0,0:0:0:0:
448,192,274054,1,0,0:0:0:0:
320,192,274054,1,0,0:0:0:0:
64,192,274137,1,0,0:0:0:0:
320,192,274303,1,0,0:0:0:0:
320,192,274469,1,0,0:0:0:0:
64,192,274551,1,0,0:0:0:0:
192,192,274551,1,0,0:0:0:0:
320,192,274634,1,0,0:0:0:0:
448,192,274717,1,0,0:0:0:0:
64,192,274717,1,0,0:0:0:0:
448,192,274883,128,0,274938:0:0:0:0:
320,192,275049,128,0,275214:0:0:0:0:
448,192,275049,1,0,0:0:0:0:
64,192,275159,128,0,275270:0:0:0:0:
192,192,275214,128,0,275270:0:0:0:0:
64,192,275380,1,0,0:0:0:0:
448,192,275380,1,0,0:0:0:0:
320,192,275463,1,0,0:0:0:0:
192,192,275629,1,0,0:0:0:0:
192,192,275795,1,0,0:0:0:0:
448,192,275877,1,0,0:0:0:0:
320,192,275877,1,0,0:0:0:0:
192,192,275960,1,0,0:0:0:0:
448,192,276043,1,0,0:0:0:0:
64,192,276043,1,0,0:0:0:0:
192,192,276126,1,0,0:0:0:0:
320,192,276126,1,0,0:0:0:0:
320,192,276209,1,0,0:0:0:0:
192,192,276292,1,0,0:0:0:0:
64,192,276292,1,0,0:0:0:0:
320,192,276375,1,0,0:0:0:0:
448,192,276375,1,0,0:0:0:0:
192,192,276375,1,0,0:0:0:0:
448,192,276540,1,0,0:0:0:0:
192,192,276582,1,0,0:0:0:0:
64,192,276623,1,0,0:0:0:0:
448,192,276706,1,0,0:0:0:0:
320,192,276706,1,0,0:0:0:0:
192,192,276872,1,0,0:0:0:0:
448,192,276955,1,0,0:0:0:0:
64,192,277038,1,0,0:0:0:0:
192,192,277038,1,0,0:0:0:0:
448,192,277120,1,0,0:0:0:0:
448,192,277286,1,0,0:0:0:0:
192,192,277369,1,0,0:0:0:0:
320,192,277369,1,0,0:0:0:0:
64,192,277416,1,0,0:0:0:0:
448,192,277464,1,0,0:0:0:0:
192,192,277511,1,0,0:0:0:0:
320,192,277559,1,0,0:0:0:0:
64,192,277606,1,0,0:0:0:0:
448,192,277701,1,0,0:0:0:0:
320,192,277701,1,0,0:0:0:0:
192,192,277783,1,0,0:0:0:0:
448,192,277866,1,0,0:0:0:0:
64,192,277866,1,0,0:0:0:0:
192,192,277949,1,0,0:0:0:0:
448,192,277949,1,0,0:0:0:0:
320,192,278032,1,0,0:0:0:0:
192,192,278115,1,0,0:0:0:0:
448,192,278115,1,0,0:0:0:0:
64,192,278198,1,0,0:0:0:0:
64,192,278281,1,0,0:0:0:0:
320,192,278364,1,0,0:0:0:0:
448,192,278364,1,0,0:0:0:0:
192,192,278446,128,0,278502:0:0:0:0:
448,192,278529,128,0,278585:0:0:0:0:
320,192,278695,1,0,0:0:0:0:
64,192,278737,128,0,278819:0:0:0:0:
320,192,279027,1,0,0:0:0:0:
448,192,279027,1,0,0:0:0:0:
192,192,279027,1,0,0:0:0:0:
64,192,279082,1,0,0:0:0:0:
320,192,279137,1,0,0:0:0:0:
192,192,279192,1,0,0:0:0:0:
448,192,279358,1,0,0:0:0:0:
192,192,279358,1,0,0:0:0:0:
64,192,279441,1,0,0:0:0:0:
320,192,279607,1,0,0:0:0:0:
320,192,279772,1,0,0:0:0:0:
64,192,279855,1,0,0:0:0:0:
192,192,279855,1,0,0:0:0:0:
448,192,279911,1,0,0:0:0:0:
320,192,279966,1,0,0:0:0:0:
64,192,280021,1,0,0:0:0:0:
320,192,280076,1,0,0:0:0:0:
192,192,280132,1,0,0:0:0:0:
448,192,280187,1,0,0:0:0:0:
64,192,280228,1,0,0:0:0:0:
320,192,280270,1,0,0:0:0:0:
448,192,280311,1,0,0:0:0:0:
64,192,280353,1,0,0:0:0:0:
192,192,280353,1,0,0:0:0:0:
320,192,280408,1,0,0:0:0:0:
192,192,280463,1,0,0:0:0:0:
448,192,280518,1,0,0:0:0:0:
448,192,280684,1,0,0:0:0:0:
64,192,280684,1,0,0:0:0:0:
320,192,280767,1,0,0:0:0:0:
192,192,280933,1,0,0:0:0:0:
192,192,281098,1,0,0:0:0:0:
320,192,281181,1,0,0:0:0:0:
448,192,281181,128,0,281513:0:0:0:0:
64,192,281264,5,0,0:0:0:0:
320,192,281347,1,0,0:0:0:0:
192,192,281513,1,0,0:0:0:0:
320,192,281596,1,0,0:0:0:0:
192,192,281679,1,0,0:0:0:0:
64,192,281679,1,0,0:0:0:0:
448,192,281679,1,0,0:0:0:0:
64,192,281844,1,0,0:0:0:0:
192,192,281844,1,0,0:0:0:0:
448,192,281927,1,0,0:0:0:0:
64,192,282010,1,0,0:0:0:0:
320,192,282010,1,0,0:0:0:0:
192,192,282093,1,0,0:0:0:0:
448,192,282176,1,0,0:0:0:0:
320,192,282176,1,0,0:0:0:0:
448,192,282341,1,0,0:0:0:0:
320,192,282341,1,0,0:0:0:0:
64,192,282424,1,0,0:0:0:0:
448,192,282507,1,0,0:0:0:0:
192,192,282507,1,0,0:0:0:0:
448,192,282590,1,0,0:0:0:0:
192,192,282673,1,0,0:0:0:0:
64,192,282673,1,0,0:0:0:0:
192,192,282756,1,0,0:0:0:0:
320,192,282839,1,0,0:0:0:0:
64,192,282839,1,0,0:0:0:0:
320,192,282922,1,0,0:0:0:0:
448,192,283004,128,0,283087:0:0:0:0:
64,192,283004,128,0,283087:0:0:0:0:
192,192,283004,128,0,283087:0:0:0:0:
320,192,283087,1,0,0:0:0:0:
448,192,283170,128,0,283336:0:0:0:0:
64,192,283170,128,0,283336:0:0:0:0:
192,192,283170,128,0,283253:0:0:0:0:
320,192,283253,1,0,0:0:0:0:
192,192,283336,1,0,0:0:0:0:
320,192,283419,1,0,0:0:0:0:
192,192,283502,1,0,0:0:0:0:
448,192,283585,1,0,0:0:0:0:
320,192,283667,1,0,0:0:0:0:
64,192,283723,1,0,0:0:0:0:
320,192,283778,1,0,0:0:0:0:
192,192,283833,1,0,0:0:0:0:
64,192,283875,1,0,0:0:0:0:
192,192,283916,1,0,0:0:0:0:
320,192,283958,1,0,0:0:0:0:
448,192,283999,1,0,0:0:0:0:
64,192,284082,1,0,0:0:0:0:
320,192,284165,1,0,0:0:0:0:
320,192,284248,1,0,0:0:0:0:
64,192,284330,128,0,284496:0:0:0:0:
448,192,284330,128,0,284496:0:0:0:0:
192,192,284330,128,0,284413:0:0:0:0:
320,192,284413,1,0,0:0:0:0:
192,192,284496,1,0,0:0:0:0:
320,192,284579,128,0,284745:0:0:0:0:
448,192,284579,128,0,284662:0:0:0:0:
64,192,284662,128,0,284745:0:0:0:0:
192,192,284662,1,0,0:0:0:0:
448,192,284745,1,0,0:0:0:0:
64,192,284828,128,0,284993:0:0:0:0:
192,192,284828,128,0,284911:0:0:0:0:
320,192,284828,128,0,284911:0:0:0:0:
192,192,284993,1,0,0:0:0:0:
320,192,284993,1,0,0:0:0:0:
448,192,285076,128,0,285242:0:0:0:0:
64,192,285076,128,0,285159:0:0:0:0:
320,192,285159,128,0,285242:0:0:0:0:
192,192,285242,1,0,0:0:0:0:
64,192,285242,1,0,0:0:0:0:
320,192,285325,128,0,285574:0:0:0:0:
448,192,285325,128,0,285408:0:0:0:0:
192,192,285408,128,0,285656:0:0:0:0:
64,192,285491,128,0,285656:0:0:0:0:
448,192,285491,128,0,285574:0:0:0:0:
320,192,285656,1,0,0:0:0:0:
448,192,285656,1,0,0:0:0:0:
192,192,285739,1,0,0:0:0:0:
320,192,285822,1,0,0:0:0:0:
64,192,285905,1,0,0:0:0:0:
192,192,285988,1,0,0:0:0:0:
448,192,285988,1,0,0:0:0:0:
64,192,286071,1,0,0:0:0:0:
320,192,286154,1,0,0:0:0:0:
448,192,286237,1,0,0:0:0:0:
64,192,286319,1,0,0:0:0:0:
192,192,286319,1,0,0:0:0:0:
320,192,286402,1,0,0:0:0:0:
64,192,286485,1,0,0:0:0:0:
320,192,286568,1,0,0:0:0:0:
448,192,286568,1,0,0:0:0:0:
448,192,286651,1,0,0:0:0:0:
192,192,286651,1,0,0:0:0:0:
64,192,286734,1,0,0:0:0:0:
320,192,286817,1,0,0:0:0:0:
448,192,286899,1,0,0:0:0:0:
192,192,286982,128,0,287148:0:0:0:0:
320,192,286982,128,0,287148:0:0:0:0:
64,192,286982,128,0,287065:0:0:0:0:
448,192,287065,1,0,0:0:0:0:
64,192,287148,1,0,0:0:0:0:
320,192,287231,128,0,287314:0:0:0:0:
448,192,287231,128,0,287397:0:0:0:0:
192,192,287314,128,0,287397:0:0:0:0:
64,192,287314,1,0,0:0:0:0:
320,192,287397,1,0,0:0:0:0:
192,192,287480,128,0,287645:0:0:0:0:
64,192,287480,128,0,287562:0:0:0:0:
448,192,287480,128,0,287562:0:0:0:0:
64,192,287645,1,0,0:0:0:0:
448,192,287645,1,0,0:0:0:0:
192,192,287728,128,0,287811:0:0:0:0:
320,192,287728,128,0,287894:0:0:0:0:
448,192,287811,128,0,287894:0:0:0:0:
64,192,287894,1,0,0:0:0:0:
192,192,287894,1,0,0:0:0:0:
448,192,287977,128,0,288225:0:0:0:0:
320,192,287977,128,0,288060:0:0:0:0:
64,192,288060,128,0,288308:0:0:0:0:
192,192,288143,128,0,288308:0:0:0:0:
320,192,288143,128,0,288225:0:0:0:0:
320,192,288308,1,0,0:0:0:0:
448,192,288308,1,0,0:0:0:0:
192,192,288391,1,0,0:0:0:0:
64,192,288474,1,0,0:0:0:0:
320,192,288557,1,0,0:0:0:0:
192,192,288640,1,0,0:0:0:0:
448,192,288640,1,0,0:0:0:0:
64,192,288723,1,0,0:0:0:0:
320,192,288806,1,0,0:0:0:0:
192,192,288888,1,0,0:0:0:0:
320,192,288971,1,0,0:0:0:0:
448,192,288971,1,0,0:0:0:0:
64,192,289054,1,0,0:0:0:0:
448,192,289137,1,0,0:0:0:0:
320,192,289220,1,0,0:0:0:0:
448,192,289303,1,0,0:0:0:0:
192,192,289303,1,0,0:0:0:0:
64,192,289386,1,0,0:0:0:0:
320,192,289469,1,0,0:0:0:0:
192,192,289551,1,0,0:0:0:0:
448,192,289634,128,0,289717:0:0:0:0:
64,192,289634,128,0,289800:0:0:0:0:
320,192,289634,128,0,289800:0:0:0:0:
192,192,289717,1,0,0:0:0:0:
448,192,289800,1,0,0:0:0:0:
192,192,289883,128,0,290049:0:0:0:0:
64,192,289883,128,0,289966:0:0:0:0:
448,192,289966,1,0,0:0:0:0:
320,192,289966,128,0,290049:0:0:0:0:
64,192,290049,1,0,0:0:0:0:
192,192,290132,128,0,290214:0:0:0:0:
448,192,290132,128,0,290214:0:0:0:0:
320,192,290132,128,0,290297:0:0:0:0:
192,192,290297,1,0,0:0:0:0:
448,192,290297,1,0,0:0:0:0:
64,192,290380,128,0,290546:0:0:0:0:
320,192,290380,128,0,290463:0:0:0:0:
192,192,290463,128,0,290546:0:0:0:0:
320,192,290546,1,0,0:0:0:0:
448,192,290546,1,0,0:0:0:0:
192,192,290629,128,0,290877:0:0:0:0:
64,192,290629,128,0,290712:0:0:0:0:
448,192,290712,128,0,290960:0:0:0:0:
320,192,290795,128,0,290960:0:0:0:0:
64,192,290795,128,0,290877:0:0:0:0:
192,192,290960,1,0,0:0:0:0:
64,192,290960,1,0,0:0:0:0:
448,192,291043,1,0,0:0:0:0:
192,192,291126,1,0,0:0:0:0:
320,192,291209,1,0,0:0:0:0:
64,192,291292,1,0,0:0:0:0:
448,192,291292,1,0,0:0:0:0:
192,192,291375,1,0,0:0:0:0:
64,192,291458,1,0,0:0:0:0:
320,192,291540,1,0,0:0:0:0:
192,192,291623,1,0,0:0:0:0:
64,192,291623,1,0,0:0:0:0:
448,192,291706,1,0,0:0:0:0:
192,192,291789,1,0,0:0:0:0:
320,192,291872,1,0,0:0:0:0:
448,192,291872,1,0,0:0:0:0:
64,192,291955,1,0,0:0:0:0:
320,192,291955,1,0,0:0:0:0:
448,192,292038,1,0,0:0:0:0:
192,192,292120,1,0,0:0:0:0:
64,192,292203,1,0,0:0:0:0:
448,192,292286,128,0,292452:0:0:0:0:
192,192,292286,128,0,292452:0:0:0:0:
320,192,292286,128,0,292369:0:0:0:0:
64,192,292369,1,0,0:0:0:0:
320,192,292452,1,0,0:0:0:0:
192,192,292535,128,0,292618:0:0:0:0:
64,192,292535,128,0,292701:0:0:0:0:
448,192,292618,128,0,292701:0:0:0:0:
320,192,292618,1,0,0:0:0:0:
192,192,292701,1,0,0:0:0:0:
448,192,292783,128,0,292949:0:0:0:0:
320,192,292783,128,0,292866:0:0:0:0:
64,192,292783,128,0,292866:0:0:0:0:
320,192,292949,1,0,0:0:0:0:
64,192,292949,1,0,0:0:0:0:
448,192,293032,128,0,293115:0:0:0:0:
192,192,293032,128,0,293198:0:0:0:0:
64,192,293115,128,0,293198:0:0:0:0:
320,192,293198,1,0,0:0:0:0:
448,192,293198,1,0,0:0:0:0:
64,192,293281,128,0,293529:0:0:0:0:
192,192,293281,128,0,293364:0:0:0:0:
320,192,293364,128,0,293612:0:0:0:0:
448,192,293446,128,0,293612:0:0:0:0:
192,192,293446,128,0,293529:0:0:0:0:
192,192,293612,1,0,0:0:0:0:
64,192,293612,1,0,0:0:0:0:
448,192,293695,1,0,0:0:0:0:
192,192,293778,1,0,0:0:0:0:
320,192,293861,1,0,0:0:0:0:
64,192,293861,1,0,0:0:0:0:
192,192,293944,1,0,0:0:0:0:
320,192,294027,1,0,0:0:0:0:
448,192,294109,1,0,0:0:0:0:
64,192,294109,1,0,0:0:0:0:
192,192,294192,1,0,0:0:0:0:
64,192,294275,1,0,0:0:0:0:
320,192,294358,1,0,0:0:0:0:
448,192,294358,1,0,0:0:0:0:
192,192,294441,1,0,0:0:0:0:
448,192,294524,1,0,0:0:0:0:
320,192,294524,1,0,0:0:0:0:
64,192,294607,1,0,0:0:0:0:
320,192,294607,1,0,0:0:0:0:
448,192,294690,1,0,0:0:0:0:
192,192,294772,1,0,0:0:0:0:
64,192,294772,1,0,0:0:0:0:
320,192,294855,1,0,0:0:0:0:
64,192,294938,128,0,295104:0:0:0:0:
448,192,294938,128,0,295104:0:0:0:0:
192,192,294938,128,0,295021:0:0:0:0:
320,192,295021,1,0,0:0:0:0:
192,192,295104,1,0,0:0:0:0:
448,192,295187,128,0,295270:0:0:0:0:
320,192,295187,128,0,295353:0:0:0:0:
64,192,295270,128,0,295353:0:0:0:0:
192,192,295270,1,0,0:0:0:0:
448,192,295353,1,0,0:0:0:0:
64,192,295435,128,0,295601:0:0:0:0:
192,192,295435,128,0,295518:0:0:0:0:
320,192,295435,128,0,295518:0:0:0:0:
192,192,295601,1,0,0:0:0:0:
320,192,295601,1,0,0:0:0:0:
64,192,295684,128,0,295767:0:0:0:0:
448,192,295684,128,0,295850:0:0:0:0:
320,192,295767,128,0,295850:0:0:0:0:
192,192,295850,1,0,0:0:0:0:
64,192,295850,1,0,0:0:0:0:
320,192,295933,128,0,296181:0:0:0:0:
448,192,295933,128,0,296016:0:0:0:0:
192,192,296016,128,0,296264:0:0:0:0:
64,192,296098,128,0,296264:0:0:0:0:
448,192,296098,128,0,296181:0:0:0:0:
320,192,296264,1,0,0:0:0:0:
448,192,296264,1,0,0:0:0:0:
192,192,296347,1,0,0:0:0:0:
320,192,296430,1,0,0:0:0:0:
64,192,296513,1,0,0:0:0:0:
192,192,296596,1,0,0:0:0:0:
448,192,296596,1,0,0:0:0:0:
64,192,296679,1,0,0:0:0:0:
320,192,296761,1,0,0:0:0:0:
192,192,296844,1,0,0:0:0:0:
64,192,296844,1,0,0:0:0:0:
64,192,296927,1,0,0:0:0:0:
448,192,296927,1,0,0:0:0:0:
320,192,297010,1,0,0:0:0:0:
64,192,297093,1,0,0:0:0:0:
448,192,297093,1,0,0:0:0:0:
192,192,297176,1,0,0:0:0:0:
448,192,297259,1,0,0:0:0:0:
320,192,297259,1,0,0:0:0:0:
64,192,297300,1,0,0:0:0:0:
192,192,297341,1,0,0:0:0:0:
448,192,297383,1,0,0:0:0:0:
320,192,297424,1,0,0:0:0:0:
64,192,297480,1,0,0:0:0:0:
448,192,297535,1,0,0:0:0:0:
320,192,297590,128,0,297756:0:0:0:0:
64,192,297590,128,0,297673:0:0:0:0:
192,192,297590,128,0,297673:0:0:0:0:
64,192,297756,1,0,0:0:0:0:
192,192,297756,1,0,0:0:0:0:
320,192,297839,128,0,297922:0:0:0:0:
448,192,297839,128,0,298004:0:0:0:0:
192,192,297922,128,0,298004:0:0:0:0:
64,192,297922,1,0,0:0:0:0:
320,192,298004,1,0,0:0:0:0:
192,192,298087,128,0,298253:0:0:0:0:
64,192,298087,128,0,298170:0:0:0:0:
448,192,298087,128,0,298170:0:0:0:0:
64,192,298253,1,0,0:0:0:0:
448,192,298253,1,0,0:0:0:0:
192,192,298336,128,0,298419:0:0:0:0:
320,192,298336,128,0,298502:0:0:0:0:
448,192,298419,128,0,298502:0:0:0:0:
64,192,298502,1,0,0:0:0:0:
192,192,298502,1,0,0:0:0:0:
448,192,298585,128,0,298833:0:0:0:0:
320,192,298585,128,0,298667:0:0:0:0:
64,192,298667,128,0,298916:0:0:0:0:
192,192,298750,128,0,298916:0:0:0:0:
320,192,298750,128,0,298833:0:0:0:0:
320,192,298916,1,0,0:0:0:0:
448,192,298916,1,0,0:0:0:0:
192,192,298999,1,0,0:0:0:0:
64,192,299082,1,0,0:0:0:0:
320,192,299165,1,0,0:0:0:0:
192,192,299248,1,0,0:0:0:0:
448,192,299248,1,0,0:0:0:0:
64,192,299330,1,0,0:0:0:0:
320,192,299413,1,0,0:0:0:0:
448,192,299413,1,0,0:0:0:0:
64,192,299469,1,0,0:0:0:0:
192,192,299524,1,0,0:0:0:0:
320,192,299579,1,0,0:0:0:0:
448,192,299579,1,0,0:0:0:0:
64,192,299620,1,0,0:0:0:0:
192,192,299662,1,0,0:0:0:0:
448,192,299703,1,0,0:0:0:0:
64,192,299745,1,0,0:0:0:0:
320,192,299828,1,0,0:0:0:0:
448,192,299828,1,0,0:0:0:0:
192,192,299869,1,0,0:0:0:0:
64,192,299911,1,0,0:0:0:0:
320,192,299952,1,0,0:0:0:0:
448,192,299993,1,0,0:0:0:0:
64,192,300076,1,0,0:0:0:0:
192,192,300076,1,0,0:0:0:0:
320,192,300132,1,0,0:0:0:0:
192,192,300187,1,0,0:0:0:0:
448,192,300242,128,0,300325:0:0:0:0:
64,192,300242,128,0,300408:0:0:0:0:
320,192,300242,128,0,300408:0:0:0:0:
192,192,300325,1,0,0:0:0:0:
448,192,300408,1,0,0:0:0:0:
192,192,300491,128,0,300656:0:0:0:0:
64,192,300491,128,0,300574:0:0:0:0:
448,192,300574,1,0,0:0:0:0:
320,192,300574,128,0,300656:0:0:0:0:
64,192,300656,1,0,0:0:0:0:
192,192,300739,128,0,300822:0:0:0:0:
448,192,300739,128,0,300905:0:0:0:0:
320,192,300739,128,0,300822:0:0:0:0:
320,192,300905,1,0,0:0:0:0:
192,192,300905,1,0,0:0:0:0:
448,192,300988,128,0,301154:0:0:0:0:
64,192,300988,128,0,301071:0:0:0:0:
320,192,301071,128,0,301154:0:0:0:0:
192,192,301154,1,0,0:0:0:0:
64,192,301154,1,0,0:0:0:0:
320,192,301237,128,0,301485:0:0:0:0:
448,192,301237,128,0,301319:0:0:0:0:
64,192,301319,128,0,301485:0:0:0:0:
192,192,301402,128,0,301568:0:0:0:0:
448,192,301402,128,0,301485:0:0:0:0:
448,192,301568,128,0,301734:0:0:0:0:
320,192,301568,128,0,301651:0:0:0:0:
64,192,301568,1,0,0:0:0:0:
192,192,301651,1,0,0:0:0:0:
320,192,301734,1,0,0:0:0:0:
448,192,301817,1,0,0:0:0:0:
64,192,301817,128,0,301899:0:0:0:0:
192,192,301817,128,0,301982:0:0:0:0:
320,192,301899,1,0,0:0:0:0:
64,192,301982,1,0,0:0:0:0:
192,192,302065,1,0,0:0:0:0:
448,192,302065,128,0,302148:0:0:0:0:
320,192,302065,128,0,302231:0:0:0:0:
64,192,302148,1,0,0:0:0:0:
448,192,302231,1,0,0:0:0:0:
320,192,302314,1,0,0:0:0:0:
192,192,302314,128,0,302397:0:0:0:0:
64,192,302314,128,0,302397:0:0:0:0:
448,192,302397,1,0,0:0:0:0:
192,192,302480,1,0,0:0:0:0:
64,192,302480,1,0,0:0:0:0:
64,192,302562,1,0,0:0:0:0:
448,192,302562,1,0,0:0:0:0:
320,192,302645,1,0,0:0:0:0:
192,192,302645,1,0,0:0:0:0:
320,192,302728,1,0,0:0:0:0:
448,192,302728,1,0,0:0:0:0:
192,192,302811,1,0,0:0:0:0:
64,192,302811,1,0,0:0:0:0:
192,192,302894,128,0,303060:0:0:0:0:
320,192,302894,128,0,303060:0:0:0:0:
448,192,302894,128,0,303060:0:0:0:0:
64,192,303143,128,0,303308:0:0:0:0:
320,192,303143,128,0,303225:0:0:0:0:
192,192,303143,128,0,303308:0:0:0:0:
448,192,303225,128,0,303308:0:0:0:0:
320,192,303308,128,0,303391:0:0:0:0:
64,192,303391,128,0,303474:0:0:0:0:
192,192,303474,128,0,303557:0:0:0:0:
448,192,303557,128,0,303723:0:0:0:0:
320,192,303557,128,0,303640:0:0:0:0:
64,192,303557,128,0,303723:0:0:0:0:
192,192,303640,128,0,303723:0:0:0:0:
320,192,303723,128,0,303806:0:0:0:0:
448,192,303806,128,0,303888:0:0:0:0:
192,192,303806,128,0,303971:0:0:0:0:
64,192,303806,128,0,303971:0:0:0:0:
320,192,303888,128,0,303971:0:0:0:0:
448,192,303971,128,0,304054:0:0:0:0:
64,192,304054,128,0,304220:0:0:0:0:
192,192,304137,128,0,304303:0:0:0:0:
320,192,304220,128,0,304551:0:0:0:0:
448,192,304303,128,0,304386:0:0:0:0:
64,192,304386,128,0,304469:0:0:0:0:
448,192,304469,128,0,305214:0:0:0:0:
192,192,304551,128,0,304684:0:0:0:0:
64,192,304551,128,0,305148:0:0:0:0:
320,192,304684,128,0,304750:0:0:0:0:
192,192,304750,128,0,304817:0:0:0:0:
320,192,304817,128,0,304883:0:0:0:0:
192,192,304883,128,0,304949:0:0:0:0:
320,192,304949,128,0,305016:0:0:0:0:
192,192,305016,128,0,305082:0:0:0:0:
320,192,305082,128,0,305214:0:0:0:0:
192,192,305148,128,0,305214:0:0:0:0:
64,192,305214,128,0,305463:0:0:0:0:
64,192,305546,1,0,0:0:0:0:
192,192,305546,1,0,0:0:0:0:
320,192,305601,1,0,0:0:0:0:
448,192,305629,1,0,0:0:0:0:
64,192,305795,1,0,0:0:0:0:
448,192,305795,1,0,0:0:0:0:
192,192,305877,128,0,306043:0:0:0:0:
320,192,306043,1,0,0:0:0:0:
448,192,306043,1,0,0:0:0:0:
64,192,306209,1,0,0:0:0:0:
192,192,306209,1,0,0:0:0:0:
448,192,306209,1,0,0:0:0:0:
320,192,306264,1,0,0:0:0:0:
192,192,306319,1,0,0:0:0:0:
448,192,306375,1,0,0:0:0:0:
64,192,306430,1,0,0:0:0:0:
192,192,306485,1,0,0:0:0:0:
320,192,306540,1,0,0:0:0:0:
448,192,306540,1,0,0:0:0:0:
320,192,306623,1,0,0:0:0:0:
192,192,306706,1,0,0:0:0:0:
192,192,306789,1,0,0:0:0:0:
64,192,306872,1,0,0:0:0:0:
320,192,306872,1,0,0:0:0:0:
448,192,306872,1,0,0:0:0:0:
320,192,306955,1,0,0:0:0:0:
192,192,307038,128,0,307203:0:0:0:0:
64,192,307038,128,0,307120:0:0:0:0:
448,192,307120,128,0,307286:0:0:0:0:
320,192,307203,128,0,307369:0:0:0:0:
64,192,307203,128,0,307286:0:0:0:0:
192,192,307286,128,0,307452:0:0:0:0:
64,192,307369,128,0,307452:0:0:0:0:
448,192,307369,128,0,307452:0:0:0:0:
320,192,307452,128,0,307535:0:0:0:0:
64,192,307535,1,0,0:0:0:0:
192,192,307535,1,0,0:0:0:0:
448,192,307535,1,0,0:0:0:0:
320,192,307590,1,0,0:0:0:0:
192,192,307645,1,0,0:0:0:0:
448,192,307701,128,0,307866:0:0:0:0:
64,192,307701,128,0,307783:0:0:0:0:
192,192,307783,128,0,307949:0:0:0:0:
64,192,307866,128,0,308032:0:0:0:0:
320,192,307866,128,0,307949:0:0:0:0:
448,192,307949,128,0,308115:0:0:0:0:
192,192,308032,128,0,308115:0:0:0:0:
320,192,308032,128,0,308115:0:0:0:0:
64,192,308115,128,0,308198:0:0:0:0:
448,192,308198,5,0,0:0:0:0:
320,192,308198,1,0,0:0:0:0:
192,192,308245,1,0,0:0:0:0:
448,192,308293,1,0,0:0:0:0:
64,192,308340,1,0,0:0:0:0:
320,192,308387,1,0,0:0:0:0:
192,192,308435,1,0,0:0:0:0:
448,192,308482,1,0,0:0:0:0:
64,192,308529,1,0,0:0:0:0:
192,192,308571,1,0,0:0:0:0:
320,192,308612,1,0,0:0:0:0:
448,192,308654,1,0,0:0:0:0:
64,192,308695,1,0,0:0:0:0:
192,192,308778,1,0,0:0:0:0:
320,192,308861,1,0,0:0:0:0:
448,192,308861,1,0,0:0:0:0:
64,192,308902,1,0,0:0:0:0:
320,192,308944,1,0,0:0:0:0:
192,192,308985,1,0,0:0:0:0:
448,192,309027,1,0,0:0:0:0:
64,192,309068,1,0,0:0:0:0:
320,192,309109,1,0,0:0:0:0:
448,192,309151,1,0,0:0:0:0:
64,192,309192,1,0,0:0:0:0:
192,192,309192,1,0,0:0:0:0:
64,192,309275,1,0,0:0:0:0:
448,192,309358,1,0,0:0:0:0:
448,192,309441,1,0,0:0:0:0:
320,192,309524,1,0,0:0:0:0:
192,192,309524,1,0,0:0:0:0:
64,192,309524,1,0,0:0:0:0:
64,192,309607,1,0,0:0:0:0:
320,192,309690,128,0,309772:0:0:0:0:
448,192,309690,128,0,309855:0:0:0:0:
192,192,309772,128,0,309938:0:0:0:0:
64,192,309855,128,0,310021:0:0:0:0:
320,192,309855,128,0,309938:0:0:0:0:
448,192,309938,128,0,310104:0:0:0:0:
192,192,310021,128,0,310104:0:0:0:0:
320,192,310021,128,0,310104:0:0:0:0:
64,192,310104,128,0,310187:0:0:0:0:
320,192,310187,1,0,0:0:0:0:
448,192,310187,1,0,0:0:0:0:
192,192,310228,1,0,0:0:0:0:
448,192,310270,1,0,0:0:0:0:
64,192,310311,1,0,0:0:0:0:
192,192,310353,1,0,0:0:0:0:
320,192,310394,1,0,0:0:0:0:
64,192,310435,1,0,0:0:0:0:
448,192,310477,1,0,0:0:0:0:
192,192,310518,1,0,0:0:0:0:
320,192,310560,1,0,0:0:0:0:
192,192,310601,1,0,0:0:0:0:
448,192,310643,1,0,0:0:0:0:
64,192,310684,1,0,0:0:0:0:
320,192,310767,1,0,0:0:0:0:
192,192,310850,1,0,0:0:0:0:
64,192,310850,1,0,0:0:0:0:
448,192,310850,1,0,0:0:0:0:
320,192,310933,1,0,0:0:0:0:
192,192,311016,1,0,0:0:0:0:
64,192,311016,1,0,0:0:0:0:
320,192,311098,1,0,0:0:0:0:
192,192,311181,1,0,0:0:0:0:
64,192,311181,1,0,0:0:0:0:
320,192,311264,1,0,0:0:0:0:
192,192,311347,1,0,0:0:0:0:
64,192,311347,1,0,0:0:0:0:
192,192,311430,1,0,0:0:0:0:
64,192,311513,1,0,0:0:0:0:
448,192,311513,1,0,0:0:0:0:
320,192,311554,1,0,0:0:0:0:
192,192,311596,1,0,0:0:0:0:
448,192,311637,1,0,0:0:0:0:
64,192,311679,1,0,0:0:0:0:
192,192,311734,1,0,0:0:0:0:
320,192,311789,1,0,0:0:0:0:
192,192,311844,1,0,0:0:0:0:
448,192,311844,1,0,0:0:0:0:
64,192,311886,1,0,0:0:0:0:
448,192,311927,1,0,0:0:0:0:
192,192,311969,1,0,0:0:0:0:
320,192,312010,1,0,0:0:0:0:
448,192,312093,1,0,0:0:0:0:
320,192,312176,1,0,0:0:0:0:
64,192,312176,1,0,0:0:0:0:
192,192,312176,1,0,0:0:0:0:
448,192,312217,1,0,0:0:0:0:
64,192,312259,1,0,0:0:0:0:
320,192,312300,1,0,0:0:0:0:
192,192,312341,128,0,312424:0:0:0:0:
64,192,312424,128,0,312507:0:0:0:0:
448,192,312507,1,0,0:0:0:0:
320,192,312507,1,0,0:0:0:0:
192,192,312549,1,0,0:0:0:0:
448,192,312590,128,0,312756:0:0:0:0:
64,192,312632,1,0,0:0:0:0:
320,192,312673,128,0,312756:0:0:0:0:
192,192,312756,128,0,312839:0:0:0:0:
448,192,312839,1,0,0:0:0:0:
64,192,312839,1,0,0:0:0:0:
320,192,312839,1,0,0:0:0:0:
192,192,312894,1,0,0:0:0:0:
320,192,312949,1,0,0:0:0:0:
64,192,313004,128,0,313170:0:0:0:0:
448,192,313004,128,0,313087:0:0:0:0:
320,192,313087,128,0,313253:0:0:0:0:
448,192,313170,128,0,313336:0:0:0:0:
192,192,313170,128,0,313253:0:0:0:0:
64,192,313253,128,0,313419:0:0:0:0:
320,192,313336,128,0,313419:0:0:0:0:
192,192,313336,128,0,313419:0:0:0:0:
448,192,313419,128,0,313502:0:0:0:0:
64,192,313502,5,0,0:0:0:0:
192,192,313502,1,0,0:0:0:0:
320,192,313549,1,0,0:0:0:0:
64,192,313596,1,0,0:0:0:0:
448,192,313644,1,0,0:0:0:0:
192,192,313691,1,0,0:0:0:0:
320,192,313738,1,0,0:0:0:0:
64,192,313786,1,0,0:0:0:0:
448,192,313833,1,0,0:0:0:0:
320,192,313875,1,0,0:0:0:0:
192,192,313916,1,0,0:0:0:0:
64,192,313958,1,0,0:0:0:0:
448,192,313999,1,0,0:0:0:0:
320,192,314082,1,0,0:0:0:0:
64,192,314165,1,0,0:0:0:0:
192,192,314165,1,0,0:0:0:0:
448,192,314206,1,0,0:0:0:0:
192,192,314248,1,0,0:0:0:0:
320,192,314289,1,0,0:0:0:0:
64,192,314330,1,0,0:0:0:0:
448,192,314372,1,0,0:0:0:0:
192,192,314413,1,0,0:0:0:0:
64,192,314455,1,0,0:0:0:0:
320,192,314496,1,0,0:0:0:0:
192,192,314551,1,0,0:0:0:0:
320,192,314607,1,0,0:0:0:0:
64,192,314662,1,0,0:0:0:0:
448,192,314717,1,0,0:0:0:0:
192,192,314772,1,0,0:0:0:0:
64,192,314828,1,0,0:0:0:0:
320,192,314828,1,0,0:0:0:0:
448,192,314828,1,0,0:0:0:0:
192,192,314911,1,0,0:0:0:0:
320,192,314993,128,0,315242:0:0:0:0:
192,192,315076,128,0,315159:0:0:0:0:
64,192,315076,128,0,315242:0:0:0:0:
448,192,315159,128,0,315325:0:0:0:0:
192,192,315242,128,0,315491:0:0:0:0:
320,192,315325,128,0,315574:0:0:0:0:
64,192,315325,128,0,315408:0:0:0:0:
448,192,315408,128,0,315491:0:0:0:0:
64,192,315491,128,0,315739:0:0:0:0:
448,192,315574,128,0,315822:0:0:0:0:
192,192,315574,128,0,315656:0:0:0:0:
320,192,315656,128,0,315739:0:0:0:0:
192,192,315739,128,0,315905:0:0:0:0:
64,192,315822,128,0,315988:0:0:0:0:
320,192,315822,128,0,315988:0:0:0:0:
448,192,315905,128,0,316071:0:0:0:0:
192,192,315988,128,0,316071:0:0:0:0:
320,192,316071,128,0,316154:0:0:0:0:
64,192,316154,5,0,0:0:0:0:
192,192,316154,1,0,0:0:0:0:
448,192,316220,1,0,0:0:0:0:
320,192,316253,1,0,0:0:0:0:
192,192,316286,1,0,0:0:0:0:
64,192,316319,5,0,0:0:0:0:
320,192,316375,1,0,0:0:0:0:
448,192,316430,1,0,0:0:0:0:
64,192,316485,1,0,0:0:0:0:
192,192,316540,1,0,0:0:0:0:
448,192,316596,1,0,0:0:0:0:
64,192,316651,1,0,0:0:0:0:
320,192,316706,1,0,0:0:0:0:
192,192,316761,1,0,0:0:0:0:
448,192,316817,1,0,0:0:0:0:
320,192,316817,1,0,0:0:0:0:
64,192,316817,1,0,0:0:0:0:
192,192,316872,1,0,0:0:0:0:
320,192,316927,1,0,0:0:0:0:
64,192,316982,1,0,0:0:0:0:
448,192,317038,1,0,0:0:0:0:
320,192,317093,1,0,0:0:0:0:
192,192,317148,1,0,0:0:0:0:
64,192,317148,1,0,0:0:0:0:
192,192,317231,1,0,0:0:0:0:
320,192,317314,1,0,0:0:0:0:
320,192,317397,1,0,0:0:0:0:
448,192,317480,1,0,0:0:0:0:
192,192,317480,1,0,0:0:0:0:
64,192,317480,1,0,0:0:0:0:
192,192,317562,1,0,0:0:0:0:
320,192,317645,128,0,317811:0:0:0:0:
448,192,317645,128,0,317728:0:0:0:0:
64,192,317728,128,0,317894:0:0:0:0:
192,192,317811,128,0,317977:0:0:0:0:
448,192,317811,128,0,317894:0:0:0:0:
320,192,317894,128,0,318060:0:0:0:0:
448,192,317977,128,0,318060:0:0:0:0:
64,192,317977,128,0,318060:0:0:0:0:
192,192,318060,128,0,318143:0:0:0:0:
320,192,318143,1,0,0:0:0:0:
64,192,318143,1,0,0:0:0:0:
448,192,318143,128,0,318281:0:0:0:0:
64,192,318281,1,0,0:0:0:0:
448,192,318364,1,0,0:0:0:0:
320,192,318364,1,0,0:0:0:0:
64,192,318529,1,0,0:0:0:0:
448,192,318612,1,0,0:0:0:0:
192,192,318612,1,0,0:0:0:0:
64,192,318806,5,0,0:0:0:0:
192,192,318806,1,0,0:0:0:0:
320,192,318853,1,0,0:0:0:0:
64,192,318900,1,0,0:0:0:0:
448,192,318948,1,0,0:0:0:0:
192,192,318995,1,0,0:0:0:0:
320,192,319042,1,0,0:0:0:0:
64,192,319090,1,0,0:0:0:0:
448,192,319137,1,0,0:0:0:0:
320,192,319179,1,0,0:0:0:0:
192,192,319220,1,0,0:0:0:0:
64,192,319261,1,0,0:0:0:0:
448,192,319303,1,0,0:0:0:0:
320,192,319386,1,0,0:0:0:0:
64,192,319469,1,0,0:0:0:0:
192,192,319469,1,0,0:0:0:0:
448,192,319510,1,0,0:0:0:0:
192,192,319551,1,0,0:0:0:0:
320,192,319593,1,0,0:0:0:0:
64,192,319634,1,0,0:0:0:0:
448,192,319676,1,0,0:0:0:0:
192,192,319717,1,0,0:0:0:0:
64,192,319759,1,0,0:0:0:0:
320,192,319800,1,0,0:0:0:0:
448,192,319800,1,0,0:0:0:0:
448,192,319883,1,0,0:0:0:0:
64,192,319966,5,0,0:0:0:0:
64,192,320049,1,0,0:0:0:0:
448,192,320132,1,0,0:0:0:0:
320,192,320132,1,0,0:0:0:0:
192,192,320132,1,0,0:0:0:0:
448,192,320214,1,0,0:0:0:0:
192,192,320297,128,0,320380:0:0:0:0:
64,192,320297,128,0,320463:0:0:0:0:
320,192,320380,128,0,320546:0:0:0:0:
192,192,320463,128,0,320546:0:0:0:0:
448,192,320463,128,0,320629:0:0:0:0:
64,192,320546,128,0,320712:0:0:0:0:
192,192,320629,128,0,320712:0:0:0:0:
320,192,320629,128,0,320712:0:0:0:0:
448,192,320712,128,0,320795:0:0:0:0:
192,192,320795,1,0,0:0:0:0:
64,192,320795,1,0,0:0:0:0:
320,192,320831,1,0,0:0:0:0:
64,192,320868,1,0,0:0:0:0:
320,192,320960,1,0,0:0:0:0:
192,192,321043,1,0,0:0:0:0:
448,192,321126,5,0,0:0:0:0:
448,192,321209,1,0,0:0:0:0:
448,192,321292,1,0,0:0:0:0:
448,192,321375,1,0,0:0:0:0:
192,192,321458,128,0,321623:0:0:0:0:
64,192,321458,128,0,321540:0:0:0:0:
320,192,321458,128,0,321540:0:0:0:0:
320,192,321623,1,0,0:0:0:0:
64,192,321623,1,0,0:0:0:0:
192,192,321706,1,0,0:0:0:0:
320,192,321789,1,0,0:0:0:0:
64,192,321789,1,0,0:0:0:0:
448,192,321872,1,0,0:0:0:0:
320,192,321955,128,0,322038:0:0:0:0:
192,192,321955,128,0,322120:0:0:0:0:
64,192,321955,128,0,322038:0:0:0:0:
320,192,322120,1,0,0:0:0:0:
64,192,322120,1,0,0:0:0:0:
192,192,322203,1,0,0:0:0:0:
320,192,322286,1,0,0:0:0:0:
64,192,322286,1,0,0:0:0:0:
448,192,322369,1,0,0:0:0:0:
192,192,322452,128,0,322618:0:0:0:0:
320,192,322452,128,0,322535:0:0:0:0:
64,192,322452,128,0,322535:0:0:0:0:
320,192,322618,1,0,0:0:0:0:
64,192,322618,1,0,0:0:0:0:
448,192,322701,1,0,0:0:0:0:
64,192,322783,1,0,0:0:0:0:
320,192,322783,1,0,0:0:0:0:
192,192,322866,1,0,0:0:0:0:
64,192,322949,128,0,323032:0:0:0:0:
320,192,322949,128,0,323115:0:0:0:0:
448,192,322949,128,0,323032:0:0:0:0:
64,192,323115,1,0,0:0:0:0:
448,192,323115,1,0,0:0:0:0:
320,192,323198,1,0,0:0:0:0:
64,192,323281,1,0,0:0:0:0:
448,192,323281,1,0,0:0:0:0:
192,192,323364,1,0,0:0:0:0:
320,192,323446,128,0,323529:0:0:0:0:
448,192,323446,128,0,323612:0:0:0:0:
64,192,323446,128,0,323612:0:0:0:0:
320,192,323612,1,0,0:0:0:0:
192,192,323695,128,0,323778:0:0:0:0:
448,192,323695,128,0,323861:0:0:0:0:
64,192,323695,128,0,323861:0:0:0:0:
192,192,323861,1,0,0:0:0:0:
320,192,323944,128,0,324027:0:0:0:0:
448,192,323944,128,0,324027:0:0:0:0:
64,192,323944,128,0,324109:0:0:0:0:
192,192,324109,128,0,324192:0:0:0:0:
320,192,324109,128,0,324275:0:0:0:0:
448,192,324109,128,0,324192:0:0:0:0:
192,192,324275,1,0,0:0:0:0:
448,192,324275,1,0,0:0:0:0:
320,192,324358,1,0,0:0:0:0:
192,192,324441,1,0,0:0:0:0:
448,192,324441,1,0,0:0:0:0:
64,192,324524,1,0,0:0:0:0:
448,192,324607,128,0,324690:0:0:0:0:
192,192,324607,128,0,324690:0:0:0:0:
320,192,324607,128,0,324772:0:0:0:0:
192,192,324772,1,0,0:0:0:0:
448,192,324772,1,0,0:0:0:0:
320,192,324855,1,0,0:0:0:0:
192,192,324938,1,0,0:0:0:0:
448,192,324938,1,0,0:0:0:0:
64,192,325021,1,0,0:0:0:0:
320,192,325104,128,0,325187:0:0:0:0:
192,192,325104,128,0,325270:0:0:0:0:
448,192,325104,128,0,325187:0:0:0:0:
320,192,325270,1,0,0:0:0:0:
448,192,325270,1,0,0:0:0:0:
192,192,325353,1,0,0:0:0:0:
64,192,325435,128,0,325518:0:0:0:0:
320,192,325435,128,0,325518:0:0:0:0:
448,192,325435,128,0,325518:0:0:0:0:
448,192,325684,128,0,325767:0:0:0:0:
64,192,325684,128,0,325767:0:0:0:0:
320,192,325684,128,0,325767:0:0:0:0:
320,192,325933,128,0,326016:0:0:0:0:
64,192,325933,128,0,326016:0:0:0:0:
448,192,325933,128,0,326016:0:0:0:0:
192,192,326181,128,0,326264:0:0:0:0:
64,192,326181,128,0,326430:0:0:0:0:
320,192,326181,128,0,326264:0:0:0:0:
448,192,326430,1,0,0:0:0:0:
320,192,326430,1,0,0:0:0:0:
192,192,326430,1,0,0:0:0:0:
64,192,326513,1,0,0:0:0:0:
448,192,326596,1,0,0:0:0:0:
448,192,326679,1,0,0:0:0:0:
192,192,326761,128,0,326927:0:0:0:0:
64,192,326761,128,0,326844:0:0:0:0:
320,192,326761,128,0,326927:0:0:0:0:
448,192,326844,1,0,0:0:0:0:
64,192,326927,1,0,0:0:0:0:
320,192,327010,128,0,327093:0:0:0:0:
448,192,327010,128,0,327176:0:0:0:0:
192,192,327093,128,0,327176:0:0:0:0:
64,192,327093,1,0,0:0:0:0:
320,192,327176,1,0,0:0:0:0:
448,192,327259,128,0,327341:0:0:0:0:
64,192,327259,128,0,327341:0:0:0:0:
192,192,327259,128,0,327424:0:0:0:0:
320,192,327341,1,0,0:0:0:0:
448,192,327424,1,0,0:0:0:0:
64,192,327424,1,0,0:0:0:0:
320,192,327507,128,0,327673:0:0:0:0:
192,192,327507,128,0,327590:0:0:0:0:
448,192,327590,128,0,327673:0:0:0:0:
192,192,327673,1,0,0:0:0:0:
64,192,327673,1,0,0:0:0:0:
320,192,327756,128,0,327839:0:0:0:0:
448,192,327756,128,0,328004:0:0:0:0:
64,192,327839,128,0,327922:0:0:0:0:
192,192,327922,128,0,328004:0:0:0:0:
320,192,327922,128,0,328004:0:0:0:0:
64,192,328004,128,0,328087:0:0:0:0:
192,192,328087,128,0,328253:0:0:0:0:
320,192,328087,128,0,328170:0:0:0:0:
448,192,328087,128,0,328253:0:0:0:0:
64,192,328170,1,0,0:0:0:0:
320,192,328253,1,0,0:0:0:0:
192,192,328336,128,0,328419:0:0:0:0:
64,192,328336,128,0,328502:0:0:0:0:
320,192,328419,1,0,0:0:0:0:
448,192,328419,128,0,328502:0:0:0:0:
192,192,328502,1,0,0:0:0:0:
64,192,328585,128,0,328667:0:0:0:0:
448,192,328585,128,0,328667:0:0:0:0:
320,192,328667,128,0,328750:0:0:0:0:
192,192,328750,128,0,328833:0:0:0:0:
64,192,328750,128,0,328916:0:0:0:0:
448,192,328750,128,0,328916:0:0:0:0:
320,192,328833,1,0,0:0:0:0:
192,192,328916,1,0,0:0:0:0:
448,192,328999,128,0,329082:0:0:0:0:
320,192,328999,128,0,329165:0:0:0:0:
192,192,329082,1,0,0:0:0:0:
64,192,329082,128,0,329165:0:0:0:0:
448,192,329165,1,0,0:0:0:0:
320,192,329248,128,0,329330:0:0:0:0:
64,192,329248,128,0,329330:0:0:0:0:
192,192,329330,128,0,329413:0:0:0:0:
320,192,329413,1,0,0:0:0:0:
448,192,329413,1,0,0:0:0:0:
64,192,329455,1,0,0:0:0:0:
192,192,329496,1,0,0:0:0:0:
320,192,329538,1,0,0:0:0:0:
64,192,329579,1,0,0:0:0:0:
448,192,329662,1,0,0:0:0:0:
64,192,329745,1,0,0:0:0:0:
320,192,329745,1,0,0:0:0:0:
192,192,329828,1,0,0:0:0:0:
320,192,329911,1,0,0:0:0:0:
64,192,329993,1,0,0:0:0:0:
192,192,329993,1,0,0:0:0:0:
448,192,330076,1,0,0:0:0:0:
64,192,330076,1,0,0:0:0:0:
320,192,330159,1,0,0:0:0:0:
192,192,330242,1,0,0:0:0:0:
64,192,330325,1,0,0:0:0:0:
448,192,330408,1,0,0:0:0:0:
192,192,330408,1,0,0:0:0:0:
448,192,330491,1,0,0:0:0:0:
64,192,330532,1,0,0:0:0:0:
320,192,330574,1,0,0:0:0:0:
448,192,330629,1,0,0:0:0:0:
64,192,330739,1,0,0:0:0:0:
192,192,330739,1,0,0:0:0:0:
320,192,330822,1,0,0:0:0:0:
64,192,330905,1,0,0:0:0:0:
192,192,330960,1,0,0:0:0:0:
320,192,331016,1,0,0:0:0:0:
448,192,331071,1,0,0:0:0:0:
192,192,331071,1,0,0:0:0:0:
64,192,331126,1,0,0:0:0:0:
448,192,331181,1,0,0:0:0:0:
192,192,331237,1,0,0:0:0:0:
320,192,331292,1,0,0:0:0:0:
64,192,331319,1,0,0:0:0:0:
448,192,331347,1,0,0:0:0:0:
64,192,331402,1,0,0:0:0:0:
320,192,331458,1,0,0:0:0:0:
448,192,331485,1,0,0:0:0:0:
192,192,331513,1,0,0:0:0:0:
448,192,331568,1,0,0:0:0:0:
64,192,331568,1,0,0:0:0:0:
64,192,331734,1,0,0:0:0:0:
192,192,331734,1,0,0:0:0:0:
320,192,331775,1,0,0:0:0:0:
192,192,331817,1,0,0:0:0:0:
448,192,331858,1,0,0:0:0:0:
320,192,331899,1,0,0:0:0:0:
64,192,331941,1,0,0:0:0:0:
192,192,331982,1,0,0:0:0:0:
448,192,332065,128,0,332148:0:0:0:0:
320,192,332065,128,0,332148:0:0:0:0:
64,192,332065,128,0,332231:0:0:0:0:
320,192,332231,1,0,0:0:0:0:
448,192,332231,1,0,0:0:0:0:
64,192,332314,128,0,332397:0:0:0:0:
192,192,332314,128,0,332480:0:0:0:0:
448,192,332397,128,0,332480:0:0:0:0:
320,192,332397,1,0,0:0:0:0:
64,192,332480,1,0,0:0:0:0:
192,192,332562,128,0,332645:0:0:0:0:
320,192,332562,128,0,332645:0:0:0:0:
448,192,332562,128,0,332728:0:0:0:0:
64,192,332645,1,0,0:0:0:0:
192,192,332728,1,0,0:0:0:0:
320,192,332728,1,0,0:0:0:0:
64,192,332811,128,0,332977:0:0:0:0:
448,192,332811,128,0,332894:0:0:0:0:
192,192,332894,128,0,332977:0:0:0:0:
448,192,332977,1,0,0:0:0:0:
320,192,332977,1,0,0:0:0:0:
64,192,333060,128,0,333143:0:0:0:0:
192,192,333060,128,0,333308:0:0:0:0:
320,192,333143,128,0,333225:0:0:0:0:
448,192,333225,128,0,333308:0:0:0:0:
64,192,333225,128,0,333308:0:0:0:0:
320,192,333308,128,0,333391:0:0:0:0:
448,192,333391,128,0,333557:0:0:0:0:
64,192,333391,128,0,333474:0:0:0:0:
192,192,333391,128,0,333557:0:0:0:0:
320,192,333474,1,0,0:0:0:0:
64,192,333557,1,0,0:0:0:0:
448,192,333640,128,0,333723:0:0:0:0:
320,192,333640,128,0,333806:0:0:0:0:
64,192,333723,1,0,0:0:0:0:
192,192,333723,128,0,333806:0:0:0:0:
448,192,333806,1,0,0:0:0:0:
320,192,333888,128,0,333971:0:0:0:0:
192,192,333888,128,0,333971:0:0:0:0:
64,192,333971,128,0,334054:0:0:0:0:
448,192,334054,128,0,334137:0:0:0:0:
320,192,334054,128,0,334220:0:0:0:0:
192,192,334054,128,0,334220:0:0:0:0:
64,192,334137,1,0,0:0:0:0:
448,192,334220,1,0,0:0:0:0:
192,192,334303,128,0,334386:0:0:0:0:
64,192,334303,128,0,334469:0:0:0:0:
448,192,334386,1,0,0:0:0:0:
320,192,334386,128,0,334469:0:0:0:0:
192,192,334469,1,0,0:0:0:0:
64,192,334551,128,0,334634:0:0:0:0:
320,192,334551,128,0,334634:0:0:0:0:
448,192,334634,128,0,334717:0:0:0:0:
192,192,334717,128,0,334883:0:0:0:0:
64,192,334717,128,0,334800:0:0:0:0:
320,192,334717,128,0,334883:0:0:0:0:
64,192,334883,128,0,334966:0:0:0:0:
192,192,334966,128,0,335132:0:0:0:0:
320,192,334966,128,0,335132:0:0:0:0:
448,192,334966,128,0,335132:0:0:0:0:
64,192,335049,128,0,335132:0:0:0:0:
448,192,335214,1,0,0:0:0:0:
320,192,335214,1,0,0:0:0:0:
64,192,335270,1,0,0:0:0:0:
320,192,335297,1,0,0:0:0:0:
192,192,335325,1,0,0:0:0:0:
448,192,335380,128,0,335546:0:0:0:0:
64,192,335380,128,0,335546:0:0:0:0:
320,192,335546,1,0,0:0:0:0:
448,192,335629,1,0,0:0:0:0:
192,192,335629,128,0,335795:0:0:0:0:
64,192,335629,128,0,335795:0:0:0:0:
448,192,335712,128,0,335822:0:0:0:0:
192,192,335877,1,0,0:0:0:0:
64,192,335877,1,0,0:0:0:0:
320,192,335933,1,0,0:0:0:0:
64,192,335960,1,0,0:0:0:0:
448,192,335988,1,0,0:0:0:0:
192,192,336043,128,0,336209:0:0:0:0:
320,192,336043,128,0,336209:0:0:0:0:
64,192,336209,128,0,336292:0:0:0:0:
192,192,336292,1,0,0:0:0:0:
448,192,336292,128,0,336458:0:0:0:0:
320,192,336292,128,0,336458:0:0:0:0:
192,192,336375,1,0,0:0:0:0:
64,192,336540,1,0,0:0:0:0:
320,192,336540,1,0,0:0:0:0:
448,192,336540,1,0,0:0:0:0:
192,192,336596,1,0,0:0:0:0:
320,192,336651,1,0,0:0:0:0:
448,192,336706,128,0,336927:0:0:0:0:
64,192,336706,1,0,0:0:0:0:
192,192,336817,1,0,0:0:0:0:
320,192,336817,1,0,0:0:0:0:
320,192,336927,1,0,0:0:0:0:
64,192,336927,1,0,0:0:0:0:
64,192,337038,1,0,0:0:0:0:
448,192,337038,1,0,0:0:0:0:
448,192,337148,1,0,0:0:0:0:
320,192,337148,1,0,0:0:0:0:
320,192,337259,1,0,0:0:0:0:
192,192,337259,1,0,0:0:0:0:
448,192,337369,128,0,337452:0:0:0:0:
192,192,337369,128,0,337618:0:0:0:0:
64,192,337369,128,0,337949:0:0:0:0:
320,192,337535,128,0,337618:0:0:0:0:
192,192,337701,128,0,337783:0:0:0:0:
448,192,337866,128,0,337949:0:0:0:0:
64,192,338032,1,0,0:0:0:0:
448,192,338032,1,0,0:0:0:0:
320,192,338074,1,0,0:0:0:0:
192,192,338115,1,0,0:0:0:0:
448,192,338156,1,0,0:0:0:0:
320,192,338281,1,0,0:0:0:0:
64,192,338322,1,0,0:0:0:0:
320,192,338529,1,0,0:0:0:0:
64,192,338571,1,0,0:0:0:0:
320,192,338695,128,0,338944:0:0:0:0:
192,192,338695,128,0,338778:0:0:0:0:
448,192,338695,128,0,339275:0:0:0:0:
64,192,338861,128,0,338944:0:0:0:0:
320,192,339027,128,0,339109:0:0:0:0:
192,192,339192,128,0,339275:0:0:0:0:
192,192,339358,1,0,0:0:0:0:
448,192,339358,1,0,0:0:0:0:
64,192,339413,1,0,0:0:0:0:
448,192,339469,1,0,0:0:0:0:
192,192,339524,1,0,0:0:0:0:
320,192,339579,1,0,0:0:0:0:
64,192,339634,1,0,0:0:0:0:
448,192,339690,1,0,0:0:0:0:
320,192,339731,1,0,0:0:0:0:
192,192,339772,1,0,0:0:0:0:
64,192,339814,1,0,0:0:0:0:
448,192,339855,1,0,0:0:0:0:
192,192,339938,1,0,0:0:0:0:
64,192,340021,128,0,340104:0:0:0:0:
320,192,340021,128,0,340270:0:0:0:0:
448,192,340021,128,0,340601:0:0:0:0:
192,192,340187,128,0,340270:0:0:0:0:
320,192,340353,128,0,340435:0:0:0:0:
64,192,340518,128,0,340601:0:0:0:0:
64,192,340684,1,0,0:0:0:0:
448,192,340684,1,0,0:0:0:0:
448,192,340767,1,0,0:0:0:0:
192,192,340850,1,0,0:0:0:0:
192,192,340933,1,0,0:0:0:0:
448,192,341016,1,0,0:0:0:0:
64,192,341057,1,0,0:0:0:0:
320,192,341098,1,0,0:0:0:0:
192,192,341140,1,0,0:0:0:0:
64,192,341181,1,0,0:0:0:0:
448,192,341264,1,0,0:0:0:0:
320,192,341347,128,0,341430:0:0:0:0:
192,192,341347,128,0,341596:0:0:0:0:
64,192,341347,128,0,341927:0:0:0:0:
448,192,341513,128,0,341596:0:0:0:0:
192,192,341679,128,0,341761:0:0:0:0:
320,192,341844,128,0,341927:0:0:0:0:
448,192,342010,128,0,342093:0:0:0:0:
64,192,342010,1,0,0:0:0:0:
64,192,342093,1,0,0:0:0:0:
64,192,342176,1,0,0:0:0:0:
320,192,342259,128,0,342341:0:0:0:0:
192,192,342341,1,0,0:0:0:0:
64,192,342507,128,0,342673:0:0:0:0:
192,192,342673,1,0,0:0:0:0:
320,192,342673,1,0,0:0:0:0:
448,192,342673,1,0,0:0:0:0:
448,192,342756,1,0,0:0:0:0:
64,192,342839,1,0,0:0:0:0:
64,192,342922,1,0,0:0:0:0:
320,192,342922,1,0,0:0:0:0:
192,192,343004,1,0,0:0:0:0:
192,192,343087,1,0,0:0:0:0:
448,192,343170,1,0,0:0:0:0:
64,192,343170,1,0,0:0:0:0:
448,192,343253,1,0,0:0:0:0:
320,192,343336,1,0,0:0:0:0:
320,192,343419,1,0,0:0:0:0:
192,192,343419,1,0,0:0:0:0:
64,192,343502,1,0,0:0:0:0:
64,192,343585,1,0,0:0:0:0:
320,192,343667,1,0,0:0:0:0:
448,192,343667,1,0,0:0:0:0:
448,192,343750,1,0,0:0:0:0:
64,192,343833,1,0,0:0:0:0:
192,192,343833,1,0,0:0:0:0:
192,192,343916,1,0,0:0:0:0:
448,192,343999,128,0,345076:0:0:0:0:
320,192,343999,1,0,0:0:0:0:
320,192,344082,1,0,0:0:0:0:
64,192,344165,1,0,0:0:0:0:
64,192,344248,1,0,0:0:0:0:
192,192,344330,1,0,0:0:0:0:
192,192,344413,1,0,0:0:0:0:
320,192,344496,1,0,0:0:0:0:
320,192,344579,1,0,0:0:0:0:
192,192,344662,1,0,0:0:0:0:
64,192,344662,1,0,0:0:0:0:
64,192,344745,1,0,0:0:0:0:
320,192,344828,1,0,0:0:0:0:
320,192,344911,1,0,0:0:0:0:
192,192,344993,1,0,0:0:0:0:
64,192,345076,1,0,0:0:0:0:
192,192,345159,1,0,0:0:0:0:
448,192,345214,1,0,0:0:0:0:
64,192,345270,1,0,0:0:0:0:
448,192,345325,128,0,345491:0:0:0:0:
320,192,345325,128,0,345656:0:0:0:0:
192,192,345325,128,0,345491:0:0:0:0:
192,192,345574,128,0,345656:0:0:0:0:
448,192,345656,1,0,0:0:0:0:
64,192,345656,1,0,0:0:0:0:
64,192,345822,128,0,346154:0:0:0:0:
320,192,345822,128,0,345988:0:0:0:0:
192,192,345822,128,0,345988:0:0:0:0:
320,192,346071,128,0,346154:0:0:0:0:
192,192,346154,1,0,0:0:0:0:
448,192,346154,1,0,0:0:0:0:
448,192,346319,128,0,346651:0:0:0:0:
64,192,346319,128,0,346485:0:0:0:0:
320,192,346319,128,0,346485:0:0:0:0:
64,192,346568,128,0,346651:0:0:0:0:
192,192,346651,1,0,0:0:0:0:
320,192,346651,1,0,0:0:0:0:
448,192,346817,128,0,346982:0:0:0:0:
192,192,346817,128,0,347148:0:0:0:0:
64,192,346817,128,0,346982:0:0:0:0:
448,192,347065,128,0,347148:0:0:0:0:
320,192,347148,1,0,0:0:0:0:
64,192,347148,1,0,0:0:0:0:
64,192,347314,5,0,0:0:0:0:
448,192,347314,1,0,0:0:0:0:
192,192,347314,1,0,0:0:0:0:
320,192,347424,1,0,0:0:0:0:
64,192,347424,1,0,0:0:0:0:
192,192,347424,1,0,0:0:0:0:
192,192,347535,5,0,0:0:0:0:
448,192,347535,1,0,0:0:0:0:
64,192,347535,1,0,0:0:0:0:
320,192,347645,1,0,0:0:0:0:
448,192,347645,1,0,0:0:0:0:
64,192,347645,1,0,0:0:0:0:
448,192,347756,1,0,0:0:0:0:
320,192,347756,1,0,0:0:0:0:
192,192,347756,1,0,0:0:0:0:
320,192,347866,1,0,0:0:0:0:
192,192,347866,1,0,0:0:0:0:
64,192,347866,1,0,0:0:0:0:
64,192,347977,5,0,0:0:0:0:
192,192,347977,1,0,0:0:0:0:
448,192,348032,1,0,0:0:0:0:
64,192,348087,1,0,0:0:0:0:
448,192,348143,1,0,0:0:0:0:
64,192,348198,1,0,0:0:0:0:
448,192,348253,1,0,0:0:0:0:
192,192,348308,1,0,0:0:0:0:
320,192,348364,1,0,0:0:0:0:
192,192,348419,1,0,0:0:0:0:
320,192,348474,1,0,0:0:0:0:
192,192,348529,1,0,0:0:0:0:
320,192,348585,1,0,0:0:0:0:
64,192,348640,1,0,0:0:0:0:
448,192,348695,1,0,0:0:0:0:
64,192,348750,1,0,0:0:0:0:
448,192,348806,1,0,0:0:0:0:
64,192,348861,1,0,0:0:0:0:
448,192,348916,1,0,0:0:0:0:
192,192,348971,1,0,0:0:0:0:
320,192,349027,1,0,0:0:0:0:
192,192,349082,1,0,0:0:0:0:
320,192,349137,1,0,0:0:0:0:
192,192,349192,1,0,0:0:0:0:
320,192,349248,1,0,0:0:0:0:
64,192,349303,1,0,0:0:0:0:
448,192,349303,1,0,0:0:0:0:
192,192,349358,1,0,0:0:0:0:
64,192,349413,1,0,0:0:0:0:
320,192,349469,1,0,0:0:0:0:
448,192,349469,1,0,0:0:0:0:
192,192,349524,1,0,0:0:0:0:
320,192,349579,1,0,0:0:0:0:
448,192,349634,1,0,0:0:0:0:
64,192,349634,1,0,0:0:0:0:
192,192,349690,1,0,0:0:0:0:
320,192,349745,1,0,0:0:0:0:
192,192,349800,1,0,0:0:0:0:
64,192,349800,1,0,0:0:0:0:
448,192,349855,1,0,0:0:0:0:
320,192,349911,1,0,0:0:0:0:
64,192,349966,1,0,0:0:0:0:
448,192,349966,1,0,0:0:0:0:
192,192,350021,1,0,0:0:0:0:
64,192,350076,1,0,0:0:0:0:
320,192,350132,1,0,0:0:0:0:
448,192,350132,1,0,0:0:0:0:
192,192,350187,1,0,0:0:0:0:
320,192,350242,1,0,0:0:0:0:
448,192,350297,1,0,0:0:0:0:
64,192,350297,1,0,0:0:0:0:
192,192,350353,1,0,0:0:0:0:
320,192,350408,1,0,0:0:0:0:
64,192,350463,1,0,0:0:0:0:
192,192,350463,1,0,0:0:0:0:
448,192,350518,1,0,0:0:0:0:
320,192,350574,1,0,0:0:0:0:
192,192,350629,1,0,0:0:0:0:
64,192,350629,1,0,0:0:0:0:
320,192,350684,1,0,0:0:0:0:
448,192,350684,1,0,0:0:0:0:
192,192,350739,1,0,0:0:0:0:
64,192,350739,1,0,0:0:0:0:
320,192,350795,1,0,0:0:0:0:
448,192,350795,1,0,0:0:0:0:
64,192,350850,1,0,0:0:0:0:
192,192,350850,1,0,0:0:0:0:
448,192,350905,1,0,0:0:0:0:
320,192,350905,1,0,0:0:0:0:
192,192,350960,1,0,0:0:0:0:
64,192,350960,1,0,0:0:0:0:
320,192,351016,1,0,0:0:0:0:
448,192,351016,1,0,0:0:0:0:
192,192,351071,1,0,0:0:0:0:
64,192,351071,1,0,0:0:0:0:
320,192,351126,1,0,0:0:0:0:
448,192,351126,1,0,0:0:0:0:
192,192,351181,1,0,0:0:0:0:
64,192,351181,1,0,0:0:0:0:
448,192,351237,1,0,0:0:0:0:
320,192,351237,1,0,0:0:0:0:
64,192,351292,1,0,0:0:0:0:
192,192,351292,1,0,0:0:0:0:
448,192,351347,1,0,0:0:0:0:
320,192,351347,1,0,0:0:0:0:
64,192,351402,1,0,0:0:0:0:
192,192,351402,1,0,0:0:0:0:
448,192,351458,1,0,0:0:0:0:
320,192,351458,1,0,0:0:0:0:
64,192,351513,1,0,0:0:0:0:
192,192,351513,1,0,0:0:0:0:
320,192,351568,1,0,0:0:0:0:
448,192,351568,1,0,0:0:0:0:
192,192,351623,1,0,0:0:0:0:
64,192,351623,1,0,0:0:0:0:
320,192,351679,1,0,0:0:0:0:
448,192,351679,1,0,0:0:0:0:
192,192,351734,1,0,0:0:0:0:
64,192,351734,1,0,0:0:0:0:
320,192,351789,1,0,0:0:0:0:
448,192,351789,1,0,0:0:0:0:
192,192,351844,1,0,0:0:0:0:
64,192,351844,1,0,0:0:0:0:
448,192,351899,1,0,0:0:0:0:
320,192,351899,1,0,0:0:0:0:
64,192,351955,1,0,0:0:0:0:
192,192,351955,1,0,0:0:0:0:
448,192,352010,1,0,0:0:0:0:
320,192,352010,1,0,0:0:0:0:
64,192,352065,1,0,0:0:0:0:
192,192,352065,1,0,0:0:0:0:
448,192,352120,1,0,0:0:0:0:
320,192,352120,1,0,0:0:0:0:
64,192,352176,1,0,0:0:0:0:
192,192,352176,1,0,0:0:0:0:
320,192,352231,1,0,0:0:0:0:
448,192,352231,1,0,0:0:0:0:
192,192,352286,1,0,0:0:0:0:
64,192,352286,1,0,0:0:0:0:
320,192,352341,1,0,0:0:0:0:
448,192,352341,1,0,0:0:0:0:
192,192,352397,1,0,0:0:0:0:
64,192,352397,1,0,0:0:0:0:
320,192,352452,1,0,0:0:0:0:
448,192,352452,1,0,0:0:0:0:
192,192,352507,1,0,0:0:0:0:
64,192,352507,1,0,0:0:0:0:
448,192,352562,1,0,0:0:0:0:
320,192,352562,1,0,0:0:0:0:
64,192,352618,1,0,0:0:0:0:
192,192,352618,1,0,0:0:0:0:
448,192,352673,1,0,0:0:0:0:
320,192,352673,1,0,0:0:0:0:
64,192,352728,1,0,0:0:0:0:
192,192,352728,1,0,0:0:0:0:
448,192,352783,1,0,0:0:0:0:
320,192,352783,1,0,0:0:0:0:
64,192,352839,1,0,0:0:0:0:
192,192,352839,1,0,0:0:0:0:
320,192,352894,1,0,0:0:0:0:
448,192,352894,1,0,0:0:0:0:
64,192,352949,1,0,0:0:0:0:
448,192,353023,1,0,0:0:0:0:
192,192,353060,1,0,0:0:0:0:
320,192,353097,1,0,0:0:0:0:
64,192,353133,1,0,0:0:0:0:
192,192,353170,1,0,0:0:0:0:
320,192,353207,1,0,0:0:0:0:
448,192,353281,128,0,353364:0:0:0:0:
64,192,353281,128,0,353446:0:0:0:0:
192,192,353281,128,0,353446:0:0:0:0:
448,192,353529,128,0,353612:0:0:0:0:
64,192,353529,128,0,353695:0:0:0:0:
192,192,353529,128,0,353695:0:0:0:0:
448,192,353778,128,0,353944:0:0:0:0:
320,192,353778,128,0,353944:0:0:0:0:
192,192,353778,128,0,353861:0:0:0:0:
192,192,354027,1,0,0:0:0:0:
448,192,354027,1,0,0:0:0:0:
320,192,354027,1,0,0:0:0:0:
448,192,354109,128,0,354192:0:0:0:0:
320,192,354109,128,0,354192:0:0:0:0:
448,192,354275,128,0,354358:0:0:0:0:
320,192,354275,128,0,354358:0:0:0:0:
192,192,354275,128,0,354358:0:0:0:0:
448,192,354441,1,0,0:0:0:0:
192,192,354441,1,0,0:0:0:0:
192,192,354524,1,0,0:0:0:0:
448,192,354607,128,0,354772:0:0:0:0:
320,192,354607,128,0,354772:0:0:0:0:
64,192,354607,128,0,354690:0:0:0:0:
448,192,354855,128,0,355021:0:0:0:0:
320,192,354855,128,0,355021:0:0:0:0:
64,192,354855,128,0,354938:0:0:0:0:
64,192,355104,128,0,355270:0:0:0:0:
192,192,355104,128,0,355270:0:0:0:0:
320,192,355104,128,0,355187:0:0:0:0:
192,192,355353,1,0,0:0:0:0:
64,192,355353,1,0,0:0:0:0:
320,192,355353,1,0,0:0:0:0:
64,192,355435,128,0,355518:0:0:0:0:
192,192,355435,128,0,355518:0:0:0:0:
64,192,355601,128,0,355684:0:0:0:0:
192,192,355601,128,0,355684:0:0:0:0:
320,192,355601,128,0,355684:0:0:0:0:
64,192,355767,1,0,0:0:0:0:
320,192,355767,1,0,0:0:0:0:
320,192,355850,1,0,0:0:0:0:
192,192,355933,1,0,0:0:0:0:
64,192,355933,1,0,0:0:0:0:
448,192,355988,1,0,0:0:0:0:
320,192,356043,1,0,0:0:0:0:
192,192,356181,1,0,0:0:0:0:
64,192,356181,1,0,0:0:0:0:
448,192,356237,1,0,0:0:0:0:
320,192,356292,1,0,0:0:0:0:
192,192,356430,1,0,0:0:0:0:
64,192,356430,1,0,0:0:0:0:
320,192,356458,1,0,0:0:0:0:
448,192,356485,1,0,0:0:0:0:
192,192,356540,1,0,0:0:0:0:
64,192,356679,1,0,0:0:0:0:
192,192,356679,1,0,0:0:0:0:
192,192,356761,1,0,0:0:0:0:
64,192,356761,1,0,0:0:0:0:
448,192,356817,1,0,0:0:0:0:
64,192,356927,1,0,0:0:0:0:
448,192,356927,1,0,0:0:0:0:
320,192,356969,1,0,0:0:0:0:
192,192,357093,1,0,0:0:0:0:
448,192,357093,1,0,0:0:0:0:
192,192,357176,1,0,0:0:0:0:
320,192,357259,1,0,0:0:0:0:
448,192,357259,1,0,0:0:0:0:
64,192,357314,1,0,0:0:0:0:
192,192,357369,1,0,0:0:0:0:
448,192,357507,1,0,0:0:0:0:
320,192,357507,1,0,0:0:0:0:
64,192,357562,1,0,0:0:0:0:
192,192,357618,1,0,0:0:0:0:
320,192,357756,1,0,0:0:0:0:
448,192,357756,1,0,0:0:0:0:
64,192,357811,1,0,0:0:0:0:
320,192,357866,1,0,0:0:0:0:
192,192,357922,1,0,0:0:0:0:
448,192,358004,1,0,0:0:0:0:
320,192,358004,1,0,0:0:0:0:
320,192,358087,1,0,0:0:0:0:
448,192,358087,1,0,0:0:0:0:
64,192,358143,1,0,0:0:0:0:
448,192,358253,1,0,0:0:0:0:
64,192,358253,1,0,0:0:0:0:
192,192,358295,1,0,0:0:0:0:
320,192,358419,1,0,0:0:0:0:
64,192,358419,1,0,0:0:0:0:
320,192,358502,1,0,0:0:0:0:
448,192,358585,128,0,358667:0:0:0:0:
192,192,358585,128,0,358750:0:0:0:0:
64,192,358585,128,0,358750:0:0:0:0:
192,192,358833,128,0,358999:0:0:0:0:
64,192,358833,128,0,358999:0:0:0:0:
448,192,358833,128,0,358916:0:0:0:0:
192,192,359082,128,0,359165:0:0:0:0:
320,192,359082,128,0,359248:0:0:0:0:
448,192,359082,128,0,359248:0:0:0:0:
320,192,359330,1,0,0:0:0:0:
448,192,359330,1,0,0:0:0:0:
192,192,359330,1,0,0:0:0:0:
320,192,359413,128,0,359496:0:0:0:0:
448,192,359413,128,0,359496:0:0:0:0:
192,192,359579,128,0,359662:0:0:0:0:
320,192,359579,128,0,359662:0:0:0:0:
448,192,359579,128,0,359662:0:0:0:0:
192,192,359745,1,0,0:0:0:0:
448,192,359745,1,0,0:0:0:0:
192,192,359828,1,0,0:0:0:0:
64,192,359911,128,0,359993:0:0:0:0:
320,192,359911,128,0,360076:0:0:0:0:
448,192,359911,128,0,360076:0:0:0:0:
64,192,360159,128,0,360242:0:0:0:0:
320,192,360159,128,0,360325:0:0:0:0:
448,192,360159,128,0,360325:0:0:0:0:
320,192,360408,128,0,360491:0:0:0:0:
192,192,360408,128,0,360574:0:0:0:0:
64,192,360408,128,0,360574:0:0:0:0:
320,192,360656,1,0,0:0:0:0:
64,192,360656,1,0,0:0:0:0:
192,192,360656,1,0,0:0:0:0:
192,192,360739,128,0,360822:0:0:0:0:
64,192,360739,128,0,360822:0:0:0:0:
320,192,360905,128,0,360988:0:0:0:0:
192,192,360905,128,0,360988:0:0:0:0:
64,192,360905,128,0,360988:0:0:0:0:
320,192,361071,1,0,0:0:0:0:
64,192,361071,1,0,0:0:0:0:
320,192,361154,1,0,0:0:0:0:
192,192,361237,1,0,0:0:0:0:
64,192,361237,1,0,0:0:0:0:
448,192,361292,1,0,0:0:0:0:
320,192,361347,1,0,0:0:0:0:
192,192,361485,1,0,0:0:0:0:
64,192,361485,1,0,0:0:0:0:
448,192,361540,1,0,0:0:0:0:
320,192,361596,1,0,0:0:0:0:
192,192,361734,1,0,0:0:0:0:
64,192,361734,1,0,0:0:0:0:
320,192,361761,1,0,0:0:0:0:
448,192,361789,1,0,0:0:0:0:
192,192,361844,1,0,0:0:0:0:
64,192,361982,1,0,0:0:0:0:
192,192,361982,1,0,0:0:0:0:
192,192,362065,1,0,0:0:0:0:
64,192,362065,1,0,0:0:0:0:
448,192,362120,1,0,0:0:0:0:
64,192,362231,1,0,0:0:0:0:
448,192,362231,1,0,0:0:0:0:
320,192,362272,1,0,0:0:0:0:
192,192,362397,1,0,0:0:0:0:
448,192,362397,1,0,0:0:0:0:
192,192,362480,1,0,0:0:0:0:
320,192,362562,1,0,0:0:0:0:
448,192,362562,1,0,0:0:0:0:
64,192,362618,1,0,0:0:0:0:
192,192,362673,1,0,0:0:0:0:
448,192,362811,1,0,0:0:0:0:
320,192,362811,1,0,0:0:0:0:
64,192,362866,1,0,0:0:0:0:
192,192,362922,1,0,0:0:0:0:
64,192,363060,1,0,0:0:0:0:
192,192,363060,1,0,0:0:0:0:
448,192,363112,1,0,0:0:0:0:
64,192,363163,1,0,0:0:0:0:
448,192,363215,1,0,0:0:0:0:
64,192,363267,1,0,0:0:0:0:
448,192,363319,1,0,0:0:0:0:
64,192,363370,1,0,0:0:0:0:
448,192,363422,1,0,0:0:0:0:
192,192,363474,1,0,0:0:0:0:
320,192,363526,1,0,0:0:0:0:
192,192,363578,1,0,0:0:0:0:
320,192,363629,1,0,0:0:0:0:
192,192,363681,1,0,0:0:0:0:
320,192,363733,1,0,0:0:0:0:
192,192,363785,1,0,0:0:0:0:
320,192,363837,1,0,0:0:0:0:
64,192,363888,128,0,364054:0:0:0:0:
192,192,363888,128,0,364054:0:0:0:0:
448,192,363888,128,0,363971:0:0:0:0:
448,192,364137,128,0,364220:0:0:0:0:
64,192,364137,128,0,364303:0:0:0:0:
192,192,364137,128,0,364303:0:0:0:0:
448,192,364386,128,0,364551:0:0:0:0:
320,192,364386,128,0,364551:0:0:0:0:
192,192,364386,128,0,364469:0:0:0:0:
192,192,364634,1,0,0:0:0:0:
448,192,364634,1,0,0:0:0:0:
320,192,364634,1,0,0:0:0:0:
448,192,364717,128,0,364800:0:0:0:0:
320,192,364717,128,0,364800:0:0:0:0:
448,192,364883,128,0,364966:0:0:0:0:
320,192,364883,128,0,364966:0:0:0:0:
192,192,364883,128,0,364966:0:0:0:0:
448,192,365049,1,0,0:0:0:0:
192,192,365049,1,0,0:0:0:0:
192,192,365132,1,0,0:0:0:0:
448,192,365214,128,0,365380:0:0:0:0:
320,192,365214,128,0,365380:0:0:0:0:
64,192,365214,128,0,365297:0:0:0:0:
448,192,365463,128,0,365629:0:0:0:0:
320,192,365463,128,0,365629:0:0:0:0:
64,192,365463,128,0,365546:0:0:0:0:
64,192,365712,128,0,365877:0:0:0:0:
192,192,365712,128,0,365877:0:0:0:0:
320,192,365712,128,0,365795:0:0:0:0:
192,192,365960,1,0,0:0:0:0:
64,192,365960,1,0,0:0:0:0:
320,192,365960,1,0,0:0:0:0:
64,192,366043,128,0,366126:0:0:0:0:
192,192,366043,128,0,366126:0:0:0:0:
64,192,366209,128,0,366292:0:0:0:0:
192,192,366209,128,0,366292:0:0:0:0:
320,192,366209,128,0,366292:0:0:0:0:
64,192,366375,1,0,0:0:0:0:
320,192,366375,1,0,0:0:0:0:
320,192,366458,1,0,0:0:0:0:
192,192,366540,1,0,0:0:0:0:
64,192,366540,1,0,0:0:0:0:
448,192,366596,1,0,0:0:0:0:
320,192,366651,1,0,0:0:0:0:
192,192,366706,1,0,0:0:0:0:
320,192,366789,1,0,0:0:0:0:
448,192,366789,1,0,0:0:0:0:
64,192,366844,1,0,0:0:0:0:
192,192,366899,1,0,0:0:0:0:
448,192,366955,1,0,0:0:0:0:
192,192,367038,1,0,0:0:0:0:
64,192,367038,1,0,0:0:0:0:
320,192,367065,1,0,0:0:0:0:
448,192,367093,1,0,0:0:0:0:
192,192,367148,1,0,0:0:0:0:
64,192,367203,1,0,0:0:0:0:
448,192,367286,1,0,0:0:0:0:
320,192,367286,1,0,0:0:0:0:
448,192,367369,1,0,0:0:0:0:
192,192,367369,1,0,0:0:0:0:
64,192,367424,1,0,0:0:0:0:
64,192,367535,1,0,0:0:0:0:
448,192,367535,1,0,0:0:0:0:
320,192,367576,1,0,0:0:0:0:
192,192,367701,1,0,0:0:0:0:
448,192,367701,1,0,0:0:0:0:
192,192,367783,1,0,0:0:0:0:
448,192,367866,1,0,0:0:0:0:
320,192,367866,1,0,0:0:0:0:
64,192,367922,1,0,0:0:0:0:
192,192,367977,1,0,0:0:0:0:
320,192,368032,1,0,0:0:0:0:
192,192,368115,1,0,0:0:0:0:
64,192,368115,1,0,0:0:0:0:
448,192,368170,1,0,0:0:0:0:
320,192,368225,1,0,0:0:0:0:
192,192,368281,1,0,0:0:0:0:
320,192,368364,1,0,0:0:0:0:
448,192,368364,1,0,0:0:0:0:
64,192,368419,1,0,0:0:0:0:
192,192,368419,1,0,0:0:0:0:
320,192,368474,1,0,0:0:0:0:
448,192,368474,1,0,0:0:0:0:
64,192,368529,1,0,0:0:0:0:
192,192,368529,1,0,0:0:0:0:
64,192,368612,1,0,0:0:0:0:
448,192,368612,1,0,0:0:0:0:
192,192,368695,1,0,0:0:0:0:
448,192,368695,1,0,0:0:0:0:
320,192,368778,1,0,0:0:0:0:
64,192,368861,1,0,0:0:0:0:
192,192,368861,1,0,0:0:0:0:
320,192,368944,1,0,0:0:0:0:
320,192,369027,1,0,0:0:0:0:
320,192,369109,1,0,0:0:0:0:
192,192,369192,128,0,369358:0:0:0:0:
64,192,369192,128,0,369358:0:0:0:0:
448,192,369192,128,0,369275:0:0:0:0:
192,192,369441,128,0,369607:0:0:0:0:
64,192,369441,128,0,369607:0:0:0:0:
448,192,369441,128,0,369524:0:0:0:0:
192,192,369690,128,0,369772:0:0:0:0:
320,192,369690,128,0,369855:0:0:0:0:
448,192,369690,128,0,369855:0:0:0:0:
320,192,369938,1,0,0:0:0:0:
448,192,369938,1,0,0:0:0:0:
192,192,369938,1,0,0:0:0:0:
320,192,370021,128,0,370104:0:0:0:0:
448,192,370021,128,0,370104:0:0:0:0:
192,192,370187,128,0,370270:0:0:0:0:
320,192,370187,128,0,370270:0:0:0:0:
448,192,370187,128,0,370270:0:0:0:0:
192,192,370353,1,0,0:0:0:0:
448,192,370353,1,0,0:0:0:0:
192,192,370435,1,0,0:0:0:0:
64,192,370518,128,0,370601:0:0:0:0:
320,192,370518,128,0,370684:0:0:0:0:
448,192,370518,128,0,370684:0:0:0:0:
64,192,370767,128,0,370850:0:0:0:0:
320,192,370767,128,0,370933:0:0:0:0:
448,192,370767,128,0,370933:0:0:0:0:
320,192,371016,128,0,371098:0:0:0:0:
192,192,371016,128,0,371181:0:0:0:0:
64,192,371016,128,0,371181:0:0:0:0:
320,192,371264,1,0,0:0:0:0:
64,192,371264,1,0,0:0:0:0:
192,192,371264,1,0,0:0:0:0:
192,192,371347,128,0,371430:0:0:0:0:
64,192,371347,128,0,371430:0:0:0:0:
320,192,371513,128,0,371596:0:0:0:0:
192,192,371513,128,0,371596:0:0:0:0:
64,192,371513,128,0,371596:0:0:0:0:
320,192,371679,1,0,0:0:0:0:
64,192,371679,1,0,0:0:0:0:
320,192,371761,1,0,0:0:0:0:
64,192,371844,1,0,0:0:0:0:
192,192,371844,1,0,0:0:0:0:
448,192,371927,1,0,0:0:0:0:
64,192,371927,1,0,0:0:0:0:
192,192,372010,1,0,0:0:0:0:
320,192,372093,1,0,0:0:0:0:
448,192,372093,1,0,0:0:0:0:
64,192,372176,1,0,0:0:0:0:
320,192,372176,1,0,0:0:0:0:
448,192,372259,1,0,0:0:0:0:
192,192,372341,1,0,0:0:0:0:
64,192,372341,1,0,0:0:0:0:
192,192,372424,1,0,0:0:0:0:
320,192,372424,1,0,0:0:0:0:
64,192,372507,1,0,0:0:0:0:
320,192,372590,1,0,0:0:0:0:
448,192,372590,1,0,0:0:0:0:
192,192,372673,1,0,0:0:0:0:
448,192,372673,1,0,0:0:0:0:
320,192,372756,1,0,0:0:0:0:
192,192,372839,1,0,0:0:0:0:
64,192,372839,1,0,0:0:0:0:
448,192,372880,1,0,0:0:0:0:
64,192,372922,1,0,0:0:0:0:
320,192,372963,1,0,0:0:0:0:
192,192,373004,1,0,0:0:0:0:
448,192,373004,1,0,0:0:0:0:
64,192,373046,1,0,0:0:0:0:
448,192,373087,1,0,0:0:0:0:
192,192,373129,1,0,0:0:0:0:
320,192,373170,1,0,0:0:0:0:
64,192,373253,128,0,373419:0:0:0:0:
192,192,373253,128,0,373419:0:0:0:0:
448,192,373253,128,0,373667:0:0:0:0:
192,192,373502,128,0,373667:0:0:0:0:
320,192,373502,128,0,373667:0:0:0:0:
64,192,373502,128,0,373916:0:0:0:0:
320,192,373750,128,0,373916:0:0:0:0:
448,192,373750,128,0,373916:0:0:0:0:
192,192,373750,128,0,373916:0:0:0:0:
448,192,373999,128,0,374413:0:0:0:0:
64,192,373999,128,0,374496:0:0:0:0:
192,192,373999,128,0,374455:0:0:0:0:
320,192,373999,128,0,374413:0:0:0:0:
