osu file format v14

[General]
AudioFilename: audio.mp3
AudioLeadIn: 0
PreviewTime: 290187
Countdown: 0
SampleSet: Normal
StackLeniency: 0.7
Mode: 1
LetterboxInBreaks: 0
WidescreenStoryboard: 0

[Editor]
DistanceSpacing: 0.85
BeatDivisor: 16
GridSize: 4
TimelineZoom: 3.599998

[Metadata]
Title:#1f1e33 (#00102g version)
TitleUnicode:#1f1e33 (#00102g version)
Artist:Camellia
ArtistUnicode:かめりあ
Creator:Raytoly
Version:#c02f1ic7
Source:Arcaea
Tags:U​.​U​.​F​.​O. Long Conflict bonus track 4 disk 2 tairitsu hikari black fate 5 V main story かめるかめりあ cametek kamelcamellia electronic instrumental dubstep featured artist fa
BeatmapID:3105945
BeatmapSetID:1517164

[Difficulty]
HPDrainRate:4
CircleSize:5
OverallDifficulty:8
ApproachRate:10
SliderMultiplier:1.4
SliderTickRate:1

[Events]
//Background and Video events
0,0,"Conflict.jpg",0,50
//Break Periods
2,20186,23880
//Storyboard Layer 0 (Background)
//Storyboard Layer 1 (Fail)
//Storyboard Layer 2 (Pass)
//Storyboard Layer 3 (Foreground)
//Storyboard Layer 4 (Overlay)
//Storyboard Sound Samples

[TimingPoints]
-199,331.491712707182,4,1,0,50,1,0
463,-166.666666666667,4,1,0,50,0,0
2452,331.491712707182,4,1,0,50,1,0
2452,-166.666666666667,4,1,0,50,0,0
17037,428.571428571429,4,1,0,50,1,0
17037,-130.718954248366,4,1,0,50,0,0
17537,489.795918367347,4,1,0,50,1,8
17537,-113.636363636364,4,1,0,50,0,0
18089,540.540540540541,4,1,0,50,1,8
18089,-102.040816326531,4,1,0,50,0,0
18849,666.666666666667,4,1,0,50,1,8
18849,-83.3333333333333,4,1,0,50,0,0
19986,666.666666666667,4,1,0,50,1,0
20954,-66.6666666666667,4,1,0,50,0,0
22341,-222.222222222222,4,1,0,50,0,0
22652,666.666666666667,4,1,0,50,1,8
23667,-250,4,1,0,50,0,0
24330,331.491712707182,6,1,0,50,1,0
24330,-285.714285714286,6,1,0,50,0,0
24993,-333.333333333333,6,1,0,50,0,0
26318,331.491712707182,4,1,0,50,1,0
26318,-125,4,1,0,50,0,0
28969,-111.111111111111,4,1,0,50,0,0
30958,-111.111111111111,4,1,0,100,0,0
31621,-100,4,1,0,100,0,1
32947,-100,4,1,0,100,0,0
33030,-111.111111111111,4,1,0,100,0,0
34273,-100,4,1,0,100,0,1
35599,-100,4,1,0,100,0,0
35682,-111.111111111111,4,1,0,100,0,0
36925,-100,4,1,0,100,0,1
38251,-100,4,1,0,100,0,0
38334,-111.111111111111,4,1,0,100,0,0
39577,-100,4,1,0,100,0,1
40903,-100,4,1,0,100,0,0
40986,-111.111111111111,4,1,0,100,0,0
42312,-66.6666666666667,4,1,0,100,0,1
43555,-50,4,1,0,100,0,0
43721,-142.857142857143,4,1,0,50,0,0
46207,-133.333333333333,4,1,0,50,0,0
48859,-133.333333333333,4,1,0,75,0,0
49108,-125,4,1,0,75,0,0
51511,-111.111111111111,4,1,0,75,0,0
53168,-117.647058823529,4,1,0,100,0,0
53500,-125,4,1,0,100,0,0
53831,-133.333333333333,4,1,0,100,0,0
54163,-100,4,1,0,100,0,0
54246,-125,4,1,0,100,0,0
56815,-111.111111111111,4,1,0,100,0,0
58638,-100,4,1,0,100,0,0
59467,-80,4,1,0,100,0,0
62119,-88.8888888888889,4,1,0,100,0,0
64108,-88.8888888888889,4,1,0,100,0,0
64439,-80,4,1,0,100,0,0
64771,-66.6666666666667,4,1,0,100,0,1
64936,-80,4,1,0,100,0,1
74052,-80,4,1,0,100,0,0
75710,-66.6666666666667,4,1,0,100,0,1
75876,-80,4,1,0,100,0,1
84660,-66.6666666666667,4,1,0,100,0,0
85074,-100,4,1,0,100,0,0
85655,-99.009900990099,4,1,0,100,0,0
85737,-98.0392156862745,4,1,0,100,0,0
85820,-97.0873786407767,4,1,0,100,0,0
85903,-96.1538461538461,4,1,0,100,0,0
85986,-95.2380952380952,4,1,0,100,0,1
86069,-95.2380952380952,4,1,0,100,0,1
96594,-80,4,1,0,100,0,0
96925,-125,4,1,0,100,0,0
99246,-80,4,1,0,100,0,0
99577,-142.857142857143,4,1,0,100,0,0
100572,-80,4,1,0,100,0,0
100820,-90.9090909090909,4,1,0,100,0,0
101069,-105.263157894737,4,1,0,100,0,0
101235,-117.647058823529,4,1,0,100,0,0
101566,-125,4,1,0,100,0,0
101898,-133.333333333333,4,1,0,100,0,1
102063,-142.857142857143,4,1,0,100,0,1
107201,-80,4,1,0,100,0,1
107367,-142.857142857143,4,1,0,100,0,1
111179,-142.857142857143,4,1,0,100,0,0
112505,-80,4,1,0,100,0,1
112671,-117.647058823529,4,1,0,100,0,1
117809,-80,4,1,0,100,0,1
118141,-111.111111111111,4,1,0,100,0,1
118472,-76.9230769230769,4,1,0,100,0,1
118804,-111.111111111111,4,1,0,100,0,1
119135,-74.0740740740741,4,1,0,100,0,1
119467,-111.111111111111,4,1,0,100,0,1
119798,-111.111111111111,4,1,0,100,0,0
120130,-111.111111111111,4,1,0,100,0,0
120461,-71.4285714285714,4,1,0,100,0,1
120793,-100,4,1,0,100,0,1
121124,-68.9655172413793,4,1,0,100,0,1
121456,-100,4,1,0,100,0,1
121787,-66.6666666666667,4,1,0,100,0,1
122119,-100,4,1,0,100,0,1
122450,-100,4,1,0,100,0,0
122782,-100,4,1,0,100,0,0
123113,-66.6666666666667,4,1,0,100,0,1
125765,-66.6666666666667,4,1,0,100,0,0
125931,-100,4,1,0,100,0,0
128417,-66.6666666666667,4,1,0,100,0,1
131069,-66.6666666666667,4,1,0,100,0,0
131235,-100,4,1,0,100,0,0
132478,-66.6666666666667,4,1,0,100,0,1
133721,-50,4,1,0,75,0,0
134715,-125,4,1,0,75,0,0
138362,-100,4,1,0,75,0,0
138693,-111.111111111111,4,1,0,75,0,0
138942,-125,4,1,0,75,0,0
143003,-111.111111111111,4,1,0,75,0,0
144329,-100,4,1,0,75,0,0
144411,-100,4,1,0,100,0,0
149632,-83.3333333333333,4,1,0,100,0,0
149881,-111.111111111111,4,1,0,100,0,0
150130,-76.9230769230769,4,1,0,100,0,0
150544,-111.111111111111,4,1,0,100,0,0
150793,-71.4285714285714,4,1,0,100,0,0
151207,-111.111111111111,4,1,0,100,0,0
151456,-66.6666666666667,4,1,0,100,0,0
151621,-111.111111111111,4,1,0,100,0,0
152284,-100,4,1,0,100,0,0
153610,-88.8888888888889,4,1,0,100,0,0
154273,-88.8888888888889,4,1,0,100,0,0
154936,-66.6666666666667,4,1,0,100,0,1
155102,-80,4,1,0,100,0,1
164218,-66.6666666666667,4,1,0,100,0,1
165213,-66.6666666666667,4,1,0,100,0,0
165544,-66.6666666666667,4,1,0,100,0,1
165710,-80,4,1,0,100,0,1
169522,-66.6666666666667,4,1,0,100,0,1
169771,-72.7272727272727,4,1,0,100,0,1
170019,-80,4,1,0,100,0,1
170268,-88.8888888888889,4,1,0,100,0,1
170516,-100,4,1,0,100,0,0
170848,-66.6666666666667,4,1,0,100,0,1
171014,-80,4,1,0,100,0,1
175157,-66.6666666666667,4,1,0,100,0,1
176152,-50,4,1,0,100,0,0
176317,-100,4,1,0,100,0,0
181456,-66.6666666666667,4,1,0,100,0,0
181538,-100,4,1,0,100,0,0
186842,-66.6666666666667,4,1,0,100,0,1
187754,-66.6666666666667,4,1,0,100,0,0
188168,-66.6666666666667,4,1,0,100,0,1
189411,-100,4,1,0,100,0,0
189743,-66.6666666666667,4,1,0,100,0,1
189909,-80,4,1,0,100,0,1
198693,-66.6666666666667,4,1,0,100,0,0
199025,-100,4,1,0,100,0,0
200185,-111.111111111111,4,1,0,75,0,0
201345,-117.647058823529,4,1,0,75,0,0
202671,-125,4,1,0,75,0,0
203831,-129.032258064516,4,1,0,75,0,0
203997,-133.333333333333,4,1,0,75,0,0
205323,-142.857142857143,4,1,0,75,0,0
206649,-153.846153846154,4,1,0,75,0,0
207975,-125,4,1,0,75,0,0
209135,-117.647058823529,4,1,0,75,0,0
209301,-111.111111111111,4,1,0,75,0,0
210627,-66.6666666666667,4,1,0,50,0,0
210958,-142.857142857143,4,1,0,50,0,0
221235,-100,4,1,0,50,0,0
221566,-125,4,1,0,50,0,0
231179,-117.647058823529,4,1,0,100,0,0
231428,-100,4,1,0,100,0,0
231677,-86.9565217391304,4,1,0,100,0,0
231842,-80,4,1,0,100,0,0
233168,-80,4,1,0,50,0,0
234494,-80,4,1,0,100,0,0
235820,-80,4,1,0,50,0,0
237146,-80,4,1,0,100,0,0
239798,-88.8888888888889,4,1,0,100,0,0
242450,-88.8888888888889,4,1,0,100,0,0
242782,-133.333333333333,4,1,0,50,0,0
245765,-66.6666666666667,4,1,0,50,0,0
246428,-80,4,1,0,100,0,1
247422,-80,4,1,0,100,0,0
247754,-66.6666666666667,4,1,0,100,0,1
247920,-80,4,1,0,100,0,1
257036,-80,4,1,0,100,0,0
258362,-80,4,1,0,100,0,1
258527,-100,4,1,0,100,0,1
263003,-100,4,1,0,100,0,0
263666,-100,4,1,0,100,0,1
263831,-80,4,1,0,100,0,1
266152,-80,4,1,0,100,0,0
266649,-66.6666666666667,4,1,0,100,0,1
266815,-80,4,1,0,100,0,1
268306,-80,4,1,0,100,0,0
268969,-80,4,1,0,100,0,1
269135,-100,4,1,0,100,0,1
274273,-100,4,1,0,100,0,0
274356,-108.108108108108,4,1,0,100,0,0
277091,-100,4,1,0,100,0,0
278251,-100,4,1,0,100,0,0
279743,-105.263157894737,4,1,0,100,0,0
279909,-111.111111111111,4,1,0,100,0,1
279992,-125,4,1,0,100,0,1
282229,-100,4,1,0,100,0,0
282395,-142.857142857143,4,1,0,100,0,0
284881,-100,4,1,0,100,0,1
285047,-125,4,1,0,100,0,1
286207,-100,4,1,0,100,0,1
286373,-111.111111111111,4,1,0,100,0,1
287533,-100,4,1,0,100,0,1
288859,-100,4,1,0,100,0,0
290185,-66.6666666666667,4,1,0,100,0,1
291511,-80,4,1,0,100,0,1
292837,-66.6666666666667,4,1,0,100,0,1
294163,-80,4,1,0,100,0,1
295489,-66.6666666666667,4,1,0,100,0,1
296815,-80,4,1,0,100,0,1
298141,-66.6666666666667,4,1,0,100,0,1
299467,-80,4,1,0,100,0,1
300793,-66.6666666666667,4,1,0,100,0,1
302119,-80,4,1,0,100,0,1
303445,-66.6666666666667,4,1,0,100,0,1
304771,-80,4,1,0,100,0,1
306097,-66.6666666666667,4,1,0,100,0,1
307422,-80,4,1,0,100,0,1
308748,-66.6666666666667,4,1,0,100,0,1
308997,-80,4,1,0,100,0,1
309246,-66.6666666666667,4,1,0,100,0,1
309494,-80,4,1,0,100,0,1
309743,-66.6666666666667,4,1,0,100,0,1
309992,-80,4,1,0,100,0,1
310240,-66.6666666666667,4,1,0,100,0,1
310737,-66.6666666666667,4,1,0,100,0,0
310903,-80,4,1,0,100,0,0
311400,-66.6666666666667,4,1,0,100,0,1
312726,-80,4,1,0,100,0,1
313721,-80,4,1,0,100,0,0
314052,-66.6666666666667,4,1,0,100,0,1
315378,-80,4,1,0,100,0,1
316041,-80,4,1,0,100,0,0
316704,-66.6666666666667,4,1,0,100,0,1
318030,-80,4,1,0,100,0,1
319356,-66.6666666666667,4,1,0,100,0,1
319605,-80,4,1,0,100,0,1
319853,-66.6666666666667,4,1,0,100,0,1
320102,-80,4,1,0,100,0,1
320351,-66.6666666666667,4,1,0,100,0,1
320599,-80,4,1,0,100,0,1
320848,-66.6666666666667,4,1,0,100,0,1
321097,-80,4,1,0,100,0,1
322008,-66.6666666666667,4,1,0,100,0,1
323003,-66.6666666666667,4,1,0,100,0,0
323334,-66.6666666666667,4,1,0,100,0,1
325986,-66.6666666666667,4,1,0,100,0,0
326152,-100,4,1,0,100,0,0
328638,-66.6666666666667,4,1,0,100,0,1
331290,-66.6666666666667,4,1,0,100,0,0
331456,-100,4,1,0,100,0,0
332699,-66.6666666666667,4,1,0,100,0,1
333942,-66.6666666666667,4,1,0,100,0,0

[HitObjects]
345,161,2370,5,0,0:0:0:0:
345,161,2411,1,0,0:0:0:0:
231,138,2452,1,8,0:0:0:0:
282,156,3446,1,0,0:0:0:0:
282,156,3777,1,8,0:0:0:0:
282,156,4440,1,8,0:0:0:0:
217,163,4482,1,8,0:0:0:0:
225,128,5103,1,0,0:0:0:0:
282,156,5166,1,8,0:0:0:0:
333,186,6098,1,8,0:0:0:0:
333,186,6429,1,0,0:0:0:0:
330,190,7092,1,8,0:0:0:0:
329,190,7424,1,8,0:0:0:0:
330,190,7755,1,0,0:0:0:0:
303,189,8750,1,0,0:0:0:0:
303,189,9081,1,8,0:0:0:0:
303,189,9744,1,8,0:0:0:0:
138,125,9786,1,8,0:0:0:0:
303,189,10407,1,8,0:0:0:0:
303,189,11402,1,8,0:0:0:0:
382,231,11733,1,0,0:0:0:0:
303,189,11775,1,8,0:0:0:0:
263,224,13059,1,0,0:0:0:0:
250,179,14054,1,8,0:0:0:0:
181,165,14385,1,0,0:0:0:0:
250,179,14427,1,8,0:0:0:0:
282,205,15711,1,8,0:0:0:0:
205,200,17037,1,0,0:0:0:0:
185,200,17090,1,0,0:0:0:0:
205,200,17537,1,0,0:0:0:0:
236,150,17598,1,8,0:0:0:0:
236,134,18089,1,8,0:0:0:0:
221,103,18156,1,8,0:0:0:0:
169,142,18849,1,0,0:0:0:0:
169,142,18932,1,8,0:0:0:0:
252,160,19986,1,4,0:0:0:0:
256,192,24330,12,0,26153,0:0:0:0:
306,193,26319,5,12,0:0:0:0:
251,192,26484,1,0,0:0:0:0:
251,192,26650,1,0,0:0:0:0:
251,192,26816,1,8,0:0:0:0:
251,192,26981,1,0,0:0:0:0:
251,192,27147,1,0,0:0:0:0:
251,192,27313,1,8,0:0:0:0:
251,192,27479,1,0,0:0:0:0:
251,192,27644,1,0,0:0:0:0:
251,192,27810,1,8,0:0:0:0:
251,192,27976,1,0,0:0:0:0:
251,192,28142,1,0,0:0:0:0:
251,192,28307,1,8,0:0:0:0:
251,192,28473,1,8,0:0:0:0:
251,192,28639,1,8,0:0:0:0:
251,192,28805,1,0,0:0:0:0:
251,192,28970,1,8,0:0:0:0:
251,192,29136,1,0,0:0:0:0:
251,192,29302,1,0,0:0:0:0:
251,192,29468,1,8,0:0:0:0:
251,192,29633,1,0,0:0:0:0:
251,192,29799,1,0,0:0:0:0:
251,192,29965,1,8,0:0:0:0:
251,192,30131,1,0,0:0:0:0:
251,192,30296,1,0,0:0:0:0:
251,192,30462,1,8,0:0:0:0:
251,192,30628,1,0,0:0:0:0:
251,192,30794,1,0,0:0:0:0:
251,192,30959,1,8,0:0:0:0:
193,251,31125,1,0,0:0:0:0:
193,251,31208,1,0,0:0:0:0:
193,251,31291,1,8,0:0:0:0:
294,218,31457,1,0,0:0:0:0:
294,218,31622,1,8,0:0:0:0:
232,171,31705,1,0,0:0:0:0:
253,173,31788,1,0,0:0:0:0:
293,201,31871,1,0,0:0:0:0:
294,202,31954,1,8,0:0:0:0:
294,202,32037,1,0,0:0:0:0:
293,202,32120,1,0,0:0:0:0:
293,202,32202,1,0,0:0:0:0:
293,202,32285,1,8,0:0:0:0:
293,202,32368,1,0,0:0:0:0:
292,200,32451,1,0,0:0:0:0:
292,200,32534,1,0,0:0:0:0:
291,199,32617,1,8,0:0:0:0:
293,201,32700,1,0,0:0:0:0:
293,201,32783,1,0,0:0:0:0:
293,201,32865,1,0,0:0:0:0:
294,202,32948,1,8,0:0:0:0:
316,214,33114,1,0,0:0:0:0:
315,214,33197,1,8,0:0:0:0:
315,215,33280,1,0,0:0:0:0:
315,215,33446,1,8,0:0:0:0:
315,215,33528,1,0,0:0:0:0:
315,215,33611,1,0,0:0:0:0:
315,215,33694,1,8,0:0:0:0:
315,215,33860,1,0,0:0:0:0:
315,215,33943,1,8,0:0:0:0:
316,214,34026,1,8,0:0:0:0:
316,214,34109,1,0,0:0:0:0:
227,174,34274,1,8,0:0:0:0:
227,174,34357,1,8,0:0:0:0:
227,174,34440,1,0,0:0:0:0:
227,174,34523,1,0,0:0:0:0:
227,174,34606,1,8,0:0:0:0:
227,174,34689,1,8,0:0:0:0:
227,174,34772,1,0,0:0:0:0:
227,174,34854,1,0,0:0:0:0:
227,174,34937,1,8,0:0:0:0:
227,174,35020,1,8,0:0:0:0:
228,182,35103,1,0,0:0:0:0:
228,182,35186,1,0,0:0:0:0:
228,182,35269,1,8,0:0:0:0:
266,191,35352,1,8,0:0:0:0:
313,208,35435,1,0,0:0:0:0:
362,227,35517,1,0,0:0:0:0:
379,243,35600,1,8,0:0:0:0:
209,189,35766,1,0,0:0:0:0:
208,190,35849,1,8,0:0:0:0:
232,201,35932,1,0,0:0:0:0:
263,169,36098,1,8,0:0:0:0:
264,177,36180,1,8,0:0:0:0:
265,177,36263,1,0,0:0:0:0:
265,177,36346,1,8,0:0:0:0:
265,177,36512,1,0,0:0:0:0:
266,177,36595,1,8,0:0:0:0:
266,177,36678,1,8,0:0:0:0:
266,177,36760,1,0,0:0:0:0:
266,177,36926,1,8,0:0:0:0:
342,185,37009,1,8,0:0:0:0:
350,213,37092,1,8,0:0:0:0:
266,213,37175,1,0,0:0:0:0:
266,196,37258,1,8,0:0:0:0:
268,194,37341,1,8,0:0:0:0:
268,193,37423,1,8,0:0:0:0:
270,193,37506,1,0,0:0:0:0:
270,192,37589,1,8,0:0:0:0:
270,192,37672,1,8,0:0:0:0:
270,192,37755,1,8,0:0:0:0:
271,192,37838,1,0,0:0:0:0:
272,191,37921,1,8,0:0:0:0:
272,191,38004,1,8,0:0:0:0:
272,191,38086,1,8,0:0:0:0:
272,191,38169,1,0,0:0:0:0:
272,191,38252,1,8,0:0:0:0:
271,202,38418,1,0,0:0:0:0:
280,203,38501,1,8,0:0:0:0:
280,203,38584,1,0,0:0:0:0:
266,177,38749,1,8,0:0:0:0:
266,177,38832,1,0,0:0:0:0:
266,177,38915,1,0,0:0:0:0:
266,178,38998,1,8,0:0:0:0:
266,178,39164,1,0,0:0:0:0:
266,178,39247,1,8,0:0:0:0:
266,178,39330,1,0,0:0:0:0:
266,178,39412,1,8,0:0:0:0:
250,186,39578,1,8,0:0:0:0:
261,197,39661,1,8,0:0:0:0:
261,199,39744,1,0,0:0:0:0:
261,204,39827,1,0,0:0:0:0:
261,208,39910,1,8,0:0:0:0:
262,209,39993,1,8,0:0:0:0:
262,208,40075,1,0,0:0:0:0:
262,208,40158,1,0,0:0:0:0:
262,207,40241,1,8,0:0:0:0:
262,207,40324,1,8,0:0:0:0:
262,207,40407,1,0,0:0:0:0:
262,207,40490,1,0,0:0:0:0:
262,207,40573,1,8,0:0:0:0:
262,207,40656,1,8,0:0:0:0:
261,207,40738,1,0,0:0:0:0:
261,204,40821,1,0,0:0:0:0:
261,208,40904,1,8,0:0:0:0:
262,208,41070,1,0,0:0:0:0:
262,208,41153,1,8,0:0:0:0:
262,207,41236,1,0,0:0:0:0:
262,207,41401,1,8,0:0:0:0:
262,207,41484,1,0,0:0:0:0:
262,207,41567,1,0,0:0:0:0:
262,207,41650,1,8,0:0:0:0:
261,204,41816,1,0,0:0:0:0:
261,208,41899,1,8,0:0:0:0:
262,208,41981,1,0,0:0:0:0:
262,208,42064,1,8,0:0:0:0:
289,199,42313,1,12,0:0:0:0:
289,199,42562,1,12,0:0:0:0:
289,199,42810,1,12,0:0:0:0:
289,199,43059,1,12,0:0:0:0:
157,131,43556,1,4,0:0:0:0:
322,141,43888,1,8,0:0:0:0:
322,141,44136,1,0,0:0:0:0:
322,141,44302,1,0,0:0:0:0:
322,141,44468,1,0,0:0:0:0:
322,141,44551,1,8,0:0:0:0:
290,169,44882,1,0,0:0:0:0:
290,169,45048,1,0,0:0:0:0:
290,169,45214,1,8,0:0:0:0:
408,8,45462,1,0,0:0:0:0:
325,147,45628,1,0,0:0:0:0:
325,147,45794,1,0,0:0:0:0:
325,147,45877,1,8,0:0:0:0:
250,144,45959,1,0,0:0:0:0:
283,153,46042,1,8,0:0:0:0:
284,152,46208,1,0,0:0:0:0:
238,168,46374,1,0,0:0:0:0:
238,168,46539,1,8,0:0:0:0:
209,82,46788,1,0,0:0:0:0:
242,153,46954,1,0,0:0:0:0:
242,151,47120,1,0,0:0:0:0:
242,151,47202,1,8,0:0:0:0:
299,194,47534,1,0,0:0:0:0:
321,212,47700,1,0,0:0:0:0:
321,212,47865,1,8,0:0:0:0:
306,185,48114,1,8,0:0:0:0:
306,185,48363,1,8,0:0:0:0:
306,185,48611,1,8,0:0:0:0:
213,166,48860,1,4,0:0:0:0:
256,131,49191,1,8,0:0:0:0:
256,145,49440,1,0,0:0:0:0:
256,145,49606,1,0,0:0:0:0:
256,144,49772,1,0,0:0:0:0:
256,144,49854,1,8,0:0:0:0:
265,183,50186,1,0,0:0:0:0:
261,192,50352,1,0,0:0:0:0:
261,192,50517,1,8,0:0:0:0:
270,168,50766,1,0,0:0:0:0:
269,169,50932,1,0,0:0:0:0:
269,170,51098,1,0,0:0:0:0:
269,172,51180,1,8,0:0:0:0:
230,166,51263,1,0,0:0:0:0:
269,172,51346,1,8,0:0:0:0:
269,171,51512,1,0,0:0:0:0:
270,168,51678,1,0,0:0:0:0:
269,169,51843,1,8,0:0:0:0:
254,177,52092,1,0,0:0:0:0:
254,177,52258,1,0,0:0:0:0:
254,177,52423,1,0,0:0:0:0:
254,177,52506,1,8,0:0:0:0:
272,191,52589,1,8,0:0:0:0:
272,191,52672,1,8,0:0:0:0:
272,192,52755,1,8,0:0:0:0:
269,192,52838,1,0,0:0:0:0:
255,189,53169,1,0,0:0:0:0:
255,189,53501,1,0,0:0:0:0:
255,189,53832,1,0,0:0:0:0:
255,189,54164,1,4,0:0:0:0:
255,158,54330,1,0,0:0:0:0:
270,164,54412,1,0,0:0:0:0:
270,164,54495,1,0,0:0:0:0:
270,164,54661,1,8,0:0:0:0:
300,131,54827,1,0,0:0:0:0:
300,131,54910,1,8,0:0:0:0:
300,131,55075,1,8,0:0:0:0:
300,131,55158,1,0,0:0:0:0:
256,191,55214,1,0,0:0:0:0:
256,191,55269,1,0,0:0:0:0:
274,148,55324,1,0,0:0:0:0:
258,159,55407,1,0,0:0:0:0:
300,131,55490,1,8,0:0:0:0:
268,187,55656,1,0,0:0:0:0:
271,187,55738,1,0,0:0:0:0:
271,187,55821,1,0,0:0:0:0:
271,187,55987,1,8,0:0:0:0:
361,146,56153,1,0,0:0:0:0:
306,215,56208,1,0,0:0:0:0:
293,222,56263,1,0,0:0:0:0:
293,222,56318,1,0,0:0:0:0:
292,197,56484,1,0,0:0:0:0:
291,198,56539,1,0,0:0:0:0:
291,198,56595,1,0,0:0:0:0:
291,198,56650,1,0,0:0:0:0:
291,198,56816,1,8,0:0:0:0:
266,205,56981,1,0,0:0:0:0:
266,205,57064,1,0,0:0:0:0:
266,205,57147,1,0,0:0:0:0:
258,187,57313,1,8,0:0:0:0:
169,164,57479,1,0,0:0:0:0:
191,167,57562,1,8,0:0:0:0:
245,177,57727,1,8,0:0:0:0:
157,182,57810,1,0,0:0:0:0:
172,185,57865,1,0,0:0:0:0:
184,187,57921,1,0,0:0:0:0:
191,180,57976,1,0,0:0:0:0:
286,150,58059,1,0,0:0:0:0:
347,142,58142,1,8,0:0:0:0:
347,142,58307,1,0,0:0:0:0:
221,147,58390,1,0,0:0:0:0:
329,138,58473,1,0,0:0:0:0:
224,153,58639,1,8,0:0:0:0:
224,153,58694,1,8,0:0:0:0:
224,153,58749,1,8,0:0:0:0:
224,153,58805,1,0,0:0:0:0:
233,151,58860,1,0,0:0:0:0:
233,151,58915,1,0,0:0:0:0:
233,151,58970,1,0,0:0:0:0:
234,151,59136,1,8,0:0:0:0:
310,179,59191,1,8,0:0:0:0:
310,179,59247,1,8,0:0:0:0:
310,179,59302,1,8,0:0:0:0:
310,179,59357,1,8,0:0:0:0:
310,179,59412,1,8,0:0:0:0:
308,172,59468,1,4,0:0:0:0:
274,210,59716,1,4,0:0:0:0:
274,210,59965,1,4,0:0:0:0:
274,210,60131,1,4,0:0:0:0:
274,210,60379,1,4,0:0:0:0:
274,210,60628,1,4,0:0:0:0:
274,210,60794,1,4,0:0:0:0:
274,210,61042,1,4,0:0:0:0:
274,210,61291,1,4,0:0:0:0:
274,210,61457,1,4,0:0:0:0:
274,210,61705,1,4,0:0:0:0:
274,210,61954,1,4,0:0:0:0:
274,210,62120,1,8,0:0:0:0:
256,227,62202,1,8,0:0:0:0:
268,227,62285,1,0,0:0:0:0:
271,227,62368,1,0,0:0:0:0:
269,227,62451,1,8,0:0:0:0:
256,223,62534,1,8,0:0:0:0:
256,222,62617,1,0,0:0:0:0:
255,222,62700,1,0,0:0:0:0:
255,222,62783,1,8,0:0:0:0:
255,222,62865,1,8,0:0:0:0:
255,222,62948,1,0,0:0:0:0:
255,222,63031,1,0,0:0:0:0:
255,222,63114,1,8,0:0:0:0:
254,222,63197,1,8,0:0:0:0:
254,222,63280,1,0,0:0:0:0:
254,221,63363,1,0,0:0:0:0:
254,221,63446,1,8,0:0:0:0:
280,201,63501,1,8,0:0:0:0:
280,201,63556,1,8,0:0:0:0:
280,201,63611,1,0,0:0:0:0:
448,162,63667,1,0,0:0:0:0:
448,162,63722,1,0,0:0:0:0:
280,201,63777,1,8,0:0:0:0:
280,201,63832,1,8,0:0:0:0:
280,201,63888,1,8,0:0:0:0:
274,201,63943,1,8,0:0:0:0:
232,185,63998,1,8,0:0:0:0:
194,165,64053,1,8,0:0:0:0:
186,163,64109,1,0,0:0:0:0:
287,188,64440,1,12,0:0:0:0:
281,184,64772,1,4,0:0:0:0:
328,181,65103,1,8,0:0:0:0:
328,181,65158,1,8,0:0:0:0:
328,181,65214,1,8,0:0:0:0:
328,181,65269,1,0,0:0:0:0:
154,178,65352,1,8,0:0:0:0:
189,202,65435,1,0,0:0:0:0:
189,202,65517,1,8,0:0:0:0:
204,200,65683,1,0,0:0:0:0:
312,136,65766,1,8,0:0:0:0:
268,192,65821,1,8,0:0:0:0:
264,200,65877,1,8,0:0:0:0:
264,200,65932,1,8,0:0:0:0:
300,204,66098,1,8,0:0:0:0:
300,204,66180,1,0,0:0:0:0:
184,136,66222,1,0,0:0:0:0:
300,204,66263,1,8,0:0:0:0:
300,204,66346,1,0,0:0:0:0:
280,216,66429,1,8,0:0:0:0:
280,216,66484,1,8,0:0:0:0:
272,216,66539,1,8,0:0:0:0:
248,208,66595,1,0,0:0:0:0:
296,204,66678,1,8,0:0:0:0:
192,168,66843,1,8,0:0:0:0:
192,168,66926,1,0,0:0:0:0:
192,168,67009,1,8,0:0:0:0:
192,168,67092,1,8,0:0:0:0:
312,184,67175,1,0,0:0:0:0:
312,184,67258,1,8,0:0:0:0:
256,148,67341,1,0,0:0:0:0:
200,124,67423,1,0,0:0:0:0:
284,156,67479,1,0,0:0:0:0:
284,156,67534,1,0,0:0:0:0:
284,156,67589,1,8,0:0:0:0:
284,156,67755,1,8,0:0:0:0:
284,156,67810,1,8,0:0:0:0:
284,156,67865,1,8,0:0:0:0:
284,156,67921,1,0,0:0:0:0:
252,144,68004,1,8,0:0:0:0:
240,156,68086,1,0,0:0:0:0:
256,180,68169,1,8,0:0:0:0:
192,196,68335,1,0,0:0:0:0:
328,192,68418,1,8,0:0:0:0:
328,192,68473,1,0,0:0:0:0:
328,192,68528,1,0,0:0:0:0:
328,192,68584,1,8,0:0:0:0:
288,176,68749,1,0,0:0:0:0:
284,176,68805,1,8,0:0:0:0:
284,176,68860,1,8,0:0:0:0:
284,176,68915,1,0,0:0:0:0:
224,160,68998,1,0,0:0:0:0:
224,160,69081,1,8,0:0:0:0:
224,160,69122,1,8,0:0:0:0:
224,160,69164,1,8,0:0:0:0:
224,160,69247,1,0,0:0:0:0:
224,160,69330,1,8,0:0:0:0:
224,160,69371,1,8,0:0:0:0:
224,160,69412,1,8,0:0:0:0:
224,160,69495,1,0,0:0:0:0:
224,160,69578,1,8,0:0:0:0:
224,160,69620,1,8,0:0:0:0:
224,160,69661,1,0,0:0:0:0:
224,160,69744,1,8,0:0:0:0:
224,160,69827,1,0,0:0:0:0:
300,200,69868,1,0,0:0:0:0:
224,160,69910,1,8,0:0:0:0:
224,160,69993,1,8,0:0:0:0:
224,160,70075,1,4,0:0:0:0:
328,181,70407,1,8,0:0:0:0:
328,181,70462,1,8,0:0:0:0:
328,181,70517,1,8,0:0:0:0:
328,181,70573,1,0,0:0:0:0:
154,178,70656,1,8,0:0:0:0:
189,202,70821,1,8,0:0:0:0:
352,188,70904,1,0,0:0:0:0:
204,200,70987,1,8,0:0:0:0:
312,136,71070,1,0,0:0:0:0:
268,192,71125,1,0,0:0:0:0:
264,200,71180,1,0,0:0:0:0:
264,200,71236,1,8,0:0:0:0:
300,204,71401,1,8,0:0:0:0:
300,204,71484,1,0,0:0:0:0:
184,136,71526,1,0,0:0:0:0:
300,204,71567,1,8,0:0:0:0:
300,204,71650,1,0,0:0:0:0:
280,216,71733,1,8,0:0:0:0:
280,216,71788,1,8,0:0:0:0:
272,216,71843,1,8,0:0:0:0:
248,208,71899,1,0,0:0:0:0:
296,204,71981,1,8,0:0:0:0:
144,152,72064,1,0,0:0:0:0:
192,168,72147,1,8,0:0:0:0:
192,168,72313,1,8,0:0:0:0:
192,168,72396,1,8,0:0:0:0:
312,184,72479,1,0,0:0:0:0:
312,184,72562,1,0,0:0:0:0:
256,148,72644,1,8,0:0:0:0:
200,124,72727,1,0,0:0:0:0:
284,156,72783,1,0,0:0:0:0:
284,156,72838,1,0,0:0:0:0:
284,156,72893,1,8,0:0:0:0:
284,156,73059,1,8,0:0:0:0:
284,156,73114,1,8,0:0:0:0:
284,156,73169,1,8,0:0:0:0:
284,156,73225,1,0,0:0:0:0:
252,144,73307,1,8,0:0:0:0:
240,156,73390,1,0,0:0:0:0:
256,180,73473,1,8,0:0:0:0:
192,196,73639,1,0,0:0:0:0:
328,192,73722,1,8,0:0:0:0:
328,192,73777,1,0,0:0:0:0:
328,192,73832,1,0,0:0:0:0:
328,192,73888,1,8,0:0:0:0:
256,192,74053,1,0,0:0:0:0:
256,192,74136,1,0,0:0:0:0:
256,192,74219,1,0,0:0:0:0:
256,192,74302,1,8,0:0:0:0:
256,192,74385,1,0,0:0:0:0:
256,192,74468,1,0,0:0:0:0:
256,192,74551,1,8,0:0:0:0:
256,192,74633,1,8,0:0:0:0:
256,192,74716,1,0,0:0:0:0:
256,192,74799,1,8,0:0:0:0:
256,192,74882,1,8,0:0:0:0:
256,192,74965,1,0,0:0:0:0:
256,192,75048,1,8,0:0:0:0:
256,192,75131,1,8,0:0:0:0:
256,192,75214,1,8,0:0:0:0:
256,192,75296,1,8,0:0:0:0:
256,192,75379,1,0,0:0:0:0:
228,156,75435,1,0,0:0:0:0:
228,156,75490,1,0,0:0:0:0:
228,156,75545,1,0,0:0:0:0:
280,148,75711,1,12,0:0:0:0:
248,192,75959,1,8,0:0:0:0:
248,192,76042,1,0,0:0:0:0:
248,192,76125,1,8,0:0:0:0:
244,192,76208,1,8,0:0:0:0:
220,184,76291,1,0,0:0:0:0:
268,176,76374,1,8,0:0:0:0:
272,176,76429,1,8,0:0:0:0:
272,176,76484,1,8,0:0:0:0:
252,176,76539,1,0,0:0:0:0:
312,172,76705,1,8,0:0:0:0:
272,192,76788,1,0,0:0:0:0:
272,192,76830,1,0,0:0:0:0:
272,192,76871,1,8,0:0:0:0:
272,192,76954,1,0,0:0:0:0:
324,168,77037,1,8,0:0:0:0:
324,168,77092,1,8,0:0:0:0:
324,168,77147,1,8,0:0:0:0:
324,168,77202,1,0,0:0:0:0:
268,192,77285,1,8,0:0:0:0:
336,232,77451,1,8,0:0:0:0:
336,232,77534,1,0,0:0:0:0:
336,232,77617,1,8,0:0:0:0:
288,220,77700,1,0,0:0:0:0:
288,220,77783,1,0,0:0:0:0:
288,220,77865,1,8,0:0:0:0:
288,220,77948,1,0,0:0:0:0:
288,220,78031,1,8,0:0:0:0:
208,168,78086,1,0,0:0:0:0:
216,168,78142,1,0,0:0:0:0:
216,168,78197,1,8,0:0:0:0:
340,224,78363,1,0,0:0:0:0:
340,224,78418,1,8,0:0:0:0:
340,224,78473,1,8,0:0:0:0:
340,224,78528,1,0,0:0:0:0:
332,160,78611,1,8,0:0:0:0:
232,168,78694,1,0,0:0:0:0:
232,168,78777,1,8,0:0:0:0:
232,168,78860,1,8,0:0:0:0:
232,168,78943,1,0,0:0:0:0:
220,200,79026,1,8,0:0:0:0:
220,200,79081,1,0,0:0:0:0:
220,200,79136,1,0,0:0:0:0:
220,200,79191,1,8,0:0:0:0:
204,156,79357,1,8,0:0:0:0:
204,156,79412,1,8,0:0:0:0:
204,156,79468,1,8,0:0:0:0:
172,156,79523,1,0,0:0:0:0:
164,159,79606,1,0,0:0:0:0:
196,200,79689,1,8,0:0:0:0:
228,212,79730,1,8,0:0:0:0:
228,212,79772,1,8,0:0:0:0:
232,208,79854,1,0,0:0:0:0:
232,208,79937,1,8,0:0:0:0:
232,208,79979,1,8,0:0:0:0:
232,208,80020,1,8,0:0:0:0:
232,204,80103,1,0,0:0:0:0:
232,204,80186,1,8,0:0:0:0:
232,204,80227,1,8,0:0:0:0:
232,204,80269,1,0,0:0:0:0:
232,204,80352,1,8,0:0:0:0:
236,204,80435,1,0,0:0:0:0:
236,204,80476,1,0,0:0:0:0:
236,204,80517,1,8,0:0:0:0:
236,204,80600,1,8,0:0:0:0:
236,204,80683,1,4,0:0:0:0:
308,160,81015,1,8,0:0:0:0:
300,208,81070,1,8,0:0:0:0:
304,204,81125,1,8,0:0:0:0:
300,208,81180,1,0,0:0:0:0:
128,176,81263,1,8,0:0:0:0:
180,200,81346,1,8,0:0:0:0:
200,208,81429,1,0,0:0:0:0:
200,208,81512,1,8,0:0:0:0:
256,176,81567,1,8,0:0:0:0:
256,176,81622,1,8,0:0:0:0:
256,176,81678,1,8,0:0:0:0:
180,164,81733,1,8,0:0:0:0:
168,164,81788,1,8,0:0:0:0:
256,176,81843,1,8,0:0:0:0:
228,168,82009,1,4,0:0:0:0:
292,160,82175,1,8,0:0:0:0:
228,160,82258,1,0,0:0:0:0:
284,160,82341,1,8,0:0:0:0:
284,160,82396,1,8,0:0:0:0:
284,160,82451,1,8,0:0:0:0:
284,160,82506,1,0,0:0:0:0:
244,156,82589,1,0,0:0:0:0:
200,160,82672,1,8,0:0:0:0:
324,168,82755,1,8,0:0:0:0:
292,168,82838,1,0,0:0:0:0:
476,384,82893,1,0,0:0:0:0:
252,156,82948,1,0,0:0:0:0:
272,152,83004,1,0,0:0:0:0:
140,160,83059,1,0,0:0:0:0:
272,152,83114,1,0,0:0:0:0:
240,144,83169,1,0,0:0:0:0:
192,132,83335,1,4,0:0:0:0:
364,172,83501,1,8,0:0:0:0:
372,172,83584,1,0,0:0:0:0:
368,172,83749,1,0,0:0:0:0:
368,172,83832,1,8,0:0:0:0:
276,160,84164,1,12,0:0:0:0:
276,160,84412,1,12,0:0:0:0:
276,160,84661,1,4,0:0:0:0:
208,160,84827,1,4,0:0:0:0:
272,200,85158,1,8,0:0:0:0:
272,200,85241,1,8,0:0:0:0:
272,200,85324,1,0,0:0:0:0:
272,200,85407,1,0,0:0:0:0:
272,200,85490,1,0,0:0:0:0:
272,200,85573,1,0,0:0:0:0:
280,212,85656,1,8,0:0:0:0:
292,228,85738,1,8,0:0:0:0:
296,232,85821,1,8,0:0:0:0:
296,232,85904,1,8,0:0:0:0:
296,232,85987,1,4,0:0:0:0:
304,176,86153,1,0,0:0:0:0:
304,176,86236,1,0,0:0:0:0:
304,176,86318,1,0,0:0:0:0:
304,176,86484,1,8,0:0:0:0:
352,172,86567,1,8,0:0:0:0:
256,160,86650,1,0,0:0:0:0:
256,160,86733,1,0,0:0:0:0:
256,160,86816,1,0,0:0:0:0:
216,144,86981,1,0,0:0:0:0:
244,144,87064,1,0,0:0:0:0:
244,144,87147,1,0,0:0:0:0:
244,144,87230,1,0,0:0:0:0:
244,144,87313,1,8,0:0:0:0:
264,172,87479,1,0,0:0:0:0:
264,172,87562,1,8,0:0:0:0:
264,172,87644,1,8,0:0:0:0:
264,172,87727,1,0,0:0:0:0:
264,172,87810,1,8,0:0:0:0:
264,172,87893,1,0,0:0:0:0:
264,172,87976,1,8,0:0:0:0:
264,172,88059,1,8,0:0:0:0:
264,172,88142,1,0,0:0:0:0:
264,172,88225,1,8,0:0:0:0:
264,172,88307,1,0,0:0:0:0:
264,172,88390,1,0,0:0:0:0:
212,136,88473,1,0,0:0:0:0:
184,132,88556,1,0,0:0:0:0:
160,156,88639,1,8,0:0:0:0:
172,152,88805,1,0,0:0:0:0:
264,172,88888,1,0,0:0:0:0:
264,172,88970,1,0,0:0:0:0:
280,168,89136,1,8,0:0:0:0:
280,168,89219,1,8,0:0:0:0:
280,168,89302,1,0,0:0:0:0:
280,168,89385,1,0,0:0:0:0:
280,168,89468,1,0,0:0:0:0:
296,152,89633,1,8,0:0:0:0:
296,152,89716,1,8,0:0:0:0:
296,152,89799,1,0,0:0:0:0:
304,148,89882,1,0,0:0:0:0:
300,140,89965,1,8,0:0:0:0:
192,200,90131,1,0,0:0:0:0:
220,224,90214,1,8,0:0:0:0:
256,248,90296,1,8,0:0:0:0:
256,248,90379,1,0,0:0:0:0:
256,248,90462,1,8,0:0:0:0:
256,240,90545,1,0,0:0:0:0:
256,240,90628,1,8,0:0:0:0:
256,240,90711,1,8,0:0:0:0:
224,156,90794,1,0,0:0:0:0:
252,228,90877,1,8,0:0:0:0:
248,216,90918,1,8,0:0:0:0:
224,156,90959,1,0,0:0:0:0:
252,204,91042,1,8,0:0:0:0:
124,140,91084,1,8,0:0:0:0:
240,152,91125,1,0,0:0:0:0:
256,200,91208,1,0,0:0:0:0:
256,200,91291,1,8,0:0:0:0:
192,224,91457,1,0,0:0:0:0:
192,224,91539,1,8,0:0:0:0:
248,124,91622,1,0,0:0:0:0:
192,224,91788,1,8,0:0:0:0:
192,224,91871,1,8,0:0:0:0:
192,224,91954,1,0,0:0:0:0:
192,224,92037,1,8,0:0:0:0:
192,224,92120,1,0,0:0:0:0:
192,224,92285,1,8,0:0:0:0:
192,224,92368,1,8,0:0:0:0:
192,224,92451,1,0,0:0:0:0:
192,224,92534,1,0,0:0:0:0:
192,224,92617,1,8,0:0:0:0:
248,160,92783,1,8,0:0:0:0:
248,168,92865,1,8,0:0:0:0:
256,176,92948,1,0,0:0:0:0:
264,184,93031,1,8,0:0:0:0:
272,188,93114,1,0,0:0:0:0:
272,188,93197,1,8,0:0:0:0:
264,192,93280,1,8,0:0:0:0:
264,192,93363,1,0,0:0:0:0:
264,192,93446,1,8,0:0:0:0:
256,196,93528,1,0,0:0:0:0:
252,196,93611,1,8,0:0:0:0:
252,192,93694,1,8,0:0:0:0:
252,192,93777,1,0,0:0:0:0:
252,192,93860,1,0,0:0:0:0:
252,192,93943,1,8,0:0:0:0:
232,192,94109,1,0,0:0:0:0:
232,192,94191,1,8,0:0:0:0:
232,192,94274,1,0,0:0:0:0:
216,180,94357,1,0,0:0:0:0:
216,180,94440,1,8,0:0:0:0:
236,184,94523,1,8,0:0:0:0:
256,184,94606,1,0,0:0:0:0:
268,188,94689,1,8,0:0:0:0:
272,196,94772,1,0,0:0:0:0:
276,196,94854,1,0,0:0:0:0:
288,188,94937,1,8,0:0:0:0:
296,184,95020,1,8,0:0:0:0:
296,184,95103,1,0,0:0:0:0:
296,180,95186,1,0,0:0:0:0:
280,160,95269,1,8,0:0:0:0:
252,168,95435,1,0,0:0:0:0:
252,168,95517,1,8,0:0:0:0:
248,176,95683,1,0,0:0:0:0:
240,172,95766,1,8,0:0:0:0:
276,196,95849,1,8,0:0:0:0:
248,192,95932,1,0,0:0:0:0:
276,176,96263,1,8,0:0:0:0:
276,176,96346,1,8,0:0:0:0:
276,176,96429,1,8,0:0:0:0:
272,176,96512,1,8,0:0:0:0:
256,172,96595,1,4,0:0:0:0:
248,192,96926,1,0,0:0:0:0:
252,192,97009,1,0,0:0:0:0:
252,192,97092,1,0,0:0:0:0:
252,192,97175,1,0,0:0:0:0:
252,192,97258,1,8,0:0:0:0:
252,192,97341,1,8,0:0:0:0:
252,192,97423,1,0,0:0:0:0:
252,192,97506,1,0,0:0:0:0:
252,192,97589,1,8,0:0:0:0:
256,192,97672,1,0,0:0:0:0:
256,192,97755,1,8,0:0:0:0:
256,192,97838,1,0,0:0:0:0:
256,192,97921,1,8,0:0:0:0:
256,192,98004,1,0,0:0:0:0:
256,192,98086,1,8,0:0:0:0:
256,192,98169,1,0,0:0:0:0:
260,196,98252,1,8,0:0:0:0:
260,196,98335,1,0,0:0:0:0:
260,196,98418,1,8,0:0:0:0:
260,196,98501,1,0,0:0:0:0:
260,196,98584,1,8,0:0:0:0:
260,196,98667,1,0,0:0:0:0:
260,196,98749,1,8,0:0:0:0:
260,196,98832,1,0,0:0:0:0:
260,196,98915,1,8,0:0:0:0:
260,196,98998,1,8,0:0:0:0:
252,192,99081,1,8,0:0:0:0:
236,172,99164,1,8,0:0:0:0:
208,148,99247,1,4,0:0:0:0:
260,176,99578,1,0,0:0:0:0:
260,176,99661,1,0,0:0:0:0:
260,176,99744,1,0,0:0:0:0:
260,180,99827,1,0,0:0:0:0:
260,180,99910,1,8,0:0:0:0:
260,180,99993,1,8,0:0:0:0:
260,180,100075,1,0,0:0:0:0:
256,176,100158,1,0,0:0:0:0:
256,172,100241,1,8,0:0:0:0:
232,164,100324,1,0,0:0:0:0:
228,164,100407,1,8,0:0:0:0:
224,164,100490,1,8,0:0:0:0:
188,152,100573,1,4,0:0:0:0:
300,180,100821,1,4,0:0:0:0:
300,180,101070,1,4,0:0:0:0:
300,180,101236,1,12,0:0:0:0:
236,152,101567,1,0,0:0:0:0:
356,228,101899,1,4,0:0:0:0:
360,160,102230,1,8,0:0:0:0:
360,160,102285,1,8,0:0:0:0:
360,160,102341,1,8,0:0:0:0:
376,120,102396,1,0,0:0:0:0:
224,156,102562,1,8,0:0:0:0:
256,156,102727,1,8,0:0:0:0:
384,152,102783,1,8,0:0:0:0:
264,160,102838,1,8,0:0:0:0:
264,160,102893,1,8,0:0:0:0:
418,150,102948,1,8,0:0:0:0:
296,156,103004,1,8,0:0:0:0:
296,156,103059,1,8,0:0:0:0:
208,136,103225,1,8,0:0:0:0:
272,138,103280,1,8,0:0:0:0:
208,136,103335,1,8,0:0:0:0:
192,132,103390,1,8,0:0:0:0:
204,152,103556,1,0,0:0:0:0:
204,152,103722,1,8,0:0:0:0:
395,156,103777,1,8,0:0:0:0:
204,152,103832,1,8,0:0:0:0:
204,152,103888,1,0,0:0:0:0:
204,152,104053,1,8,0:0:0:0:
298,162,104109,1,8,0:0:0:0:
204,152,104219,1,8,0:0:0:0:
309,171,104274,1,8,0:0:0:0:
98,147,104330,1,8,0:0:0:0:
200,152,104385,1,0,0:0:0:0:
264,188,104551,1,0,0:0:0:0:
264,200,104606,1,0,0:0:0:0:
260,212,104661,1,0,0:0:0:0:
260,212,104716,1,8,0:0:0:0:
260,192,104882,1,8,0:0:0:0:
260,192,104937,1,8,0:0:0:0:
260,192,104993,1,8,0:0:0:0:
260,192,105048,1,0,0:0:0:0:
228,148,105214,1,8,0:0:0:0:
229,162,105269,1,8,0:0:0:0:
232,164,105379,1,0,0:0:0:0:
229,163,105435,1,0,0:0:0:0:
196,134,105490,1,0,0:0:0:0:
166,90,105545,1,8,0:0:0:0:
232,164,105600,1,8,0:0:0:0:
232,164,105656,1,8,0:0:0:0:
216,160,105711,1,0,0:0:0:0:
304,168,105877,1,8,0:0:0:0:
189,149,105932,1,8,0:0:0:0:
296,164,105987,1,8,0:0:0:0:
296,164,106042,1,8,0:0:0:0:
209,142,106098,1,8,0:0:0:0:
209,142,106153,1,8,0:0:0:0:
280,160,106208,1,0,0:0:0:0:
208,144,106374,1,8,0:0:0:0:
250,147,106429,1,8,0:0:0:0:
208,144,106484,1,8,0:0:0:0:
208,144,106539,1,0,0:0:0:0:
204,144,106705,1,8,0:0:0:0:
244,120,106788,1,0,0:0:0:0:
204,144,106871,1,8,0:0:0:0:
244,120,106954,1,0,0:0:0:0:
204,144,107037,1,8,0:0:0:0:
244,120,107120,1,8,0:0:0:0:
152,140,107202,1,4,0:0:0:0:
272,224,107534,1,8,0:0:0:0:
272,224,107589,1,8,0:0:0:0:
272,224,107644,1,8,0:0:0:0:
240,212,107700,1,0,0:0:0:0:
184,176,107865,1,8,0:0:0:0:
181,208,107921,1,8,0:0:0:0:
224,180,108031,1,0,0:0:0:0:
236,188,108086,1,0,0:0:0:0:
236,188,108142,1,0,0:0:0:0:
236,188,108197,1,8,0:0:0:0:
173,182,108252,1,8,0:0:0:0:
264,216,108307,1,8,0:0:0:0:
264,216,108363,1,0,0:0:0:0:
268,216,108528,1,8,0:0:0:0:
238,175,108584,1,8,0:0:0:0:
268,216,108639,1,8,0:0:0:0:
264,216,108694,1,0,0:0:0:0:
304,168,108860,1,0,0:0:0:0:
308,176,109026,1,8,0:0:0:0:
249,225,109081,1,8,0:0:0:0:
308,176,109136,1,8,0:0:0:0:
308,176,109191,1,0,0:0:0:0:
308,176,109357,1,8,0:0:0:0:
220,183,109412,1,8,0:0:0:0:
308,176,109523,1,8,0:0:0:0:
220,183,109578,1,8,0:0:0:0:
180,170,109633,1,8,0:0:0:0:
308,176,109689,1,0,0:0:0:0:
308,176,109854,1,0,0:0:0:0:
256,204,109910,1,0,0:0:0:0:
256,204,109965,1,0,0:0:0:0:
256,204,110020,1,8,0:0:0:0:
220,236,110186,1,8,0:0:0:0:
220,236,110241,1,8,0:0:0:0:
200,232,110296,1,8,0:0:0:0:
120,216,110352,1,0,0:0:0:0:
240,184,110517,1,8,0:0:0:0:
166,157,110573,1,8,0:0:0:0:
240,184,110683,1,0,0:0:0:0:
163,166,110738,1,8,0:0:0:0:
240,184,110794,1,8,0:0:0:0:
240,184,110849,1,0,0:0:0:0:
240,184,111015,1,8,0:0:0:0:
227,140,111070,1,8,0:0:0:0:
227,140,111125,1,8,0:0:0:0:
164,156,111180,1,0,0:0:0:0:
248,208,111263,1,0,0:0:0:0:
248,208,111346,1,8,0:0:0:0:
248,208,111429,1,0,0:0:0:0:
248,208,111512,1,8,0:0:0:0:
248,208,111595,1,8,0:0:0:0:
248,208,111678,1,0,0:0:0:0:
248,208,111760,1,8,0:0:0:0:
248,208,111843,1,0,0:0:0:0:
248,208,111926,1,0,0:0:0:0:
248,208,112009,1,8,0:0:0:0:
244,200,112092,1,0,0:0:0:0:
244,200,112175,1,8,0:0:0:0:
244,200,112258,1,8,0:0:0:0:
236,196,112341,1,8,0:0:0:0:
236,196,112423,1,8,0:0:0:0:
232,188,112506,1,4,0:0:0:0:
284,156,112838,1,8,0:0:0:0:
284,156,112893,1,8,0:0:0:0:
284,156,112948,1,8,0:0:0:0:
284,156,113004,1,0,0:0:0:0:
260,172,113169,1,8,0:0:0:0:
121,203,113225,1,0,0:0:0:0:
121,203,113280,1,0,0:0:0:0:
101,201,113335,1,8,0:0:0:0:
256,192,113501,1,8,0:0:0:0:
256,192,113584,1,8,0:0:0:0:
256,192,113667,1,8,0:0:0:0:
256,192,113749,1,8,0:0:0:0:
256,192,113832,1,0,0:0:0:0:
256,192,113915,1,8,0:0:0:0:
256,192,113998,1,8,0:0:0:0:
256,192,114081,1,8,0:0:0:0:
256,192,114164,1,8,0:0:0:0:
264,184,114247,1,8,0:0:0:0:
264,184,114330,1,8,0:0:0:0:
256,176,114412,1,8,0:0:0:0:
240,188,114495,1,0,0:0:0:0:
360,144,114661,1,8,0:0:0:0:
284,184,114827,1,0,0:0:0:0:
284,184,114882,1,8,0:0:0:0:
284,184,114937,1,8,0:0:0:0:
284,184,114993,1,0,0:0:0:0:
368,104,115158,1,0,0:0:0:0:
316,168,115214,1,0,0:0:0:0:
316,168,115269,1,0,0:0:0:0:
316,168,115324,1,8,0:0:0:0:
316,168,115490,1,8,0:0:0:0:
316,168,115545,1,8,0:0:0:0:
308,160,115600,1,8,0:0:0:0:
304,160,115656,1,0,0:0:0:0:
304,164,115821,1,8,0:0:0:0:
226,198,115877,1,0,0:0:0:0:
226,198,115932,1,0,0:0:0:0:
215,196,115987,1,8,0:0:0:0:
252,188,116153,1,8,0:0:0:0:
252,192,116236,1,8,0:0:0:0:
252,192,116318,1,8,0:0:0:0:
252,192,116401,1,8,0:0:0:0:
252,192,116484,1,0,0:0:0:0:
252,192,116567,1,8,0:0:0:0:
252,192,116650,1,8,0:0:0:0:
260,192,116733,1,8,0:0:0:0:
260,192,116816,1,8,0:0:0:0:
260,192,116899,1,8,0:0:0:0:
260,192,116981,1,8,0:0:0:0:
260,192,117064,1,8,0:0:0:0:
260,192,117147,1,0,0:0:0:0:
240,184,117313,1,8,0:0:0:0:
240,184,117396,1,0,0:0:0:0:
240,192,117479,1,8,0:0:0:0:
240,192,117562,1,8,0:0:0:0:
240,192,117644,1,0,0:0:0:0:
240,192,117727,1,8,0:0:0:0:
188,180,117810,1,4,0:0:0:0:
248,184,118142,1,8,0:0:0:0:
248,184,118225,1,8,0:0:0:0:
248,184,118307,1,8,0:0:0:0:
248,188,118390,1,8,0:0:0:0:
248,188,118473,1,4,0:0:0:0:
240,192,118805,1,8,0:0:0:0:
240,192,118888,1,8,0:0:0:0:
236,188,118970,1,8,0:0:0:0:
232,188,119053,1,8,0:0:0:0:
192,164,119136,1,4,0:0:0:0:
256,188,119468,1,8,0:0:0:0:
256,188,119551,1,8,0:0:0:0:
256,188,119633,1,8,0:0:0:0:
256,188,119716,1,8,0:0:0:0:
256,188,119799,1,0,0:0:0:0:
240,112,120131,1,8,0:0:0:0:
232,176,120186,1,8,0:0:0:0:
232,176,120241,1,8,0:0:0:0:
220,176,120296,5,8,0:0:0:0:
276,160,120462,1,4,0:0:0:0:
284,168,120794,1,8,0:0:0:0:
284,168,120877,1,8,0:0:0:0:
272,176,120959,1,8,0:0:0:0:
272,176,121042,1,8,0:0:0:0:
272,176,121125,1,4,0:0:0:0:
272,176,121457,1,8,0:0:0:0:
272,176,121539,1,8,0:0:0:0:
272,176,121622,1,8,0:0:0:0:
272,176,121705,1,8,0:0:0:0:
272,176,121788,1,4,0:0:0:0:
272,176,122120,1,8,0:0:0:0:
272,176,122202,1,8,0:0:0:0:
272,176,122285,1,8,0:0:0:0:
272,176,122368,1,8,0:0:0:0:
344,184,122451,1,0,0:0:0:0:
320,184,122783,1,0,0:0:0:0:
320,184,122838,1,0,0:0:0:0:
320,184,122893,1,0,0:0:0:0:
320,184,122948,1,8,0:0:0:0:
148,208,123114,1,4,0:0:0:0:
192,200,123363,1,4,0:0:0:0:
288,184,123611,1,12,0:0:0:0:
276,228,123860,1,4,0:0:0:0:
276,228,123943,1,12,0:0:0:0:
276,228,124109,1,12,0:0:0:0:
276,228,124274,1,4,0:0:0:0:
280,224,124357,1,12,0:0:0:0:
276,228,124440,1,4,0:0:0:0:
280,224,124689,1,4,0:0:0:0:
140,156,124937,1,12,0:0:0:0:
264,176,125186,1,12,0:0:0:0:
264,176,125269,1,4,0:0:0:0:
264,176,125435,1,4,0:0:0:0:
264,176,125600,1,12,0:0:0:0:
264,176,125683,1,4,0:0:0:0:
264,176,125766,1,12,0:0:0:0:
264,184,126015,1,8,0:0:0:0:
264,184,126098,1,0,0:0:0:0:
264,184,126263,1,8,0:0:0:0:
264,184,126429,1,0,0:0:0:0:
264,184,126512,1,8,0:0:0:0:
208,144,126595,1,0,0:0:0:0:
264,184,126760,1,8,0:0:0:0:
264,184,126843,1,0,0:0:0:0:
264,184,126926,1,8,0:0:0:0:
264,184,127009,1,8,0:0:0:0:
264,184,127092,1,0,0:0:0:0:
284,176,127175,1,8,0:0:0:0:
284,176,127341,1,8,0:0:0:0:
284,176,127423,1,0,0:0:0:0:
284,176,127589,1,8,0:0:0:0:
284,176,127755,1,0,0:0:0:0:
284,176,127838,1,8,0:0:0:0:
284,176,127921,1,0,0:0:0:0:
324,232,128086,1,8,0:0:0:0:
324,232,128169,1,8,0:0:0:0:
324,232,128252,1,8,0:0:0:0:
324,232,128335,1,8,0:0:0:0:
296,224,128418,1,4,0:0:0:0:
256,192,128667,1,4,0:0:0:0:
256,192,128915,1,12,0:0:0:0:
256,192,129164,1,4,0:0:0:0:
256,192,129247,1,12,0:0:0:0:
256,192,129412,1,12,0:0:0:0:
256,192,129578,1,4,0:0:0:0:
256,192,129661,1,12,0:0:0:0:
256,192,129744,1,4,0:0:0:0:
256,192,129993,1,4,0:0:0:0:
240,212,130241,1,12,0:0:0:0:
240,212,130490,1,12,0:0:0:0:
240,212,130573,1,4,0:0:0:0:
240,212,130738,1,4,0:0:0:0:
240,212,130904,1,12,0:0:0:0:
240,212,130987,1,4,0:0:0:0:
240,212,131070,1,12,0:0:0:0:
248,164,131318,1,8,0:0:0:0:
248,164,131401,1,0,0:0:0:0:
276,164,131484,1,0,0:0:0:0:
248,164,131567,1,8,0:0:0:0:
308,192,131733,1,0,0:0:0:0:
308,192,131816,1,8,0:0:0:0:
308,192,131899,1,0,0:0:0:0:
308,192,131981,1,0,0:0:0:0:
308,192,132064,1,8,0:0:0:0:
272,136,132230,1,0,0:0:0:0:
272,136,132313,1,8,0:0:0:0:
272,160,132479,1,12,0:0:0:0:
272,156,132727,1,12,0:0:0:0:
272,156,132976,1,12,0:0:0:0:
272,156,133225,1,12,0:0:0:0:
400,204,133722,1,4,0:0:0:0:
320,200,135048,1,0,0:0:0:0:
268,176,136374,1,8,0:0:0:0:
268,176,137700,1,0,0:0:0:0:
268,176,138363,1,8,0:0:0:0:
268,176,138694,1,8,0:0:0:0:
268,176,139026,1,0,0:0:0:0:
192,160,139357,1,0,0:0:0:0:
192,160,139689,1,0,0:0:0:0:
192,160,140020,1,0,0:0:0:0:
192,160,140352,1,0,0:0:0:0:
236,144,140683,1,0,0:0:0:0:
236,144,141015,1,0,0:0:0:0:
216,164,141346,1,0,0:0:0:0:
216,168,141678,1,8,0:0:0:0:
216,168,142009,1,8,0:0:0:0:
216,168,142341,1,8,0:0:0:0:
216,168,142672,1,8,0:0:0:0:
216,168,143004,1,0,0:0:0:0:
224,168,143169,1,0,0:0:0:0:
224,168,143335,1,8,0:0:0:0:
268,204,143667,1,0,0:0:0:0:
256,72,143832,1,8,0:0:0:0:
268,204,143998,1,0,0:0:0:0:
268,204,144164,1,8,0:0:0:0:
268,204,144330,1,4,0:0:0:0:
296,180,144495,1,0,0:0:0:0:
292,184,144578,1,0,0:0:0:0:
124,168,144661,1,8,0:0:0:0:
292,184,144827,1,0,0:0:0:0:
292,184,144910,1,8,0:0:0:0:
304,224,144993,1,0,0:0:0:0:
412,216,145075,1,0,0:0:0:0:
304,224,145158,1,8,0:0:0:0:
304,224,145324,1,0,0:0:0:0:
372,208,145490,1,8,0:0:0:0:
372,208,145573,1,8,0:0:0:0:
312,204,145656,1,0,0:0:0:0:
276,212,145821,1,0,0:0:0:0:
276,212,145987,1,0,0:0:0:0:
276,212,146070,1,0,0:0:0:0:
276,212,146153,1,8,0:0:0:0:
256,192,146318,12,0,146816,0:0:0:0:
168,176,146981,5,4,0:0:0:0:
276,192,147147,1,8,0:0:0:0:
276,196,147230,1,8,0:0:0:0:
276,196,147313,1,0,0:0:0:0:
276,192,147479,1,8,0:0:0:0:
272,208,147562,1,0,0:0:0:0:
272,212,147644,1,8,0:0:0:0:
272,208,147727,1,8,0:0:0:0:
272,208,147810,1,0,0:0:0:0:
272,208,147976,1,8,0:0:0:0:
272,208,148142,1,0,0:0:0:0:
272,208,148225,1,8,0:0:0:0:
272,208,148307,1,0,0:0:0:0:
272,208,148473,1,8,0:0:0:0:
272,208,148639,1,0,0:0:0:0:
272,208,148722,1,0,0:0:0:0:
272,208,148805,1,8,0:0:0:0:
256,192,148970,12,0,149468,0:0:0:0:
200,168,149633,5,4,0:0:0:0:
248,188,149882,1,8,0:0:0:0:
248,188,150131,1,4,0:0:0:0:
248,188,150296,1,4,0:0:0:0:
248,188,150545,1,8,0:0:0:0:
248,188,150794,1,4,0:0:0:0:
248,188,150959,1,4,0:0:0:0:
248,188,151208,1,8,0:0:0:0:
248,188,151457,1,4,0:0:0:0:
248,188,151622,1,8,0:0:0:0:
300,136,151705,1,8,0:0:0:0:
172,160,151871,1,8,0:0:0:0:
172,160,151954,1,8,0:0:0:0:
200,177,152120,1,0,0:0:0:0:
352,136,152285,1,8,0:0:0:0:
252,196,152396,1,8,0:0:0:0:
252,196,152506,1,0,0:0:0:0:
252,196,152617,1,8,0:0:0:0:
256,196,152727,1,8,0:0:0:0:
256,196,152838,1,0,0:0:0:0:
256,196,152948,1,8,0:0:0:0:
256,196,153059,1,0,0:0:0:0:
256,196,153169,1,0,0:0:0:0:
256,196,153280,1,8,0:0:0:0:
256,196,153390,1,0,0:0:0:0:
256,196,153501,1,0,0:0:0:0:
256,196,153611,1,8,0:0:0:0:
256,196,153667,1,8,0:0:0:0:
256,196,153722,1,0,0:0:0:0:
256,196,153777,1,8,0:0:0:0:
256,196,153832,1,8,0:0:0:0:
256,196,153888,1,0,0:0:0:0:
256,196,153943,1,8,0:0:0:0:
256,208,153998,1,0,0:0:0:0:
252,212,154053,1,0,0:0:0:0:
252,212,154109,1,8,0:0:0:0:
248,212,154164,1,0,0:0:0:0:
248,212,154219,1,0,0:0:0:0:
248,212,154274,1,8,0:0:0:0:
220,192,154385,1,8,0:0:0:0:
220,192,154495,1,8,0:0:0:0:
184,184,154606,1,8,0:0:0:0:
176,180,154716,1,8,0:0:0:0:
164,176,154827,1,8,0:0:0:0:
152,172,154937,1,4,0:0:0:0:
260,192,155269,1,0,0:0:0:0:
240,152,155324,1,8,0:0:0:0:
260,192,155379,1,8,0:0:0:0:
260,192,155435,1,0,0:0:0:0:
256,192,155517,1,8,0:0:0:0:
112,164,155559,1,8,0:0:0:0:
256,192,155600,1,0,0:0:0:0:
260,192,155683,1,8,0:0:0:0:
216,148,155725,1,8,0:0:0:0:
260,192,155766,1,0,0:0:0:0:
260,192,155849,1,0,0:0:0:0:
260,192,155932,1,8,0:0:0:0:
200,176,155987,1,0,0:0:0:0:
260,192,156042,1,0,0:0:0:0:
260,192,156098,1,8,0:0:0:0:
260,192,156180,1,0,0:0:0:0:
260,192,156263,1,8,0:0:0:0:
316,128,156318,1,8,0:0:0:0:
260,192,156374,1,8,0:0:0:0:
260,192,156429,1,0,0:0:0:0:
256,192,156512,1,0,0:0:0:0:
256,192,156595,1,8,0:0:0:0:
288,148,156650,1,8,0:0:0:0:
260,192,156705,1,8,0:0:0:0:
260,192,156760,1,0,0:0:0:0:
260,192,156843,1,8,0:0:0:0:
248,160,156885,1,8,0:0:0:0:
260,192,156926,1,0,0:0:0:0:
260,192,157009,1,8,0:0:0:0:
264,144,157051,1,8,0:0:0:0:
260,192,157092,1,0,0:0:0:0:
256,192,157175,1,8,0:0:0:0:
256,192,157258,1,0,0:0:0:0:
264,208,157313,1,0,0:0:0:0:
256,192,157368,1,0,0:0:0:0:
256,192,157423,1,8,0:0:0:0:
256,192,157506,1,8,0:0:0:0:
256,192,157589,1,0,0:0:0:0:
260,192,157921,1,0,0:0:0:0:
220,180,157976,1,8,0:0:0:0:
260,192,158031,1,8,0:0:0:0:
256,192,158086,1,0,0:0:0:0:
256,192,158169,1,8,0:0:0:0:
300,172,158211,1,8,0:0:0:0:
256,192,158252,1,0,0:0:0:0:
256,192,158335,1,8,0:0:0:0:
300,172,158377,1,8,0:0:0:0:
256,192,158418,1,0,0:0:0:0:
256,192,158501,1,0,0:0:0:0:
256,192,158584,1,8,0:0:0:0:
268,208,158639,1,0,0:0:0:0:
256,192,158694,1,0,0:0:0:0:
256,192,158749,1,8,0:0:0:0:
256,192,158832,1,0,0:0:0:0:
256,192,158915,1,8,0:0:0:0:
368,212,158970,1,8,0:0:0:0:
256,192,159026,1,8,0:0:0:0:
256,192,159081,1,0,0:0:0:0:
256,192,159164,1,0,0:0:0:0:
256,192,159247,1,8,0:0:0:0:
336,200,159302,1,8,0:0:0:0:
256,192,159357,1,8,0:0:0:0:
256,192,159412,1,0,0:0:0:0:
256,192,159495,1,8,0:0:0:0:
156,144,159537,1,8,0:0:0:0:
256,192,159578,1,0,0:0:0:0:
260,180,159661,1,8,0:0:0:0:
184,148,159702,1,8,0:0:0:0:
252,176,159744,1,0,0:0:0:0:
252,176,159827,1,0,0:0:0:0:
252,176,159910,1,8,0:0:0:0:
292,168,159965,1,0,0:0:0:0:
252,176,160020,1,0,0:0:0:0:
252,176,160075,1,8,0:0:0:0:
252,176,160158,1,8,0:0:0:0:
252,176,160241,1,4,0:0:0:0:
280,212,160573,1,0,0:0:0:0:
272,220,160656,1,0,0:0:0:0:
256,244,160738,1,8,0:0:0:0:
256,244,160780,1,8,0:0:0:0:
256,244,160821,1,0,0:0:0:0:
376,136,160904,1,8,0:0:0:0:
248,132,160987,1,8,0:0:0:0:
360,172,161070,1,0,0:0:0:0:
360,172,161153,1,0,0:0:0:0:
256,192,161236,1,8,0:0:0:0:
256,192,161291,1,0,0:0:0:0:
248,196,161346,1,0,0:0:0:0:
220,184,161401,1,8,0:0:0:0:
344,132,161484,1,0,0:0:0:0:
340,120,161567,1,8,0:0:0:0:
280,168,161609,1,8,0:0:0:0:
280,168,161650,1,0,0:0:0:0:
264,168,161733,1,8,0:0:0:0:
364,212,161816,1,8,0:0:0:0:
280,188,161899,1,0,0:0:0:0:
280,188,161981,1,0,0:0:0:0:
252,160,162064,1,8,0:0:0:0:
252,160,162106,1,8,0:0:0:0:
240,152,162147,1,0,0:0:0:0:
280,188,162230,1,8,0:0:0:0:
328,192,162313,1,8,0:0:0:0:
280,188,162396,1,0,0:0:0:0:
184,152,162451,1,0,0:0:0:0:
384,220,162506,1,0,0:0:0:0:
280,188,162562,1,8,0:0:0:0:
272,168,162617,1,8,0:0:0:0:
216,168,162672,1,8,0:0:0:0:
264,164,162727,1,0,0:0:0:0:
172,168,162810,1,0,0:0:0:0:
348,172,162893,1,8,0:0:0:0:
280,176,162935,1,8,0:0:0:0:
280,176,162976,1,0,0:0:0:0:
272,152,163059,1,8,0:0:0:0:
292,172,163142,1,8,0:0:0:0:
280,152,163225,1,0,0:0:0:0:
332,144,163307,1,0,0:0:0:0:
332,144,163390,1,8,0:0:0:0:
304,160,163432,1,8,0:0:0:0:
332,144,163473,1,0,0:0:0:0:
288,200,163556,1,8,0:0:0:0:
288,200,163639,1,0,0:0:0:0:
288,192,163722,1,8,0:0:0:0:
288,192,163805,1,0,0:0:0:0:
292,192,163888,1,8,0:0:0:0:
292,192,163943,1,8,0:0:0:0:
292,192,163998,1,8,0:0:0:0:
272,224,164053,1,0,0:0:0:0:
272,224,164109,1,0,0:0:0:0:
272,224,164164,1,0,0:0:0:0:
232,212,164219,1,12,0:0:0:0:
472,376,164468,1,12,0:0:0:0:
52,188,164661,1,12,0:0:0:0:
228,184,164772,1,4,0:0:0:0:
232,188,164882,1,12,0:0:0:0:
232,188,164993,1,4,0:0:0:0:
236,188,165103,1,12,0:0:0:0:
236,188,165214,1,4,0:0:0:0:
104,144,165545,1,12,0:0:0:0:
308,232,165877,1,0,0:0:0:0:
308,228,165932,1,8,0:0:0:0:
296,212,165987,1,8,0:0:0:0:
288,204,166042,1,0,0:0:0:0:
268,172,166125,1,8,0:0:0:0:
137,150,166167,1,8,0:0:0:0:
169,147,166208,1,0,0:0:0:0:
160,160,166291,1,8,0:0:0:0:
192,131,166332,1,8,0:0:0:0:
192,131,166374,1,0,0:0:0:0:
252,184,166457,1,0,0:0:0:0:
252,184,166539,1,8,0:0:0:0:
252,184,166622,1,8,0:0:0:0:
248,184,166705,1,8,0:0:0:0:
244,176,166788,1,0,0:0:0:0:
168,160,166871,1,8,0:0:0:0:
184,188,166926,1,8,0:0:0:0:
236,200,166981,1,8,0:0:0:0:
240,200,167037,1,0,0:0:0:0:
304,168,167120,1,0,0:0:0:0:
244,200,167202,1,8,0:0:0:0:
244,200,167258,1,8,0:0:0:0:
244,200,167313,1,8,0:0:0:0:
244,200,167368,1,0,0:0:0:0:
352,196,167451,1,8,0:0:0:0:
316,236,167493,1,8,0:0:0:0:
316,236,167534,1,0,0:0:0:0:
284,208,167617,1,8,0:0:0:0:
284,208,167658,1,8,0:0:0:0:
284,208,167700,1,0,0:0:0:0:
284,208,167783,1,8,0:0:0:0:
304,212,167865,1,0,0:0:0:0:
300,212,167921,1,0,0:0:0:0:
296,204,167976,1,0,0:0:0:0:
284,192,168031,1,8,0:0:0:0:
252,152,168114,1,8,0:0:0:0:
252,152,168197,1,4,0:0:0:0:
252,164,168363,1,4,0:0:0:0:
208,196,168528,1,8,0:0:0:0:
208,200,168584,1,8,0:0:0:0:
208,200,168639,1,8,0:0:0:0:
208,200,168694,1,0,0:0:0:0:
252,164,168860,1,4,0:0:0:0:
248,164,169026,1,4,0:0:0:0:
328,196,169191,1,8,0:0:0:0:
328,196,169247,1,8,0:0:0:0:
328,196,169302,1,8,0:0:0:0:
328,196,169357,1,8,0:0:0:0:
252,164,169523,1,4,0:0:0:0:
252,164,169772,1,4,0:0:0:0:
216,168,170020,1,4,0:0:0:0:
212,192,170269,1,4,0:0:0:0:
240,152,170517,1,8,0:0:0:0:
352,160,170573,1,8,0:0:0:0:
352,160,170628,1,8,0:0:0:0:
336,160,170683,1,8,0:0:0:0:
192,148,170849,1,4,0:0:0:0:
288,184,171180,1,0,0:0:0:0:
288,184,171263,1,0,0:0:0:0:
280,180,171346,1,8,0:0:0:0:
280,180,171388,1,8,0:0:0:0:
280,180,171429,1,0,0:0:0:0:
240,172,171512,1,8,0:0:0:0:
240,172,171595,1,8,0:0:0:0:
240,172,171678,1,0,0:0:0:0:
240,172,171760,1,0,0:0:0:0:
240,172,171843,1,8,0:0:0:0:
236,168,171899,1,0,0:0:0:0:
240,172,171954,1,0,0:0:0:0:
240,172,172009,1,8,0:0:0:0:
240,172,172092,1,0,0:0:0:0:
240,172,172175,1,8,0:0:0:0:
376,164,172216,1,8,0:0:0:0:
240,172,172258,1,0,0:0:0:0:
240,172,172341,1,8,0:0:0:0:
240,172,172423,1,8,0:0:0:0:
240,172,172506,1,0,0:0:0:0:
272,136,172589,1,0,0:0:0:0:
316,168,172672,1,8,0:0:0:0:
316,168,172714,1,8,0:0:0:0:
316,168,172755,1,0,0:0:0:0:
316,168,172838,1,8,0:0:0:0:
256,176,172921,1,8,0:0:0:0:
252,176,173004,1,0,0:0:0:0:
240,168,173086,1,0,0:0:0:0:
376,224,173169,1,8,0:0:0:0:
412,212,173225,1,8,0:0:0:0:
448,200,173280,1,8,0:0:0:0:
400,196,173335,1,0,0:0:0:0:
279,171,173418,1,0,0:0:0:0:
200,172,173501,1,8,0:0:0:0:
192,172,173542,1,8,0:0:0:0:
192,172,173584,1,0,0:0:0:0:
184,168,173667,1,8,0:0:0:0:
296,192,173749,1,8,0:0:0:0:
296,192,173832,1,0,0:0:0:0:
296,192,173915,1,0,0:0:0:0:
296,192,173998,1,8,0:0:0:0:
368,248,174039,1,8,0:0:0:0:
332,152,174081,1,0,0:0:0:0:
368,248,174164,1,8,0:0:0:0:
236,192,174247,1,0,0:0:0:0:
212,60,174330,1,8,0:0:0:0:
232,168,174412,1,0,0:0:0:0:
320,180,174495,1,8,0:0:0:0:
320,180,174551,1,8,0:0:0:0:
412,208,174606,1,8,0:0:0:0:
392,204,174661,1,8,0:0:0:0:
448,200,174716,1,8,0:0:0:0:
456,192,174772,1,8,0:0:0:0:
432,188,174827,1,0,0:0:0:0:
256,228,175158,1,8,0:0:0:0:
256,228,175214,1,8,0:0:0:0:
256,228,175269,1,8,0:0:0:0:
256,228,175324,1,8,0:0:0:0:
256,228,175379,1,8,0:0:0:0:
256,228,175435,1,8,0:0:0:0:
256,228,175490,1,0,0:0:0:0:
256,228,175545,1,0,0:0:0:0:
248,228,175600,1,0,0:0:0:0:
248,228,175656,1,0,0:0:0:0:
248,228,175711,1,0,0:0:0:0:
240,228,175766,1,0,0:0:0:0:
268,204,175821,1,8,0:0:0:0:
268,204,176153,1,4,0:0:0:0:
276,164,176484,1,8,0:0:0:0:
300,168,176650,1,0,0:0:0:0:
296,168,176733,1,0,0:0:0:0:
296,168,176816,1,0,0:0:0:0:
296,168,176981,1,0,0:0:0:0:
256,112,177064,1,0,0:0:0:0:
276,152,177147,1,0,0:0:0:0:
280,152,177313,1,8,0:0:0:0:
288,148,177479,1,0,0:0:0:0:
284,148,177562,1,0,0:0:0:0:
284,148,177644,1,0,0:0:0:0:
284,148,177810,1,8,0:0:0:0:
308,236,177976,1,0,0:0:0:0:
308,236,178059,1,0,0:0:0:0:
308,236,178142,1,0,0:0:0:0:
268,208,178307,1,0,0:0:0:0:
260,196,178390,1,0,0:0:0:0:
260,196,178473,1,0,0:0:0:0:
256,196,178556,1,8,0:0:0:0:
328,224,178722,1,8,0:0:0:0:
328,224,178805,1,0,0:0:0:0:
300,184,178888,1,0,0:0:0:0:
300,184,178970,1,0,0:0:0:0:
300,184,179136,1,8,0:0:0:0:
256,168,179302,1,0,0:0:0:0:
256,168,179385,1,0,0:0:0:0:
256,168,179468,1,0,0:0:0:0:
256,168,179633,1,0,0:0:0:0:
260,148,179716,1,0,0:0:0:0:
256,168,179799,1,0,0:0:0:0:
256,168,179965,1,8,0:0:0:0:
256,168,180131,1,0,0:0:0:0:
328,184,180214,1,0,0:0:0:0:
328,184,180296,1,0,0:0:0:0:
328,184,180379,1,0,0:0:0:0:
320,184,180462,1,0,0:0:0:0:
352,248,180628,1,0,0:0:0:0:
352,248,180711,1,0,0:0:0:0:
352,248,180794,1,0,0:0:0:0:
356,256,180959,1,0,0:0:0:0:
356,256,181042,1,0,0:0:0:0:
356,256,181125,1,0,0:0:0:0:
352,248,181208,1,0,0:0:0:0:
352,248,181374,1,0,0:0:0:0:
352,248,181457,1,12,0:0:0:0:
256,200,181788,1,8,0:0:0:0:
260,212,181954,1,0,0:0:0:0:
260,212,182037,1,0,0:0:0:0:
260,212,182120,1,0,0:0:0:0:
280,200,182285,1,0,0:0:0:0:
284,196,182368,1,0,0:0:0:0:
292,172,182451,1,0,0:0:0:0:
288,196,182617,1,8,0:0:0:0:
288,196,182783,1,0,0:0:0:0:
288,196,182865,1,0,0:0:0:0:
288,196,182948,1,0,0:0:0:0:
288,196,183114,1,8,0:0:0:0:
292,196,183280,1,0,0:0:0:0:
292,196,183363,1,0,0:0:0:0:
292,196,183446,1,0,0:0:0:0:
268,168,183611,1,0,0:0:0:0:
268,168,183694,1,0,0:0:0:0:
268,168,183777,1,0,0:0:0:0:
232,152,183860,1,8,0:0:0:0:
248,128,184026,1,8,0:0:0:0:
248,128,184109,1,0,0:0:0:0:
288,176,184274,1,8,0:0:0:0:
288,176,184440,1,0,0:0:0:0:
292,176,184606,1,8,0:0:0:0:
288,176,184772,1,0,0:0:0:0:
288,176,184937,1,8,0:0:0:0:
288,176,185103,1,0,0:0:0:0:
288,196,185269,1,8,0:0:0:0:
208,152,185435,1,0,0:0:0:0:
256,192,185517,1,0,0:0:0:0:
256,192,185600,1,0,0:0:0:0:
256,192,185683,1,0,0:0:0:0:
256,192,185766,1,8,0:0:0:0:
256,192,185849,1,8,0:0:0:0:
256,192,185932,1,8,0:0:0:0:
256,192,186015,1,8,0:0:0:0:
256,192,186098,1,0,0:0:0:0:
256,192,186180,1,0,0:0:0:0:
256,192,186263,1,0,0:0:0:0:
252,188,186346,1,0,0:0:0:0:
248,184,186429,1,8,0:0:0:0:
236,188,186512,1,8,0:0:0:0:
224,192,186595,1,8,0:0:0:0:
224,192,186678,1,8,0:0:0:0:
341,152,186760,1,0,0:0:0:0:
224,168,186843,1,12,0:0:0:0:
240,168,187092,1,12,0:0:0:0:
240,168,187341,1,12,0:0:0:0:
240,168,187589,1,12,0:0:0:0:
260,176,188169,1,12,0:0:0:0:
256,176,188418,1,12,0:0:0:0:
260,176,188667,1,12,0:0:0:0:
260,176,188915,1,12,0:0:0:0:
272,160,189412,1,0,0:0:0:0:
248,212,189468,1,0,0:0:0:0:
248,212,189523,1,0,0:0:0:0:
228,216,189578,1,0,0:0:0:0:
224,164,189744,1,12,0:0:0:0:
160,202,189993,1,8,0:0:0:0:
177,208,190075,1,0,0:0:0:0:
177,208,190158,1,8,0:0:0:0:
303,264,190241,1,0,0:0:0:0:
251,237,190324,1,8,0:0:0:0:
381,119,190407,1,0,0:0:0:0:
367,159,190462,1,0,0:0:0:0:
351,173,190517,1,0,0:0:0:0:
344,177,190573,1,8,0:0:0:0:
77,164,190738,1,8,0:0:0:0:
156,171,190821,1,0,0:0:0:0:
156,171,190863,1,0,0:0:0:0:
156,171,190904,1,8,0:0:0:0:
156,171,190987,1,0,0:0:0:0:
156,171,191070,1,8,0:0:0:0:
286,148,191125,1,8,0:0:0:0:
286,148,191180,1,8,0:0:0:0:
286,148,191236,1,0,0:0:0:0:
343,125,191318,1,8,0:0:0:0:
138,171,191484,1,8,0:0:0:0:
180,182,191567,1,8,0:0:0:0:
156,171,191650,1,0,0:0:0:0:
166,178,191733,1,8,0:0:0:0:
175,182,191816,1,0,0:0:0:0:
175,182,191899,1,8,0:0:0:0:
176,182,191981,1,8,0:0:0:0:
180,182,192064,1,0,0:0:0:0:
325,159,192120,1,0,0:0:0:0:
325,159,192175,1,0,0:0:0:0:
325,159,192230,1,8,0:0:0:0:
325,159,192396,1,8,0:0:0:0:
325,159,192451,1,8,0:0:0:0:
325,159,192506,1,8,0:0:0:0:
325,159,192562,1,0,0:0:0:0:
196,172,192644,1,8,0:0:0:0:
183,163,192727,1,0,0:0:0:0:
180,155,192810,1,8,0:0:0:0:
115,153,192893,1,0,0:0:0:0:
121,152,192976,1,0,0:0:0:0:
121,152,193059,1,8,0:0:0:0:
282,150,193114,1,8,0:0:0:0:
282,150,193169,1,8,0:0:0:0:
282,150,193225,1,8,0:0:0:0:
208,172,193390,1,4,0:0:0:0:
208,172,193556,1,4,0:0:0:0:
253,200,193722,1,8,0:0:0:0:
253,200,193763,1,8,0:0:0:0:
253,200,193805,1,8,0:0:0:0:
253,200,193888,1,0,0:0:0:0:
253,200,193970,1,8,0:0:0:0:
253,200,194012,1,8,0:0:0:0:
253,200,194053,1,8,0:0:0:0:
253,200,194136,1,0,0:0:0:0:
253,200,194219,1,8,0:0:0:0:
253,200,194260,1,8,0:0:0:0:
252,202,194302,1,0,0:0:0:0:
252,202,194385,1,8,0:0:0:0:
252,202,194468,1,0,0:0:0:0:
252,202,194509,1,0,0:0:0:0:
252,202,194551,1,8,0:0:0:0:
252,202,194633,1,8,0:0:0:0:
252,202,194716,1,4,0:0:0:0:
229,211,195048,1,8,0:0:0:0:
219,204,195103,1,8,0:0:0:0:
198,187,195158,1,8,0:0:0:0:
196,181,195214,1,0,0:0:0:0:
369,179,195296,1,8,0:0:0:0:
329,199,195379,1,8,0:0:0:0:
320,205,195462,1,0,0:0:0:0:
262,216,195545,1,8,0:0:0:0:
263,217,195600,1,8,0:0:0:0:
263,217,195656,1,8,0:0:0:0:
263,217,195711,1,8,0:0:0:0:
263,217,195766,1,8,0:0:0:0:
263,217,195821,1,8,0:0:0:0:
263,217,195877,1,8,0:0:0:0:
186,217,196042,1,4,0:0:0:0:
168,185,196374,1,8,0:0:0:0:
173,188,196429,1,8,0:0:0:0:
178,192,196484,1,8,0:0:0:0:
178,192,196539,1,0,0:0:0:0:
301,217,196622,1,8,0:0:0:0:
301,217,196705,1,0,0:0:0:0:
301,217,196788,1,8,0:0:0:0:
221,201,196871,1,0,0:0:0:0:
221,201,196926,1,0,0:0:0:0:
221,201,196981,1,0,0:0:0:0:
221,201,197037,1,0,0:0:0:0:
221,201,197092,1,0,0:0:0:0:
221,207,197147,1,0,0:0:0:0:
221,207,197202,1,0,0:0:0:0:
154,190,197368,1,4,0:0:0:0:
231,195,197534,1,8,0:0:0:0:
239,194,197617,1,0,0:0:0:0:
238,194,197783,1,0,0:0:0:0:
238,194,197865,1,8,0:0:0:0:
31,182,198197,1,12,0:0:0:0:
214,196,198446,1,12,0:0:0:0:
195,172,198694,1,4,0:0:0:0:
195,172,198860,1,4,0:0:0:0:
252,192,199191,1,8,0:0:0:0:
252,192,199274,1,8,0:0:0:0:
252,192,199357,1,0,0:0:0:0:
252,192,199440,1,0,0:0:0:0:
252,192,199523,1,0,0:0:0:0:
252,192,199606,1,0,0:0:0:0:
252,192,199689,1,8,0:0:0:0:
252,192,199772,1,8,0:0:0:0:
252,192,199854,1,8,0:0:0:0:
252,192,199937,1,8,0:0:0:0:
252,192,200020,1,4,0:0:0:0:
241,232,200269,1,0,0:0:0:0:
241,232,200517,1,8,0:0:0:0:
241,232,200766,1,0,0:0:0:0:
241,232,201015,1,0,0:0:0:0:
211,206,201346,1,0,0:0:0:0:
211,206,202009,1,8,0:0:0:0:
216,221,202672,1,0,0:0:0:0:
216,221,202921,1,0,0:0:0:0:
216,221,203169,1,8,0:0:0:0:
216,221,203418,1,0,0:0:0:0:
216,221,203667,1,0,0:0:0:0:
250,188,203832,1,8,0:0:0:0:
216,221,203998,1,0,0:0:0:0:
216,221,204661,1,8,0:0:0:0:
216,221,205324,1,0,0:0:0:0:
216,221,205573,1,0,0:0:0:0:
216,221,205821,1,8,0:0:0:0:
216,221,206070,1,0,0:0:0:0:
216,221,206318,1,0,0:0:0:0:
216,221,206650,1,0,0:0:0:0:
216,221,207313,1,8,0:0:0:0:
216,221,207976,1,0,0:0:0:0:
216,221,208225,1,0,0:0:0:0:
216,221,208473,1,8,0:0:0:0:
216,221,208722,1,0,0:0:0:0:
216,221,208970,1,0,0:0:0:0:
220,217,209136,1,8,0:0:0:0:
220,217,209302,1,0,0:0:0:0:
220,217,209551,1,0,0:0:0:0:
220,217,209799,1,0,0:0:0:0:
196,138,209854,1,0,0:0:0:0:
321,158,209910,1,0,0:0:0:0:
221,217,209965,1,8,0:0:0:0:
237,202,210628,1,4,0:0:0:0:
183,162,211622,1,0,0:0:0:0:
183,162,211954,1,8,0:0:0:0:
187,164,212617,1,8,0:0:0:0:
187,164,213280,1,0,0:0:0:0:
187,164,214274,1,8,0:0:0:0:
187,164,214606,1,0,0:0:0:0:
187,164,215269,1,8,0:0:0:0:
187,164,215600,1,8,0:0:0:0:
187,164,215932,1,0,0:0:0:0:
206,184,216926,1,0,0:0:0:0:
206,184,217258,1,8,0:0:0:0:
237,199,217921,1,8,0:0:0:0:
237,199,218584,1,0,0:0:0:0:
237,199,219578,1,8,0:0:0:0:
237,199,219910,1,0,0:0:0:0:
237,199,221236,1,4,0:0:0:0:
228,192,222230,1,0,0:0:0:0:
228,192,222562,1,8,0:0:0:0:
228,192,223225,1,8,0:0:0:0:
235,197,223888,1,0,0:0:0:0:
246,199,224882,1,8,0:0:0:0:
246,199,225214,1,0,0:0:0:0:
246,199,225877,1,8,0:0:0:0:
246,199,226208,1,0,0:0:0:0:
246,199,226539,1,8,0:0:0:0:
183,157,227534,1,8,0:0:0:0:
183,157,227865,1,0,0:0:0:0:
183,157,228528,1,0,0:0:0:0:
183,157,229191,1,8,0:0:0:0:
183,157,230186,1,8,0:0:0:0:
183,157,230517,1,8,0:0:0:0:
147,141,231180,1,12,0:0:0:0:
183,157,231429,1,12,0:0:0:0:
183,157,231678,1,12,0:0:0:0:
183,157,231843,1,4,0:0:0:0:
183,157,232092,1,4,0:0:0:0:
196,168,232341,1,4,0:0:0:0:
196,167,232589,1,4,0:0:0:0:
196,167,232838,1,4,0:0:0:0:
198,167,233004,1,4,0:0:0:0:
256,192,233169,12,0,234330,0:0:0:0:
247,192,234495,5,4,0:0:0:0:
247,192,234744,1,4,0:0:0:0:
247,192,234993,1,4,0:0:0:0:
247,192,235241,1,4,0:0:0:0:
247,192,235490,1,4,0:0:0:0:
247,192,235656,1,4,0:0:0:0:
256,192,235821,12,0,236981,0:0:0:0:
268,189,237147,5,4,0:0:0:0:
242,213,237396,1,4,0:0:0:0:
242,213,237644,1,4,0:0:0:0:
259,210,237810,1,4,0:0:0:0:
262,207,238059,1,4,0:0:0:0:
262,207,238307,1,4,0:0:0:0:
260,207,238473,1,4,0:0:0:0:
259,210,238722,1,4,0:0:0:0:
262,207,238970,1,4,0:0:0:0:
262,207,239136,1,4,0:0:0:0:
260,207,239385,1,4,0:0:0:0:
259,210,239633,1,4,0:0:0:0:
262,207,239799,1,8,0:0:0:0:
262,207,239882,1,8,0:0:0:0:
262,207,239965,1,0,0:0:0:0:
262,207,240048,1,0,0:0:0:0:
262,207,240131,1,8,0:0:0:0:
260,207,240214,1,8,0:0:0:0:
260,207,240296,1,0,0:0:0:0:
260,207,240379,1,0,0:0:0:0:
260,205,240462,1,8,0:0:0:0:
260,205,240545,1,8,0:0:0:0:
260,205,240628,1,0,0:0:0:0:
262,207,240711,1,0,0:0:0:0:
262,207,240794,1,8,0:0:0:0:
262,207,240877,1,8,0:0:0:0:
262,207,240959,1,0,0:0:0:0:
262,207,241042,1,0,0:0:0:0:
262,207,241125,1,8,0:0:0:0:
266,202,241180,1,8,0:0:0:0:
266,202,241236,1,8,0:0:0:0:
266,202,241291,1,0,0:0:0:0:
260,207,241374,1,0,0:0:0:0:
266,202,241457,1,8,0:0:0:0:
266,202,241512,1,8,0:0:0:0:
266,202,241567,1,8,0:0:0:0:
266,202,241622,1,0,0:0:0:0:
262,207,241705,1,0,0:0:0:0:
262,207,241788,1,8,0:0:0:0:
262,207,241843,1,8,0:0:0:0:
262,207,241899,1,8,0:0:0:0:
262,207,241954,1,0,0:0:0:0:
262,207,242009,1,0,0:0:0:0:
264,202,242064,1,0,0:0:0:0:
264,202,242120,1,8,0:0:0:0:
264,201,242175,1,8,0:0:0:0:
264,201,242230,1,8,0:0:0:0:
263,200,242285,1,0,0:0:0:0:
258,198,242341,1,0,0:0:0:0:
258,198,242396,1,0,0:0:0:0:
279,206,242451,1,8,0:0:0:0:
256,192,243114,12,0,245600,0:0:0:0:
339,263,245766,5,12,0:0:0:0:
239,246,246429,1,4,0:0:0:0:
239,246,246678,1,4,0:0:0:0:
239,246,246926,1,4,0:0:0:0:
239,246,247175,1,4,0:0:0:0:
239,246,247423,1,12,0:0:0:0:
180,162,247755,1,4,0:0:0:0:
274,202,248086,1,8,0:0:0:0:
274,197,248142,1,8,0:0:0:0:
275,190,248197,1,8,0:0:0:0:
281,173,248252,1,0,0:0:0:0:
263,201,248335,1,8,0:0:0:0:
263,201,248418,1,0,0:0:0:0:
267,198,248501,1,8,0:0:0:0:
212,182,248584,1,8,0:0:0:0:
295,156,248667,1,0,0:0:0:0:
274,202,248749,1,8,0:0:0:0:
274,202,248805,1,8,0:0:0:0:
274,202,248860,1,8,0:0:0:0:
274,202,248915,1,8,0:0:0:0:
181,174,249081,1,8,0:0:0:0:
238,187,249164,1,0,0:0:0:0:
238,187,249205,1,0,0:0:0:0:
238,187,249247,1,8,0:0:0:0:
238,187,249330,1,0,0:0:0:0:
291,170,249412,1,8,0:0:0:0:
277,182,249468,1,8,0:0:0:0:
276,183,249523,1,8,0:0:0:0:
276,184,249578,1,0,0:0:0:0:
267,190,249661,1,8,0:0:0:0:
224,145,249744,1,0,0:0:0:0:
266,205,249827,1,8,0:0:0:0:
266,205,249910,1,0,0:0:0:0:
266,205,249993,1,0,0:0:0:0:
266,205,250075,1,8,0:0:0:0:
304,140,250131,1,0,0:0:0:0:
266,205,250186,1,0,0:0:0:0:
266,205,250241,1,8,0:0:0:0:
266,205,250324,1,8,0:0:0:0:
266,205,250407,1,0,0:0:0:0:
304,182,250462,1,0,0:0:0:0:
284,200,250517,1,0,0:0:0:0:
283,200,250573,1,8,0:0:0:0:
283,200,250738,1,8,0:0:0:0:
283,200,250794,1,8,0:0:0:0:
283,200,250849,1,8,0:0:0:0:
283,200,250904,1,0,0:0:0:0:
276,187,250987,1,8,0:0:0:0:
279,172,251070,1,0,0:0:0:0:
276,187,251153,1,8,0:0:0:0:
276,188,251236,1,8,0:0:0:0:
276,188,251318,1,0,0:0:0:0:
311,188,251401,1,8,0:0:0:0:
301,196,251457,1,0,0:0:0:0:
301,197,251512,1,0,0:0:0:0:
301,197,251567,1,8,0:0:0:0:
303,188,251733,1,0,0:0:0:0:
303,188,251788,1,8,0:0:0:0:
303,188,251843,1,8,0:0:0:0:
303,188,251899,1,0,0:0:0:0:
227,116,251981,1,8,0:0:0:0:
162,188,252064,1,0,0:0:0:0:
162,188,252120,1,0,0:0:0:0:
154,182,252175,1,0,0:0:0:0:
240,147,252230,1,8,0:0:0:0:
240,147,252313,1,8,0:0:0:0:
235,146,252396,1,0,0:0:0:0:
266,169,252479,1,0,0:0:0:0:
275,184,252562,1,8,0:0:0:0:
275,184,252603,1,8,0:0:0:0:
275,184,252644,1,8,0:0:0:0:
275,184,252727,1,0,0:0:0:0:
275,184,252810,1,8,0:0:0:0:
275,184,252852,1,8,0:0:0:0:
275,184,252893,1,0,0:0:0:0:
275,184,252976,1,8,0:0:0:0:
275,184,253059,1,4,0:0:0:0:
287,218,253390,1,8,0:0:0:0:
252,198,253446,1,8,0:0:0:0:
252,198,253501,1,8,0:0:0:0:
275,203,253556,1,0,0:0:0:0:
277,170,253639,1,8,0:0:0:0:
277,170,253722,1,0,0:0:0:0:
277,170,253805,1,8,0:0:0:0:
277,170,253888,1,8,0:0:0:0:
277,170,253970,1,0,0:0:0:0:
264,182,254053,1,0,0:0:0:0:
264,182,254109,1,0,0:0:0:0:
264,182,254164,1,0,0:0:0:0:
264,182,254219,1,8,0:0:0:0:
281,170,254385,1,8,0:0:0:0:
282,186,254468,1,0,0:0:0:0:
282,186,254509,1,0,0:0:0:0:
289,183,254551,1,8,0:0:0:0:
276,164,254633,1,0,0:0:0:0:
269,169,254716,1,8,0:0:0:0:
263,164,254772,1,8,0:0:0:0:
259,148,254827,1,8,0:0:0:0:
259,148,254882,1,0,0:0:0:0:
277,170,254965,1,8,0:0:0:0:
226,173,255048,1,0,0:0:0:0:
184,156,255131,1,8,0:0:0:0:
226,173,255214,1,0,0:0:0:0:
226,173,255296,1,8,0:0:0:0:
255,172,255379,1,0,0:0:0:0:
255,172,255435,1,8,0:0:0:0:
255,172,255490,1,8,0:0:0:0:
255,172,255545,1,0,0:0:0:0:
137,146,255628,1,8,0:0:0:0:
285,191,255711,1,0,0:0:0:0:
285,191,255766,1,0,0:0:0:0:
285,191,255821,1,0,0:0:0:0:
285,191,255877,1,8,0:0:0:0:
325,198,256042,1,8,0:0:0:0:
325,198,256098,1,8,0:0:0:0:
325,198,256153,1,8,0:0:0:0:
325,198,256208,1,0,0:0:0:0:
244,195,256291,1,8,0:0:0:0:
243,195,256374,1,0,0:0:0:0:
243,195,256457,1,8,0:0:0:0:
204,185,256539,1,8,0:0:0:0:
192,180,256622,1,0,0:0:0:0:
180,173,256705,1,8,0:0:0:0:
247,150,256788,1,8,0:0:0:0:
247,150,256871,1,8,0:0:0:0:
211,139,257037,1,0,0:0:0:0:
254,222,257120,1,0,0:0:0:0:
254,222,257202,1,0,0:0:0:0:
254,222,257285,1,8,0:0:0:0:
254,222,257368,1,0,0:0:0:0:
254,222,257451,1,8,0:0:0:0:
254,222,257534,1,8,0:0:0:0:
254,222,257617,1,0,0:0:0:0:
254,222,257700,1,8,0:0:0:0:
254,222,257783,1,8,0:0:0:0:
254,222,257865,1,8,0:0:0:0:
253,217,257948,1,0,0:0:0:0:
253,217,258031,1,8,0:0:0:0:
253,217,258114,1,8,0:0:0:0:
252,209,258197,5,8,0:0:0:0:
241,201,258280,5,8,0:0:0:0:
255,217,258363,5,4,0:0:0:0:
246,188,258694,1,8,0:0:0:0:
246,188,258749,1,8,0:0:0:0:
246,188,258805,1,8,0:0:0:0:
230,179,258860,1,8,0:0:0:0:
303,236,259026,1,0,0:0:0:0:
281,217,259191,1,0,0:0:0:0:
281,217,259274,1,0,0:0:0:0:
298,212,259357,1,8,0:0:0:0:
298,212,259412,1,8,0:0:0:0:
298,212,259468,1,8,0:0:0:0:
298,212,259523,1,8,0:0:0:0:
353,256,259689,1,0,0:0:0:0:
276,227,259854,1,0,0:0:0:0:
270,217,260020,1,8,0:0:0:0:
270,217,260075,1,8,0:0:0:0:
270,217,260131,1,8,0:0:0:0:
270,217,260186,1,8,0:0:0:0:
289,200,260352,1,0,0:0:0:0:
256,186,260517,1,0,0:0:0:0:
256,186,260600,1,0,0:0:0:0:
328,256,260683,1,8,0:0:0:0:
328,256,260738,1,8,0:0:0:0:
328,256,260794,1,8,0:0:0:0:
328,256,260849,1,8,0:0:0:0:
306,221,261015,1,4,0:0:0:0:
325,226,261180,1,4,0:0:0:0:
273,212,261346,1,8,0:0:0:0:
273,212,261401,1,8,0:0:0:0:
298,228,261457,1,8,0:0:0:0:
314,236,261512,1,8,0:0:0:0:
295,180,261678,1,0,0:0:0:0:
280,169,261843,1,0,0:0:0:0:
280,169,261926,1,0,0:0:0:0:
314,201,262009,1,8,0:0:0:0:
314,201,262064,1,8,0:0:0:0:
314,201,262120,1,8,0:0:0:0:
314,201,262175,1,8,0:0:0:0:
335,229,262341,1,0,0:0:0:0:
335,229,262506,1,0,0:0:0:0:
306,185,262672,1,8,0:0:0:0:
306,185,262727,1,8,0:0:0:0:
306,185,262783,1,8,0:0:0:0:
306,184,262838,1,8,0:0:0:0:
296,197,263004,1,8,0:0:0:0:
256,191,263169,1,0,0:0:0:0:
256,191,263252,1,8,0:0:0:0:
256,191,263335,1,0,0:0:0:0:
256,191,263418,1,0,0:0:0:0:
256,191,263501,1,8,0:0:0:0:
256,191,263584,1,8,0:0:0:0:
256,191,263667,1,4,0:0:0:0:
255,163,263998,1,8,0:0:0:0:
255,163,264053,1,8,0:0:0:0:
255,163,264109,1,8,0:0:0:0:
255,163,264164,1,0,0:0:0:0:
140,167,264330,1,8,0:0:0:0:
235,186,264371,1,8,0:0:0:0:
211,185,264412,1,8,0:0:0:0:
265,178,264495,1,0,0:0:0:0:
265,178,264578,1,0,0:0:0:0:
232,200,264661,1,8,0:0:0:0:
232,200,264702,1,8,0:0:0:0:
234,192,264744,1,0,0:0:0:0:
129,163,264827,1,0,0:0:0:0:
259,191,264910,1,8,0:0:0:0:
259,191,264993,1,0,0:0:0:0:
256,192,265075,1,0,0:0:0:0:
254,192,265158,1,8,0:0:0:0:
253,192,265241,1,0,0:0:0:0:
253,192,265324,1,0,0:0:0:0:
252,192,265407,1,8,0:0:0:0:
252,192,265490,1,8,0:0:0:0:
251,192,265573,1,0,0:0:0:0:
251,192,265656,1,8,0:0:0:0:
250,193,265738,1,8,0:0:0:0:
250,193,265821,1,0,0:0:0:0:
250,193,265904,1,8,0:0:0:0:
250,193,265987,1,8,0:0:0:0:
250,193,266070,1,8,0:0:0:0:
254,192,266153,1,4,0:0:0:0:
281,210,266650,1,12,0:0:0:0:
209,175,266981,1,8,0:0:0:0:
209,175,267023,1,8,0:0:0:0:
209,175,267064,1,8,0:0:0:0:
209,175,267147,1,0,0:0:0:0:
209,175,267230,1,0,0:0:0:0:
209,175,267313,1,8,0:0:0:0:
131,132,267354,1,8,0:0:0:0:
209,175,267396,1,0,0:0:0:0:
209,175,267479,1,0,0:0:0:0:
226,176,267562,1,8,0:0:0:0:
236,177,267644,1,0,0:0:0:0:
239,178,267727,1,0,0:0:0:0:
247,179,267810,1,8,0:0:0:0:
247,179,267893,1,0,0:0:0:0:
247,179,267976,1,8,0:0:0:0:
247,179,268059,1,8,0:0:0:0:
247,179,268142,1,0,0:0:0:0:
247,179,268225,1,0,0:0:0:0:
155,146,268307,1,8,0:0:0:0:
114,153,268390,1,8,0:0:0:0:
257,178,268473,1,8,0:0:0:0:
257,178,268556,1,8,0:0:0:0:
257,178,268639,1,0,0:0:0:0:
257,178,268722,1,0,0:0:0:0:
256,178,268805,1,0,0:0:0:0:
267,181,268888,1,0,0:0:0:0:
281,184,268970,1,12,0:0:0:0:
296,225,269302,1,0,0:0:0:0:
276,206,269468,1,8,0:0:0:0:
276,206,269633,1,0,0:0:0:0:
276,206,269716,1,8,0:0:0:0:
276,206,269799,1,8,0:0:0:0:
270,163,269965,1,0,0:0:0:0:
270,163,270131,1,8,0:0:0:0:
296,153,270296,1,0,0:0:0:0:
296,153,270352,1,8,0:0:0:0:
298,148,270407,1,8,0:0:0:0:
298,148,270462,1,8,0:0:0:0:
314,189,270628,1,0,0:0:0:0:
285,190,270794,1,8,0:0:0:0:
306,203,270959,1,0,0:0:0:0:
307,202,271042,1,8,0:0:0:0:
326,191,271125,1,8,0:0:0:0:
242,168,271291,1,0,0:0:0:0:
242,168,271457,1,8,0:0:0:0:
249,206,271622,1,0,0:0:0:0:
249,206,271678,1,8,0:0:0:0:
177,146,271733,1,8,0:0:0:0:
241,204,271788,1,8,0:0:0:0:
298,170,271954,1,0,0:0:0:0:
301,164,272120,1,8,0:0:0:0:
298,170,272175,1,8,0:0:0:0:
298,170,272230,1,8,0:0:0:0:
287,150,272285,1,0,0:0:0:0:
287,150,272368,1,8,0:0:0:0:
249,148,272451,1,8,0:0:0:0:
183,162,272617,1,0,0:0:0:0:
296,187,272783,1,8,0:0:0:0:
141,106,272948,1,0,0:0:0:0:
144,161,273031,1,8,0:0:0:0:
226,120,273086,1,8,0:0:0:0:
226,120,273142,1,8,0:0:0:0:
226,120,273197,1,0,0:0:0:0:
226,120,273280,1,8,0:0:0:0:
296,187,273446,1,8,0:0:0:0:
296,187,273528,1,8,0:0:0:0:
239,180,273611,1,8,0:0:0:0:
203,179,273777,1,8,0:0:0:0:
281,180,273860,1,8,0:0:0:0:
203,179,273943,1,0,0:0:0:0:
121,168,273998,1,0,0:0:0:0:
196,158,274053,1,0,0:0:0:0:
203,179,274109,1,8,0:0:0:0:
207,141,274274,1,4,0:0:0:0:
207,181,274440,1,8,0:0:0:0:
170,175,274523,1,0,0:0:0:0:
218,169,274689,1,0,0:0:0:0:
218,169,274772,1,8,0:0:0:0:
218,169,274937,1,0,0:0:0:0:
218,169,275020,1,0,0:0:0:0:
132,172,275186,1,8,0:0:0:0:
199,177,275269,1,0,0:0:0:0:
267,123,275435,1,8,0:0:0:0:
267,123,275490,1,8,0:0:0:0:
150,127,275545,1,0,0:0:0:0:
267,123,275600,1,0,0:0:0:0:
253,215,275766,1,8,0:0:0:0:
253,215,275849,1,0,0:0:0:0:
316,169,276015,1,0,0:0:0:0:
319,157,276098,1,8,0:0:0:0:
306,219,276263,1,0,0:0:0:0:
293,256,276346,1,0,0:0:0:0:
293,256,276512,1,8,0:0:0:0:
223,151,276595,1,0,0:0:0:0:
180,174,276760,1,8,0:0:0:0:
165,163,276816,1,8,0:0:0:0:
180,174,276871,1,0,0:0:0:0:
155,172,276926,1,0,0:0:0:0:
195,172,277092,1,8,0:0:0:0:
190,182,277147,1,8,0:0:0:0:
253,183,277202,1,8,0:0:0:0:
253,183,277258,1,0,0:0:0:0:
253,183,277341,1,8,0:0:0:0:
243,185,277423,1,0,0:0:0:0:
243,195,277506,1,8,0:0:0:0:
243,195,277589,1,8,0:0:0:0:
243,193,277672,1,0,0:0:0:0:
243,187,277755,1,8,0:0:0:0:
243,185,277838,1,0,0:0:0:0:
243,184,277921,1,8,0:0:0:0:
289,185,277976,1,0,0:0:0:0:
289,185,278031,1,0,0:0:0:0:
195,183,278086,1,8,0:0:0:0:
190,182,278169,1,8,0:0:0:0:
247,199,278252,1,0,0:0:0:0:
247,199,278335,1,0,0:0:0:0:
247,199,278418,1,8,0:0:0:0:
163,177,278473,1,8,0:0:0:0:
247,199,278528,1,8,0:0:0:0:
247,199,278584,1,0,0:0:0:0:
247,199,278667,1,0,0:0:0:0:
247,199,278749,1,8,0:0:0:0:
239,137,278805,1,8,0:0:0:0:
247,199,278860,1,8,0:0:0:0:
247,199,278915,1,0,0:0:0:0:
247,200,278998,1,0,0:0:0:0:
247,200,279081,1,8,0:0:0:0:
206,187,279136,1,0,0:0:0:0:
247,200,279191,1,0,0:0:0:0:
247,200,279247,1,8,0:0:0:0:
247,200,279330,1,8,0:0:0:0:
247,200,279412,1,0,0:0:0:0:
204,158,279468,1,8,0:0:0:0:
247,200,279523,1,8,0:0:0:0:
247,200,279578,1,0,0:0:0:0:
173,189,279744,1,8,0:0:0:0:
150,188,279910,1,4,0:0:0:0:
216,177,280075,1,8,0:0:0:0:
216,177,280158,1,8,0:0:0:0:
182,189,280324,1,8,0:0:0:0:
135,164,280407,1,0,0:0:0:0:
182,189,280490,1,8,0:0:0:0:
299,207,280656,1,0,0:0:0:0:
299,207,280738,1,8,0:0:0:0:
299,207,280780,1,8,0:0:0:0:
299,207,280821,1,8,0:0:0:0:
269,187,280904,1,0,0:0:0:0:
334,213,281070,1,8,0:0:0:0:
275,167,281236,1,0,0:0:0:0:
269,174,281318,1,8,0:0:0:0:
215,154,281401,1,0,0:0:0:0:
269,174,281484,1,8,0:0:0:0:
269,174,281650,1,8,0:0:0:0:
269,174,281733,1,0,0:0:0:0:
269,174,281816,1,8,0:0:0:0:
281,193,281981,1,0,0:0:0:0:
281,193,282064,1,8,0:0:0:0:
281,193,282106,1,8,0:0:0:0:
281,193,282147,1,8,0:0:0:0:
302,210,282230,1,4,0:0:0:0:
236,170,282562,1,0,0:0:0:0:
236,170,282810,1,8,0:0:0:0:
236,170,282976,1,8,0:0:0:0:
236,170,283142,1,0,0:0:0:0:
236,170,283225,1,8,0:0:0:0:
214,165,283556,1,4,0:0:0:0:
214,165,283805,1,4,0:0:0:0:
312,183,284053,1,8,0:0:0:0:
156,142,284136,1,8,0:0:0:0:
312,183,284219,1,0,0:0:0:0:
312,183,284302,1,0,0:0:0:0:
312,183,284385,1,8,0:0:0:0:
228,182,284633,1,8,0:0:0:0:
228,182,284882,1,4,0:0:0:0:
228,174,285048,1,8,0:0:0:0:
228,174,285131,1,0,0:0:0:0:
195,176,285296,1,8,0:0:0:0:
195,176,285379,1,0,0:0:0:0:
195,176,285462,1,8,0:0:0:0:
195,176,285628,1,0,0:0:0:0:
195,176,285711,1,8,0:0:0:0:
196,169,285766,1,8,0:0:0:0:
196,169,285821,1,8,0:0:0:0:
196,169,285877,1,8,0:0:0:0:
142,142,285932,1,8,0:0:0:0:
196,169,285987,1,8,0:0:0:0:
196,169,286042,1,8,0:0:0:0:
196,169,286208,1,4,0:0:0:0:
206,175,286374,1,0,0:0:0:0:
213,186,286457,1,8,0:0:0:0:
236,194,286622,1,8,0:0:0:0:
236,196,286705,1,0,0:0:0:0:
236,196,286788,1,8,0:0:0:0:
236,195,286954,1,8,0:0:0:0:
261,199,287037,1,0,0:0:0:0:
259,201,287092,1,0,0:0:0:0:
259,201,287147,1,0,0:0:0:0:
249,202,287202,1,0,0:0:0:0:
249,202,287258,1,0,0:0:0:0:
249,202,287313,1,0,0:0:0:0:
249,202,287368,1,0,0:0:0:0:
250,200,287534,1,12,0:0:0:0:
199,201,287700,1,0,0:0:0:0:
199,201,287783,1,8,0:0:0:0:
199,201,287865,1,0,0:0:0:0:
199,201,287948,1,0,0:0:0:0:
199,201,288031,1,8,0:0:0:0:
199,201,288114,1,0,0:0:0:0:
204,201,288197,1,0,0:0:0:0:
206,202,288280,1,8,0:0:0:0:
206,202,288363,1,0,0:0:0:0:
206,202,288446,1,0,0:0:0:0:
206,202,288528,1,8,0:0:0:0:
206,202,288611,1,8,0:0:0:0:
206,202,288694,1,0,0:0:0:0:
206,202,288777,1,0,0:0:0:0:
206,202,288860,1,8,0:0:0:0:
267,191,288901,1,8,0:0:0:0:
269,196,288943,1,0,0:0:0:0:
186,37,289026,1,8,0:0:0:0:
186,37,289067,1,8,0:0:0:0:
188,139,289109,1,0,0:0:0:0:
269,196,289191,1,0,0:0:0:0:
316,178,289274,1,8,0:0:0:0:
295,194,289357,1,0,0:0:0:0:
282,195,289440,1,8,0:0:0:0:
282,194,289523,1,0,0:0:0:0:
282,193,289606,1,8,0:0:0:0:
282,192,289689,1,8,0:0:0:0:
282,192,289744,1,8,0:0:0:0:
150,156,289799,1,8,0:0:0:0:
282,192,289854,1,8,0:0:0:0:
325,248,289937,1,8,0:0:0:0:
325,244,290020,1,8,0:0:0:0:
325,244,290103,1,8,0:0:0:0:
325,244,290186,1,4,0:0:0:0:
274,203,290435,1,4,0:0:0:0:
274,202,290683,1,12,0:0:0:0:
275,202,290932,1,12,0:0:0:0:
274,203,291180,1,4,0:0:0:0:
254,194,291346,1,4,0:0:0:0:
252,193,291512,1,8,0:0:0:0:
252,193,291595,1,8,0:0:0:0:
252,193,291678,1,0,0:0:0:0:
252,193,291760,1,0,0:0:0:0:
252,193,291843,1,8,0:0:0:0:
252,193,291926,1,8,0:0:0:0:
252,193,292009,1,8,0:0:0:0:
252,193,292092,1,0,0:0:0:0:
252,193,292175,1,8,0:0:0:0:
252,193,292258,1,8,0:0:0:0:
252,193,292341,1,0,0:0:0:0:
252,193,292423,1,8,0:0:0:0:
252,193,292506,1,0,0:0:0:0:
252,193,292589,1,8,0:0:0:0:
252,193,292672,1,8,0:0:0:0:
252,193,292755,1,8,0:0:0:0:
256,191,292838,1,4,0:0:0:0:
256,191,293086,1,4,0:0:0:0:
256,191,293335,1,12,0:0:0:0:
256,191,293584,1,4,0:0:0:0:
256,191,293832,1,4,0:0:0:0:
256,191,293998,1,12,0:0:0:0:
256,191,294164,1,0,0:0:0:0:
256,191,294247,1,0,0:0:0:0:
256,191,294330,1,0,0:0:0:0:
256,191,294412,1,0,0:0:0:0:
256,191,294495,1,8,0:0:0:0:
256,191,294578,1,8,0:0:0:0:
256,191,294661,1,0,0:0:0:0:
256,191,294744,1,0,0:0:0:0:
256,191,294827,1,8,0:0:0:0:
256,191,294910,1,8,0:0:0:0:
256,191,294993,1,8,0:0:0:0:
256,191,295075,1,0,0:0:0:0:
256,191,295158,1,8,0:0:0:0:
255,193,295241,1,8,0:0:0:0:
255,193,295324,1,0,0:0:0:0:
255,193,295407,1,8,0:0:0:0:
255,193,295490,1,4,0:0:0:0:
193,185,295738,1,4,0:0:0:0:
193,185,295987,1,12,0:0:0:0:
213,187,296236,1,4,0:0:0:0:
223,188,296484,1,12,0:0:0:0:
224,189,296650,1,4,0:0:0:0:
261,198,296816,1,0,0:0:0:0:
261,198,296899,1,0,0:0:0:0:
253,199,296981,1,8,0:0:0:0:
253,199,297064,1,0,0:0:0:0:
251,199,297147,1,0,0:0:0:0:
251,198,297230,1,8,0:0:0:0:
252,198,297313,1,8,0:0:0:0:
252,197,297396,1,0,0:0:0:0:
253,197,297479,1,8,0:0:0:0:
253,194,297562,1,0,0:0:0:0:
252,192,297644,1,8,0:0:0:0:
252,191,297727,1,8,0:0:0:0:
252,186,297810,1,0,0:0:0:0:
251,182,297893,1,8,0:0:0:0:
250,178,297976,1,8,0:0:0:0:
249,172,298059,1,8,0:0:0:0:
249,169,298142,1,4,0:0:0:0:
247,163,298390,1,4,0:0:0:0:
249,163,298639,1,12,0:0:0:0:
242,160,298888,1,12,0:0:0:0:
242,159,299136,1,4,0:0:0:0:
242,157,299302,1,12,0:0:0:0:
253,192,299468,1,0,0:0:0:0:
253,192,299551,1,8,0:0:0:0:
253,192,299633,1,8,0:0:0:0:
256,197,299716,1,0,0:0:0:0:
256,197,299799,1,8,0:0:0:0:
256,197,299882,1,8,0:0:0:0:
256,197,299965,1,0,0:0:0:0:
256,197,300048,1,0,0:0:0:0:
256,197,300131,1,8,0:0:0:0:
256,197,300214,1,0,0:0:0:0:
256,197,300296,1,0,0:0:0:0:
256,197,300379,1,8,0:0:0:0:
256,197,300462,1,0,0:0:0:0:
256,197,300545,1,0,0:0:0:0:
256,197,300628,1,8,0:0:0:0:
194,203,300683,1,8,0:0:0:0:
256,197,300738,1,8,0:0:0:0:
235,191,300794,1,4,0:0:0:0:
256,237,301042,1,4,0:0:0:0:
256,237,301291,1,12,0:0:0:0:
256,230,301539,1,12,0:0:0:0:
256,229,301788,1,4,0:0:0:0:
175,178,301954,1,4,0:0:0:0:
246,181,302120,1,8,0:0:0:0:
246,181,302202,1,0,0:0:0:0:
246,181,302285,1,8,0:0:0:0:
246,181,302368,1,8,0:0:0:0:
246,181,302451,1,0,0:0:0:0:
246,181,302534,1,8,0:0:0:0:
246,181,302617,1,0,0:0:0:0:
246,181,302700,1,0,0:0:0:0:
246,181,302783,1,8,0:0:0:0:
246,181,302865,1,8,0:0:0:0:
246,181,302948,1,8,0:0:0:0:
246,181,303031,1,0,0:0:0:0:
246,181,303114,1,8,0:0:0:0:
246,181,303197,1,8,0:0:0:0:
246,181,303280,1,8,0:0:0:0:
246,181,303363,1,8,0:0:0:0:
246,181,303446,1,4,0:0:0:0:
246,181,303694,1,4,0:0:0:0:
246,181,303943,1,12,0:0:0:0:
246,181,304191,1,4,0:0:0:0:
246,181,304440,1,4,0:0:0:0:
246,181,304606,1,12,0:0:0:0:
246,181,304772,1,0,0:0:0:0:
246,181,304854,1,8,0:0:0:0:
246,181,304937,1,0,0:0:0:0:
246,181,305020,1,0,0:0:0:0:
246,181,305103,1,8,0:0:0:0:
246,181,305186,1,8,0:0:0:0:
246,181,305269,1,0,0:0:0:0:
246,181,305352,1,0,0:0:0:0:
246,181,305435,1,8,0:0:0:0:
246,181,305517,1,0,0:0:0:0:
246,181,305600,1,8,0:0:0:0:
246,181,305683,1,8,0:0:0:0:
246,181,305766,1,0,0:0:0:0:
246,181,305849,1,8,0:0:0:0:
246,181,305932,1,8,0:0:0:0:
246,181,306015,1,8,0:0:0:0:
246,181,306098,1,4,0:0:0:0:
246,181,306346,1,4,0:0:0:0:
246,181,306595,1,12,0:0:0:0:
246,181,306843,1,4,0:0:0:0:
246,181,307092,1,12,0:0:0:0:
246,181,307258,1,4,0:0:0:0:
246,181,307423,1,0,0:0:0:0:
246,181,307506,1,0,0:0:0:0:
246,181,307589,1,8,0:0:0:0:
246,181,307672,1,8,0:0:0:0:
246,181,307755,1,0,0:0:0:0:
246,181,307838,1,8,0:0:0:0:
246,181,307921,1,8,0:0:0:0:
246,181,308004,1,0,0:0:0:0:
246,181,308086,1,8,0:0:0:0:
246,181,308169,1,8,0:0:0:0:
246,181,308252,1,8,0:0:0:0:
246,181,308335,1,0,0:0:0:0:
246,181,308418,1,8,0:0:0:0:
246,181,308501,1,8,0:0:0:0:
246,181,308584,1,8,0:0:0:0:
246,181,308667,1,8,0:0:0:0:
246,181,308749,1,4,0:0:0:0:
246,181,308998,1,8,0:0:0:0:
235,154,309039,1,8,0:0:0:0:
189,147,309081,1,8,0:0:0:0:
330,185,309247,1,4,0:0:0:0:
188,163,309495,1,8,0:0:0:0:
186,162,309537,1,8,0:0:0:0:
178,154,309578,1,8,0:0:0:0:
296,187,309744,1,12,0:0:0:0:
197,150,309993,1,8,0:0:0:0:
197,150,310034,1,8,0:0:0:0:
197,150,310075,1,8,0:0:0:0:
296,187,310241,1,12,0:0:0:0:
252,197,310490,1,12,0:0:0:0:
354,197,310738,1,12,0:0:0:0:
195,172,311070,1,0,0:0:0:0:
195,172,311125,1,0,0:0:0:0:
195,172,311180,1,0,0:0:0:0:
195,172,311236,1,8,0:0:0:0:
195,172,311291,1,8,0:0:0:0:
195,172,311346,1,8,0:0:0:0:
195,172,311401,1,4,0:0:0:0:
223,184,311650,1,4,0:0:0:0:
228,189,311899,1,12,0:0:0:0:
228,189,312147,1,12,0:0:0:0:
228,189,312396,1,4,0:0:0:0:
228,189,312562,1,4,0:0:0:0:
242,204,312727,1,8,0:0:0:0:
242,204,312810,1,8,0:0:0:0:
241,204,312893,1,8,0:0:0:0:
241,204,312976,1,0,0:0:0:0:
241,204,313059,1,8,0:0:0:0:
241,204,313142,1,8,0:0:0:0:
241,204,313225,1,0,0:0:0:0:
241,204,313307,1,8,0:0:0:0:
241,204,313390,1,0,0:0:0:0:
241,204,313473,1,0,0:0:0:0:
241,203,313556,1,8,0:0:0:0:
242,204,313639,1,8,0:0:0:0:
242,204,313722,1,0,0:0:0:0:
143,157,313777,1,0,0:0:0:0:
242,204,313832,1,0,0:0:0:0:
241,204,313888,1,8,0:0:0:0:
241,204,313970,1,8,0:0:0:0:
241,204,314053,1,4,0:0:0:0:
251,202,314302,1,4,0:0:0:0:
253,202,314551,1,12,0:0:0:0:
253,202,314799,1,4,0:0:0:0:
253,202,315048,1,4,0:0:0:0:
251,202,315214,1,12,0:0:0:0:
253,202,315379,1,0,0:0:0:0:
253,202,315462,1,8,0:0:0:0:
253,202,315545,1,0,0:0:0:0:
253,202,315628,1,8,0:0:0:0:
253,202,315711,1,0,0:0:0:0:
253,202,315794,1,0,0:0:0:0:
253,202,315877,1,8,0:0:0:0:
238,171,315959,1,0,0:0:0:0:
336,200,316042,1,8,0:0:0:0:
130,189,316125,1,0,0:0:0:0:
186,170,316291,1,8,0:0:0:0:
167,185,316374,1,0,0:0:0:0:
253,202,316539,1,8,0:0:0:0:
393,172,316622,1,8,0:0:0:0:
253,202,316705,1,4,0:0:0:0:
253,202,316954,1,4,0:0:0:0:
251,202,317202,1,12,0:0:0:0:
253,202,317451,1,12,0:0:0:0:
253,202,317700,1,12,0:0:0:0:
253,202,317865,1,4,0:0:0:0:
256,200,318031,1,8,0:0:0:0:
255,200,318114,1,8,0:0:0:0:
256,200,318197,1,0,0:0:0:0:
253,202,318280,1,8,0:0:0:0:
253,202,318363,1,8,0:0:0:0:
253,202,318446,1,0,0:0:0:0:
253,202,318528,1,8,0:0:0:0:
358,88,318611,1,0,0:0:0:0:
258,200,318694,1,0,0:0:0:0:
253,202,318777,1,8,0:0:0:0:
253,202,318860,1,0,0:0:0:0:
256,200,318943,1,0,0:0:0:0:
256,200,319026,1,8,0:0:0:0:
255,200,319109,1,8,0:0:0:0:
256,200,319191,1,8,0:0:0:0:
258,200,319274,1,8,0:0:0:0:
258,200,319357,1,4,0:0:0:0:
265,161,319606,1,8,0:0:0:0:
265,161,319647,1,8,0:0:0:0:
265,161,319689,1,8,0:0:0:0:
278,176,319854,1,4,0:0:0:0:
278,176,320103,1,8,0:0:0:0:
278,176,320144,1,8,0:0:0:0:
278,176,320186,1,8,0:0:0:0:
278,176,320352,1,12,0:0:0:0:
278,176,320600,1,8,0:0:0:0:
278,176,320642,1,8,0:0:0:0:
278,176,320683,1,8,0:0:0:0:
278,176,320849,1,12,0:0:0:0:
278,176,321098,1,8,0:0:0:0:
278,176,321139,1,8,0:0:0:0:
278,176,321180,1,8,0:0:0:0:
278,176,321346,1,0,0:0:0:0:
222,176,321457,1,0,0:0:0:0:
244,182,321567,1,8,0:0:0:0:
244,182,321678,1,0,0:0:0:0:
244,182,321788,1,8,0:0:0:0:
244,182,321899,1,8,0:0:0:0:
238,202,322009,1,0,0:0:0:0:
238,202,322064,1,0,0:0:0:0:
238,202,322120,1,8,0:0:0:0:
238,202,322175,1,8,0:0:0:0:
238,202,322230,1,0,0:0:0:0:
238,202,322285,1,0,0:0:0:0:
238,202,322341,1,8,0:0:0:0:
238,202,322396,1,8,0:0:0:0:
238,202,322451,1,0,0:0:0:0:
238,202,322506,1,0,0:0:0:0:
238,202,322562,1,8,0:0:0:0:
238,202,322617,1,8,0:0:0:0:
238,202,322672,1,0,0:0:0:0:
238,202,322727,1,0,0:0:0:0:
238,202,322783,1,8,0:0:0:0:
237,202,322838,1,8,0:0:0:0:
229,208,322893,1,0,0:0:0:0:
237,202,322948,1,0,0:0:0:0:
223,209,323004,1,8,0:0:0:0:
266,198,323335,1,4,0:0:0:0:
238,202,323584,1,4,0:0:0:0:
237,202,323832,1,12,0:0:0:0:
238,202,324081,1,4,0:0:0:0:
238,202,324164,1,12,0:0:0:0:
238,202,324330,1,12,0:0:0:0:
238,202,324495,1,4,0:0:0:0:
238,202,324578,1,12,0:0:0:0:
237,202,324661,1,4,0:0:0:0:
238,202,324910,1,4,0:0:0:0:
238,202,325158,1,12,0:0:0:0:
238,202,325407,1,12,0:0:0:0:
238,202,325490,1,4,0:0:0:0:
237,202,325656,1,4,0:0:0:0:
238,202,325821,1,12,0:0:0:0:
238,202,325904,1,4,0:0:0:0:
238,202,325987,1,12,0:0:0:0:
265,167,326236,1,8,0:0:0:0:
265,167,326318,1,0,0:0:0:0:
265,167,326484,1,8,0:0:0:0:
257,167,326650,1,0,0:0:0:0:
257,167,326733,1,8,0:0:0:0:
257,167,326816,1,0,0:0:0:0:
217,166,326981,1,8,0:0:0:0:
217,166,327064,1,0,0:0:0:0:
217,166,327147,1,8,0:0:0:0:
217,166,327230,1,8,0:0:0:0:
217,166,327313,1,0,0:0:0:0:
217,166,327396,1,8,0:0:0:0:
217,166,327562,1,8,0:0:0:0:
217,166,327644,1,0,0:0:0:0:
217,166,327810,1,8,0:0:0:0:
217,166,327976,1,0,0:0:0:0:
217,166,328059,1,8,0:0:0:0:
217,166,328142,1,0,0:0:0:0:
217,166,328307,1,8,0:0:0:0:
217,166,328390,1,8,0:0:0:0:
217,166,328473,1,8,0:0:0:0:
217,166,328556,1,8,0:0:0:0:
217,166,328639,1,4,0:0:0:0:
217,166,328888,1,4,0:0:0:0:
217,166,329136,1,12,0:0:0:0:
217,166,329385,1,4,0:0:0:0:
217,166,329468,1,12,0:0:0:0:
217,166,329633,1,12,0:0:0:0:
217,166,329799,1,4,0:0:0:0:
217,166,329882,1,12,0:0:0:0:
217,166,329965,1,4,0:0:0:0:
227,171,330214,1,4,0:0:0:0:
227,171,330462,1,12,0:0:0:0:
227,171,330711,1,12,0:0:0:0:
227,171,330794,1,4,0:0:0:0:
227,171,330959,1,4,0:0:0:0:
227,171,331125,1,12,0:0:0:0:
227,171,331208,1,4,0:0:0:0:
227,171,331291,1,12,0:0:0:0:
227,171,331539,1,8,0:0:0:0:
227,171,331622,1,0,0:0:0:0:
227,171,331705,1,0,0:0:0:0:
227,171,331788,1,8,0:0:0:0:
227,171,331954,1,0,0:0:0:0:
227,171,332037,1,8,0:0:0:0:
227,171,332120,1,0,0:0:0:0:
227,171,332202,1,0,0:0:0:0:
227,171,332285,1,8,0:0:0:0:
227,171,332451,1,0,0:0:0:0:
227,171,332534,1,8,0:0:0:0:
227,171,332700,1,12,0:0:0:0:
233,166,332948,1,12,0:0:0:0:
233,167,333197,1,12,0:0:0:0:
233,167,333446,1,12,0:0:0:0:
