osu file format v14

[General]
AudioFilename: audio.mp3
AudioLeadIn: 0
PreviewTime: 63053
Countdown: 0
SampleSet: Normal
StackLeniency: 0.7
Mode: 1
LetterboxInBreaks: 0
WidescreenStoryboard: 0

[Editor]
Bookmarks: 112347
DistanceSpacing: 0.5
BeatDivisor: 6
GridSize: 4
TimelineZoom: 3.4

[Metadata]
Title:* Erm, could it be a Spatiotemporal ShockWAVE Syndrome...?
TitleUnicode:* Erm, could it be a Spatiotemporal ShockWAVE Syndrome...?
Artist:Camellia
ArtistUnicode:かめりあ
Creator:Nifty
Version:Oni
Source:SOUND VOLTEX VIVID WAVE
Tags:ななひら nanahira かめるかめりあ kamelcamellia sv sdvx electronic instrumental genjuro
BeatmapID:2211189
BeatmapSetID:1053885

[Difficulty]
HPDrainRate:5
CircleSize:2
OverallDifficulty:5
ApproachRate:10
SliderMultiplier:1.4
SliderTickRate:1

[Events]
//Background and Video events
0,0,"erm....jpg",0,60
//Break Periods
2,126462,128158
//Storyboard Layer 0 (Background)
//Storyboard Layer 1 (Fail)
//Storyboard Layer 2 (Pass)
//Storyboard Layer 3 (Foreground)
//Storyboard Layer 4 (Overlay)
//Storyboard Sound Samples

[TimingPoints]
-198,247.933884297521,4,1,0,80,1,0
-198,-121,4,1,0,80,0,0
545,-113.636363636364,4,1,0,80,0,0
628,-107.939339875111,4,1,0,80,0,0
711,-102.040816326531,4,1,0,80,0,0
793,-97.4235104669887,4,1,0,80,0,0
917,-120.999999999999,4,1,0,80,0,0
1785,-97.4235104669883,4,1,0,80,0,0
2033,-120.999999999999,4,1,0,80,0,0
2157,-107.939339875111,4,1,0,80,0,0
2363,-137.656427758816,4,1,0,80,0,0
2777,-97.4235104669883,4,1,0,80,0,0
2901,-120.999999999999,4,1,0,80,0,0
3768,-97.4235104669881,4,1,0,80,0,0
3851,-120.999999999999,4,1,0,80,0,0
4140,-107.939339875111,4,1,0,80,0,0
4388,-120.999999999999,4,1,0,80,0,0
4497,-113.636363636364,4,1,0,80,0,0
4580,-107.939339875111,4,1,0,80,0,0
4663,-102.040816326531,4,1,0,80,0,0
4760,-97.4235104669883,4,1,0,80,0,0
4884,-120.999999999999,4,1,0,80,0,0
5752,-97.4235104669881,4,1,0,80,0,0
5938,-120.999999999999,4,1,0,80,0,0
6124,-107.939339875111,4,1,0,80,0,0
6496,-107.939339875111,4,1,0,80,0,0
6558,-102.040816326531,4,1,0,80,0,0
6620,-97.4235104669883,4,1,0,80,0,0
6744,-90.9090909090909,4,1,0,80,0,0
7363,-136.986301369863,4,1,0,80,0,0
7487,-140.828607359985,4,1,0,80,0,0
7611,-144.89267799341,4,1,0,80,0,0
7735,-149.198283026159,4,1,0,80,0,0
7859,-153.767614080193,4,1,0,80,0,0
7983,-158.625667219213,4,1,0,80,0,0
8107,-163.800700411795,4,1,0,80,0,0
8231,-169.324783560595,4,1,0,80,0,0
8355,-175.234463712447,4,1,0,80,0,0
8479,-181.571574606852,4,1,0,80,0,0
8541,-184.915345754713,4,1,0,80,0,0
8603,-188.384228472392,4,1,0,80,0,0
8727,-97.0092061736658,4,1,0,80,0,0
9347,-136.986301369863,4,1,0,80,0,0
9471,-140.164384790482,4,1,0,80,0,0
9595,-143.493227837112,4,1,0,80,0,0
9719,-146.984250637544,4,1,0,80,0,0
9843,-150.649374127175,4,1,0,80,0,0
9967,-154.501955222243,4,1,0,80,0,0
10091,-158.556501609348,4,1,0,80,0,0
10711,-88.4415710760686,4,1,0,80,0,0
10773,-107.447162857665,4,1,0,80,0,0
14678,-120.381851232109,4,1,0,80,0,0
14802,-117.647058823529,4,1,0,80,0,0
15173,-107.36191379053,4,1,0,80,0,0
15545,-98.7306204133456,4,1,0,80,0,0
15669,-120.381851232109,4,1,0,80,0,0
15917,-91.3837881504469,4,1,0,80,0,0
16289,-85.054698676719,4,1,0,80,0,0
16537,-81.3008130081301,4,1,0,80,0,0
16661,-120.481927710843,4,1,0,80,0,0
16785,-97.0873786407767,4,1,0,80,0,0
16909,-95.4095598470775,4,1,0,80,0,0
17033,-93.7887464758879,4,1,0,80,0,0
17157,-92.2219967906745,4,1,0,80,0,0
17281,-90.7068147122825,4,1,0,80,0,0
17405,-89.2406159030347,4,1,0,80,0,0
17529,-87.8210628280666,4,1,0,80,0,0
17653,-86.4459643566,4,1,0,80,0,0
17735,-85.552859689888,4,1,0,80,0,0
17818,-84.6780919993598,4,1,0,80,0,0
17901,-83.8209617784796,4,1,0,80,0,0
17983,-82.9810786544452,4,1,0,80,0,0
18066,-82.1577922558065,4,1,0,80,0,0
18149,-81.3507478167493,4,1,0,80,0,0
18644,-88.5547423278385,4,1,0,80,0,0
18706,-97.1585968355445,4,1,0,80,0,0
22240,-101.010101010101,4,1,0,80,0,0
22363,-105.263157894737,4,1,0,80,0,0
22487,-109.89010989011,4,1,0,80,0,0
22611,-120.591622499985,4,1,0,80,0,0
22797,-88.5547423278385,4,1,0,80,0,0
22921,-97.1585968355445,4,1,0,80,0,0
25711,-101.010101010101,4,1,0,80,0,0
25773,-103.092783505155,4,1,0,80,0,0
25897,-93.4579439252336,4,1,0,80,0,0
26021,-86.9565217391304,4,1,0,80,0,0
26578,495.867768595041,4,1,0,80,1,0
26578,-60.5,4,1,0,80,0,0
29801,-60.6060606060606,4,1,0,80,0,0
29863,-59.8802395209581,4,1,0,80,0,0
29925,-59.1715976331361,4,1,0,80,0,0
29987,-58.4795321637427,4,1,0,80,0,0
30049,-57.8034682080925,4,1,0,80,0,0
30173,-56.4971751412429,4,1,0,80,0,0
30235,-55.8659217877095,4,1,0,80,0,0
30297,-55.2486187845304,4,1,0,80,0,0
30420,-54.054054054054,4,1,0,80,0,0
30544,-60.6060606060606,4,1,0,80,0,0
30916,-62.5,4,1,0,80,0,0
31040,-60.6060606060606,4,1,0,80,0,0
32611,-60.6060606060606,4,1,0,80,0,0
32693,-59.8425064914159,4,1,0,80,0,0
32776,-59.0979874180385,4,1,0,80,0,0
32858,-58.3717322045019,4,1,0,80,0,0
32941,-57.66311019824,4,1,0,80,0,0
33024,-56.9715193677529,4,1,0,80,0,0
33148,-55.9646571996853,4,1,0,80,0,0
33272,-54.9927657016719,4,1,0,80,0,0
33396,-54.054054054054,4,1,0,80,0,0
33892,-51.2820512820513,4,1,0,80,0,0
34263,-48.780487804878,4,1,0,80,0,0
34511,-60.6060606060606,4,1,0,80,0,0
34754,-46.5116279069767,4,1,0,80,0,0
35751,247.933884297521,4,1,0,80,1,0
35751,-159.630606860158,4,1,0,80,0,0
36742,-158.730158730159,4,1,0,80,0,0
36990,-151.293254741531,4,1,0,80,0,0
37207,-145.335106421632,4,1,0,80,0,0
37362,-141.358940034124,4,1,0,80,0,0
37486,-138.331145395717,4,1,0,80,0,0
37569,-136.383597962975,4,1,0,80,0,0
37651,-134.49030862836,4,1,0,80,0,0
37734,-132.648689231977,4,1,0,80,0,0
37817,-130.856824314245,4,1,0,80,0,0
37899,-129.112891147504,4,1,0,80,0,0
37982,-127.414667212001,4,1,0,80,0,0
38147,-124.148958886831,4,1,0,80,0,0
38230,-122.578161964977,4,1,0,80,0,0
38312,-121.046470950663,4,1,0,80,0,0
38395,-119.552586400654,4,1,0,80,0,0
38478,-118.095265088442,4,1,0,80,0,0
38643,-115.284539536256,4,1,0,80,0,0
38726,-113.928694308806,4,1,0,80,0,0
38891,-111.310604449975,4,1,0,80,0,0
38974,-110.046109319805,4,1,0,80,0,0
39139,-107.60150857315,4,1,0,80,0,0
39470,500,4,1,0,80,1,0
39470,-48.3870967741935,4,1,0,80,0,0
39970,-48.3091787439614,4,1,0,80,0,0
40053,-49.5049504950495,4,1,0,80,0,0
40136,-50.761421319797,4,1,0,80,0,0
40220,-52.0833333333333,4,1,0,80,0,0
40303,-53.475935828877,4,1,0,80,0,0
40470,-45.4545454545455,4,1,0,80,0,0
40553,-47.1698113207547,4,1,0,80,0,0
40720,-49.0196078431373,4,1,0,80,0,0
40803,-51.0204081632653,4,1,0,80,0,0
40970,-53.1914893617021,4,1,0,80,0,0
41136,-55.5555555555556,4,1,0,80,0,0
41220,-58.1395348837209,4,1,0,80,0,0
41456,247.933884297521,4,1,0,80,1,0
41456,-81.5363881401617,4,1,0,80,0,0
41538,-97.4235104669883,4,1,0,80,0,0
43439,500,4,1,0,80,1,0
43439,-48.3870967741935,4,1,0,80,0,0
43907,-48.3091787439614,4,1,0,80,0,0
43990,-49.5049504950495,4,1,0,80,0,0
44073,-50.761421319797,4,1,0,80,0,0
44157,-52.0833333333333,4,1,0,80,0,0
44282,-53.475935828877,4,1,0,80,0,0
44407,-45.4545454545455,4,1,0,80,0,0
44490,-47.1698113207547,4,1,0,80,0,0
44657,-49.0196078431373,4,1,0,80,0,0
44814,-51.0204081632653,4,1,0,80,0,0
44907,-53.1914893617021,4,1,0,80,0,0
45073,-55.5555555555556,4,1,0,80,0,0
45314,-58.1395348837209,4,1,0,80,0,0
45407,-59.5238095238095,4,1,0,80,0,0
47439,500,4,1,0,80,1,8
47439,-60,4,1,0,80,0,8
47751,-59.8802395209581,4,1,0,80,0,8
47814,-56.6656674620638,4,1,0,80,0,8
47876,-53.7786492309115,4,1,0,80,0,8
47939,-51.1715469823883,4,1,0,80,0,8
47992,247.933884297521,4,1,0,80,1,0
47992,-92.5925925925926,4,1,0,80,0,0
48084,-120.999999999999,4,1,0,80,0,0
48487,234.375,4,1,0,80,1,8
48487,-120.481927710843,4,1,0,80,0,8
48721,-117.647058823529,4,1,0,80,0,8
48955,223.880597014925,4,1,0,80,1,8
48955,-118.165784832451,4,1,0,80,0,8
49178,-113.636363636364,4,1,0,80,0,8
49402,214.285714285714,4,1,0,80,1,8
49402,-116.279069767442,4,1,0,80,0,8
49616,-112.359550561798,4,1,0,80,0,8
49830,203.389830508475,4,1,0,80,1,0
49830,-113.899613899614,4,1,0,80,0,0
50033,-111.111111111111,4,1,0,80,0,0
50236,-108.695652173913,4,1,0,80,0,0
50440,-106.382978723404,4,1,0,80,0,0
50643,193.548387096774,4,1,0,80,1,0
50643,-111.111111111111,4,1,0,80,0,0
51417,181.818181818182,4,1,0,80,1,0
51417,-116.279069767442,4,1,0,80,0,0
54326,-104.166666666667,4,1,0,80,0,0
54507,-107.900239754333,4,1,0,80,0,0
54689,-111.911401981279,4,1,0,80,0,0
54780,-114.030936593098,4,1,0,80,0,0
54871,-116.232306537137,4,1,0,80,0,0
54962,-118.520344609754,4,1,0,80,0,0
55053,-120.900271783811,4,1,0,80,0,0
55113,-122.540760120335,4,1,0,80,0,0
55174,-124.226225895454,4,1,0,80,0,0
55235,-125.958861835724,4,1,0,80,0,0
55295,-127.740513031448,4,1,0,80,0,0
55356,-129.573121351707,4,1,0,80,0,0
55417,-131.459250261604,4,1,0,80,0,0
55689,-151.515151515152,4,1,0,80,0,0
55871,-144.786736376654,4,1,0,80,0,0
55962,-141.641855734937,4,1,0,80,0,0
56053,-138.630497045784,4,1,0,80,0,0
56144,-135.744702223634,4,1,0,80,0,0
56265,-132.078586759122,4,1,0,80,0,0
56386,-128.605453900089,4,1,0,80,0,0
56507,-125.310299629457,4,1,0,80,0,0
56598,-122.947544430169,4,1,0,80,0,0
56689,-120.672386537789,4,1,0,80,0,0
56780,-118.479762471772,4,1,0,80,0,0
56871,-116.365532063941,4,1,0,80,0,0
57235,-104.166666666667,4,1,0,80,0,0
57417,-108.142479880092,4,1,0,80,0,0
57507,-110.246411754913,4,1,0,80,0,0
57553,-111.329440513897,4,1,0,80,0,0
57598,-112.433832689462,4,1,0,80,0,0
57689,-114.70981285094,4,1,0,80,0,0
57780,-117.079841427063,4,1,0,80,0,0
57871,-119.549870826365,4,1,0,80,0,0
57962,-122.126366594042,4,1,0,80,0,0
58053,-124.816519716017,4,1,0,80,0,0
58144,-127.627694699239,4,1,0,80,0,0
58235,-130.568416544585,4,1,0,80,0,0
58326,-133.647851276671,4,1,0,80,0,0
58417,-136.876050523688,4,1,0,80,0,0
58507,-140.264061121467,4,1,0,80,0,0
58598,-143.824051408469,4,1,0,80,0,0
58689,-147.569457254293,4,1,0,80,0,0
58780,-151.515151515152,4,1,0,80,0,0
58871,-116.279069767442,4,1,0,80,0,0
59189,-116.279069767442,4,1,0,80,0,0
59371,-151.515151515152,4,1,0,80,0,0
59507,-131.578947368421,4,1,0,80,0,0
59826,-116.279069767442,4,1,0,80,0,0
59962,-151.515151515152,4,1,0,80,0,0
60235,-131.578947368421,4,1,0,80,0,0
60553,-104.166666666667,4,1,0,80,0,0
60871,-116.279069767442,4,1,0,80,0,0
60932,-117.647058823529,4,1,0,80,0,0
60992,-119.047619047619,4,1,0,80,0,0
61053,-120.481927710843,4,1,0,80,0,0
61113,-121.951219512195,4,1,0,80,0,0
61174,-123.456790123457,4,1,0,80,0,0
61235,-125,4,1,0,80,0,0
61326,-127.388535031847,4,1,0,80,0,0
61417,-129.87012987013,4,1,0,80,0,0
61507,-132.450331125828,4,1,0,80,0,0
61598,-135.135135135135,4,1,0,80,0,0
61689,-137.931034482759,4,1,0,80,0,0
61780,-140.845070422535,4,1,0,80,0,0
61871,-143.884892086331,4,1,0,80,0,0
61962,-147.058823529412,4,1,0,80,0,0
62144,-153.846153846154,4,1,0,80,0,0
62235,-157.48031496063,4,1,0,80,0,0
62326,-161.290322580645,4,1,0,80,0,0
62507,-169.491525423729,4,1,0,80,0,0
62689,-178.571428571429,4,1,0,80,0,0
62917,-116.279069767442,4,1,0,80,0,0
64417,-116.279069767442,4,1,0,80,0,0
64507,-118.397139525109,4,1,0,80,0,0
64598,-120.593658461876,4,1,0,80,0,0
64689,-122.873369163208,4,1,0,80,0,0
64780,-125.240775390689,4,1,0,80,0,0
64871,-127.701362701241,4,1,0,80,0,0
64962,-130.260573250731,4,1,0,80,0,0
65053,-132.924281012564,4,1,0,80,0,0
65235,-138.592839185185,4,1,0,80,0,0
65326,-141.612169583405,4,1,0,80,0,0
65507,-148.06369700245,4,1,0,80,0,0
65598,-151.515151515152,4,1,0,80,0,0
65962,247.933884297521,4,1,0,80,1,8
65966,247.933884297521,4,1,0,80,1,0
65966,-97.4235104669887,4,1,0,80,0,0
66023,-120.999999999999,4,1,0,80,0,0
66461,272.727272727273,4,1,0,80,1,8
66461,-110,4,1,0,80,0,8
66870,-107.52688172043,4,1,0,80,0,8
67006,300,4,1,0,80,1,0
67006,-100,4,1,0,80,0,0
67081,-98.0392156862745,4,1,0,80,0,0
67156,-100,4,1,0,80,0,0
67306,-97.0873786407767,4,1,0,80,0,0
67381,-100,4,1,0,80,0,0
67456,-96.1538461538461,4,1,0,80,0,0
67531,-100,4,1,0,80,0,0
67606,333.333333333333,4,1,0,80,1,8
67606,-85.4700854700855,4,1,0,80,0,8
67772,-78.7401574803149,4,1,0,80,0,8
68022,-72.992700729927,4,1,0,80,0,8
68272,375,4,1,0,80,1,0
68272,-64.5161290322581,4,1,0,80,0,0
68459,-74.0740740740741,4,1,0,80,0,0
69022,400,4,1,0,80,1,8
69022,-69.7674418604653,4,1,0,80,0,8
69822,428.571428571429,4,1,0,80,1,0
69822,-65.4205607476635,4,1,0,80,0,0
69929,-66.6666666666667,4,1,0,80,0,0
70036,-68.0272108843537,4,1,0,80,0,0
70250,461.538461538462,4,1,0,80,1,8
70250,-64.9999999999999,4,1,0,80,0,8
70365,-66.2251655629139,4,1,0,80,0,8
70480,-67.5675675675676,4,1,0,80,0,8
70711,495.867768595041,4,1,0,80,1,0
70711,-64.3959552953699,4,1,0,80,0,0
74182,-64.5161290322581,4,1,0,80,0,0
74264,-63.1199164797265,4,1,0,80,0,0
74347,-61.7828936759648,4,1,0,80,0,0
74430,-60.5013016855058,4,1,0,80,0,0
74491,-59.5744832956128,4,1,0,80,0,0
74553,-58.6755978750045,4,1,0,80,0,0
74615,-57.8034682080925,4,1,0,80,0,0
74677,247.933884297521,4,1,0,80,1,0
74677,-114.942528735632,4,1,0,80,0,0
74924,-114.942528735632,4,1,0,80,0,0
75048,-114.360734927827,4,1,0,80,0,0
75172,-113.784930551368,4,1,0,80,0,0
75420,-112.65041646859,4,1,0,80,0,0
75544,-112.091538433947,4,1,0,80,0,0
75668,-111.538302810877,4,1,0,80,0,0
75751,-111.172379444672,4,1,0,80,0,0
75834,-110.808971980843,4,1,0,80,0,0
75916,-110.447932635597,4,1,0,80,0,0
75999,-110.089117140325,4,1,0,80,0,0
76081,-109.732745897367,4,1,0,80,0,0
76164,-109.378674439844,4,1,0,80,0,0
76247,-109.026761708929,4,1,0,80,0,0
76329,-108.67722429675,4,1,0,80,0,0
76412,-108.329920940824,4,1,0,80,0,0
76577,-107.641815400745,4,1,0,80,0,0
76660,-107.30108792573,4,1,0,80,0,0
76784,-106.793908048309,4,1,0,80,0,0
77032,-105.793909233058,4,1,0,80,0,0
77280,-104.812464298254,4,1,0,80,0,0
77362,-104.489386490567,4,1,0,80,0,0
77445,-104.168185786043,4,1,0,80,0,0
77528,-103.849061619879,4,1,0,80,0,0
77652,-103.373917933514,4,1,0,80,0,0
77776,-102.903208213322,4,1,0,80,0,0
77900,-102.436660851679,4,1,0,80,0,0
78024,-101.974428892211,4,1,0,80,0,0
78148,-101.516246660115,4,1,0,80,0,0
78396,-100.612225391507,4,1,0,80,0,0
78478,-100.314485913338,4,1,0,80,0,0
78561,-100.018403386223,4,1,0,80,0,0
78643,-125.028756614021,4,1,0,80,0,0
78767,-111.133831805613,4,1,0,80,0,0
79077,-100.018403386223,4,1,0,80,0,0
79449,-90.924300064738,4,1,0,80,0,0
79635,-125.028756614021,4,1,0,80,0,0
79821,-83.3461130706708,4,1,0,80,0,0
80193,-100.018403386223,4,1,0,80,0,0
80441,-76.93396603827,4,1,0,80,0,0
80627,-114.942528735632,4,1,0,80,0,0
80875,-111.24509965336,4,1,0,80,0,0
80999,-107.778248409463,4,1,0,80,0,0
81123,-104.520839887661,4,1,0,80,0,0
81247,-101.454553939835,4,1,0,80,0,0
81371,-98.5631464510368,4,1,0,80,0,0
81495,-95.8318878690247,4,1,0,80,0,0
81619,-93.2479182402253,4,1,0,80,0,0
81701,-91.6013472726157,4,1,0,80,0,0
81784,-90.0119175778873,4,1,0,80,0,0
81867,-88.476705410616,4,1,0,80,0,0
81949,-86.9929831459794,4,1,0,80,0,0
82032,-85.5582031066184,4,1,0,80,0,0
82610,-93.5633119541165,4,1,0,80,0,1
89677,-98.0392156862745,4,1,0,80,0,1
89862,-103.092783505155,4,1,0,80,0,1
89986,-108.695652173913,4,1,0,80,0,1
90172,-114.942528735633,4,1,0,80,0,1
90353,-121.951219512195,4,1,0,80,0,1
90544,495.867768595041,4,1,0,80,1,0
90544,-63.6942675159236,4,1,0,80,0,0
92403,-48.3091787439614,4,1,0,80,0,1
92527,247.933884297521,4,1,0,80,1,1
92527,-93.4579439252336,4,1,0,80,0,1
93766,-93.4579439252336,4,1,0,80,0,1
93890,-96.130922626143,4,1,0,80,0,1
94014,-98.9613021723985,4,1,0,80,0,1
94138,-101.963407372362,4,1,0,80,0,1
94262,-105.153355653886,4,1,0,80,0,1
94386,-108.549346532934,4,1,0,80,0,1
94510,495.867768595041,4,1,0,80,1,1
94510,-56.4971751412429,4,1,0,80,0,1
94757,-59.8802395209581,4,1,0,80,0,0
94843,-63.6942675159236,4,1,0,80,0,0
95667,-63.6942675159236,4,1,0,80,0,0
95749,-62.8930817610063,4,1,0,80,0,0
95832,-62.111801242236,4,1,0,80,0,0
95914,-61.3496932515337,4,1,0,80,0,0
95997,-60.6060606060606,4,1,0,80,0,0
96080,-59.8802395209581,4,1,0,80,0,0
96162,-59.1715976331361,4,1,0,80,0,0
96245,-58.4795321637427,4,1,0,80,0,0
96328,-57.8034682080925,4,1,0,80,0,0
96410,-57.1428571428571,4,1,0,80,0,0
96493,329.67032967033,4,1,0,80,1,1
96493,-84.7457627118644,4,1,0,80,0,1
96657,-86.8486029099493,4,1,0,80,0,1
96822,-89.0585355036305,4,1,0,80,0,1
96905,-90.2062204405491,4,1,0,80,0,1
96987,-91.3837881504469,4,1,0,80,0,1
97069,-92.5925925925926,4,1,0,80,0,1
97152,-72.463768115942,4,1,0,80,0,1
97317,-73.9773555314718,4,1,0,80,0,1
97482,-75.5555790617357,4,1,0,80,0,1
97564,-76.3701569864947,4,1,0,80,0,1
97646,-77.2025501546367,4,1,0,80,0,1
97729,-78.0532885411528,4,1,0,80,0,1
97811,-63.2911392405063,4,1,0,80,0,1
97976,-64.4427474520949,4,1,0,80,0,1
98141,-65.6370833768179,4,1,0,80,0,1
98223,-66.2509639515255,4,1,0,80,0,1
98306,-66.8764804780866,4,1,0,80,0,1
98388,-67.5139213705866,4,1,0,80,0,1
98471,-59.4821720034071,4,1,0,80,0,1
98635,-61.3496932515337,4,1,0,80,0,1
98836,-63.2911392405063,4,1,0,80,0,1
99019,-65.359477124183,4,1,0,80,0,1
99249,-67.5675675675676,4,1,0,80,0,1
99416,-69.9300699300699,4,1,0,80,0,1
99596,-72.463768115942,4,1,0,80,0,1
99789,-75.187969924812,4,1,0,80,0,1
100020,-78.125,4,1,0,80,0,1
100250,-81.3008130081301,4,1,0,80,0,1
100449,247.933884297521,4,1,0,80,1,0
100449,-113.636363636364,4,1,0,80,0,0
101006,-147.058823529412,4,1,0,80,0,0
101812,-147.058823529412,4,1,0,80,0,0
101936,-144.463995238467,4,1,0,80,0,0
102060,-141.959351359332,4,1,0,80,0,0
102122,-140.739218672154,4,1,0,80,0,0
102184,-139.539881195745,4,1,0,80,0,0
102308,-137.201500984421,4,1,0,80,0,0
102432,-134.940201249816,4,1,0,80,0,0
102556,-132.752408792458,4,1,0,80,0,0
102680,-130.634255436998,4,1,0,80,0,0
102804,-128.582633629502,4,1,0,80,0,0
102928,-126.594457188286,4,1,0,80,0,0
103052,-124.666983320804,4,1,0,80,0,0
103176,-122.797172226718,4,1,0,80,0,0
103300,-120.982620846515,4,1,0,80,0,0
103424,-119.220915163589,4,1,0,80,0,0
103506,-118.074767304152,4,1,0,80,0,0
103589,-116.950310152223,4,1,0,80,0,0
103672,-115.84720217422,4,1,0,80,0,0
103754,-114.764577683569,4,1,0,80,0,0
103837,-113.702129982001,4,1,0,80,0,0
103920,-111.111111111111,4,1,0,32,0,0
104353,-128.205128205128,4,1,0,80,0,0
104663,-122.968256974145,4,1,0,80,0,0
104911,-118.14242305384,4,1,0,80,0,0
105035,-115.868813329548,4,1,0,80,0,0
105159,-113.681060962606,4,1,0,80,0,0
105283,-111.574392784261,4,1,0,80,0,0
105407,-109.544383002217,4,1,0,80,0,0
105531,-107.586922164089,4,1,0,80,0,0
105593,-106.634249854711,4,1,0,80,0,0
105655,-105.698189390016,4,1,0,80,0,0
105779,-103.874627479617,4,1,0,80,0,0
105903,-102.112920552063,4,1,0,80,0,0
105965,-100,4,1,0,80,0,0
106089,-98.0392156862745,4,1,0,80,0,0
106151,-96.1538461538461,4,1,0,80,0,0
106213,-94.3396226415094,4,1,0,80,0,0
106399,-92.5925925925926,4,1,0,80,0,1
109498,-92.5925925925926,4,1,0,80,0,1
109622,-90.9227293184887,4,1,0,80,0,1
109746,-89.3121092037022,4,1,0,80,0,1
109870,-87.7574804476334,4,1,0,80,0,1
109994,-86.2560476271393,4,1,0,80,0,1
110056,-85.5244702614312,4,1,0,80,0,1
110118,-84.8051263002746,4,1,0,80,0,0
110366,-78.125,4,1,0,80,0,1
110490,-92.5925925925926,4,1,0,80,0,1
111915,-95.2380952380952,4,1,0,80,0,1
111977,-98.0392156862745,4,1,0,80,0,1
112101,-101.010101010101,4,1,0,80,0,1
112163,-104.166666666667,4,1,0,80,0,1
112349,-107.52688172043,4,1,0,80,0,0
113341,-97.0873786407766,4,1,0,80,0,0
113713,-107.52688172043,4,1,0,80,0,0
113899,-88.4955752212389,4,1,0,80,0,0
114333,-120.481927710843,4,1,0,80,0,0
114457,-92.5925925925926,4,1,0,80,0,1
117432,-92.5925925925926,4,1,0,80,0,1
117494,-93.450694946093,4,1,0,80,0,1
117556,-94.3249399857569,4,1,0,80,0,1
117680,-96.1232530800293,4,1,0,80,0,1
117804,-97.9915648860946,4,1,0,80,0,1
117928,-99.9339436632386,4,1,0,80,0,1
118052,-101.954882925208,4,1,0,80,0,0
118300,-92.5218305259126,4,1,0,80,0,1
118424,-113.529800437317,4,1,0,80,0,1
120284,-113.636363636364,4,1,0,80,0,1
120345,-112.834978843441,4,1,0,80,0,1
120407,-112.044817927171,4,1,0,80,0,1
120469,-111.265646731572,4,1,0,80,0,1
120531,-110.497237569061,4,1,0,80,0,1
120655,-108.991825613079,4,1,0,80,0,1
120717,-108.254397834912,4,1,0,80,0,1
120779,-107.52688172043,4,1,0,80,0,1
120903,-106.100795755968,4,1,0,80,0,1
120965,-105.401844532279,4,1,0,80,0,1
121027,-104.712041884817,4,1,0,80,0,1
121089,-104.031209362809,4,1,0,80,0,1
121151,-103.359173126615,4,1,0,80,0,1
121213,-102.695763799743,4,1,0,80,0,1
121275,-102.040816326531,4,1,0,80,0,1
121399,-100,4,1,0,80,0,1
121523,-98.0392156862745,4,1,0,80,0,1
121714,-96.1538461538461,4,1,0,80,0,1
121874,-94.3396226415094,4,1,0,80,0,1
122054,-92.5925925925926,4,1,0,80,0,1
122267,-90.9090909090909,4,1,0,80,0,0
122453,-120.481927710843,4,1,0,80,0,0
123243,-97.4235104669883,4,1,0,80,0,0
123491,-120.999999999999,4,1,0,80,0,0
123615,-107.939339875111,4,1,0,80,0,0
123821,-137.656427758816,4,1,0,80,0,0
124235,-97.4235104669883,4,1,0,80,0,0
124359,-120.999999999999,4,1,0,80,0,0
124498,-120.481927710843,4,1,0,80,0,0
124581,-117.418576088411,4,1,0,80,0,0
124664,-114.507138375006,4,1,0,80,0,0
124746,-111.736587698696,4,1,0,80,0,0
124808,-109.745029373257,4,1,0,80,0,0
124870,-107.823221671605,4,1,0,80,0,0
124932,-105.967675620229,4,1,0,80,0,0
124994,-104.174805323333,4,1,0,80,0,0
125056,-102.4416978687,4,1,0,80,0,0
125118,-100.765211012428,4,1,0,80,0,0
125180,-99.142712961026,4,1,0,80,0,0
125238,256.410256410256,4,1,0,80,1,0
125238,-94.8136142625607,4,1,0,80,0,0
125494,263.157894736842,4,1,0,80,1,8
125494,-114,4,1,0,80,0,8
125625,-102.333931777379,4,1,0,80,0,8
125757,283.018867924528,4,1,0,80,1,8
125757,-106,4,1,0,80,0,8
126040,333.333333333333,4,1,0,80,1,8
126040,-76.271186440678,4,1,0,80,0,8
126373,923.076923076923,4,1,0,80,1,0
126373,-38.8059701492537,4,1,0,80,0,0
126834,1000,4,1,0,80,1,8
126834,-30,4,1,0,80,0,8
127334,1090.90909090909,4,1,0,80,1,8
127334,-27.5,4,1,0,80,0,8
128485,247.933884297521,4,1,0,80,1,0
128485,-234.496124031007,4,1,0,80,0,0
128608,-81.5363881401617,4,1,0,80,0,1
129352,-81.5363881401617,4,1,0,80,0,0

[HitObjects]
359,106,545,5,0,0:0:0:0:
388,94,628,1,0,0:0:0:0:
388,94,711,1,0,0:0:0:0:
378,100,793,1,12,0:0:0:0:
369,92,1041,1,8,0:0:0:0:
366,86,1289,1,0,0:0:0:0:
366,85,1454,1,0,0:0:0:0:
376,77,1537,1,8,0:0:0:0:
366,88,1785,1,12,0:0:0:0:
367,75,2033,1,8,0:0:0:0:
379,68,2198,1,4,0:0:0:0:
385,84,2446,1,8,0:0:0:0:
385,84,2529,1,0,0:0:0:0:
387,85,2777,1,12,0:0:0:0:
376,81,3025,1,0,0:0:0:0:
372,77,3190,1,0,0:0:0:0:
408,74,3273,1,8,0:0:0:0:
396,78,3438,1,8,0:0:0:0:
396,77,3521,1,0,0:0:0:0:
394,77,3768,1,12,0:0:0:0:
379,71,3934,1,0,0:0:0:0:
379,71,4182,1,4,0:0:0:0:
400,70,4430,1,0,0:0:0:0:
400,71,4512,1,0,0:0:0:0:
399,70,4760,1,12,0:0:0:0:
388,74,5008,1,8,0:0:0:0:
394,66,5173,1,0,0:0:0:0:
400,70,5256,1,0,0:0:0:0:
394,66,5421,1,0,0:0:0:0:
392,65,5504,1,8,0:0:0:0:
391,64,5752,1,12,0:0:0:0:
386,63,6000,1,8,0:0:0:0:
385,59,6165,1,4,0:0:0:0:
397,57,6496,1,0,0:0:0:0:
397,57,6744,1,12,0:0:0:0:
367,109,7363,1,8,0:0:0:0:
367,109,7487,1,8,0:0:0:0:
367,109,7611,1,0,0:0:0:0:
367,109,7735,1,8,0:0:0:0:
388,56,7859,1,0,0:0:0:0:
380,98,7983,1,0,0:0:0:0:
376,81,8107,1,8,0:0:0:0:
374,80,8231,1,8,0:0:0:0:
374,80,8355,1,8,0:0:0:0:
388,115,8479,1,0,0:0:0:0:
372,81,8727,1,12,0:0:0:0:
316,103,9347,1,8,0:0:0:0:
373,81,9471,1,8,0:0:0:0:
377,114,9595,1,0,0:0:0:0:
367,96,9719,1,8,0:0:0:0:
367,96,9843,1,8,0:0:0:0:
373,90,9967,1,0,0:0:0:0:
373,89,10091,1,0,0:0:0:0:
370,89,10711,1,12,0:0:0:0:
373,90,10959,1,0,0:0:0:0:
373,89,11082,1,8,0:0:0:0:
376,85,11144,1,8,0:0:0:0:
370,89,11206,1,8,0:0:0:0:
370,89,11330,1,0,0:0:0:0:
370,89,11454,1,8,0:0:0:0:
366,82,11702,1,0,0:0:0:0:
367,82,11826,1,8,0:0:0:0:
364,90,11950,1,8,0:0:0:0:
380,77,12198,1,0,0:0:0:0:
380,82,12322,1,8,0:0:0:0:
380,81,12446,1,0,0:0:0:0:
380,81,12508,1,0,0:0:0:0:
396,115,12570,1,0,0:0:0:0:
378,81,12694,1,8,0:0:0:0:
380,67,12942,1,0,0:0:0:0:
380,67,13066,1,8,0:0:0:0:
395,69,13190,1,0,0:0:0:0:
397,76,13438,1,8,0:0:0:0:
397,77,13562,1,0,0:0:0:0:
418,62,13686,1,8,0:0:0:0:
380,52,13810,1,0,0:0:0:0:
392,60,13934,1,8,0:0:0:0:
391,60,14058,1,8,0:0:0:0:
391,60,14182,1,0,0:0:0:0:
391,60,14306,1,0,0:0:0:0:
391,60,14430,1,8,0:0:0:0:
391,60,14554,1,8,0:0:0:0:
390,58,14802,1,12,0:0:0:0:
388,45,15173,1,4,0:0:0:0:
393,45,15545,1,12,0:0:0:0:
388,45,15917,1,12,0:0:0:0:
393,45,16289,1,4,0:0:0:0:
393,45,16537,1,12,0:0:0:0:
401,52,16785,1,0,0:0:0:0:
404,60,16909,1,8,0:0:0:0:
404,60,17033,1,0,0:0:0:0:
404,59,17157,1,0,0:0:0:0:
404,59,17281,1,0,0:0:0:0:
404,59,17405,1,8,0:0:0:0:
405,58,17529,1,0,0:0:0:0:
405,58,17653,1,8,0:0:0:0:
404,60,17818,1,0,0:0:0:0:
384,43,17901,1,8,0:0:0:0:
420,50,18066,1,0,0:0:0:0:
420,50,18149,1,0,0:0:0:0:
398,38,18644,1,4,0:0:0:0:
416,64,18892,1,0,0:0:0:0:
426,52,19016,1,8,0:0:0:0:
426,53,19140,1,0,0:0:0:0:
408,61,19264,1,8,0:0:0:0:
417,51,19326,1,0,0:0:0:0:
413,58,19388,1,0,0:0:0:0:
412,59,19512,1,8,0:0:0:0:
418,40,19636,1,0,0:0:0:0:
418,31,19884,1,8,0:0:0:0:
425,43,20008,1,0,0:0:0:0:
206,193,20132,2,0,L|250:177,6,36.0235738810243
407,75,20628,1,8,0:0:0:0:
428,77,20876,1,8,0:0:0:0:
432,61,21000,1,0,0:0:0:0:
408,45,21124,1,0,0:0:0:0:
429,51,21248,1,8,0:0:0:0:
429,52,21372,1,0,0:0:0:0:
429,52,21496,1,8,0:0:0:0:
429,40,21558,1,8,0:0:0:0:
429,38,21620,1,8,0:0:0:0:
421,39,21744,1,0,0:0:0:0:
407,69,21868,1,8,0:0:0:0:
421,39,22116,1,0,0:0:0:0:
421,39,22240,1,0,0:0:0:0:
422,39,22363,1,8,0:0:0:0:
429,38,22487,1,8,0:0:0:0:
421,39,22859,1,4,0:0:0:0:
422,39,23107,1,0,0:0:0:0:
436,59,23231,1,8,0:0:0:0:
434,43,23355,1,0,0:0:0:0:
424,45,23479,1,8,0:0:0:0:
424,46,23541,1,0,0:0:0:0:
424,45,23603,1,0,0:0:0:0:
425,45,23851,1,8,0:0:0:0:
426,47,23975,1,0,0:0:0:0:
177,198,24099,2,0,L|216:178,6,36.0235738810243
407,75,24595,1,8,0:0:0:0:
436,66,24843,1,0,0:0:0:0:
436,65,24967,1,8,0:0:0:0:
436,65,25091,1,0,0:0:0:0:
444,49,25153,1,0,0:0:0:0:
444,49,25215,1,8,0:0:0:0:
443,49,25339,1,0,0:0:0:0:
459,63,25587,1,12,0:0:0:0:
433,42,25959,1,12,0:0:0:0:
433,42,26206,1,12,0:0:0:0:
394,98,26578,1,0,0:0:0:0:
394,98,26639,1,0,0:0:0:0:
451,85,26701,1,0,0:0:0:0:
451,85,26825,1,8,0:0:0:0:
430,88,26991,1,0,0:0:0:0:
429,88,27073,1,8,0:0:0:0:
442,82,27321,1,0,0:0:0:0:
448,73,27487,1,0,0:0:0:0:
428,103,27569,1,0,0:0:0:0:
430,88,27817,1,8,0:0:0:0:
219,195,28065,2,0,L|266:163,3,57.7500005507469
382,95,28560,1,8,0:0:0:0:
391,88,28809,1,0,0:0:0:0:
415,100,28974,1,0,0:0:0:0:
414,100,29057,1,8,0:0:0:0:
418,72,29305,1,0,0:0:0:0:
418,72,29470,1,8,0:0:0:0:
407,74,29801,1,8,0:0:0:0:
410,71,29925,1,0,0:0:0:0:
410,71,29987,1,0,0:0:0:0:
410,71,30049,1,8,0:0:0:0:
418,72,30173,1,0,0:0:0:0:
418,72,30297,1,8,0:0:0:0:
418,65,30420,1,4,0:0:0:0:
414,64,30916,1,0,0:0:0:0:
412,64,31040,1,8,0:0:0:0:
372,56,31288,1,0,0:0:0:0:
412,45,31454,1,8,0:0:0:0:
412,45,31536,1,0,0:0:0:0:
412,64,31784,1,0,0:0:0:0:
219,208,32032,2,0,L|311:175,3,57.7500005507469
382,95,32527,1,8,0:0:0:0:
417,72,32652,1,0,0:0:0:0:
422,73,32776,1,8,0:0:0:0:
422,73,32900,1,0,0:0:0:0:
417,72,33024,1,8,0:0:0:0:
420,61,33148,1,0,0:0:0:0:
420,61,33272,1,0,0:0:0:0:
417,58,33396,1,12,0:0:0:0:
420,61,33892,1,4,0:0:0:0:
424,41,34387,1,12,0:0:0:0:
424,41,34883,1,4,0:0:0:0:
409,49,35751,1,12,0:0:0:0:
423,45,35998,1,8,0:0:0:0:
425,46,36164,1,0,0:0:0:0:
443,63,36494,1,8,0:0:0:0:
434,75,36742,1,0,0:0:0:0:
433,72,36990,1,8,0:0:0:0:
433,72,37238,1,0,0:0:0:0:
436,63,37486,1,8,0:0:0:0:
445,45,37734,1,0,0:0:0:0:
432,60,37899,1,0,0:0:0:0:
433,60,37982,1,8,0:0:0:0:
436,63,38230,1,0,0:0:0:0:
435,58,38395,1,0,0:0:0:0:
435,58,38478,1,8,0:0:0:0:
371,62,38726,1,0,0:0:0:0:
371,62,38891,1,0,0:0:0:0:
371,62,38974,1,8,0:0:0:0:
383,66,39139,1,8,0:0:0:0:
418,89,39470,1,4,0:0:0:0:
256,192,39970,12,0,40407,0:0:0:0:
256,192,40470,12,0,41345,0:0:0:0:
400,101,41456,5,4,0:0:0:0:
394,92,41703,1,0,0:0:0:0:
395,93,41858,1,0,0:0:0:0:
394,95,41951,1,8,0:0:0:0:
401,106,42199,1,0,0:0:0:0:
408,92,42365,1,8,0:0:0:0:
407,85,42447,1,0,0:0:0:0:
407,85,42613,1,8,0:0:0:0:
407,85,42695,1,8,0:0:0:0:
394,73,42778,1,0,0:0:0:0:
400,81,42943,1,8,0:0:0:0:
401,69,43439,1,4,0:0:0:0:
256,192,43939,12,0,44376,0:0:0:0:
256,192,44439,12,0,45314,0:0:0:0:
396,78,45439,5,0,0:0:0:0:
344,95,47751,1,0,0:0:0:0:
335,109,47876,1,0,0:0:0:0:
353,108,47992,1,12,0:0:0:0:
362,104,48487,1,0,0:0:0:0:
362,104,48721,1,0,0:0:0:0:
305,154,48955,1,8,0:0:0:0:
355,94,49178,1,0,0:0:0:0:
354,99,49402,1,8,0:0:0:0:
362,104,49616,1,0,0:0:0:0:
370,98,49830,1,4,0:0:0:0:
371,98,50236,1,8,0:0:0:0:
371,97,50440,1,0,0:0:0:0:
370,80,50643,1,8,0:0:0:0:
370,80,50836,1,0,0:0:0:0:
381,66,50933,1,0,0:0:0:0:
380,64,51030,1,8,0:0:0:0:
383,80,51223,1,0,0:0:0:0:
370,113,51417,1,8,0:0:0:0:
391,84,51598,1,0,0:0:0:0:
391,83,51780,1,8,0:0:0:0:
392,83,51962,1,0,0:0:0:0:
400,90,52144,1,8,0:0:0:0:
367,93,52235,1,8,0:0:0:0:
400,90,52326,1,0,0:0:0:0:
377,87,52507,1,8,0:0:0:0:
377,87,52598,1,8,0:0:0:0:
377,87,52689,1,0,0:0:0:0:
378,88,52871,1,8,0:0:0:0:
391,68,52962,1,8,0:0:0:0:
394,102,53053,1,0,0:0:0:0:
413,103,53144,1,0,0:0:0:0:
412,100,53235,1,8,0:0:0:0:
412,100,53417,1,8,0:0:0:0:
412,100,53507,1,8,0:0:0:0:
418,91,54326,1,8,0:0:0:0:
428,89,54507,1,0,0:0:0:0:
411,88,54689,1,8,0:0:0:0:
411,88,54780,1,8,0:0:0:0:
411,81,54871,1,8,0:0:0:0:
414,82,55053,1,0,0:0:0:0:
385,85,55144,1,8,0:0:0:0:
409,82,55235,1,0,0:0:0:0:
388,78,55417,1,8,0:0:0:0:
411,88,55689,1,8,0:0:0:0:
393,81,55871,1,8,0:0:0:0:
399,70,55962,1,0,0:0:0:0:
411,66,56144,1,8,0:0:0:0:
380,70,56386,1,0,0:0:0:0:
394,57,56507,1,0,0:0:0:0:
373,65,56689,1,8,0:0:0:0:
373,65,56780,1,0,0:0:0:0:
399,70,56871,1,8,0:0:0:0:
400,62,57235,1,0,0:0:0:0:
401,61,57417,1,8,0:0:0:0:
386,68,57598,1,0,0:0:0:0:
396,64,57689,1,8,0:0:0:0:
399,70,57780,1,0,0:0:0:0:
412,73,57962,1,8,0:0:0:0:
412,73,58053,1,8,0:0:0:0:
412,73,58144,1,0,0:0:0:0:
412,73,58326,1,8,0:0:0:0:
412,73,58507,1,0,0:0:0:0:
414,73,58598,1,8,0:0:0:0:
414,75,58871,1,12,0:0:0:0:
412,60,59235,1,12,0:0:0:0:
404,78,59598,1,4,0:0:0:0:
409,79,59871,1,12,0:0:0:0:
417,59,60386,1,4,0:0:0:0:
417,60,60629,1,12,0:0:0:0:
417,60,60871,1,8,0:0:0:0:
429,52,61053,1,0,0:0:0:0:
429,52,61144,1,0,0:0:0:0:
440,65,61235,1,8,0:0:0:0:
428,61,61417,1,8,0:0:0:0:
428,61,61507,1,8,0:0:0:0:
426,60,61598,1,0,0:0:0:0:
425,60,61780,1,0,0:0:0:0:
425,60,61962,1,8,0:0:0:0:
429,44,62144,1,0,0:0:0:0:
447,53,62235,1,0,0:0:0:0:
432,50,62326,1,8,0:0:0:0:
433,50,62507,1,8,0:0:0:0:
434,49,62689,1,0,0:0:0:0:
430,60,63053,1,8,0:0:0:0:
423,62,63174,1,8,0:0:0:0:
426,58,63295,1,0,0:0:0:0:
409,52,63416,1,8,0:0:0:0:
409,52,63537,1,0,0:0:0:0:
400,60,63659,1,0,0:0:0:0:
405,60,63780,1,8,0:0:0:0:
409,45,64053,1,0,0:0:0:0:
399,59,64234,1,0,0:0:0:0:
399,56,64417,1,8,0:0:0:0:
256,192,64507,12,0,65780,0:0:0:0:
438,51,65966,5,12,0:0:0:0:
437,76,66213,1,0,0:0:0:0:
428,74,66379,1,0,0:0:0:0:
428,73,66461,1,8,0:0:0:0:
434,64,66642,1,0,0:0:0:0:
318,122,66915,1,0,0:0:0:0:
183,185,67006,2,0,L|233:166,6,46.6666666666667
407,63,67828,1,4,0:0:0:0:
412,61,68050,1,4,0:0:0:0:
397,69,68272,1,12,0:0:0:0:
409,55,68647,1,8,0:0:0:0:
412,61,68772,1,0,0:0:0:0:
418,56,68897,1,8,0:2:0:0:
418,56,69022,1,8,0:2:0:0:
422,56,69222,1,0,0:2:0:0:
422,56,69422,1,0,0:2:0:0:
422,47,69622,1,0,0:2:0:0:
422,47,69722,1,0,0:2:0:0:
422,47,69822,1,8,0:2:0:0:
437,56,69964,1,0,0:0:0:0:
437,56,70107,1,0,0:0:0:0:
439,58,70250,1,8,0:0:0:0:
439,58,70403,1,8,0:0:0:0:
439,58,70557,1,8,0:0:0:0:
437,56,70711,1,0,0:0:0:0:
437,56,70958,1,0,0:0:0:0:
434,50,71124,1,0,0:0:0:0:
434,50,71206,1,0,0:0:0:0:
434,50,71372,1,8,0:0:0:0:
444,38,71620,1,8,0:0:0:0:
450,47,72115,1,0,0:0:0:0:
450,47,72198,1,0,0:0:0:0:
450,44,72446,1,8,0:0:0:0:
451,48,72694,1,0,0:0:0:0:
450,47,72942,1,8,0:0:0:0:
450,44,73107,1,0,0:0:0:0:
450,44,73190,1,0,0:0:0:0:
451,48,73355,1,8,0:0:0:0:
451,48,73603,1,8,0:0:0:0:
426,58,73934,1,8,0:0:0:0:
429,61,74099,1,0,0:0:0:0:
440,56,74182,1,8,0:0:0:0:
440,56,74347,1,8,0:0:0:0:
441,56,74430,1,0,0:0:0:0:
431,64,74677,1,12,0:0:0:0:
440,59,74924,1,0,0:0:0:0:
440,56,75048,1,8,0:0:0:0:
440,56,75172,1,8,0:0:0:0:
429,65,75420,1,8,0:0:0:0:
424,62,75544,1,8,0:0:0:0:
424,62,75668,1,0,0:0:0:0:
421,89,75792,1,0,0:0:0:0:
436,89,75916,1,8,0:0:0:0:
437,89,76081,1,0,0:0:0:0:
437,89,76164,1,8,0:0:0:0:
437,89,76329,1,8,0:0:0:0:
437,89,76412,1,0,0:0:0:0:
417,69,76660,1,8,0:0:0:0:
434,81,76784,1,0,0:0:0:0:
434,82,77032,1,8,0:0:0:0:
459,80,77280,1,0,0:0:0:0:
456,76,77404,1,0,0:0:0:0:
425,75,77528,1,8,0:0:0:0:
425,75,77652,1,8,0:0:0:0:
424,75,77776,1,0,0:0:0:0:
447,72,77900,1,8,0:0:0:0:
448,72,78148,1,0,0:0:0:0:
448,72,78396,1,8,0:0:0:0:
448,72,78478,1,8,0:0:0:0:
448,72,78561,1,0,0:0:0:0:
448,72,78767,1,12,0:0:0:0:
448,72,79139,1,12,0:0:0:0:
433,67,79511,1,12,0:0:0:0:
435,64,79883,1,12,0:0:0:0:
433,67,80255,1,0,0:0:0:0:
435,64,80503,1,12,0:0:0:0:
435,75,80751,1,0,0:0:0:0:
435,76,80875,1,8,0:0:0:0:
435,76,81123,1,8,0:0:0:0:
435,75,81371,1,8,0:0:0:0:
452,81,81495,1,0,0:0:0:0:
454,78,81619,1,8,0:0:0:0:
454,78,81743,1,0,0:0:0:0:
454,78,81867,1,8,0:0:0:0:
454,78,81949,1,8,0:0:0:0:
454,78,82032,1,0,0:0:0:0:
446,85,82610,1,0,0:0:0:0:
454,78,82734,1,8,0:0:0:0:
462,78,82796,1,8,0:0:0:0:
454,78,82858,1,8,0:0:0:0:
457,82,82982,1,0,0:0:0:0:
457,82,83106,1,8,0:0:0:0:
457,82,83230,1,0,0:0:0:0:
446,85,83354,1,0,0:0:0:0:
454,78,83478,1,8,0:0:0:0:
454,78,83726,1,0,0:0:0:0:
456,89,83788,1,0,0:0:0:0:
459,74,83850,1,8,0:0:0:0:
459,74,83974,1,0,0:0:0:0:
459,74,84098,1,8,0:0:0:0:
462,72,84222,1,8,0:0:0:0:
462,72,84346,1,0,0:0:0:0:
462,72,84470,1,8,0:0:0:0:
465,65,84718,1,8,0:0:0:0:
465,64,84842,1,0,0:0:0:0:
465,57,84904,1,0,0:0:0:0:
465,64,84966,1,0,0:0:0:0:
465,64,85090,1,8,0:0:0:0:
466,64,85214,1,0,0:0:0:0:
463,64,85338,1,0,0:0:0:0:
463,64,85462,1,8,0:0:0:0:
465,64,85710,1,0,0:0:0:0:
465,64,85772,1,0,0:0:0:0:
465,64,85834,1,8,0:0:0:0:
465,64,85957,1,0,0:0:0:0:
450,44,86081,1,8,0:0:0:0:
463,64,86205,1,8,0:0:0:0:
477,61,86329,1,0,0:0:0:0:
477,61,86453,1,8,0:0:0:0:
478,61,86577,1,0,0:0:0:0:
481,60,86701,1,8,0:0:0:0:
458,60,86763,1,8,0:0:0:0:
481,60,86825,1,8,0:0:0:0:
477,59,86949,1,0,0:0:0:0:
470,57,87073,1,8,0:0:0:0:
475,50,87197,1,0,0:0:0:0:
475,50,87321,1,0,0:0:0:0:
475,50,87445,1,8,0:0:0:0:
474,50,87693,1,0,0:0:0:0:
469,51,87755,1,0,0:0:0:0:
474,50,87817,1,8,0:0:0:0:
467,28,87941,1,0,0:0:0:0:
467,29,88065,1,8,0:0:0:0:
467,29,88189,1,8,0:0:0:0:
459,36,88313,1,0,0:0:0:0:
459,36,88437,1,8,0:0:0:0:
465,41,88561,1,8,0:0:0:0:
459,35,88809,1,8,0:0:0:0:
459,35,88933,1,0,0:0:0:0:
464,42,89057,1,8,0:0:0:0:
464,42,89181,1,0,0:0:0:0:
457,40,89305,1,8,0:0:0:0:
459,36,89367,1,8,0:0:0:0:
457,41,89429,1,0,0:0:0:0:
459,35,89553,1,8,0:0:0:0:
474,45,89718,1,0,0:0:0:0:
477,40,89883,1,8,0:0:0:0:
477,41,90048,1,8,0:0:0:0:
477,41,90214,1,0,0:0:0:0:
463,46,90379,1,8,0:0:0:0:
445,42,90544,1,0,0:0:0:0:
464,47,90791,1,0,0:0:0:0:
464,47,90957,1,0,0:0:0:0:
464,47,91039,1,8,0:0:0:0:
464,46,91287,1,0,0:0:0:0:
456,44,91453,1,8,0:0:0:0:
470,45,91535,1,0,0:0:0:0:
476,42,91701,1,8,0:0:0:0:
477,42,91783,1,0,0:0:0:0:
477,42,91948,1,8,0:0:0:0:
477,42,92031,1,8,0:0:0:0:
476,42,92403,1,12,0:0:0:0:
392,61,92650,1,8,0:0:0:0:
392,61,92774,1,0,0:0:0:0:
392,61,92836,1,0,0:0:0:0:
392,61,92898,1,0,0:0:0:0:
392,61,93022,1,8,0:0:0:0:
392,61,93146,1,0,0:0:0:0:
392,61,93270,1,0,0:0:0:0:
392,61,93394,1,8,0:0:0:0:
392,61,93642,1,0,0:0:0:0:
400,58,93704,1,0,0:0:0:0:
399,58,93766,1,8,0:0:0:0:
400,58,93890,1,0,0:0:0:0:
400,58,94014,1,8,0:0:0:0:
400,58,94138,1,8,0:0:0:0:
404,56,94262,1,0,0:0:0:0:
399,58,94386,1,0,0:0:0:0:
400,65,94510,1,0,0:0:0:0:
400,65,94757,1,12,0:0:0:0:
400,58,95005,1,8,0:0:0:0:
399,58,95171,1,0,0:0:0:0:
399,58,95253,1,0,0:0:0:0:
400,51,95419,1,8,0:0:0:0:
411,50,95667,1,8,0:0:0:0:
411,50,95749,1,0,0:0:0:0:
417,49,95914,1,8,0:0:0:0:
368,62,96162,1,0,0:0:0:0:
368,62,96245,1,8,0:0:0:0:
355,72,96493,1,8,0:0:0:0:
396,71,96657,1,8,0:0:0:0:
385,78,96822,1,0,0:0:0:0:
385,78,96987,1,0,0:0:0:0:
387,75,97152,1,8,0:0:0:0:
387,75,97317,1,8,0:0:0:0:
387,74,97482,1,8,0:0:0:0:
385,78,97646,1,0,0:0:0:0:
385,78,97811,1,8,0:0:0:0:
387,75,97976,1,8,0:0:0:0:
406,68,98141,1,8,0:0:0:0:
407,64,98306,1,0,0:0:0:0:
410,64,98471,1,8,0:0:0:0:
412,58,98669,1,8,0:0:0:0:
412,58,98867,1,8,0:0:0:0:
412,58,99065,1,8,0:0:0:0:
410,64,99263,1,8,0:0:0:0:
428,76,99460,1,0,0:0:0:0:
428,76,99659,1,0,0:0:0:0:
422,78,99857,1,0,0:0:0:0:
432,72,100055,1,0,0:0:0:0:
412,84,100253,1,0,0:0:0:0:
428,76,100449,1,8,0:0:0:0:
376,94,101068,1,0,0:0:0:0:
400,83,101192,1,8,0:0:0:0:
413,72,101440,1,8,0:0:0:0:
413,71,101812,1,8,0:0:0:0:
413,71,101936,1,0,0:0:0:0:
413,72,102184,1,8,0:0:0:0:
413,72,102308,1,8,0:0:0:0:
413,71,102432,1,0,0:0:0:0:
413,71,102680,1,8,0:0:0:0:
413,72,102928,1,0,0:0:0:0:
413,72,103052,1,0,0:0:0:0:
413,72,103176,1,8,0:0:0:0:
413,71,103300,1,8,0:0:0:0:
413,71,103424,1,0,0:0:0:0:
413,72,103548,1,8,0:0:0:0:
411,64,103672,1,0,0:0:0:0:
413,72,103754,1,0,0:0:0:0:
413,72,103837,1,8,0:0:0:0:
425,57,104415,5,0,0:0:0:0:
425,57,104663,1,8,0:0:0:0:
425,57,104911,1,0,0:0:0:0:
418,65,105035,1,0,0:0:0:0:
431,54,105159,1,8,0:0:0:0:
431,54,105407,1,0,0:0:0:0:
429,68,105531,1,8,0:0:0:0:
429,68,105655,1,0,0:0:0:0:
428,51,105779,1,0,0:0:0:0:
228,173,105903,2,4,L|267:154,6,34.2757792895997
373,70,106399,1,0,0:0:0:0:
417,50,106522,1,0,0:0:0:0:
414,48,106646,1,8,0:0:0:0:
414,42,106770,1,8,0:0:0:0:
414,41,107018,1,8,0:0:0:0:
413,41,107142,1,0,0:0:0:0:
413,42,107204,1,0,0:0:0:0:
413,42,107266,1,0,0:0:0:0:
416,42,107390,1,8,0:0:0:0:
414,62,107638,1,8,0:0:0:0:
413,60,107762,1,0,0:0:0:0:
413,60,107824,1,0,0:0:0:0:
413,60,107886,1,0,0:0:0:0:
414,60,108010,1,8,0:0:0:0:
414,62,108258,1,0,0:0:0:0:
414,62,108382,1,8,0:0:0:0:
416,40,108506,1,0,0:0:0:0:
416,40,108568,1,0,0:0:0:0:
416,40,108630,1,0,0:0:0:0:
413,60,108754,1,8,0:0:0:0:
417,49,109002,1,0,0:0:0:0:
416,49,109126,1,8,0:0:0:0:
416,49,109250,1,8,0:0:0:0:
415,50,109498,1,8,0:0:0:0:
419,45,109622,1,8,0:0:0:0:
417,49,109746,1,8,0:0:0:0:
417,49,109870,1,8,0:0:0:0:
415,41,109994,1,0,0:0:0:0:
415,41,110118,1,8,0:0:0:0:
415,50,110366,1,4,0:0:0:0:
417,49,110613,1,8,0:0:0:0:
417,49,110675,1,8,0:0:0:0:
417,49,110737,1,0,0:0:0:0:
419,46,110861,1,0,0:0:0:0:
418,47,110985,1,8,0:0:0:0:
415,50,111233,1,8,0:0:0:0:
417,49,111357,1,8,0:0:0:0:
417,49,111481,1,0,0:0:0:0:
417,49,111605,1,8,0:0:0:0:
418,47,111729,1,8,0:0:0:0:
256,192,111853,12,0,112225,0:0:0:0:
422,60,112349,5,0,0:0:0:0:
405,56,112597,1,8,0:0:0:0:
420,47,112783,1,8,0:0:0:0:
420,47,113031,1,8,0:0:0:0:
426,55,113342,1,12,0:0:0:0:
409,53,113714,1,4,0:0:0:0:
425,50,113962,1,12,0:0:0:0:
425,70,114457,1,8,0:0:0:0:
439,58,114581,1,0,0:0:0:0:
429,72,114705,1,8,0:0:0:0:
425,70,114829,1,0,0:0:0:0:
425,70,114891,1,0,0:0:0:0:
406,40,114953,1,8,0:0:0:0:
432,66,115201,1,8,0:0:0:0:
432,66,115325,1,0,0:0:0:0:
432,63,115449,1,8,0:0:0:0:
433,67,115572,1,0,0:0:0:0:
433,67,115634,1,0,0:0:0:0:
425,70,115696,1,8,0:0:0:0:
422,66,115944,1,0,0:0:0:0:
423,61,116027,1,0,0:0:0:0:
376,54,116110,1,0,0:0:0:0:
424,71,116192,1,8,0:0:0:0:
408,64,116440,1,0,0:0:0:0:
406,39,116564,1,8,0:0:0:0:
415,58,116812,1,0,0:0:0:0:
412,58,116936,1,0,0:0:0:0:
413,56,116998,1,0,0:0:0:0:
412,57,117060,1,0,0:0:0:0:
413,56,117184,1,8,0:0:0:0:
417,46,117432,1,0,0:0:0:0:
419,47,117556,1,8,0:0:0:0:
417,47,117680,1,8,0:0:0:0:
417,47,117804,1,0,0:0:0:0:
418,46,117928,1,8,0:0:0:0:
417,46,118052,1,0,0:0:0:0:
419,47,118301,1,12,0:0:0:0:
423,49,118548,1,8,0:0:0:0:
423,50,118714,1,0,0:0:0:0:
423,51,118796,1,8,0:0:0:0:
391,60,119044,1,0,0:0:0:0:
392,59,119210,1,8,0:0:0:0:
392,59,119292,1,0,0:0:0:0:
392,59,119540,1,0,0:0:0:0:
387,60,119705,1,0,0:0:0:0:
405,56,119788,1,8,0:0:0:0:
407,57,119953,1,0,0:0:0:0:
417,64,120036,1,0,0:0:0:0:
417,64,120201,1,0,0:0:0:0:
418,64,120284,1,8,0:0:0:0:
428,73,120531,1,8,0:0:0:0:
430,78,120655,1,0,0:0:0:0:
430,78,120779,1,8,0:0:0:0:
430,78,120903,1,8,0:0:0:0:
434,75,121027,1,0,0:0:0:0:
432,67,121089,1,0,0:0:0:0:
428,73,121151,1,8,0:0:0:0:
433,78,121275,1,0,0:0:0:0:
430,78,121441,1,0,0:0:0:0:
436,74,121606,1,8,0:0:0:0:
434,75,121771,1,0,0:0:0:0:
436,74,121936,1,0,0:0:0:0:
433,78,122102,1,8,0:0:0:0:
436,74,122268,1,12,0:0:0:0:
420,67,122515,1,8,0:0:0:0:
420,68,122680,1,0,0:0:0:0:
421,68,122763,1,8,0:0:0:0:
422,68,122928,1,8,0:0:0:0:
434,63,123259,1,12,0:0:0:0:
426,64,123507,1,8,0:0:0:0:
422,68,123631,1,4,0:0:0:0:
433,49,123920,1,0,0:0:0:0:
434,63,124003,1,8,0:0:0:0:
436,62,124250,1,4,0:0:0:0:
433,64,124498,1,8,0:0:0:0:
432,67,124622,1,0,0:0:0:0:
418,77,124746,1,8,0:0:0:0:
436,62,124870,1,8,0:0:0:0:
417,62,124994,1,0,0:0:0:0:
433,64,125056,1,0,0:0:0:0:
409,75,125118,1,0,0:0:0:0:
423,68,125238,1,12,0:0:0:0:
421,63,125494,1,8,0:0:0:0:
421,63,125625,1,4,0:0:0:0:
425,57,126040,1,4,0:0:0:0:
436,69,126151,1,12,0:0:0:0:
436,69,126262,1,4,0:0:0:0:
385,95,128608,5,12,0:0:0:0:
385,95,128918,1,12,0:0:0:0:
357,71,129353,5,12,0:0:0:0:
