osu file format v14

[General]
AudioFilename: audio.mp3
AudioLeadIn: 0
PreviewTime: 152971
Countdown: 0
SampleSet: Normal
StackLeniency: 0.4
Mode: 0
LetterboxInBreaks: 0
WidescreenStoryboard: 0

[Editor]
Bookmarks: 11640,16971,27637,28137,32971,54304,71637,103637,114304,119637,124971,135637,174304,179637,184971,206304,224971,246304,267637,272971,278304
DistanceSpacing: 1.8
BeatDivisor: 4
GridSize: 4
TimelineZoom: 2.1

[Metadata]
Title:You Make My Life 1UP
TitleUnicode:You Make My Life 1UP
Artist:Camellia & Nanahira
ArtistUnicode:かめりあ & ななひら
Creator:NACO969
Version:1UP !
Source:
Tags:
BeatmapID:1634099
BeatmapSetID:777933

[Difficulty]
HPDrainRate:6
CircleSize:4.4
OverallDifficulty:8.8
ApproachRate:9.6
SliderMultiplier:2
SliderTickRate:1

[Events]
//Background and Video events
0,0,"1 UP.jpg",0,0
//Break Periods
2,114504,119083
2,174504,179097
2,206504,211097
//Storyboard Layer 0 (Background)
//Storyboard Layer 1 (Fail)
//Storyboard Layer 2 (Pass)
//Storyboard Layer 3 (Foreground)
//Storyboard Layer 4 (Overlay)
//Storyboard Sound Samples

[TimingPoints]
-362,333.333333333333,4,1,0,80,1,0
971,-200,4,2,0,80,0,0
11637,-125,4,1,0,80,0,0
16971,-90.9090909090909,4,1,0,80,0,0
27637,-62.5,4,1,0,80,0,0
27971,-125,4,1,0,80,0,0
28637,-83.3333333333333,4,1,0,80,0,0
29304,-125,4,1,0,80,0,0
29804,-100,4,1,0,80,0,0
29971,-83.3333333333333,4,1,0,80,0,0
30137,-71.4285714285714,4,1,0,80,0,0
30304,-62.5,4,1,0,80,0,0
30637,-125,4,1,0,80,0,0
31304,-83.3333333333333,4,1,0,80,0,0
32971,-100,4,1,0,80,0,0
43637,-86.9565217391304,4,1,0,80,0,0
48971,-83.3333333333333,4,1,0,80,0,0
54304,-153.846153846154,4,1,0,80,0,0
56971,-166.666666666667,4,1,0,80,0,0
60971,-133.333333333334,4,1,0,80,0,0
68965,-95.2380952380956,4,1,0,80,0,0
69637,-80,4,1,0,80,0,0
70637,-74.0740740740741,4,1,0,80,0,0
70971,-68.9655172413793,4,1,0,80,0,0
71637,-64.5161290322581,4,1,0,90,0,1
91637,-54.054054054054,4,1,0,90,0,1
92971,-86.9565217391304,4,1,0,80,0,0
103637,-58.8235294117647,4,1,0,80,0,0
103971,-142.857142857143,4,1,0,80,0,0
104971,-83.3333333333333,4,1,0,80,0,0
105304,-142.857142857143,4,1,0,80,0,0
105971,-83.3333333333333,4,1,0,80,0,0
106137,-58.8235294117647,4,1,0,80,0,0
106637,-142.857142857143,4,1,0,80,0,0
107637,-117.647058823529,4,1,0,80,0,0
107804,-100,4,1,0,80,0,0
107971,-86.9565217391304,4,1,0,80,0,0
108137,-76.9230769230769,4,1,0,80,0,0
108304,-68.9655172413793,4,1,0,80,0,0
108471,-62.5,4,1,0,80,0,0
108637,-58.8235294117647,4,1,0,80,0,0
109304,-142.857142857143,4,1,0,80,0,0
110304,-83.3333333333333,4,1,0,80,0,0
110637,-142.857142857143,4,1,0,80,0,0
111304,-83.3333333333333,4,1,0,80,0,0
111471,-58.8235294117647,4,1,0,80,0,0
111971,-142.857142857143,4,1,0,80,0,0
112804,-100,4,1,0,80,0,0
124971,-86.9565217391304,4,1,0,80,0,0
135637,-142.857142857143,4,1,0,80,0,0
150304,-100,4,1,0,80,0,0
150971,-76.9230769230769,4,1,0,80,0,0
151637,-62.5,4,1,0,80,0,0
152971,-60.6060606060606,4,1,0,80,0,1
172971,-52.6315789473684,4,1,0,80,0,1
174304,-60.6060606060606,4,1,0,80,0,0
183637,-71.4285714285714,4,1,0,80,0,0
184304,-166.666666666667,4,1,0,80,0,0
184971,-83.3333333333333,4,1,0,80,0,0
185304,-125,4,1,0,80,0,0
185637,-83.3333333333333,4,1,0,80,0,0
186137,-250,4,1,0,80,0,0
186971,-83.3333333333333,4,1,0,80,0,0
187637,-250,4,1,0,80,0,0
187971,-83.3333333333333,4,1,0,80,0,0
188971,-166.666666666667,4,1,0,80,0,0
189637,-125,4,1,0,80,0,0
190971,-166.666666666667,4,1,0,80,0,0
191471,-250,4,1,0,80,0,0
192304,-83.3333333333333,4,1,0,80,0,0
193304,-250,4,1,0,80,0,0
193637,-166.666666666667,4,1,0,80,0,0
193971,-125,4,1,0,80,0,0
195637,-250,4,1,0,80,0,0
196304,-125,4,1,0,80,0,0
196637,-83.3333333333333,4,1,0,80,0,0
196804,-500,4,1,0,80,0,0
197637,-83.3333333333333,4,1,0,80,0,0
198304,-500,4,1,0,80,0,0
198637,-83.3333333333333,4,1,0,80,0,0
199637,-250,4,1,0,80,0,0
200304,-83.3333333333333,4,1,0,80,0,0
201637,-500,4,1,0,80,0,0
201804,-166.666666666667,4,1,0,80,0,0
201971,-100,4,1,0,80,0,0
202137,-500,4,1,0,80,0,0
202971,-83.3333333333333,4,1,0,80,0,0
203971,-100,4,1,0,80,0,0
224971,-57.1428571428571,4,1,0,80,0,1
244971,-50,4,1,0,80,0,1
266554,-55.5555555555556,4,1,0,80,0,1
266804,-62.5,4,1,0,80,0,1
267304,-90.9090909090909,4,1,0,80,0,1
267637,-60.6060606060606,4,1,0,80,0,0
267971,-117.647058823529,4,1,0,80,0,0
268637,-95.2380952380952,4,1,0,80,0,0
269304,-117.647058823529,4,1,0,80,0,0
269804,-105.263157894737,4,1,0,80,0,0
269971,-95.2380952380952,4,1,0,80,0,0
270137,-86.9565217391304,4,1,0,80,0,0
270304,-60.6060606060606,4,1,0,80,0,0
270637,-117.647058823529,4,1,0,80,0,0
271304,-95.2380952380952,4,1,0,80,0,0
278304,-500,4,1,0,80,0,0

[HitObjects]
32,64,971,6,0,L|144:64,1,100
160,192,1471,2,0,L|256:192,1,50
352,192,1804,2,0,L|302:192,1,50
256,96,2137,2,0,L|256:192,1,50
256,288,2470,2,0,L|256:238,1,50
320,112,2804,2,0,P|256:48|192:112,1,200,2|0,0:0|0:0,0:0:0:0:
256,240,3637,6,0,L|256:352,1,100
336,288,4137,1,0,0:0:0:0:
416,224,4304,1,0,0:0:0:0:
336,176,4471,1,0,0:0:0:0:
416,112,4637,1,0,0:0:0:0:
336,64,4804,2,0,P|304:64|336:96,2,100
80,64,5804,2,0,P|112:64|80:96,1,100,2|0,0:0|0:0,0:0:0:0:
96,224,6304,6,0,L|96:336,1,100
208,272,6804,2,0,L|224:208,1,50
304,112,7137,2,0,L|288:176,1,50
176,144,7471,2,0,L|240:160,1,50
336,240,7804,2,0,L|272:224,1,50
256,352,8137,2,0,L|144:336,1,100,2|0,0:0|0:0,0:0:0:0:
136,336,8526,5,0,0:0:0:0:
120,328,8582,1,0,0:0:0:0:
112,320,8637,2,0,P|101:288|112:256,1,50
160,144,8971,2,0,P|96:80|64:160,1,200,2|0,0:0|0:0,0:0:0:0:
176,224,9804,2,0,P|224:192|240:144,1,100
224,32,10304,6,8,P|208:16|192:16,3,25
320,80,10637,2,8,P|341:74|349:60,3,25
320,192,10971,2,8,P|336:208|352:208,3,25
256,304,11304,2,0,B|288:304|288:304|304:320|304:320|336:320,1,75,4|0,0:0|0:0,0:0:0:0:
356,320,11637,5,0,0:0:0:0:
384,312,11721,1,0,0:0:0:0:
408,296,11804,1,0,0:0:0:0:
428,276,11887,1,0,0:0:0:0:
444,248,11971,1,0,0:0:0:0:
452,220,12054,1,0,0:0:0:0:
456,192,12137,1,0,0:0:0:0:
452,160,12221,1,0,0:0:0:0:
444,132,12304,1,8,0:0:0:0:
428,108,12387,1,0,0:0:0:0:
404,88,12471,1,8,0:0:0:0:
376,76,12554,1,0,0:0:0:0:
348,76,12637,2,8,B|352:140|352:140|324:112,1,80
144,60,12971,5,0,0:0:0:0:
115,81,13054,1,0,0:0:0:0:
95,110,13137,1,0,0:0:0:0:
88,146,13221,1,0,0:0:0:0:
95,181,13304,1,0,0:0:0:0:
115,211,13387,1,0,0:0:0:0:
145,231,13471,1,0,0:0:0:0:
168,204,13554,1,0,0:0:0:0:
203,199,13637,1,8,0:0:0:0:
232,221,13721,1,0,0:0:0:0:
237,257,13804,1,8,0:0:0:0:
215,285,13887,1,0,0:0:0:0:
180,296,13971,5,8,0:0:0:0:
40,168,14137,1,8,0:0:0:0:
237,257,14304,5,0,0:0:0:0:
276,244,14387,1,0,0:0:0:0:
308,220,14471,1,0,0:0:0:0:
332,188,14554,1,0,0:0:0:0:
348,152,14637,1,0,0:0:0:0:
144,192,14804,1,2,0:0:0:0:
332,312,14971,5,0,0:0:0:0:
368,288,15054,1,0,0:0:0:0:
396,256,15137,1,0,0:0:0:0:
416,216,15221,1,0,0:0:0:0:
424,172,15304,1,0,0:0:0:0:
208,192,15471,1,2,0:0:0:0:
384,352,15637,5,0,0:0:0:0:
384,352,15804,1,8,0:0:0:0:
128,352,15971,5,0,0:0:0:0:
128,352,16138,1,8,0:0:0:0:
256,192,16304,5,0,0:0:0:0:
256,16,16471,2,2,L|256:96,2,80
336,144,16971,6,0,P|352:192|448:224,1,110.000003356934,4|0,0:0|0:0,0:0:0:0:
432,48,17304,1,0,0:0:0:0:
480,208,17471,2,0,P|464:272|320:272,1,220.000006713867
256,144,17971,1,0,0:0:0:0:
416,144,18137,1,0,0:0:0:0:
272,224,18304,5,0,0:0:0:0:
224,64,18471,1,0,0:0:0:0:
352,176,18637,1,0,0:0:0:0:
288,336,18804,1,0,0:0:0:0:
151,189,18971,2,0,P|204:175|256:192,1,110.000003356934,2|0,0:0|0:0,0:0:0:0:
216,354,19304,2,0,P|163:368|112:352,1,110.000003356934,2|0,0:0|0:0,0:0:0:0:
304,272,19637,6,0,P|336:176|240:112,1,220.000006713867,4|0,0:0|0:0,0:0:0:0:
60,132,20137,1,0,0:0:0:0:
201,246,20304,1,0,0:0:0:0:
153,69,20470,1,0,0:0:0:0:
88,239,20637,1,0,0:0:0:0:
240,144,20804,1,0,0:0:0:0:
60,132,20971,2,8,L|96:256,1,110.000003356934
256,320,21304,5,0,0:0:0:0:
256,320,21471,1,0,0:0:0:0:
464,208,21637,2,0,L|448:272,1,55.0000016784668,8|0,0:0|0:0,0:0:0:0:
384,208,21804,2,0,L|400:144,1,55.0000016784668,8|0,0:0|0:0,0:0:0:0:
408,80,21971,1,2,0:0:0:0:
368,60,22054,1,2,0:0:0:0:
324,68,22137,1,2,0:0:0:0:
300,104,22221,1,2,0:0:0:0:
304,144,22304,6,0,P|320:208|304:256,1,110.000003356934,4|0,0:0|0:0,0:0:0:0:
144,192,22637,1,0,0:0:0:0:
256,336,22804,2,0,P|352:336|432:240,1,220.000006713867
464,80,23304,1,0,0:0:0:0:
304,144,23471,1,0,0:0:0:0:
144,80,23637,5,0,0:0:0:0:
320,32,23804,1,0,0:0:0:0:
192,160,23971,1,0,0:0:0:0:
64,48,24137,1,2,0:0:0:0:
64,48,24221,1,2,0:0:0:0:
64,48,24304,1,2,0:0:0:0:
140,208,24471,5,0,0:0:0:0:
140,248,24554,1,0,0:0:0:0:
108,268,24637,1,0,0:0:0:0:
96,304,24721,1,0,0:0:0:0:
112,340,24804,1,0,0:0:0:0:
148,352,24887,1,0,0:0:0:0:
192,352,24971,6,0,P|256:352|192:320,1,165.000005035401,8|0,0:0|0:0,0:0:0:0:
192,256,25304,1,0,0:0:0:0:
216,212,25387,1,0,0:0:0:0:
256,184,25471,1,0,0:0:0:0:
304,172,25554,1,0,0:0:0:0:
352,176,25637,6,0,P|384:208|432:208,1,55.0000016784668,8|0,0:0|0:0,0:0:0:0:
432,112,25804,2,0,P|400:80|352:80,1,55.0000016784668,8|0,0:0|0:0,0:0:0:0:
288,64,25971,2,0,P|288:80|272:96,2,27.5000008392334
176,80,26137,2,0,B|144:80|128:48|128:48|112:112|48:144,1,165.000005035401,4|0,0:0|0:0,0:0:0:0:
48,176,26471,5,0,0:0:0:0:
64,192,26554,1,0,0:0:0:0:
64,240,26637,1,0,0:0:0:0:
80,256,26721,1,0,0:0:0:0:
128,256,26804,6,0,P|208:192|288:256,1,220.000006713867,4|0,0:0|0:0,0:0:0:0:
96,320,27304,2,0,P|128:336|144:320,1,55.0000016784668
208,272,27471,2,0,B|224:304|224:304|272:336,1,55.0000016784668
368,352,27637,6,0,B|400:336|400:336|432:336|432:304|432:304|464:272|432:240|432:240|432:208|400:208|400:208|368:192,1,240,4|0,0:0|0:0,0:0:0:0:
288,144,27971,2,0,P|288:128|304:144,1,40,2|0,0:0|0:0,0:0:0:0:
416,112,28137,2,0,P|416:128|400:112,1,40,2|0,0:0|0:0,0:0:0:0:
336,48,28304,5,0,0:0:0:0:
320,48,28360,1,0,0:0:0:0:
304,48,28415,1,0,0:0:0:0:
288,48,28471,2,8,L|224:48,1,40
176,48,28637,1,4,0:0:0:0:
112,96,28721,2,8,L|192:144,2,59.9999981689454
32,144,28971,6,0,B|80:176|80:176|96:208|96:208|144:240,1,119.999996337891,4|0,0:0|0:0,0:0:0:0:
144,288,29221,1,0,0:0:0:0:
192,240,29304,2,0,B|208:224|208:224|224:240,1,40,2|0,0:0|0:0,0:0:0:0:
272,288,29471,2,0,L|336:272,1,40,2|0,0:0|0:0,0:0:0:0:
384,304,29637,6,0,P|400:320|448:336,1,40
464,240,29804,2,0,P|439:234|422:217,1,50
416,96,29971,2,0,P|432:80|400:80,1,59.9999981689454
288,144,30137,2,0,P|272:160|304:160,1,69.9999978637696
160,96,30304,6,0,B|112:48|112:48|128:288,1,240
128,304,30637,2,0,B|112:320|112:320|96:304,1,40
48,240,30804,2,0,B|32:256|32:256|16:240,1,40
48,160,30971,1,0,0:0:0:0:
48,144,31026,1,0,0:0:0:0:
48,128,31082,1,0,0:0:0:0:
48,112,31137,2,0,P|80:96|112:80,1,40
192,80,31304,6,0,L|288:80,1,59.9999981689454
352,32,31471,2,0,P|336:112|288:144,1,119.999996337891
128,192,31804,5,0,0:0:0:0:
256,304,31971,1,0,0:0:0:0:
384,192,32137,1,0,0:0:0:0:
256,336,32304,1,0,0:0:0:0:
96,192,32471,1,0,0:0:0:0:
256,64,32637,2,0,L|256:128,3,59.9999981689454
256,192,32971,6,0,P|224:240|176:272,1,100
104,124,33304,1,0,0:0:0:0:
256,57,33471,1,0,0:0:0:0:
323,208,33637,1,0,0:0:0:0:
155,175,33804,1,0,0:0:0:0:
323,124,33971,2,0,P|371:138|412:170,1,100
323,360,34304,6,0,P|256:309|256:192,1,200
390,107,34804,2,0,B|457:74|457:74|323:40,1,200
155,23,35304,1,0,0:0:0:0:
171,192,35471,1,0,0:0:0:0:
104,343,35637,6,0,P|54:326|37:276,1,100
87,107,35971,1,0,0:0:0:0:
239,208,36137,1,0,0:0:0:0:
171,40,36304,1,0,0:0:0:0:
104,208,36471,1,0,0:0:0:0:
256,309,36637,1,0,0:0:0:0:
407,208,36804,1,0,0:0:0:0:
508,57,36971,6,0,P|440:23|373:23,1,100
256,107,37304,1,0,0:0:0:0:
373,292,37471,2,0,P|457:259|491:141,1,200
289,91,37971,1,0,0:0:0:0:
222,292,38137,1,0,0:0:0:0:
390,158,38304,6,0,P|407:192|356:192,1,100
323,175,38526,1,0,0:0:0:0:
306,175,38582,1,0,0:0:0:0:
289,175,38637,2,0,B|256:175|256:175|239:192|239:192|222:175|222:175|205:192|205:192|168:192,1,100
104,57,38971,2,0,P|155:40|205:57,1,100
121,192,39304,2,0,P|71:208|20:192,1,100
121,360,39637,6,0,B|256:360,1,100
256,192,39971,1,0,0:0:0:0:
424,225,40137,1,0,0:0:0:0:
272,292,40304,1,0,0:0:0:0:
306,124,40471,1,0,0:0:0:0:
440,40,40637,2,0,L|323:40,1,100
71,40,40971,6,0,L|188:40,1,100
306,124,41304,1,0,0:0:0:0:
121,107,41471,1,0,0:0:0:0:
272,23,41637,1,0,0:0:0:0:
272,23,41721,1,0,0:0:0:0:
272,23,41804,1,0,0:0:0:0:
222,192,41971,2,0,L|256:309,1,100
407,192,42304,5,0,0:0:0:0:
306,343,42471,1,0,0:0:0:0:
138,259,42637,1,0,0:0:0:0:
323,192,42804,1,0,0:0:0:0:
205,343,42971,1,0,0:0:0:0:
159,355,43054,1,0,0:0:0:0:
113,355,43137,1,0,0:0:0:0:
71,334,43221,1,0,0:0:0:0:
41,297,43304,1,0,0:0:0:0:
222,192,43471,1,0,0:0:0:0:
144,32,43637,6,0,P|96:64|64:112,1,115.000002193451
144,272,43971,1,0,0:0:0:0:
176,112,44137,1,0,0:0:0:0:
48,224,44304,1,0,0:0:0:0:
224,192,44471,1,0,0:0:0:0:
384,256,44637,2,0,P|352:304|304:336,1,115.000002193451
320,144,44971,6,0,P|352:96|400:64,2,115.000002193451
176,32,45471,1,0,0:0:0:0:
112,208,45637,5,0,0:0:0:0:
124,248,45721,1,0,0:0:0:0:
156,272,45804,1,0,0:0:0:0:
196,268,45887,1,0,0:0:0:0:
228,244,45971,5,0,0:0:0:0:
268,236,46054,1,0,0:0:0:0:
308,236,46137,1,0,0:0:0:0:
348,248,46221,1,0,0:0:0:0:
384,288,46304,6,0,B|368:352|304:368,1,115.000002193451
172,220,46637,1,0,0:0:0:0:
256,48,46804,1,0,0:0:0:0:
304,224,46971,1,0,0:0:0:0:
176,96,47137,1,0,0:0:0:0:
352,176,47304,2,0,P|416:192|480:176,1,115.000002193451
304,80,47637,5,0,0:0:0:0:
368,272,47804,1,0,0:0:0:0:
416,80,47971,1,0,0:0:0:0:
240,144,48137,2,0,P|176:160|112:144,1,115.000002193451
16,320,48471,2,0,P|70:335|127:327,2,115.000002193451
32,128,48971,6,0,P|80:64|160:48,1,119.999996337891
144,48,49193,1,0,0:0:0:0:
160,48,49249,1,0,0:0:0:0:
176,48,49304,2,0,P|240:64|304:48,2,119.999996337891
176,240,49804,5,0,0:0:0:0:
336,144,49971,1,0,0:0:0:0:
336,336,50137,1,0,0:0:0:0:
336,336,50221,1,0,0:0:0:0:
336,336,50304,1,0,0:0:0:0:
184,204,50471,5,0,0:0:0:0:
372,150,50638,1,0,0:0:0:0:
320,345,50804,1,0,0:0:0:0:
320,345,50888,1,0,0:0:0:0:
320,345,50971,1,0,0:0:0:0:
203,171,51137,5,0,0:0:0:0:
408,167,51304,1,0,0:0:0:0:
302,350,51470,1,0,0:0:0:0:
302,350,51554,1,0,0:0:0:0:
302,350,51637,6,0,P|224:368|128:256,1,239.999992675781
240,112,52137,1,0,0:0:0:0:
288,96,52221,1,0,0:0:0:0:
336,96,52304,1,0,0:0:0:0:
272,272,52471,2,0,P|224:288|224:224,1,119.999996337891
416,96,52804,5,0,0:0:0:0:
136,204,53137,5,0,0:0:0:0:
400,320,53471,5,0,0:0:0:0:
256,32,53804,5,0,0:0:0:0:
136,204,53971,1,0,0:0:0:0:
128,259,54054,1,0,0:0:0:0:
144,312,54137,1,0,0:0:0:0:
184,352,54221,1,0,0:0:0:0:
240,368,54304,6,0,L|320:352,7,64.9999970245363
352,256,55637,6,0,L|272:240,3,64.9999970245363
352,160,56304,2,0,L|416:112,3,64.9999970245363
336,48,56971,2,0,L|288:112,7,59.9999981689454
208,128,58304,6,0,L|160:64,3,59.9999981689454
80,32,58971,2,0,L|32:96,3,59.9999981689454
96,160,59637,1,0,0:0:0:0:
96,160,59804,1,0,0:0:0:0:
96,160,59971,1,0,0:0:0:0:
96,160,60137,6,0,L|80:192,3,19.9999993896485
80,208,60387,1,0,0:0:0:0:
144,288,60554,1,0,0:0:0:0:
208,192,60721,1,0,0:0:0:0:
208,192,60804,1,0,0:0:0:0:
256,304,60971,5,0,0:0:0:0:
304,192,61137,1,0,0:0:0:0:
304,192,61193,1,0,0:0:0:0:
304,192,61249,1,0,0:0:0:0:
304,192,61304,2,0,P|352:208|400:208,1,75.0000028610231
368,96,61637,5,0,0:0:0:0:
128,144,61971,1,0,0:0:0:0:
336,32,62304,1,0,0:0:0:0:
224,48,62471,2,0,P|176:64|144:64,2,75.0000028610231
256,160,62971,1,0,0:0:0:0:
224,272,63137,2,0,P|176:256|144:256,2,75.0000028610231
336,192,63637,5,0,0:0:0:0:
384,320,63804,1,0,0:0:0:0:
384,320,63860,1,0,0:0:0:0:
384,320,63915,1,0,0:0:0:0:
384,320,63971,2,0,P|320:336|304:336,1,75.0000028610231
176,336,64304,1,0,0:0:0:0:
112,224,64471,1,0,0:0:0:0:
80,352,64637,1,0,0:0:0:0:
32,208,64804,1,0,0:0:0:0:
176,144,64971,6,0,P|144:112|96:96,1,75.0000028610231
80,96,65221,1,0,0:0:0:0:
80,96,65304,1,0,0:0:0:0:
192,48,65471,2,0,L|288:48,1,75.0000028610231
384,96,65804,2,0,P|400:48|384:16,2,75.0000028610231
336,208,66304,5,0,0:0:0:0:
256,320,66471,1,0,0:0:0:0:
208,176,66637,1,0,0:0:0:0:
320,288,66804,1,0,0:0:0:0:
176,320,66971,1,0,0:0:0:0:
272,176,67137,1,0,0:0:0:0:
192,32,67304,1,0,0:0:0:0:
144,208,67471,1,0,0:0:0:0:
256,48,67637,5,0,0:0:0:0:
298,62,67721,1,0,0:0:0:0:
332,91,67804,1,0,0:0:0:0:
351,132,67887,1,0,0:0:0:0:
354,176,67971,1,0,0:0:0:0:
340,219,68054,1,0,0:0:0:0:
310,252,68137,1,0,0:0:0:0:
270,273,68221,1,0,0:0:0:0:
227,251,68304,5,0,0:0:0:0:
233,205,68387,1,0,0:0:0:0:
268,177,68471,1,0,0:0:0:0:
313,183,68554,1,0,0:0:0:0:
340,219,68637,1,0,0:0:0:0:
352,264,68721,1,0,0:0:0:0:
346,309,68804,1,0,0:0:0:0:
324,348,68887,1,0,0:0:0:0:
272,368,68971,6,0,B|224:352|224:352|144:368|144:368|48:336,1,209.999993591309
64,48,69637,6,0,P|144:64|96:32,1,250
400,64,70304,6,0,P|416:112|288:144,1,187.5
352,112,70637,6,0,P|368:176|240:192,1,202.500000772476
304,160,70971,6,0,P|320:240|192:240,1,217.500006637573
176,224,71304,5,0,0:0:0:0:
160,160,71387,1,0,0:0:0:0:
176,96,71471,1,0,0:0:0:0:
224,48,71554,1,0,0:0:0:0:
288,32,71637,6,0,B|384:16|448:80,1,155.000001182556
368,288,71971,1,0,0:0:0:0:
352,96,72137,1,0,0:0:0:0:
464,272,72304,1,0,0:0:0:0:
304,160,72471,1,0,0:0:0:0:
272,336,72637,5,0,0:0:0:0:
416,208,72804,1,0,0:0:0:0:
256,128,72971,1,0,0:0:0:0:
256,128,73054,1,0,0:0:0:0:
256,128,73137,1,0,0:0:0:0:
384,256,73304,5,0,0:0:0:0:
224,368,73471,1,0,0:0:0:0:
48,304,73637,1,0,0:0:0:0:
48,304,73721,1,0,0:0:0:0:
48,304,73804,1,0,0:0:0:0:
224,240,73971,1,0,0:0:0:0:
224,240,74054,1,0,0:0:0:0:
224,240,74137,1,0,0:0:0:0:
48,192,74304,6,0,P|64:112|144:64,1,155.000001182556
304,144,74637,1,0,0:0:0:0:
448,32,74804,1,0,0:0:0:0:
256,64,74971,1,0,0:0:0:0:
384,208,75137,1,0,0:0:0:0:
336,32,75304,1,0,0:0:0:0:
208,160,75471,1,0,0:0:0:0:
384,128,75637,5,0,0:0:0:0:
384,128,75721,1,0,0:0:0:0:
384,128,75804,1,0,0:0:0:0:
208,48,75971,1,0,0:0:0:0:
192,240,76137,1,0,0:0:0:0:
384,208,76304,5,0,0:0:0:0:
420,180,76387,1,0,0:0:0:0:
436,136,76471,1,0,0:0:0:0:
428,92,76554,1,0,0:0:0:0:
388,113,76637,1,0,0:0:0:0:
351,140,76720,1,0,0:0:0:0:
304,144,76804,1,0,0:0:0:0:
264,125,76887,1,0,0:0:0:0:
236,88,76971,6,0,B|208:48|208:48|176:160,1,155.000001182556
256,320,77304,1,0,0:0:0:0:
320,144,77471,1,0,0:0:0:0:
160,256,77637,1,0,0:0:0:0:
352,256,77804,1,0,0:0:0:0:
192,144,77971,5,0,0:0:0:0:
256,320,78137,1,0,0:0:0:0:
80,256,78304,1,0,0:0:0:0:
80,256,78387,1,0,0:0:0:0:
80,256,78471,1,0,0:0:0:0:
256,224,78637,5,0,0:0:0:0:
112,336,78804,1,0,0:0:0:0:
64,160,78971,1,0,0:0:0:0:
64,160,79054,1,0,0:0:0:0:
64,160,79137,1,0,0:0:0:0:
256,144,79304,1,0,0:0:0:0:
256,144,79387,1,0,0:0:0:0:
256,144,79471,1,0,0:0:0:0:
96,48,79637,5,0,0:0:0:0:
176,192,79804,1,0,0:0:0:0:
352,272,79971,2,0,B|304:336|304:336|256:272,1,155.000001182556
96,176,80304,6,0,P|64:208|64:240,3,77.5000005912781
112,320,80637,2,0,P|176:288|112:272,1,155.000001182556
16,112,80971,1,0,0:0:0:0:
176,192,81137,1,0,0:0:0:0:
352,112,81304,6,0,B|400:48|400:48|464:128,1,155.000001182556
432,288,81637,2,0,P|416:320|368:336,3,77.5000005912781
352,256,81971,2,0,P|320:224|336:288,1,155.000001182556
480,192,82304,6,0,P|416:128|352:112,1,155.000001182556
160,160,82637,1,0,0:0:0:0:
256,336,82804,1,0,0:0:0:0:
400,192,82971,1,0,0:0:0:0:
208,256,83137,1,0,0:0:0:0:
379,336,83304,5,0,0:0:0:0:
256,176,83471,1,0,0:0:0:0:
133,336,83637,1,0,0:0:0:0:
133,336,83721,1,0,0:0:0:0:
133,336,83804,1,0,0:0:0:0:
304,224,83971,5,0,0:0:0:0:
208,48,84137,1,0,0:0:0:0:
128,240,84304,1,0,0:0:0:0:
128,240,84387,1,0,0:0:0:0:
128,240,84471,1,0,0:0:0:0:
304,144,84637,1,0,0:0:0:0:
304,144,84721,1,0,0:0:0:0:
304,144,84804,1,0,0:0:0:0:
96,160,84971,6,0,P|48:240|112:320,1,155.000001182556
256,240,85304,1,0,0:0:0:0:
192,48,85471,1,0,0:0:0:0:
192,256,85637,1,0,0:0:0:0:
304,96,85804,1,0,0:0:0:0:
304,304,85971,5,0,0:0:0:0:
240,112,86137,1,0,0:0:0:0:
240,320,86304,1,0,0:0:0:0:
240,320,86387,1,0,0:0:0:0:
240,320,86471,1,0,0:0:0:0:
336,144,86637,1,0,0:0:0:0:
416,336,86804,1,0,0:0:0:0:
464,144,86971,5,0,0:0:0:0:
472,100,87054,1,0,0:0:0:0:
448,60,87137,1,0,0:0:0:0:
404,52,87221,1,0,0:0:0:0:
368,80,87304,1,0,0:0:0:0:
320,84,87387,1,0,0:0:0:0:
276,72,87471,1,0,0:0:0:0:
248,36,87554,1,0,0:0:0:0:
208,64,87637,6,0,P|208:128|128:128,1,155.000001182556
32,304,87971,1,0,0:0:0:0:
208,224,88137,1,0,0:0:0:0:
16,144,88304,1,0,0:0:0:0:
160,288,88471,1,0,0:0:0:0:
320,176,88637,5,0,0:0:0:0:
496,288,88804,1,0,0:0:0:0:
288,272,88971,1,0,0:0:0:0:
288,272,89054,1,0,0:0:0:0:
288,272,89137,1,0,0:0:0:0:
416,112,89304,1,0,0:0:0:0:
432,320,89471,1,0,0:0:0:0:
240,352,89637,6,0,P|208:272|240:192,1,155.000001182556
416,256,89971,1,0,0:0:0:0:
256,128,90137,1,0,0:0:0:0:
64,192,90304,6,0,P|48:240|48:288,3,77.5000005912781
144,224,90637,2,0,P|160:176|160:128,1,77.5000005912781
128,80,90804,5,0,0:0:0:0:
84,64,90887,1,0,0:0:0:0:
56,24,90971,1,0,0:0:0:0:
100,16,91054,1,0,0:0:0:0:
148,16,91137,1,0,0:0:0:0:
192,32,91221,1,0,0:0:0:0:
228,60,91304,1,0,0:0:0:0:
256,96,91387,1,0,0:0:0:0:
256,144,91471,6,0,L|256:224,1,77.5000005912781
272,304,91637,2,0,P|336:336|368:224,1,184.999999294281
336,192,91887,2,0,B|464:160|464:160|352:128,1,184.999999294281
337,109,92137,2,0,P|241:141|193:109,1,92.4999996471405
176,112,92304,5,0,0:0:0:0:
140,84,92387,1,0,0:0:0:0:
104,52,92471,1,0,0:0:0:0:
68,92,92554,1,0,0:0:0:0:
32,136,92637,1,0,0:0:0:0:
72,176,92721,1,0,0:0:0:0:
112,212,92804,1,0,0:0:0:0:
76,256,92887,1,0,0:0:0:0:
96,304,92971,6,0,P|160:320|224:304,1,115.000002193451
368,208,93304,1,0,0:0:0:0:
288,48,93471,2,0,P|224:32|160:48,1,115.000002193451
256,208,93804,1,0,0:0:0:0:
352,48,93971,1,0,0:0:0:0:
480,192,94137,1,0,0:0:0:0:
304,144,94304,6,0,B|256:128|256:128|224:144|224:144|160:128,1,115.000002193451
336,288,94637,2,0,B|288:272|288:272|256:288|256:288|192:272,1,115.000002193451
128,128,94971,1,0,0:0:0:0:
64,304,95137,1,0,0:0:0:0:
48,128,95304,1,0,0:0:0:0:
208,208,95471,1,0,0:0:0:0:
32,208,95637,6,0,P|80:192|160:192,1,115.000002193451
336,208,95971,1,0,0:0:0:0:
256,48,96137,1,0,0:0:0:0:
432,80,96304,1,0,0:0:0:0:
256,144,96471,1,0,0:0:0:0:
112,32,96637,2,0,P|48:128|32:176,1,115.000002193451
48,320,96971,5,0,0:0:0:0:
208,240,97137,2,0,P|192:304|144:352,1,115.000002193451
32,208,97471,1,0,0:0:0:0:
208,160,97637,2,0,L|272:128,1,57.5000010967255
336,192,97804,2,0,L|240:240,1,57.5000010967255
304,304,97971,5,0,0:0:0:0:
352,288,98054,1,0,0:0:0:0:
400,272,98137,1,0,0:0:0:0:
448,256,98221,1,0,0:0:0:0:
464,208,98304,6,0,P|480:144|464:80,1,115.000002193451
304,32,98637,1,0,0:0:0:0:
243,207,98804,2,0,P|275:271|323:319,1,115.000002193451
352,128,99137,1,0,0:0:0:0:
176,96,99304,1,0,0:0:0:0:
112,272,99471,1,0,0:0:0:0:
64,64,99637,6,0,B|80:96|80:96|80:128|80:128|112:192,2,115.000002193451
256,64,100137,1,0,0:0:0:0:
256,64,100221,1,0,0:0:0:0:
256,64,100304,1,0,0:0:0:0:
256,256,100471,5,0,0:0:0:0:
284,292,100554,1,0,0:0:0:0:
324,312,100637,1,0,0:0:0:0:
372,316,100721,1,0,0:0:0:0:
416,308,100804,1,0,0:0:0:0:
452,280,100887,1,0,0:0:0:0:
480,240,100971,6,0,B|448:160|448:160|416:208|336:208,1,172.500003290176
320,160,101304,2,0,P|341:140|367:128,1,57.5000010967255
352,48,101471,2,0,P|330:67|304:79,1,57.5000010967255
224,80,101637,2,0,P|192:48|240:48,1,115.000002193451
96,144,101971,6,0,P|80:160|64:160,2,28.7500005483627
160,176,102137,2,0,P|144:240|208:352,1,172.500003290176
224,320,102471,1,0,0:0:0:0:
240,288,102554,1,0,0:0:0:0:
288,224,102637,1,0,0:0:0:0:
304,192,102721,1,0,0:0:0:0:
320,160,102804,6,0,P|272:80|256:176,1,230.000004386902
384,288,103304,6,0,B|416:304|416:304|448:288,1,57.5000010967255
496,224,103471,2,0,B|464:208|464:208|432:224,1,57.5000010967255
320,240,103637,6,0,B|304:304|304:304|304:336|272:336|272:336|240:352|208:336|208:336|176:320|144:336|144:336|112:352,1,255.000004863739
48,320,103971,2,0,P|48:288|64:272,1,34.9999989318848
128,240,104137,2,0,P|128:208|112:192,1,34.9999989318848
80,128,104304,1,0,0:0:0:0:
96,128,104360,1,0,0:0:0:0:
112,128,104415,1,0,0:0:0:0:
128,128,104471,2,0,L|176:128,1,34.9999989318848
224,64,104637,5,0,0:0:0:0:
272,96,104721,1,0,0:0:0:0:
320,80,104804,1,0,0:0:0:0:
368,112,104887,1,0,0:0:0:0:
304,176,104971,6,0,P|368:192|432:176,1,119.999996337891
448,192,105193,1,0,0:0:0:0:
448,192,105249,1,0,0:0:0:0:
448,192,105304,6,0,P|464:224|464:256,1,34.9999989318848
400,256,105471,2,0,P|400:304|408:320,1,34.9999989318848
320,256,105637,2,0,P|320:304|336:352,1,69.9999978637696
392,368,105887,1,0,0:0:0:0:
288,384,105971,6,0,P|240:368|208:336,1,59.9999981689454
176,272,106137,2,0,P|165:222|192:160,1,85.0000016212464
224,96,106304,6,0,B|288:96|320:64|320:64|336:64|352:32|352:32|368:64|384:64|384:64|432:96|400:144,1,255.000004863739
336,144,106637,2,0,P|304:160|288:160,1,34.9999989318848
224,176,106804,2,0,P|192:176|160:160,1,34.9999989318848
128,112,106971,1,0,0:0:0:0:
112,96,107026,1,0,0:0:0:0:
96,96,107082,1,0,0:0:0:0:
80,112,107137,2,0,L|64:160,1,34.9999989318848
48,224,107304,5,0,0:0:0:0:
80,272,107387,1,0,0:0:0:0:
128,240,107471,6,0,B|141:246|141:246|147:259|147:259|161:266,1,34.9999989318848
208,224,107637,2,0,B|230:235|230:235|241:257|241:257|263:268,1,42.5000008106232
304,224,107804,2,0,B|313:238|313:238|312:255|312:255|322:270,1,50
384,304,107971,2,0,B|391:326|391:326|384:349|384:349|391:372,1,57.5000010967255
464,240,108137,6,0,B|471:263|471:263|464:286|464:286|471:310,1,64.9999970245363
384,160,108304,2,0,B|392:184|392:184|384:209|384:209|392:234,1,72.5000022125245
464,64,108471,2,0,B|474:94|474:94|464:125|464:125|474:156,1,80
384,80,108637,2,0,B|300:107|300:107|217:80|217:80|128:112,1,255.000004863739
80,48,108971,6,0,P|48:144|192:160,1,255.000004863739
256,176,109304,6,0,P|272:192|272:224,1,34.9999989318848
208,256,109471,2,0,P|192:272|160:272,1,34.9999989318848
96,288,109637,1,0,0:0:0:0:
80,304,109693,1,0,0:0:0:0:
80,320,109749,1,0,0:0:0:0:
96,336,109804,2,0,L|144:336,1,34.9999989318848
208,368,109971,5,0,0:0:0:0:
256,336,110054,1,0,0:0:0:0:
304,336,110137,1,0,0:0:0:0:
352,304,110221,1,0,0:0:0:0:
432,320,110304,6,0,P|416:256|352:224,1,119.999996337891
336,224,110526,1,0,0:0:0:0:
336,224,110582,1,0,0:0:0:0:
336,224,110637,6,0,P|304:224|272:208,1,34.9999989318848
336,152,110804,2,0,P|294:128|276:126,1,34.9999989318848
400,128,110971,2,0,P|384:96|336:64,1,69.9999978637696
272,56,111221,1,0,0:0:0:0:
192,32,111304,6,0,B|160:48|160:48|160:96,1,59.9999981689454
208,144,111471,2,0,B|208:208|208:208|176:256,1,85.0000016212464
112,192,111637,6,0,B|112:320|112:320|160:368|160:368|208:320,1,255.000004863739
272,272,111971,2,0,P|304:256|320:256,1,34.9999989318848
384,288,112137,2,0,P|352:304|336:304,1,34.9999989318848
352,208,112304,5,0,0:0:0:0:
368,208,112360,1,0,0:0:0:0:
384,208,112415,1,0,0:0:0:0:
400,208,112471,2,0,P|432:208|464:192,1,34.9999989318848
464,128,112637,5,0,0:0:0:0:
432,80,112721,1,0,0:0:0:0:
384,112,112804,2,0,P|336:128|304:128,1,50
256,80,112971,6,0,L|256:160,1,50
256,306,113137,2,0,L|256:256,1,50
139,124,113304,2,0,L|222:172,1,50
374,260,113470,2,0,L|322:230,1,50
129,264,113637,2,0,L|208:224,1,50
384,117,113803,2,0,L|328:150,1,50
176,192,113971,6,0,L|112:192,3,50
80,192,114304,1,0,0:0:0:0:
256,192,119637,5,0,0:0:0:0:
96,112,122304,5,0,0:0:0:0:
256,80,122471,2,0,L|272:128,1,50
288,184,122637,1,0,0:0:0:0:
288,236,122721,1,0,0:0:0:0:
268,284,122804,1,0,0:0:0:0:
236,320,122887,1,0,0:0:0:0:
192,352,122971,2,0,B|128:352|128:352|80:320,1,100
176,240,123304,6,0,L|160:192,1,50
80,176,123471,2,0,L|96:240,1,50
32,272,123637,1,0,0:0:0:0:
128,128,123804,1,0,0:0:0:0:
304,192,123971,6,0,P|336:128|256:48,1,200
160,192,124471,1,0,0:0:0:0:
432,240,124721,6,0,L|464:256,5,25
464,272,124971,6,0,P|432:336|384:352,1,115.000002193451
224,288,125304,1,0,0:0:0:0:
352,144,125471,1,0,0:0:0:0:
336,320,125637,1,0,0:0:0:0:
240,160,125804,1,0,0:0:0:0:
400,64,125971,2,0,P|432:128|432:176,1,115.000002193451
288,272,126304,5,0,0:0:0:0:
160,144,126471,1,0,0:0:0:0:
336,192,126637,1,0,0:0:0:0:
240,352,126804,2,0,P|160:352|64:224,1,230.000004386902
112,64,127304,1,0,0:0:0:0:
192,240,127471,1,0,0:0:0:0:
48,128,127637,6,0,P|112:144|176:128,1,115.000002193451
320,32,127971,1,0,0:0:0:0:
288,208,128137,1,0,0:0:0:0:
208,48,128304,1,0,0:0:0:0:
384,64,128471,1,0,0:0:0:0:
224,160,128637,2,0,P|208:224|224:272,1,115.000002193451
400,336,128971,5,0,0:0:0:0:
352,160,129137,1,0,0:0:0:0:
272,320,129304,1,0,0:0:0:0:
432,224,129471,1,0,0:0:0:0:
256,160,129637,5,0,0:0:0:0:
208,156,129721,1,0,0:0:0:0:
164,172,129804,1,0,0:0:0:0:
136,208,129887,1,0,0:0:0:0:
124,252,129971,5,0,0:0:0:0:
88,280,130054,1,0,0:0:0:0:
44,272,130137,1,0,0:0:0:0:
20,232,130221,1,0,0:0:0:0:
32,192,130304,6,0,P|80:160|96:96,1,115.000002193451
96,64,130526,1,0,0:0:0:0:
96,64,130582,1,0,0:0:0:0:
96,64,130637,2,0,P|160:32|240:32,2,115.000002193451
192,224,131137,5,0,0:0:0:0:
368,288,131304,1,0,0:0:0:0:
336,104,131471,1,0,0:0:0:0:
336,104,131554,1,0,0:0:0:0:
336,104,131637,1,0,0:0:0:0:
165,154,131804,5,0,0:0:0:0:
297,312,131971,1,0,0:0:0:0:
368,119,132138,1,0,0:0:0:0:
368,119,132221,1,0,0:0:0:0:
368,119,132304,1,0,0:0:0:0:
179,73,132471,5,0,0:0:0:0:
218,295,132638,1,0,0:0:0:0:
390,151,132805,1,0,0:0:0:0:
390,151,132888,1,0,0:0:0:0:
390,151,132971,6,0,P|336:80|272:176,1,230.000004386902
400,304,133471,1,0,0:0:0:0:
336,320,133554,1,0,0:0:0:0:
272,336,133637,1,0,0:0:0:0:
80,320,133804,1,0,0:0:0:0:
240,208,133971,1,0,0:0:0:0:
112,80,134137,6,0,P|64:144|128:224,1,172.500003290176
160,144,134471,2,0,B|208:48|208:48|224:112,1,172.500003290176
304,144,134804,2,0,P|384:144|448:80,1,172.500003290176
352,64,135137,1,0,0:0:0:0:
336,256,135304,5,0,0:0:0:0:
304,320,135387,1,0,0:0:0:0:
240,352,135471,1,0,0:0:0:0:
176,320,135554,1,0,0:0:0:0:
144,256,135637,6,0,L|120:184,7,69.9999978637696
176,136,136971,6,0,L|96:104,3,69.9999978637696
176,48,137637,2,0,L|256:80,3,69.9999978637696
320,64,138304,2,0,L|336:160,7,69.9999978637696
416,160,139637,6,0,L|352:224,3,69.9999978637696
288,208,140304,2,0,L|256:288,3,69.9999978637696
336,320,140971,1,0,0:0:0:0:
336,320,141137,1,0,0:0:0:0:
336,320,141304,1,0,0:0:0:0:
336,320,141471,6,0,L|368:336,3,23.3333326212565
384,336,141721,1,0,0:0:0:0:
464,256,141887,1,0,0:0:0:0:
368,208,142054,1,0,0:0:0:0:
368,208,142137,1,0,0:0:0:0:
464,144,142304,5,0,0:0:0:0:
336,128,142471,1,0,0:0:0:0:
336,128,142526,1,0,0:0:0:0:
336,128,142582,1,0,0:0:0:0:
336,128,142637,2,0,P|304:160|272:176,1,69.9999978637696
256,48,142971,5,0,0:0:0:0:
160,128,143137,1,0,0:0:0:0:
96,16,143304,1,0,0:0:0:0:
64,144,143471,1,0,0:0:0:0:
96,272,143637,6,0,P|128:304|160:320,2,69.9999978637696
256,272,144137,2,0,P|224:240|192:224,2,69.9999978637696
400,240,144637,2,0,P|368:272|336:288,1,69.9999978637696
224,336,144971,5,0,0:0:0:0:
320,192,145137,1,0,0:0:0:0:
320,192,145193,1,0,0:0:0:0:
320,192,145249,1,0,0:0:0:0:
320,192,145304,2,0,P|352:160|384:144,1,69.9999978637696
464,288,145637,5,0,0:0:0:0:
448,128,145804,1,0,0:0:0:0:
352,272,145971,1,0,0:0:0:0:
208,192,146137,1,0,0:0:0:0:
288,48,146304,6,0,P|384:32|432:64,1,139.999995727539
369,206,146804,2,0,P|353:270|337:286,1,69.9999978637696
192,320,147137,1,0,0:0:0:0:
256,144,147304,1,0,0:0:0:0:
320,320,147471,1,0,0:0:0:0:
112,320,147637,5,0,0:0:0:0:
304,224,147804,1,0,0:0:0:0:
128,112,147971,1,0,0:0:0:0:
256,272,148137,1,0,0:0:0:0:
288,64,148304,1,0,0:0:0:0:
144,224,148471,1,0,0:0:0:0:
352,192,148637,1,0,0:0:0:0:
224,32,148804,1,0,0:0:0:0:
144,224,148971,5,0,0:0:0:0:
144,264,149054,1,0,0:0:0:0:
176,296,149137,1,0,0:0:0:0:
216,296,149221,1,0,0:0:0:0:
248,272,149304,1,0,0:0:0:0:
256,232,149387,1,0,0:0:0:0:
240,192,149471,1,0,0:0:0:0:
208,168,149554,1,0,0:0:0:0:
184,128,149637,5,0,0:0:0:0:
232,104,149721,1,0,0:0:0:0:
280,104,149804,1,0,0:0:0:0:
328,120,149887,1,0,0:0:0:0:
368,144,149971,1,0,0:0:0:0:
400,184,150054,1,0,0:0:0:0:
416,232,150137,1,0,0:0:0:0:
416,280,150221,1,0,0:0:0:0:
392,320,150304,6,0,P|336:352|368:264,1,200
16,104,150971,6,0,B|88:72|88:72|32:184|32:184|96:160,1,259.999988098145
399,31,151637,6,0,P|287:95|367:191,1,240
368,112,151971,2,0,P|256:176|336:272,1,240
336,192,152304,2,0,P|224:256|304:352,1,240
320,368,152637,5,0,0:0:0:0:
384,352,152721,1,0,0:0:0:0:
432,304,152804,1,0,0:0:0:0:
448,240,152887,1,0,0:0:0:0:
432,176,152971,6,0,P|368:112|288:128,1,165.000001573563
128,240,153304,1,0,0:0:0:0:
336,192,153471,1,0,0:0:0:0:
192,336,153637,1,0,0:0:0:0:
128,128,153804,1,0,0:0:0:0:
288,272,153971,5,0,0:0:0:0:
80,320,154137,1,0,0:0:0:0:
224,160,154304,1,0,0:0:0:0:
224,160,154387,1,0,0:0:0:0:
224,160,154471,1,0,0:0:0:0:
48,32,154637,1,0,0:0:0:0:
128,240,154804,1,0,0:0:0:0:
256,64,154971,5,0,0:0:0:0:
256,64,155054,1,0,0:0:0:0:
256,64,155137,1,0,0:0:0:0:
288,272,155304,1,0,0:0:0:0:
288,272,155387,1,0,0:0:0:0:
288,272,155471,1,0,0:0:0:0:
96,192,155637,6,0,P|128:112|240:64,1,165.000001573563
400,96,155971,1,0,0:0:0:0:
192,160,156137,1,0,0:0:0:0:
368,32,156304,1,0,0:0:0:0:
464,224,156471,1,0,0:0:0:0:
304,80,156637,5,0,0:0:0:0:
256,288,156804,1,0,0:0:0:0:
432,160,156971,1,0,0:0:0:0:
432,160,157054,1,0,0:0:0:0:
432,160,157137,1,0,0:0:0:0:
224,192,157304,1,0,0:0:0:0:
368,352,157471,1,0,0:0:0:0:
336,144,157637,5,0,0:0:0:0:
304,112,157721,1,0,0:0:0:0:
264,96,157804,1,0,0:0:0:0:
224,96,157887,1,0,0:0:0:0:
184,112,157971,1,0,0:0:0:0:
176,152,158054,1,0,0:0:0:0:
144,176,158137,1,0,0:0:0:0:
104,168,158221,1,0,0:0:0:0:
80,136,158304,6,0,B|48:104|48:104|32:248,1,165.000001573563
240,280,158637,1,0,0:0:0:0:
128,96,158804,1,0,0:0:0:0:
88,304,158971,1,0,0:0:0:0:
232,144,159137,1,0,0:0:0:0:
48,40,159304,5,0,0:0:0:0:
152,224,159471,1,0,0:0:0:0:
256,40,159637,1,0,0:0:0:0:
256,40,159721,1,0,0:0:0:0:
256,40,159804,1,0,0:0:0:0:
360,224,159971,5,0,0:0:0:0:
176,336,160137,1,0,0:0:0:0:
256,136,160304,1,0,0:0:0:0:
256,136,160387,1,0,0:0:0:0:
256,136,160471,1,0,0:0:0:0:
328,336,160637,1,0,0:0:0:0:
328,336,160721,1,0,0:0:0:0:
328,336,160804,1,0,0:0:0:0:
168,192,160971,5,0,0:0:0:0:
376,128,161137,1,0,0:0:0:0:
256,304,161304,6,0,B|224:360|224:360|184:248,1,165.000001573563
104,64,161637,2,0,P|72:80|32:136,3,82.5000007867813
160,159,161971,2,0,P|101:166|152:136,1,165.000001573563
376,128,162304,5,0,0:0:0:0:
480,320,162471,1,0,0:0:0:0:
256,304,162637,6,0,B|288:360|288:360|328:248,1,165.000001573563
407,63,162971,2,0,P|444:83|470:114,3,82.5000007867813
350,158,163304,2,0,P|409:166|359:136,1,165.000001573563
152,72,163637,6,0,P|64:144|24:208,1,165.000001573563
208,336,163971,1,0,0:0:0:0:
224,104,164137,1,0,0:0:0:0:
120,312,164304,1,0,0:0:0:0:
344,264,164471,1,0,0:0:0:0:
136,176,164637,5,0,0:0:0:0:
312,328,164804,1,0,0:0:0:0:
488,184,164971,1,0,0:0:0:0:
488,184,165054,1,0,0:0:0:0:
488,184,165137,1,0,0:0:0:0:
256,192,165304,5,0,0:0:0:0:
464,288,165471,1,0,0:0:0:0:
360,80,165637,1,0,0:0:0:0:
360,80,165721,1,0,0:0:0:0:
360,80,165804,1,0,0:0:0:0:
384,312,165971,1,0,0:0:0:0:
384,312,166054,1,0,0:0:0:0:
384,312,166137,1,0,0:0:0:0:
151,330,166304,6,0,P|119:234|143:162,1,165.000001573563
304,16,166637,1,0,0:0:0:0:
240,240,166804,1,0,0:0:0:0:
104,56,166971,1,0,0:0:0:0:
56,280,167137,1,0,0:0:0:0:
240,136,167304,5,0,0:0:0:0:
216,368,167471,1,0,0:0:0:0:
168,144,167637,1,0,0:0:0:0:
168,144,167721,1,0,0:0:0:0:
168,144,167804,1,0,0:0:0:0:
56,352,167971,1,0,0:0:0:0:
280,312,168137,1,0,0:0:0:0:
448,152,168304,5,0,0:0:0:0:
440,104,168387,1,0,0:0:0:0:
400,72,168471,1,0,0:0:0:0:
352,80,168554,1,0,0:0:0:0:
328,120,168637,1,0,0:0:0:0:
368,152,168721,1,0,0:0:0:0:
392,200,168804,1,0,0:0:0:0:
392,248,168887,1,0,0:0:0:0:
368,296,168971,6,0,P|272:312|208:256,1,165.000001573563
304,64,169304,1,0,0:0:0:0:
448,240,169471,1,0,0:0:0:0:
224,192,169637,1,0,0:0:0:0:
440,104,169804,1,0,0:0:0:0:
224,32,169971,5,0,0:0:0:0:
304,256,170137,1,0,0:0:0:0:
368,32,170304,1,0,0:0:0:0:
368,32,170387,1,0,0:0:0:0:
368,32,170471,1,0,0:0:0:0:
160,128,170637,5,0,0:0:0:0:
288,320,170804,1,0,0:0:0:0:
96,192,170971,2,0,P|80:128|160:32,1,165.000001573563
352,112,171304,1,0,0:0:0:0:
160,240,171471,1,0,0:0:0:0:
368,352,171637,6,0,P|336:304|256:304,3,82.5000007867813
208,336,171971,2,0,P|112:352|80:336,1,82.5000007867813
80,272,172137,5,0,0:0:0:0:
72,224,172221,1,0,0:0:0:0:
80,176,172304,1,0,0:0:0:0:
104,136,172387,1,0,0:0:0:0:
144,112,172471,1,0,0:0:0:0:
192,120,172554,1,0,0:0:0:0:
184,168,172637,1,0,0:0:0:0:
152,208,172721,1,0,0:0:0:0:
192,240,172804,6,0,P|248:224|272:232,1,82.5000007867813
344,296,172971,2,0,P|392:328|360:256,1,189.999994926453
312,176,173221,2,0,B|256:64|256:64|328:104,1,189.999994926453
384,160,173471,2,0,P|440:152|464:112,1,94.9999974632264
376,72,173637,5,0,0:0:0:0:
328,48,173721,1,0,0:0:0:0:
280,72,173804,1,0,0:0:0:0:
232,48,173887,1,0,0:0:0:0:
184,72,173971,1,0,0:0:0:0:
136,48,174054,1,0,0:0:0:0:
88,72,174137,1,0,0:0:0:0:
88,128,174221,1,0,0:0:0:0:
136,152,174304,5,0,0:0:0:0:
88,232,179637,5,0,0:0:0:0:
112,264,179721,1,0,0:0:0:0:
144,288,179804,1,0,0:0:0:0:
184,296,179887,1,0,0:0:0:0:
224,296,179971,1,0,0:0:0:0:
264,280,180054,1,0,0:0:0:0:
296,248,180137,1,0,0:0:0:0:
312,208,180221,1,0,0:0:0:0:
304,168,180304,1,0,0:0:0:0:
320,128,180387,1,0,0:0:0:0:
352,104,180471,1,0,0:0:0:0:
392,104,180554,1,0,0:0:0:0:
432,120,180637,6,0,L|448:192,3,55.0000005245209
200,216,180971,5,0,0:0:0:0:
160,192,181054,1,0,0:0:0:0:
136,152,181137,1,0,0:0:0:0:
136,104,181221,1,0,0:0:0:0:
160,64,181304,1,0,0:0:0:0:
200,40,181387,1,0,0:0:0:0:
248,40,181471,1,0,0:0:0:0:
288,64,181554,1,0,0:0:0:0:
272,112,181637,1,0,0:0:0:0:
280,160,181721,1,0,0:0:0:0:
312,200,181804,1,0,0:0:0:0:
360,216,181887,1,0,0:0:0:0:
392,256,181971,6,0,P|408:280|448:288,3,55.0000005245209
168,320,182304,5,0,0:0:0:0:
168,320,182360,1,0,0:0:0:0:
168,320,182415,1,0,0:0:0:0:
168,320,182471,2,0,P|112:304|88:256,1,82.5000007867813
72,224,182637,5,0,0:0:0:0:
72,224,182693,1,0,0:0:0:0:
72,224,182748,1,0,0:0:0:0:
72,224,182804,2,0,P|152:184|160:144,1,82.5000007867813
168,136,182971,5,0,0:0:0:0:
168,136,183027,1,0,0:0:0:0:
168,136,183082,1,0,0:0:0:0:
168,136,183137,2,0,P|123:115|104:72,1,82.5000007867813
152,40,183304,5,0,0:0:0:0:
152,40,183360,1,0,0:0:0:0:
152,40,183415,1,0,0:0:0:0:
152,40,183471,1,0,0:0:0:0:
344,56,183637,6,0,P|320:96|416:80,1,209.999993591309
480,128,183971,2,0,P|432:200|288:176,1,209.999993591309
264,152,184304,6,0,L|240:192,1,29.9999990844727
240,152,184471,2,0,L|216:192,1,29.9999990844727
271,286,184637,6,0,L|256:312,1,29.9999990844727
295,286,184804,2,0,L|280:312,1,29.9999990844727
136,272,184971,6,0,B|72:296|40:256|40:256|72:208|120:216,1,179.999994506836,4|0,0:0|0:0,0:0:0:0:
136,104,185304,2,0,P|128:88|144:88,1,40
256,40,185471,2,0,P|273:41|265:54,1,40
376,104,185637,2,0,P|432:128|472:176,1,119.999996337891
440,208,185887,2,0,P|400:163|346:140,1,119.999996337891
320,176,186137,6,0,P|328:184|336:208,1,20
192,208,186304,2,0,P|184:200|168:144,1,60
176,112,186637,6,0,B|184:104|184:104|176:80,1,20
365,162,186804,2,0,B|368:173|368:173|392:178,1,20
226,301,186971,2,0,B|168:280|168:280|112:352,1,119.999996337891
432,360,187221,2,0,B|368:360,1,59.9999981689454
200,368,187387,2,0,B|256:384|256:384|296:336,1,119.999996337891
344,296,187637,6,0,L|328:264,1,20
344,88,187804,2,0,L|328:120,1,20
176,192,187971,2,0,P|112:192|72:296,1,179.999994506836,8|0,0:0|0:0,0:0:0:0:
144,264,188304,2,0,P|176:320|272:360,1,119.999996337891
248,320,188554,2,0,P|199:285|170:233,1,119.999996337891
176,192,188804,6,0,P|184:136|168:104,1,59.9999981689454
160,88,188971,2,0,L|120:72,1,29.9999990844727,2|0,0:0|0:0,0:0:0:0:
248,200,189137,2,0,L|281:173,1,29.9999990844727,2|0,0:0|0:0,0:0:0:0:
301,68,189304,2,0,L|307:110,1,29.9999990844727,2|0,0:0|0:0,0:0:0:0:
388,179,189471,1,0,0:0:0:0:
388,179,189554,1,0,0:0:0:0:
388,179,189637,6,0,P|376:248|392:288,1,80,4|0,0:0|0:0,0:0:0:0:
392,272,189860,1,0,0:0:0:0:
416,280,189915,1,0,0:0:0:0:
448,272,189971,2,0,P|464:216|456:168,1,80,4|0,0:0|0:0,0:0:0:0:
256,40,190304,6,8,B|248:72|248:72|256:96|256:96|256:128,2,80
56,112,190804,1,0,0:0:0:0:
104,288,190971,6,0,P|88:296|64:304,1,29.9999990844727
160,192,191137,2,0,P|158:209|153:234,1,29.9999990844727
160,80,191304,2,0,P|174:89|193:106,1,29.9999990844727
80,192,191471,6,0,L|56:200,1,20,2|0,0:0|0:0,0:0:0:0:
256,192,191637,2,0,L|320:168,1,60,2|0,0:0|0:0,0:0:0:0:
352,136,191971,2,2,L|348:100,1,20,2|0,0:0|0:0,0:0:0:0:
142,133,192137,2,0,L|124:145,1,20,2|0,0:0|0:0,0:0:0:0:
232,304,192304,6,0,B|282:342|282:342|339:342,1,119.999996337891
432,120,192554,2,0,L|408:200,1,59.9999981689454
355,310,192721,2,0,B|298:310|298:310|248:272,1,119.999996337891
256,208,192971,6,0,P|168:208|176:312,1,179.999994506836
144,320,193304,6,0,L|128:336,5,13.3333333333333
64,296,193637,6,0,L|56:320,5,19.9999993896485
48,192,193971,6,0,L|40:232,5,26.6666666666667
88,112,194304,6,0,P|128:72|168:88,2,80
344,128,194804,1,0,0:0:0:0:
264,144,194887,1,0,0:0:0:0:
184,160,194971,2,0,L|176:184,7,20
240,224,195304,2,0,L|248:248,7,20
184,296,195637,6,0,L|184:360,1,60
256,320,195971,6,0,L|272:352,1,20
280,320,196137,2,0,L|296:344,1,20
368,240,196304,6,0,P|376:256|376:240,1,40
440,336,196471,2,0,P|448:352|448:336,1,40
464,208,196637,2,0,P|448:160|416:128,1,59.9999981689454
408,120,196804,6,0,L|392:112,1,10
104,120,196971,2,0,L|136:104,1,30
168,88,197304,6,0,L|168:72,1,10
216,296,197471,2,0,L|216:312,1,10
256,88,197637,2,0,L|256:208,1,119.999996337891
336,32,197887,2,0,L|336:120,1,59.9999981689454
416,248,198054,2,0,L|416:120,1,119.999996337891
416,80,198304,6,0,L|416:64,1,10
416,304,198471,2,0,L|416:320,1,10
88,320,198637,6,0,B|120:320|120:320|144:336|144:336|168:296|168:296|192:320|192:320|232:320,1,179.999994506836
256,280,198971,2,0,P|272:232|232:256,1,119.999996337891
192,224,199221,2,0,P|256:184|320:216,1,119.999996337891
328,232,199471,6,0,P|328:264|312:304,1,59.9999981689454
312,336,199637,2,0,L|336:344,1,20
472,248,199804,2,0,L|453:241,1,20
385,88,199971,2,0,L|366:81,1,20
225,176,200137,5,0,0:0:0:0:
225,176,200221,1,0,0:0:0:0:
225,176,200304,6,0,P|192:192|112:176,1,119.999996337891
88,136,200526,1,0,0:0:0:0:
88,112,200582,1,0,0:0:0:0:
120,81,200637,2,0,P|153:65|208:73,1,59.9999981689454
163,120,200804,2,0,P|165:83|200:39,1,59.9999981689454
360,192,200971,6,0,B|400:200|400:200|440:192|440:192|488:192,2,119.999996337891
176,64,201471,1,0,0:0:0:0:
392,32,201637,6,0,L|392:48,1,10
304,120,201804,2,0,L|304:160,1,29.9999990844727
432,264,201971,2,0,L|432:320,1,50
336,320,202137,6,0,L|328:312,1,10
176,64,202304,2,0,L|192:96,1,30
120,81,202637,2,0,L|136:89,1,10
392,303,202804,2,0,L|376:295,1,10
88,136,202971,6,0,B|128:160|128:160|144:192|144:192|200:224,1,119.999996337891
304,32,203221,2,0,B|303:55|303:55|293:70|293:70|293:89,1,59.9999981689454
392,303,203387,2,0,B|359:284|359:284|343:252|343:252|303:228,1,119.999996337891
88,256,203637,2,0,P|64:312|128:272,1,179.999994506836
256,192,203971,6,0,P|296:160|352:176,1,100
128,40,204304,2,0,L|192:72,1,50
384,40,204471,2,0,L|320:72,1,50
256,292,204637,2,0,L|256:232,1,50
256,56,204804,5,0,0:0:0:0:
392,144,204971,2,0,P|424:168|448:200,2,66.6666666666667
318,221,205304,2,0,P|281:236|241:241,2,66.6666666666667
270,120,205637,2,0,P|265:80|249:43,2,66.6666666666667
168,145,205970,2,0,P|135:169|112:200,2,66.6666666666667
184,248,206304,5,4,0:0:0:0:
256,192,211637,12,0,213971,0:0:0:0:
256,192,214304,5,0,0:0:0:0:
336,280,214471,1,0,0:0:0:0:
256,72,214637,2,0,P|200:80|168:120,2,100
256,312,215137,2,0,P|312:304|344:264,2,100
408,88,215637,5,0,0:0:0:0:
464,168,215804,1,0,0:0:0:0:
368,176,215971,1,0,0:0:0:0:
408,88,216137,1,0,0:0:0:0:
408,88,216221,1,0,0:0:0:0:
408,88,216304,1,0,0:0:0:0:
340,273,216471,6,0,B|324:305|324:305|300:321|300:321|276:361,2,100
160,192,216971,5,0,0:0:0:0:
104,296,217137,1,0,0:0:0:0:
48,192,217304,1,0,0:0:0:0:
104,88,217471,1,0,0:0:0:0:
224,88,217637,1,0,0:0:0:0:
160,192,217804,1,0,0:0:0:0:
280,192,217971,1,0,0:0:0:0:
224,296,218137,1,0,0:0:0:0:
160,192,218304,5,0,0:0:0:0:
176,168,218387,1,0,0:0:0:0:
200,152,218471,1,0,0:0:0:0:
224,144,218554,1,0,0:0:0:0:
248,144,218637,1,0,0:0:0:0:
272,152,218721,1,0,0:0:0:0:
296,168,218804,1,0,0:0:0:0:
312,192,218887,1,0,0:0:0:0:
320,216,218971,6,0,L|328:328,2,100
440,192,219471,1,0,0:0:0:0:
360,72,219637,5,0,0:0:0:0:
324,44,219721,1,0,0:0:0:0:
276,36,219804,1,0,0:0:0:0:
232,52,219887,1,0,0:0:0:0:
200,84,219971,1,0,0:0:0:0:
207,129,220055,1,0,0:0:0:0:
190,174,220138,1,0,0:0:0:0:
154,204,220221,1,0,0:0:0:0:
108,212,220304,6,0,L|56:216,4,50
80,96,220804,1,0,0:0:0:0:
104,296,220971,5,0,0:0:0:0:
148,320,221054,1,0,0:0:0:0:
196,328,221137,1,0,0:0:0:0:
248,328,221221,1,0,0:0:0:0:
296,320,221304,1,0,0:0:0:0:
344,304,221387,1,0,0:0:0:0:
384,276,221471,1,0,0:0:0:0:
412,232,221554,1,0,0:0:0:0:
416,184,221637,6,0,L|404:124,4,50
276,192,222137,1,0,0:0:0:0:
405,61,222304,5,0,0:0:0:0:
389,38,222387,1,0,0:0:0:0:
415,47,222471,1,0,0:0:0:0:
389,56,222554,1,0,0:0:0:0:
405,33,222637,1,0,0:0:0:0:
256,240,222804,1,0,0:0:0:0:
106,61,222971,5,0,0:0:0:0:
122,38,223054,1,0,0:0:0:0:
96,47,223138,1,0,0:0:0:0:
122,56,223221,1,0,0:0:0:0:
106,33,223304,1,0,0:0:0:0:
256,240,223471,1,0,0:0:0:0:
256,32,223637,5,0,0:0:0:0:
256,32,223804,1,0,0:0:0:0:
88,192,223971,5,0,0:0:0:0:
88,192,224137,1,0,0:0:0:0:
424,192,224304,5,0,0:0:0:0:
256,252,224471,2,2,L|256:352,2,100
336,288,224971,6,0,P|256:320|176:288,1,175.00000166893
80,64,225304,1,0,0:0:0:0:
288,192,225471,1,0,0:0:0:0:
48,144,225637,1,0,0:0:0:0:
288,128,225804,1,0,0:0:0:0:
64,208,225971,5,0,0:0:0:0:
256,48,226137,1,0,0:0:0:0:
448,208,226304,1,0,0:0:0:0:
448,208,226387,1,0,0:0:0:0:
448,208,226471,1,0,0:0:0:0:
256,352,226637,5,0,0:0:0:0:
304,112,226804,1,0,0:0:0:0:
448,304,226971,1,0,0:0:0:0:
448,304,227054,1,0,0:0:0:0:
448,304,227137,1,0,0:0:0:0:
256,160,227304,1,0,0:0:0:0:
256,160,227387,1,0,0:0:0:0:
256,160,227471,1,0,0:0:0:0:
416,16,227637,6,0,P|480:128|480:192,1,175.00000166893
320,352,227971,1,0,0:0:0:0:
368,112,228137,1,0,0:0:0:0:
224,304,228304,1,0,0:0:0:0:
464,240,228471,1,0,0:0:0:0:
240,144,228637,5,0,0:0:0:0:
416,320,228804,1,0,0:0:0:0:
192,224,228971,1,0,0:0:0:0:
192,224,229054,1,0,0:0:0:0:
192,224,229137,1,0,0:0:0:0:
352,32,229304,1,0,0:0:0:0:
128,144,229471,1,0,0:0:0:0:
256,352,229637,5,0,0:0:0:0:
306,365,229720,1,0,0:0:0:0:
358,350,229804,1,0,0:0:0:0:
394,314,229887,1,0,0:0:0:0:
408,264,229970,1,0,0:0:0:0:
395,212,230054,1,0,0:0:0:0:
357,175,230137,1,0,0:0:0:0:
306,162,230220,1,0,0:0:0:0:
256,176,230304,6,0,P|180:260|184:356,1,175.00000166893
416,364,230637,1,0,0:0:0:0:
372,124,230804,1,0,0:0:0:0:
308,360,230971,1,0,0:0:0:0:
76,284,231137,1,0,0:0:0:0:
256,120,231304,5,0,0:0:0:0:
140,336,231471,1,0,0:0:0:0:
60,104,231637,1,0,0:0:0:0:
60,104,231721,1,0,0:0:0:0:
60,104,231804,1,0,0:0:0:0:
292,180,231971,5,0,0:0:0:0:
96,36,232137,1,0,0:0:0:0:
140,276,232304,1,0,0:0:0:0:
140,276,232387,1,0,0:0:0:0:
140,276,232471,1,0,0:0:0:0:
292,84,232637,1,0,0:0:0:0:
292,84,232721,1,0,0:0:0:0:
292,84,232804,1,0,0:0:0:0:
72,188,232971,5,0,0:0:0:0:
256,348,233137,1,0,0:0:0:0:
204,108,233304,2,0,P|132:48|176:136,1,262.500002503395
156,88,233637,2,0,P|280:176|408:144,1,262.500002503395
420,136,233971,5,0,0:0:0:0:
196,236,234137,1,0,0:0:0:0:
420,136,234304,1,0,0:0:0:0:
192,44,234471,1,0,0:0:0:0:
304,260,234637,6,0,B|336:320|336:320|396:336|396:336|420:276|420:276|368:212,1,262.500002503395
368,288,234971,2,0,P|252:196|132:260,1,262.500002503395
120,264,235304,1,0,0:0:0:0:
64,284,235387,1,0,0:0:0:0:
24,236,235471,1,0,0:0:0:0:
56,184,235554,1,0,0:0:0:0:
116,196,235637,6,0,P|120:272|208:264,1,175.00000166893
328,36,235971,1,0,0:0:0:0:
476,252,236137,1,0,0:0:0:0:
232,160,236304,1,0,0:0:0:0:
468,48,236471,1,0,0:0:0:0:
396,300,236637,5,0,0:0:0:0:
136,344,236804,1,0,0:0:0:0:
352,192,236971,1,0,0:0:0:0:
352,192,237054,1,0,0:0:0:0:
352,192,237137,1,0,0:0:0:0:
160,40,237304,5,0,0:0:0:0:
64,284,237471,1,0,0:0:0:0:
268,120,237637,1,0,0:0:0:0:
268,120,237721,1,0,0:0:0:0:
268,120,237804,1,0,0:0:0:0:
416,336,237971,1,0,0:0:0:0:
416,336,238054,1,0,0:0:0:0:
416,336,238137,1,0,0:0:0:0:
160,276,238304,6,0,P|132:180|172:116,1,175.00000166893
416,32,238637,1,0,0:0:0:0:
332,280,238804,1,0,0:0:0:0:
232,36,238971,1,0,0:0:0:0:
408,228,239137,1,0,0:0:0:0:
168,340,239304,5,0,0:0:0:0:
300,112,239471,1,0,0:0:0:0:
56,208,239637,1,0,0:0:0:0:
56,208,239721,1,0,0:0:0:0:
56,208,239804,1,0,0:0:0:0:
284,336,239971,1,0,0:0:0:0:
208,84,240137,1,0,0:0:0:0:
32,300,240304,5,0,0:0:0:0:
83,311,240388,1,0,0:0:0:0:
124,278,240471,1,0,0:0:0:0:
124,226,240554,1,0,0:0:0:0:
168,192,240638,1,0,0:0:0:0:
219,204,240721,1,0,0:0:0:0:
242,251,240804,1,0,0:0:0:0:
220,300,240887,1,0,0:0:0:0:
168,312,240971,6,0,P|64:300|48:192,1,175.00000166893
224,36,241304,1,0,0:0:0:0:
460,192,241471,1,0,0:0:0:0:
188,132,241637,1,0,0:0:0:0:
464,92,241804,1,0,0:0:0:0:
344,348,241971,5,0,0:0:0:0:
336,68,242137,1,0,0:0:0:0:
84,188,242304,1,0,0:0:0:0:
84,188,242387,1,0,0:0:0:0:
84,188,242471,1,0,0:0:0:0:
364,188,242637,5,0,0:0:0:0:
112,64,242804,1,0,0:0:0:0:
256,304,242971,2,0,P|368:292|432:220,1,175.00000166893
176,104,243304,1,0,0:0:0:0:
44,352,243471,1,0,0:0:0:0:
256,168,243637,6,0,B|252:144|252:144|260:112|260:112|256:88|256:88|256:60,3,87.500000834465
344,72,243971,2,0,B|328:136|328:136|388:104,1,87.500000834465
412,100,244137,5,0,0:0:0:0:
468,128,244221,1,0,0:0:0:0:
476,180,244304,1,0,0:0:0:0:
444,224,244387,1,0,0:0:0:0:
392,232,244471,1,0,0:0:0:0:
340,248,244554,1,0,0:0:0:0:
296,276,244637,1,0,0:0:0:0:
260,316,244721,1,0,0:0:0:0:
232,360,244804,6,0,P|184:360|136:324,1,87.500000834465
204,280,244971,2,0,P|188:196|60:224,1,200
128,256,245221,2,0,B|208:136|208:136|164:88,1,200
92,84,245471,2,0,P|140:20|212:28,1,100
256,32,245637,5,0,0:0:0:0:
313,55,245721,1,0,0:0:0:0:
337,113,245804,1,0,0:0:0:0:
313,171,245887,1,0,0:0:0:0:
256,195,245971,1,0,0:0:0:0:
197,219,246054,1,0,0:0:0:0:
173,277,246137,1,0,0:0:0:0:
197,336,246221,1,0,0:0:0:0:
296,348,246304,5,0,0:0:0:0:
296,348,246387,1,0,0:0:0:0:
424,192,246554,1,0,0:0:0:0:
424,192,246637,1,0,0:0:0:0:
225,159,246804,1,0,0:0:0:0:
225,159,246887,1,0,0:0:0:0:
326,348,247054,1,0,0:0:0:0:
326,348,247137,1,0,0:0:0:0:
324,148,247304,5,0,0:0:0:0:
292,100,247387,1,0,0:0:0:0:
236,80,247471,1,0,0:0:0:0:
180,104,247554,1,0,0:0:0:0:
120,104,247637,6,0,P|128:71|121:-12,1,100
267,220,247887,2,0,P|234:228|168:272,1,100
293,33,248137,2,0,P|317:56|387:92,1,100
452,44,248304,5,0,0:0:0:0:
484,96,248387,1,0,0:0:0:0:
480,156,248471,1,0,0:0:0:0:
436,196,248554,1,0,0:0:0:0:
376,204,248637,1,0,0:0:0:0:
328,240,248721,1,0,0:0:0:0:
316,300,248804,1,0,0:0:0:0:
340,356,248887,1,0,0:0:0:0:
396,376,248971,5,0,0:0:0:0:
396,376,249054,1,0,0:0:0:0:
188,256,249221,1,0,0:0:0:0:
188,256,249304,1,0,0:0:0:0:
440,196,249471,1,0,0:0:0:0:
440,196,249554,1,0,0:0:0:0:
212,72,249721,1,0,0:0:0:0:
212,72,249804,1,0,0:0:0:0:
104,288,249971,5,0,0:0:0:0:
144,332,250054,1,0,0:0:0:0:
204,336,250137,1,0,0:0:0:0:
256,304,250221,1,0,0:0:0:0:
278,246,250304,6,0,P|311:159|359:121,1,100
84,254,250554,2,0,P|120:287|143:331,1,100
173,81,250804,2,0,P|125:95|75:94,1,100
36,48,250971,5,0,0:0:0:0:
92,28,251054,1,0,0:0:0:0:
152,16,251137,1,0,0:0:0:0:
212,20,251221,1,0,0:0:0:0:
256,60,251304,1,0,0:0:0:0:
240,116,251387,1,0,0:0:0:0:
272,168,251471,1,0,0:0:0:0:
256,224,251554,1,0,0:0:0:0:
256,284,251637,5,0,0:0:0:0:
256,284,251721,1,0,0:0:0:0:
424,116,251887,1,0,0:0:0:0:
424,116,251971,1,0,0:0:0:0:
195,55,252137,5,0,0:0:0:0:
195,55,252221,1,0,0:0:0:0:
256,284,252387,5,0,0:0:0:0:
256,284,252471,1,0,0:0:0:0:
316,52,252637,5,0,0:0:0:0:
344,104,252721,1,0,0:0:0:0:
360,160,252804,1,0,0:0:0:0:
368,220,252887,1,0,0:0:0:0:
356,280,252971,6,0,P|304:352|240:368,1,100
282,61,253221,2,0,P|331:57|378:74,1,100
129,234,253471,2,0,P|101:193|93:144,1,100
116,88,253637,5,0,0:0:0:0:
160,48,253721,1,0,0:0:0:0:
204,88,253804,1,0,0:0:0:0:
192,148,253887,1,0,0:0:0:0:
216,204,253971,1,0,0:0:0:0:
272,224,254054,1,0,0:0:0:0:
328,208,254137,1,0,0:0:0:0:
360,160,254221,1,0,0:0:0:0:
344,104,254304,5,0,0:0:0:0:
344,104,254387,1,0,0:0:0:0:
168,280,254554,1,0,0:0:0:0:
168,280,254637,1,0,0:0:0:0:
412,192,254804,1,0,0:0:0:0:
92,192,254971,6,0,L|212:192,1,100
116,164,255137,2,0,L|224:164,1,100
136,136,255304,1,0,0:0:0:0:
416,292,255471,1,0,0:0:0:0:
256,88,255637,5,0,0:0:0:0:
256,88,255721,1,0,0:0:0:0:
152,324,255887,1,0,0:0:0:0:
152,324,255971,1,0,0:0:0:0:
376,196,256137,6,0,P|444:136|340:184,1,300
304,176,256471,1,0,0:0:0:0:
276,228,256554,1,0,0:0:0:0:
224,252,256637,1,0,0:0:0:0:
164,244,256721,1,0,0:0:0:0:
116,208,256804,1,0,0:0:0:0:
100,152,256887,1,0,0:0:0:0:
120,96,256971,5,0,0:0:0:0:
256,316,257137,1,0,0:0:0:0:
28,192,257304,1,0,0:0:0:0:
256,68,257471,1,0,0:0:0:0:
152,304,257637,1,0,0:0:0:0:
172,44,257804,1,0,0:0:0:0:
420,124,257971,1,0,0:0:0:0:
168,180,258137,1,0,0:0:0:0:
388,40,258304,5,0,0:0:0:0:
480,284,258471,1,0,0:0:0:0:
224,256,258637,1,0,0:0:0:0:
472,172,258804,1,0,0:0:0:0:
220,112,258971,1,0,0:0:0:0:
388,312,259137,1,0,0:0:0:0:
388,312,259221,1,0,0:0:0:0:
388,312,259304,1,0,0:0:0:0:
128,348,259471,1,0,0:0:0:0:
128,348,259554,1,0,0:0:0:0:
128,348,259637,5,0,0:0:0:0:
52,76,259804,1,0,0:0:0:0:
224,296,259971,1,0,0:0:0:0:
184,20,260137,1,0,0:0:0:0:
288,296,260304,1,0,0:0:0:0:
328,20,260470,1,0,0:0:0:0:
384,348,260637,1,0,0:0:0:0:
460,76,260804,1,0,0:0:0:0:
202,80,260971,5,0,0:0:0:0:
220,104,261054,1,0,0:0:0:0:
244,118,261137,1,0,0:0:0:0:
408,334,261304,5,0,0:0:0:0:
384,348,261387,1,0,0:0:0:0:
354,352,261470,1,0,0:0:0:0:
152,188,261637,2,0,P|104:160|44:208,1,100
148,276,261804,2,0,P|196:304|256:256,1,100
280,168,261971,5,0,0:0:0:0:
340,132,262054,1,0,0:0:0:0:
408,140,262137,1,0,0:0:0:0:
456,192,262221,1,0,0:0:0:0:
440,240,262304,5,0,0:0:0:0:
400,268,262387,1,0,0:0:0:0:
352,276,262471,1,0,0:0:0:0:
308,256,262554,1,0,0:0:0:0:
284,212,262637,1,0,0:0:0:0:
240,192,262720,1,0,0:0:0:0:
192,200,262804,1,0,0:0:0:0:
152,228,262887,1,0,0:0:0:0:
148,280,262971,1,0,0:0:0:0:
184,316,263054,1,0,0:0:0:0:
232,332,263137,1,0,0:0:0:0:
284,332,263221,1,0,0:0:0:0:
332,320,263304,5,0,0:0:0:0:
112,184,263471,1,0,0:0:0:0:
348,36,263637,5,0,0:0:0:0:
405,51,263721,1,0,0:0:0:0:
448,93,263804,1,0,0:0:0:0:
463,151,263887,1,0,0:0:0:0:
448,209,263971,1,0,0:0:0:0:
405,252,264054,1,0,0:0:0:0:
347,267,264137,1,0,0:0:0:0:
290,252,264221,1,0,0:0:0:0:
272,196,264304,1,0,0:0:0:0:
215,180,264388,1,0,0:0:0:0:
156,195,264471,1,0,0:0:0:0:
114,238,264554,1,0,0:0:0:0:
68,292,264637,5,0,0:0:0:0:
20,240,264721,1,0,0:0:0:0:
32,172,264804,1,0,0:0:0:0:
88,128,264887,1,0,0:0:0:0:
160,124,264971,6,0,P|292:100|320:52,1,200
220,44,265221,2,0,B|280:176|280:176|384:204,1,200
408,124,265471,2,0,P|432:196|416:272,1,100
388,308,265637,5,0,0:0:0:0:
388,308,265721,1,0,0:0:0:0:
388,308,265804,1,0,0:0:0:0:
132,192,265971,1,0,0:0:0:0:
380,68,266137,1,0,0:0:0:0:
176,260,266304,6,0,P|64:216|84:116,1,200
132,192,266554,2,0,P|226:117|297:174,1,179.999994506836
212,188,266804,2,0,P|240:304|124:328,1,240
464,108,267304,6,0,P|460:76|416:32,1,55.0000016784668
356,36,267471,2,0,P|360:68|396:108,1,55.0000016784668
408,160,267637,6,0,B|412:216|412:216|340:248|340:248|316:156|316:156|280:144,1,247.500002360344
228,84,267971,2,0,B|212:56|212:56|192:88,1,42.5000008106232
132,124,268137,2,0,B|148:152|148:152|168:120,1,42.5000008106232
132,52,268304,5,0,0:0:0:0:
108,52,268360,1,0,0:0:0:0:
84,52,268415,1,0,0:0:0:0:
64,68,268471,2,0,P|32:104|24:128,1,42.5000008106232
68,176,268637,1,0,0:0:0:0:
60,264,268721,2,0,L|32:344,2,52.4999983978272
132,320,268971,6,0,B|144:288|144:288|140:256|140:256|156:208,1,104.999996795654
228,264,269221,1,0,0:0:0:0:
224,176,269304,2,0,B|240:160|240:160|264:184,1,42.5000008106232
332,240,269471,2,0,B|316:256|316:256|292:232,1,42.5000008106232
328,144,269637,6,0,L|304:96,1,42.5000008106232
396,28,269804,2,0,L|420:80,1,47.4999987316132
444,204,269971,2,0,P|448:228|428:224,1,52.4999983978272
348,336,270137,2,0,P|324:332|331:355,1,57.5000010967255
132,320,270304,6,0,B|192:156|192:156|108:228,1,247.500002360344
80,120,270637,2,0,L|48:92,1,42.5000008106232
132,40,270804,2,0,L|172:72,1,42.5000008106232
256,28,270971,5,0,0:0:0:0:
280,28,271026,1,0,0:0:0:0:
304,28,271082,1,0,0:0:0:0:
328,40,271137,2,0,P|364:56|396:56,1,42.5000008106232
460,68,271304,6,0,P|472:108|472:148,1,52.4999983978272
380,144,271471,2,0,P|380:197|416:252,1,104.999996795654
256,360,271804,5,0,0:0:0:0:
128,192,271971,1,0,0:0:0:0:
256,360,272137,1,0,0:0:0:0:
384,192,272304,1,0,0:0:0:0:
256,24,272471,1,0,0:0:0:0:
256,232,272637,2,0,L|256:179,3,52.4999983978272
172,100,272971,5,0,0:0:0:0:
136,104,273054,1,0,0:0:0:0:
104,124,273137,1,0,0:0:0:0:
84,156,273221,1,0,0:0:0:0:
80,192,273304,1,0,0:0:0:0:
88,228,273387,1,0,0:0:0:0:
112,256,273471,1,0,0:0:0:0:
144,272,273554,1,0,0:0:0:0:
180,280,273637,1,0,0:0:0:0:
216,276,273721,1,0,0:0:0:0:
252,264,273804,1,0,0:0:0:0:
276,236,273887,1,0,0:0:0:0:
304,208,273971,6,0,P|363:208|412:244,1,104.999996795654
216,368,274304,5,0,0:0:0:0:
176,376,274387,1,0,0:0:0:0:
136,368,274471,1,0,0:0:0:0:
108,336,274554,1,0,0:0:0:0:
100,296,274637,1,0,0:0:0:0:
112,256,274721,1,0,0:0:0:0:
140,224,274804,1,0,0:0:0:0:
164,188,274887,1,0,0:0:0:0:
168,144,274971,1,0,0:0:0:0:
156,104,275054,1,0,0:0:0:0:
128,72,275137,1,0,0:0:0:0:
88,56,275221,1,0,0:0:0:0:
48,64,275304,6,0,P|28:112|60:168,1,104.999996795654
260,68,275637,5,0,0:0:0:0:
308,68,275721,1,0,0:0:0:0:
352,80,275804,1,0,0:0:0:0:
392,104,275887,1,0,0:0:0:0:
428,136,275971,1,0,0:0:0:0:
276,236,276137,1,0,0:0:0:0:
258,51,276304,5,0,0:0:0:0:
311,51,276388,1,0,0:0:0:0:
359,64,276471,1,0,0:0:0:0:
403,90,276554,1,0,0:0:0:0:
443,126,276638,1,0,0:0:0:0:
276,236,276804,1,0,0:0:0:0:
124,124,276971,5,0,0:0:0:0:
124,124,277137,1,0,0:0:0:0:
388,124,277304,5,0,0:0:0:0:
388,124,277470,1,0,0:0:0:0:
256,260,277637,5,0,0:0:0:0:
256,72,277804,2,0,L|256:184,2,104.999996795654
