osu file format v14

[General]
AudioFilename: audio.mp3
AudioLeadIn: 0
PreviewTime: 10703
Countdown: 0
SampleSet: Normal
StackLeniency: 0.7
Mode: 0
LetterboxInBreaks: 0
WidescreenStoryboard: 0

[Editor]
Bookmarks: 60993
DistanceSpacing: 1.4
BeatDivisor: 4
GridSize: 32
TimelineZoom: 2.7

[Metadata]
Title:Moji Code o Kakemegure!
TitleUnicode:文字コードをかけめぐれ!
Artist:Camellia & Nanahira
ArtistUnicode:かめりあ & ななひら
Creator:Lami
Version:Hard
Source:
Tags:intoon すりーぷ! Snowy Dream toybot Karia
BeatmapID:1106894
BeatmapSetID:519961

[Difficulty]
HPDrainRate:5
CircleSize:3.7
OverallDifficulty:6.5
ApproachRate:7.8
SliderMultiplier:1.47
SliderTickRate:1

[Events]
//Background and Video events
0,0,"bgw.jpg",0,0
//Break Periods
2,21102,22305
//Storyboard Layer 0 (Background)
//Storyboard Layer 1 (Fail)
//Storyboard Layer 2 (Pass)
//Storyboard Layer 3 (Foreground)
//Storyboard Sound Samples

[TimingPoints]
1266,272.727272727273,4,1,1,35,1,0
1811,-100,4,1,1,50,0,0
2356,-200,4,1,1,65,0,0
4129,-125,4,1,1,50,0,0
4402,-200,4,1,1,65,0,0
6311,-125,4,1,1,50,0,0
6584,-200,4,1,1,65,0,0
8493,-125,4,1,1,50,0,0
8766,-100,4,1,1,65,0,0
9856,-100,4,1,1,65,0,0
10947,-100,4,1,1,50,0,0
13266,-100,4,1,1,80,0,0
22266,-100,4,1,1,50,0,0
23084,-100,4,1,1,65,0,0
47084,-100,4,1,1,50,0,0
48175,-100,4,1,1,60,0,0
48720,-100,4,1,1,65,0,0
49811,-100,4,1,1,70,0,0
50220,-100,4,1,1,75,0,0
50629,-100,4,1,1,80,0,0
51038,-100,4,1,1,85,0,0
51584,-100,4,1,1,70,0,0
51993,-100,4,1,1,75,0,0
52402,-100,4,1,1,80,0,0
52811,-100,4,1,1,85,0,0
53220,-100,4,1,1,90,0,0
53493,-100,4,1,1,75,0,0
54175,-100,4,1,1,50,0,0
54720,-100,4,1,1,60,0,0
55266,-100,4,1,1,70,0,0
55811,-100,4,1,1,80,0,1
73266,-100,4,1,1,65,0,0
77629,-100,4,1,1,50,0,0
79811,-100,4,1,1,80,0,0
87856,-100,4,1,1,85,0,0
88266,-100,4,1,1,90,0,0
88470,-100,4,1,1,50,0,0
89356,-100,4,1,1,20,0,0

[Colours]
Combo1 : 249,169,72
Combo2 : 255,113,113
Combo3 : 249,197,153
Combo4 : 238,55,40

[HitObjects]
175,132,1266,6,0,L|181:176,7,36.75,0|0|0|0|0|0|0|0,0:0|0:0|0:0|0:0|0:0|0:0|0:0|0:0,0:0:0:0:
267,171,1811,6,0,L|261:215,3,36.75,0|0|0|0,0:0|0:0|0:0|0:0,0:0:0:0:
230,243,2084,2,0,L|225:279,3,36.75,0|0|0|0,0:0|0:0|0:0|0:0,0:0:0:0:
193,315,2356,6,0,B|162:342|102:326|102:270|102:270|30:262|12:189|28:120|79:88|152:89|175:132,1,441,12|0,0:0|2:0,0:0:0:0:
228,212,4129,6,0,P|265:213|293:202,1,58.8,12|0,0:2|2:0,0:0:0:0:
320,89,4402,2,0,B|351:25|439:29|489:88|473:166|399:198|399:198|385:228|426:260|426:260|414:298|414:298|437:329|414:367,1,477.75,12|0,0:0|2:0,0:0:0:0:
309,350,6311,6,0,P|287:324|277:287,1,58.8,12|0,0:2|2:0,0:0:0:0:
212,200,6584,2,0,B|142:200|104:263|104:263|85:200|85:200|50:210|26:174|26:174|6:135|20:75|63:55|120:52|145:95,1,477.75,12|0,0:0|2:0,0:0:0:0:
236,116,8493,6,0,P|279:119|309:104,1,58.8,12|0,0:2|2:0,0:0:0:0:
397,39,8766,1,12,0:0:0:0:
397,39,9311,1,12,0:0:0:0:
397,39,9856,6,0,B|418:82|418:82|408:188,2,147,12|8|12,0:0|0:0|0:0,0:0:0:0:
322,100,10538,1,0,0:0:0:0:
237,125,10675,2,0,P|200:121|165:110,1,73.5,8|0,0:0|0:0,0:0:0:0:
90,64,10947,5,12,0:0:0:0:
106,206,11084,1,12,0:0:0:0:
231,362,12993,2,0,L|276:354,3,36.75,2|0|0|0,0:0|0:0|0:0|0:0,0:0:0:0:
313,368,13266,6,0,P|317:319|308:285,1,73.5,12|0,0:0|0:0,0:0:0:0:
399,291,13538,2,0,P|381:244|359:217,1,73.5,10|0,0:0|0:0,0:0:0:0:
445,185,13811,2,0,P|410:150|378:135,1,73.5,8|0,0:0|0:0,0:0:0:0:
302,159,14084,1,10,0:0:0:0:
247,227,14220,6,0,P|177:240|120:197,2,147,0|0|0,0:0|0:0|0:0,0:0:0:0:
199,152,14902,1,8,0:0:0:0:
122,108,15038,2,0,P|55:135|32:203,1,147,0|0,0:0|0:0,0:0:0:0:
40,289,15447,6,0,L|54:361,1,73.5,8|0,0:0|0:0,0:0:0:0:
136,303,15720,2,0,L|150:230,1,73.5,10|0,0:0|0:0,0:0:0:0:
230,293,15993,2,0,L|244:365,1,73.5,8|0,0:0|0:0,0:0:0:0:
326,307,16266,2,0,L|340:234,1,73.5,10|0,0:0|0:0,0:0:0:0:
299,129,16538,6,0,P|221:112|266:196,1,220.5,8|0,0:0|0:0,0:0:0:0:
385,163,17084,2,0,P|392:120|384:91,1,73.5,10|0,0:0|0:0,0:0:0:0:
465,27,17356,2,0,L|486:107,1,73.5,10|0,0:0|0:0,0:0:0:0:
470,219,17629,5,8,0:0:0:0:
470,219,17766,1,8,0:0:0:0:
401,274,17902,2,0,L|317:269,1,73.5,10|0,0:0|0:0,0:0:0:0:
311,356,18175,2,0,L|240:309,1,73.5,8|0,0:0|0:0,0:0:0:0:
175,267,18447,1,10,0:0:0:0:
150,181,18584,6,0,P|93:171|28:229,2,147,0|0|0,0:0|0:0|0:0,0:0:0:0:
175,267,19266,1,8,0:0:0:0:
242,191,19402,2,0,L|249:140,5,36.75,8|8|10|8|8|8,0:0|0:0|0:0|0:0|0:0|0:0,0:0:0:0:
271,117,19811,6,0,B|314:98|366:122|366:122|390:101|390:101|434:131|483:117,1,220.5,12|0,0:0|2:0,0:0:0:0:
512,247,20356,2,0,B|469:266|417:242|417:242|393:263|393:263|349:233|300:247,1,220.5,12|0,0:0|2:0,0:0:0:0:
182,243,20902,5,0,0:0:0:0:
296,336,23084,5,12,0:0:0:0:
296,336,23356,2,0,P|258:336|223:325,1,73.5,8|0,0:0|0:0,0:0:0:0:
272,251,23629,2,0,P|307:240|343:240,1,73.5,8|0,0:0|0:0,0:0:0:0:
426,270,23902,2,0,L|437:186,1,73.5,8|0,0:0|0:0,0:0:0:0:
424,109,24175,6,0,P|367:72|290:87,1,147,8|8,0:0|0:0,0:0:0:0:
243,159,24584,2,0,P|172:173|111:135,1,147,0|0,0:0|0:0,0:0:0:0:
82,51,24993,1,8,0:0:0:0:
82,51,25129,1,0,0:0:0:0:
26,150,25266,6,0,L|18:241,1,73.5,8|8,0:0|0:0,0:0:0:0:
96,304,25538,2,0,L|102:230,1,73.5,8|0,0:0|0:0,0:0:0:0:
173,178,25811,2,0,P|218:162|299:218,1,147,8|8,0:0|0:0,0:0:0:0:
311,298,26220,1,0,0:0:0:0:
244,355,26356,6,0,L|154:348,1,73.5,8|0,0:0|0:0,0:0:0:0:
311,298,26629,2,0,L|384:303,1,73.5,8|0,0:0|0:0,0:0:0:0:
436,184,26902,1,8,0:0:0:0:
436,184,27038,1,8,0:0:0:0:
464,268,27175,2,0,P|470:316|459:353,1,73.5,8|0,0:0|0:0,0:0:0:0:
311,298,27447,5,8,0:0:0:0:
311,298,27720,2,0,L|299:217,1,73.5,8|0,0:0|0:0,0:0:0:0:
217,150,27993,2,0,L|206:222,1,73.5,8|0,0:0|0:0,0:0:0:0:
310,132,28266,2,0,L|299:59,1,73.5,8|0,0:0|0:0,0:0:0:0:
211,55,28538,6,0,P|166:71|79:22,1,147,8|8,0:0|0:0,0:0:0:0:
37,104,28947,2,0,L|23:251,1,147,0|0,0:0|0:0,0:0:0:0:
79,318,29356,2,0,P|121:317|155:302,1,73.5,8|0,0:0|0:0,0:0:0:0:
236,215,29629,5,8,0:0:0:0:
236,215,29766,1,8,0:0:0:0:
246,302,29902,2,0,L|219:373,1,73.5,8|0,0:0|0:0,0:0:0:0:
149,305,30175,2,0,P|128:271|122:236,1,73.5,10|2,0:0|0:2,0:0:0:0:
37,259,30447,2,0,P|35:219|48:186,1,73.5,10|0,0:0|0:0,0:0:0:0:
168,113,30720,5,8,0:0:0:0:
168,113,30856,1,0,0:0:0:0:
225,180,30993,2,0,L|300:173,1,73.5,8|0,0:0|0:0,0:0:0:0:
373,125,31266,2,0,P|374:75|365:53,1,73.5,10|10,0:0|0:2,0:0:0:0:
405,210,31538,2,0,P|404:260|413:282,1,73.5,10|0,0:0|0:0,0:0:0:0:
318,365,31811,5,12,0:0:0:0:
318,365,32084,2,0,L|237:356,1,73.5,8|0,0:0|0:0,0:0:0:0:
194,275,32356,2,0,P|234:270|274:253,1,73.5,8|0,0:0|0:0,0:0:0:0:
210,188,32629,2,0,P|175:174|139:171,1,73.5,8|0,0:0|0:0,0:0:0:0:
50,178,32902,6,0,P|79:106|154:83,1,147,8|8,0:0|0:0,0:0:0:0:
227,95,33311,2,0,P|304:96|355:36,1,147,0|0,0:0|0:0,0:0:0:0:
436,29,33720,2,0,L|465:114,1,73.5,8|0,0:0|0:0,0:0:0:0:
452,222,33993,5,8,0:0:0:0:
452,222,34129,1,8,0:0:0:0:
367,194,34266,2,0,P|333:183|288:186,1,73.5,8|0,0:0|0:0,0:0:0:0:
255,300,34538,2,0,P|289:292|327:267,1,73.5,8|0,0:0|0:0,0:0:0:0:
283,380,34811,2,0,P|247:381|212:371,1,73.5,8|0,0:0|0:0,0:0:0:0:
170,292,35084,6,0,P|130:249|41:255,1,147,8|8,0:0|0:0,0:0:0:0:
26,337,35493,1,0,0:0:0:0:
138,379,35629,2,0,L|223:369,1,73.5,8|8,0:0|0:0,0:0:0:0:
283,247,35902,1,8,0:0:0:0:
283,247,36175,6,0,L|297:335,1,73.5,8|0,0:0|0:0,0:0:0:0:
382,261,36447,2,0,B|398:157|398:157|380:113,2,147,8|8|8,0:0|0:0|0:0,0:0:0:0:
294,319,37129,1,8,0:0:0:0:
294,319,37197,1,8,0:0:0:0:
294,319,37266,6,0,P|190:260|251:180,2,220.5,12|12|12,0:0|0:0|0:0,0:0:0:0:
306,143,38356,1,12,0:0:0:0:
306,143,38493,1,8,0:0:0:0:
364,208,38629,2,0,L|378:296,1,73.5,8|0,0:0|0:0,0:0:0:0:
449,185,38902,6,0,P|454:148|448:111,1,73.5,8|0,0:0|0:0,0:0:0:0:
370,70,39175,2,0,P|356:35|332:6,1,73.5,8|0,0:0|0:0,0:0:0:0:
250,36,39447,2,0,L|233:113,1,73.5,8|0,0:0|0:0,0:0:0:0:
156,150,39720,2,0,L|159:228,1,73.5,8|0,0:0|0:0,0:0:0:0:
211,295,39993,1,8,0:0:0:0:
211,295,40129,1,8,0:0:0:0:
288,337,40266,2,0,P|332:338|366:318,1,73.5,8|0,0:0|0:0,0:0:0:0:
437,201,40538,6,0,P|365:200|314:250,2,147,12|8|8,0:0|0:0|0:0,0:0:0:0:
489,273,41220,1,0,0:0:0:0:
429,339,41356,2,0,L|336:320,1,73.5,8|0,0:0|0:0,0:0:0:0:
267,331,41629,6,0,P|197:341|141:297,1,147,8|8,0:0|0:0,0:0:0:0:
62,253,42038,2,0,P|117:208|188:219,1,147,0|0,0:0|0:0,0:0:0:0:
272,245,42447,2,0,L|359:215,1,73.5,8|0,0:0|0:0,0:0:0:0:
384,143,42720,6,0,B|382:243|382:243|416:294,2,147,8|8|8,0:0|0:0|0:0,0:0:0:0:
410,58,43402,1,0,0:0:0:0:
325,81,43538,2,0,P|291:85|249:83,1,73.5,8|0,0:0|0:0,0:0:0:0:
179,31,43811,6,0,L|166:185,1,147,8|8,0:0|0:0,0:0:0:0:
125,256,44220,2,0,P|86:255|43:241,1,73.5,0|8,0:0|0:0,0:0:0:0:
4,167,44493,2,0,P|12:128|31:91,1,73.5,14|0,0:0|0:0,0:0:0:0:
166,178,44766,6,0,B|213:184|213:184|266:165|266:165|319:172,1,147,14|8,0:0|0:0,0:0:0:0:
355,288,45175,2,0,P|309:275|285:258,1,73.5,8|0,0:0|0:0,0:0:0:0:
393,208,45447,2,0,L|472:198,1,73.5,8|0,0:0|0:0,0:0:0:0:
506,119,45720,2,0,L|427:109,1,73.5,8|0,0:0|0:0,0:0:0:0:
366,51,45993,6,0,P|301:31|231:80,1,147,8|8,0:0|0:0,0:0:0:0:
202,151,46402,1,0,0:0:0:0:
202,151,46470,1,0,0:0:0:0:
202,151,46538,2,0,L|120:164,1,73.5,8|8,0:0|0:0,0:0:0:0:
90,82,46811,2,0,L|8:95,1,73.5,8|8,0:0|0:0,0:0:0:0:
0,222,47084,5,12,0:0:0:0:
256,192,47152,12,0,49129,0:0:0:0:
198,140,49402,6,0,L|204:220,1,73.5,12|14,0:2|0:0,0:0:0:0:
376,246,49811,2,0,L|370:172,1,73.5,12|14,0:2|0:0,0:0:0:0:
284,272,50220,2,0,L|290:352,1,73.5,12|14,0:2|0:0,0:0:0:0:
462,378,50629,2,0,L|456:304,1,73.5,12|14,0:2|0:0,0:0:0:0:
415,102,51038,6,0,P|379:89|334:97,1,73.5,14|0,0:0|0:0,0:0:0:0:
261,122,51311,2,0,P|226:138|200:175,1,73.5,14|0,0:0|0:0,0:0:0:0:
281,207,51584,6,0,L|361:213,1,73.5,12|14,0:2|0:0,0:0:0:0:
189,335,51993,2,0,L|115:329,1,73.5,12|14,0:2|0:0,0:0:0:0:
187,116,52402,2,0,L|267:122,1,73.5,12|14,0:2|0:0,0:0:0:0:
95,244,52811,2,0,L|21:238,1,73.5,12|14,0:2|0:0,0:0:0:0:
99,83,53220,6,0,P|95:120|105:176,1,73.5,14|0,0:0|0:0,0:0:0:0:
256,192,53493,1,14,0:0:0:0:
256,192,54175,12,0,55538,0:0:0:0:
403,327,55811,6,0,L|411:248,1,73.5,12|0,0:0|0:0,0:0:0:0:
393,166,56084,1,8,0:0:0:0:
328,225,56220,2,0,P|274:231|215:166,1,147,0|0,0:0|0:0,0:0:0:0:
188,83,56629,1,8,0:0:0:0:
132,152,56766,6,0,B|124:202|124:202|87:234|87:234|79:288,1,147,0|0,0:0|0:0,0:0:0:0:
117,361,57175,1,8,0:0:0:0:
117,361,57311,1,0,0:0:0:0:
203,379,57447,2,0,P|238:370|269:350,1,73.5,8|0,0:0|0:0,0:0:0:0:
318,217,57720,6,0,L|327:289,1,73.5,8|0,0:0|0:0,0:0:0:0:
399,204,57993,2,0,P|410:124|357:60,1,147,8|10,0:0|0:0,0:0:0:0:
296,30,58402,1,0,0:0:0:0:
298,117,58538,2,0,P|265:133|228:137,1,73.5,10|0,0:0|0:0,0:0:0:0:
143,112,58811,2,0,P|141:77|155:39,1,73.5,8|0,0:0|0:0,0:0:0:0:
164,205,59084,5,8,0:0:0:0:
164,205,59220,1,0,0:0:0:0:
227,265,59356,2,0,P|270:266|304:248,1,73.5,8|0,0:0|0:0,0:0:0:0:
377,203,59629,2,0,L|373:296,1,73.5,8|0,0:0|0:0,0:0:0:0:
453,307,59902,2,0,L|457:234,1,73.5,8|0,0:0|0:0,0:0:0:0:
448,145,60175,5,8,0:0:0:0:
448,145,60311,1,0,0:0:0:0:
364,117,60447,1,8,0:0:0:0:
364,117,60584,1,0,0:0:0:0:
280,145,60720,2,0,P|227:148|204:141,1,73.5,8|0,0:0|0:0,0:0:0:0:
325,39,60993,2,0,P|360:31|397:36,1,73.5,8|0,0:0|0:0,0:0:0:0:
241,59,61266,6,0,B|203:63|171:42|171:42|140:65|96:52,2,147,8|8|8,0:0|0:0|0:0,0:0:0:0:
325,39,61947,1,0,0:0:0:0:
364,117,62084,2,0,P|363:161|346:194,1,73.5,8|0,0:0|0:0,0:0:0:0:
256,243,62356,5,8,0:0:0:0:
256,243,62493,1,8,0:0:0:0:
188,187,62629,2,0,P|156:174|103:175,1,73.5,6|0,0:0|0:0,0:0:0:0:
188,299,62902,5,8,0:0:0:0:
188,299,63039,1,8,0:0:0:0:
256,243,63175,2,0,P|288:230|341:231,1,73.5,6|0,0:0|0:0,0:0:0:0:
256,355,63447,5,8,0:0:0:0:
256,355,63584,1,8,0:0:0:0:
188,299,63720,2,0,P|156:286|103:287,1,73.5,6|0,0:0|0:0,0:0:0:0:
37,321,63993,2,0,L|24:362,2,36.75,8|0|8,0:0|0:0|0:0,0:0:0:0:
34,232,64266,1,6,0:0:0:0:
34,232,64538,6,0,L|42:153,1,73.5,12|0,0:0|0:0,0:0:0:0:
90,85,64811,1,8,0:0:0:0:
158,139,64947,2,0,P|209:151|289:86,1,147,0|0,0:0|0:0,0:0:0:0:
330,26,65356,1,8,0:0:0:0:
418,22,65493,6,0,P|464:58|465:142,1,147,0|0,0:0|0:0,0:0:0:0:
427,225,65902,1,8,0:0:0:0:
427,225,66038,1,0,0:0:0:0:
341,244,66174,2,0,L|260:231,1,73.5,8|0,0:0|0:0,0:0:0:0:
186,346,66447,6,0,P|221:347|263:327,1,73.5,8|0,0:0|0:0,0:0:0:0:
183,255,66720,2,0,P|135:217|52:231,1,147,8|10,0:0|0:0,0:0:0:0:
18,120,67129,1,0,0:0:0:0:
106,124,67266,2,0,L|179:104,1,73.5,10|0,0:0|0:0,0:0:0:0:
250,152,67538,2,0,P|261:118|262:81,1,73.5,8|0,0:0|0:0,0:0:0:0:
335,26,67811,5,8,0:0:0:0:
335,26,67947,1,0,0:0:0:0:
414,64,68084,1,8,0:0:0:0:
414,64,68220,1,0,0:0:0:0:
436,149,68356,2,0,P|440:190|431:227,1,73.5,8|2,0:0|0:0,0:0:0:0:
368,282,68629,2,0,P|353:248|349:212,1,73.5,10|2,0:0|0:0,0:0:0:0:
264,239,68902,1,8,0:0:0:0:
264,239,69038,1,8,0:0:0:0:
220,161,69175,6,0,P|144:150|90:217,2,147,12|8|8,0:0|0:0|0:0,0:0:0:0:
303,131,69856,1,0,0:0:0:0:
367,192,69993,2,0,P|411:191|444:174,1,73.5,8|8,0:0|0:0,0:0:0:0:
478,100,70266,6,0,P|430:50|347:64,2,147,12|8|8,0:0|0:0|0:0,0:0:0:0:
437,178,70947,1,0,0:0:0:0:
362,225,71084,6,0,B|321:247|289:207|289:207|283:179|283:179|240:148|185:177|177:224,2,220.5,14|14|0,0:0|0:0|0:0,0:0:0:0:
289,370,72175,2,0,B|329:392|361:352|361:352|367:324|367:324|410:293|466:322|474:369,2,220.5,14|14|0,0:0|0:0|0:0,0:0:0:0:
226,309,73129,1,0,0:0:0:0:
118,367,73266,5,14,0:0:0:0:
118,367,75448,5,14,0:0:0:0:
118,367,76675,1,0,0:0:0:0:
118,367,76811,6,0,L|107:322,8,36.75
201,330,77493,5,0,0:0:0:0:
89,239,77629,1,12,0:0:0:0:
246,113,79538,2,0,L|252:149,3,36.75,2|0|0|0,0:0|0:0|0:0|0:0,0:0:0:0:
280,183,79811,6,0,P|316:187|352:181,1,73.5,12|0,0:0|0:0,0:0:0:0:
422,237,80084,2,0,P|391:257|357:268,1,73.5,10|0,0:0|0:0,0:0:0:0:
272,293,80356,2,0,P|290:324|318:348,1,73.5,8|0,0:0|0:0,0:0:0:0:
405,363,80629,1,10,0:0:0:0:
485,327,80765,6,0,B|511:223|511:223|487:180,2,147,0|0|0,0:0|0:0|0:0,0:0:0:0:
405,363,81447,1,8,0:0:0:0:
362,286,81583,2,0,P|319:248|230:266,1,147,0|0,0:0|0:0,0:0:0:0:
162,310,81992,6,0,L|148:238,1,73.5,8|0,0:0|0:0,0:0:0:0:
65,304,82265,2,0,L|51:377,1,73.5,10|0,0:0|0:0,0:0:0:0:
16,217,82538,2,0,L|2:145,1,73.5,8|0,0:0|0:0,0:0:0:0:
115,85,82811,2,0,L|101:158,1,73.5,10|0,0:0|0:0,0:0:0:0:
203,161,83083,6,0,P|291:164|238:93,1,220.5,8|0,0:0|0:0,0:0:0:0:
101,157,83629,2,0,P|94:200|102:229,1,73.5,10|0,0:0|0:0,0:0:0:0:
181,330,83902,2,0,P|189:294|181:258,1,73.5,10|0,0:0|0:0,0:0:0:0:
274,279,84174,5,8,0:0:0:0:
274,279,84311,1,8,0:0:0:0:
341,345,84447,2,0,L|415:331,1,73.5,10|0,0:0|0:0,0:0:0:0:
468,252,84720,2,0,L|394:238,1,73.5,8|0,0:0|0:0,0:0:0:0:
337,163,84992,1,10,0:0:0:0:
387,89,85129,6,0,P|457:82|507:133,2,147,0|0|0,0:0|0:0|0:0,0:0:0:0:
337,163,85811,1,8,0:0:0:0:
293,70,85947,2,0,L|248:55,5,36.75,8|8|10|8|8|8,0:0|0:0|0:0|0:0|0:0|0:0,0:0:0:0:
213,77,86356,6,0,B|197:116|197:116|210:159|210:159|193:196|193:196|212:240|212:240|202:285,1,220.5,12|0,0:0|2:0,0:0:0:0:
326,369,86902,2,0,B|342:330|342:330|329:287|329:287|346:250|346:250|327:206|327:206|336:162,1,220.5,12|0,0:0|2:0,0:0:0:0:
376,58,87447,6,4,L|451:47,1,73.5,12|12,0:0|0:0,0:0:0:0:
409,172,87856,2,4,L|334:161,1,73.5,12|12,0:0|0:0,0:0:0:0:
376,286,88266,2,4,L|451:275,1,73.5,12|12,0:0|0:0,0:0:0:0:
256,192,88470,12,0,89356,2:0:0:0:
