osu file format v14

[General]
AudioFilename: audio.mp3
AudioLeadIn: 0
PreviewTime: 8565
Countdown: 0
SampleSet: Soft
StackLeniency: 0.4
Mode: 0
LetterboxInBreaks: 0
WidescreenStoryboard: 0

[Editor]
Bookmarks: 2165,8565,34165,48565,61365,86965,98165,136843,156043,181643,194443,218443,226443
DistanceSpacing: 0.6
BeatDivisor: 4
GridSize: 8
TimelineZoom: 3.299999

[Metadata]
Title:Animal Life
TitleUnicode:アニマルらんど
Artist:Camellia & Nanahira
ArtistUnicode:かめりあ & ななひら
Creator:NACO969
Version:Ne Ne Neko Neko Ne Neko Ne !
Source:すりーぷ!
Tags:Kawaii Nanahira Sleep すりーぷ!Animal Life
BeatmapID:1506802
BeatmapSetID:712904

[Difficulty]
HPDrainRate:7
CircleSize:6
OverallDifficulty:8
ApproachRate:9
SliderMultiplier:1.5
SliderTickRate:1

[Events]
//Background and Video events
0,0,"Animal Life.jpg",0,0
//Break Periods
2,45565,47965
2,98965,101092
2,135430,136243
//Storyboard Layer 0 (Background)
//Storyboard Layer 1 (Fail)
//Storyboard Layer 2 (Pass)
//Storyboard Layer 3 (Foreground)
//Storyboard Layer 4 (Overlay)
//Storyboard Sound Samples

[TimingPoints]
-1035,400,4,2,0,90,1,0
8565,-133.333333333333,4,1,0,90,0,0
21365,-100,4,1,0,90,0,0
33365,-71.4285714285714,4,1,0,90,0,0
34165,-71.4285714285714,4,3,0,90,0,1
41365,-71.4285714285714,4,3,0,90,0,1
41465,-71.4285714285714,4,3,0,5,0,1
41565,-71.4285714285714,4,3,0,90,0,1
41665,-71.4285714285714,4,3,0,5,0,1
41765,-71.4285714285714,4,3,0,90,0,1
41865,-71.4285714285714,4,3,0,5,0,1
41965,-71.4285714285714,4,3,0,90,0,1
45365,-80,4,3,0,90,0,0
48565,-100,4,1,0,90,0,0
61365,-100,4,2,0,90,0,0
74165,-80,4,1,0,90,0,0
85365,-62.5,4,1,0,90,0,0
86965,-62.5,4,3,0,90,0,1
94165,-62.5,4,3,0,90,0,1
94265,-62.5,4,3,0,5,0,1
94365,-62.5,4,3,0,90,0,1
94465,-62.5,4,3,0,5,0,1
94565,-62.5,4,3,0,90,0,1
94665,-62.5,4,3,0,5,0,1
94765,-62.5,4,3,0,90,0,1
98165,-62.5,4,1,0,90,0,0
98965,545.454545454546,5,1,0,90,1,0
101692,468.75,4,1,0,90,1,0
101692,-142.857142857143,4,1,0,90,0,0
108723,-66.6666666666667,4,1,0,90,0,0
120442,312.5,3,1,0,90,1,0
121848,-200,3,1,0,90,0,0
122317,-83.3333333333333,3,1,0,90,0,0
126067,-66.6666666666667,3,1,0,90,0,0
131697,365.853658536585,3,1,0,90,1,0
132428,545.454545454546,3,1,0,90,1,0
132973,645.161290322581,3,1,0,90,1,0
136843,400,4,1,0,90,1,0
136843,-100,4,1,0,90,0,0
149643,-66.6666666666667,4,2,0,90,0,0
156043,-80,4,1,0,90,0,0
168843,-80,4,2,0,90,0,0
181643,-66.6666666666667,4,1,0,90,0,0
192843,-55.5555555555556,4,1,0,90,0,0
194443,-55.5555555555556,4,3,0,90,0,1
201643,-55.5555555555556,4,3,0,90,0,1
201743,-55.5555555555556,4,3,0,5,0,1
201843,-55.5555555555556,4,3,0,90,0,1
201943,-55.5555555555556,4,3,0,5,0,1
202043,-55.5555555555556,4,3,0,90,0,1
202143,-55.5555555555556,4,3,0,5,0,1
202243,-55.5555555555556,4,3,0,90,0,1
207243,-50,4,3,0,90,0,1
212043,-66.6666666666667,4,3,0,90,0,1
212943,-50,4,3,0,90,0,1
214443,-50,4,3,0,90,0,1
214543,-50,4,3,0,5,0,1
214643,-50,4,3,0,90,0,1
214743,-50,4,3,0,5,0,1
214843,-50,4,3,0,90,0,1
214943,-50,4,3,0,5,0,1
215043,-50,4,3,0,90,0,1
218443,-66.6666666666667,4,2,0,90,0,0

[HitObjects]
72,48,2165,6,0,P|48:88|72:184,1,150,8|0,0:0|0:0,0:0:0:0:
120,112,2765,1,0,0:0:0:0:
120,112,2865,1,0,0:0:0:0:
120,112,2965,2,0,P|160:144|264:112,1,150,8|0,0:0|0:0,0:0:0:0:
192,56,3565,5,0,0:0:0:0:
192,56,3665,1,0,0:0:0:0:
192,56,3765,2,0,L|176:224,1,150,8|0,0:0|0:0,0:0:0:0:
168,304,4365,1,0,0:0:0:0:
248,264,4565,5,8,0:0:0:0:
272,248,4665,1,0,0:0:0:0:
304,248,4765,1,8,0:0:0:0:
328,264,4865,1,0,0:0:0:0:
360,272,4965,1,8,0:0:0:0:
392,264,5065,1,8,0:0:0:0:
416,248,5165,1,8,0:0:0:0:
432,224,5265,1,8,0:0:0:0:
440,200,5365,6,0,P|416:152|336:192,1,150,8|0,0:0|0:0,0:0:0:0:
288,296,5965,5,0,0:0:0:0:
288,296,6065,1,0,0:0:0:0:
288,296,6165,2,0,P|228:329|186:274,1,150,8|0,0:0|0:0,0:0:0:0:
256,168,6765,5,0,0:0:0:0:
256,168,6865,1,0,0:0:0:0:
256,168,6965,1,8,0:0:0:0:
256,192,7065,12,0,8365,0:0:0:0:
240,72,8565,5,0,0:0:0:0:
313,345,8965,1,8,0:0:0:0:
340,92,9365,5,0,0:0:0:0:
376,228,9565,1,8,0:0:0:0:
426,142,9765,1,0,0:0:0:0:
290,178,9965,1,8,0:0:0:0:
442,209,10165,2,0,L|512:252,1,56.2500021457673,8|0,0:0|0:0,0:0:0:0:
290,178,10565,5,0,0:0:0:0:
426,142,10765,1,8,0:0:0:0:
310,245,10965,2,0,L|276:297,1,56.2500021457673,8|0,0:0|0:0,0:0:0:0:
168,263,11365,2,0,L|201:209,1,56.2500021457673,4|0,0:0|0:0,0:0:0:0:
328,224,11765,5,0,0:0:0:0:
46,148,12165,1,8,0:0:0:0:
309,114,12565,5,0,0:0:0:0:
169,76,12765,1,8,0:0:0:0:
220,165,12965,1,0,0:0:0:0:
258,26,13165,1,8,0:0:0:0:
264,187,13365,6,2,B|291:214|291:214|319:223|319:223|344:248,1,84.3750032186509,2|0,0:0|0:0,0:0:0:0:
336,279,13765,2,2,B|298:287|298:287|276:307|276:307|240:320,1,84.3750032186509,2|0,0:0|0:0,0:0:0:0:
216,296,14165,2,2,B|225:258|225:258|219:230|219:230|224:192,1,84.3750032186509,2|0,0:0|0:0,0:0:0:0:
220,165,14565,1,4,0:0:0:0:
258,26,14765,1,4,0:0:0:0:
104,64,14965,5,0,0:0:0:0:
305,267,15365,1,8,0:0:0:0:
63,164,15765,5,0,0:0:0:0:
164,267,15965,1,8,0:0:0:0:
164,165,16165,1,0,0:0:0:0:
62,267,16365,1,8,0:0:0:0:
197,218,16565,2,0,L|269:217,1,56.2500021457673,8|0,0:0|0:0,0:0:0:0:
62,267,16965,5,0,0:0:0:0:
164,165,17165,1,8,0:0:0:0:
112,296,17365,2,0,L|112:360,1,56.2500021457673,8|0,0:0|0:0,0:0:0:0:
232,368,17765,2,0,L|232:304,1,56.2500021457673,4|0,0:0|0:0,0:0:0:0:
232,208,18165,5,0,0:0:0:0:
511,152,18565,1,8,0:0:0:0:
250,124,18965,5,0,0:0:0:0:
391,87,19165,1,8,0:0:0:0:
302,36,19365,1,0,0:0:0:0:
339,176,19565,1,8,0:0:0:0:
373,300,19765,6,0,P|336:336|280:336,1,84.3750032186509,2|0,0:0|0:0,0:0:0:0:
272,352,20165,2,0,P|222:337|194:289,1,84.3750032186509,2|0,0:0|0:0,0:0:0:0:
208,280,20565,5,8,0:0:0:0:
224,256,20665,1,0,0:0:0:0:
232,232,20765,1,8,0:0:0:0:
232,200,20865,1,0,0:0:0:0:
216,176,20965,1,8,0:0:0:0:
184,160,21065,1,8,0:0:0:0:
152,160,21165,1,8,0:0:0:0:
120,176,21265,1,8,0:0:0:0:
104,208,21365,6,0,P|144:256|128:200,1,150,2|0,0:0|0:0,0:0:0:0:
64,96,21965,1,0,0:0:0:0:
64,96,22065,1,0,0:0:0:0:
64,96,22165,2,0,P|84:41|106:95,1,150,2|0,0:0|0:0,0:0:0:0:
256,96,22765,1,8,0:0:0:0:
448,96,22965,6,0,P|428:41|406:95,1,150,2|0,0:0|0:0,0:0:0:0:
448,240,23565,1,0,0:0:0:0:
448,240,23665,1,0,0:0:0:0:
448,240,23765,1,8,0:0:0:0:
256,240,23965,1,4,0:0:0:0:
64,240,24165,1,4,0:0:0:0:
328,128,24565,6,0,P|376:144|368:240,1,150,2|0,0:0|0:0,0:0:0:0:
136,232,25165,1,0,0:0:0:0:
136,232,25265,1,0,0:0:0:0:
136,232,25365,2,0,P|124:163|186:129,1,150,2|0,0:0|0:0,0:0:0:0:
256,248,25965,1,8,0:0:0:0:
176,80,26165,5,0,0:0:0:0:
176,304,26565,1,8,0:0:0:0:
336,304,26765,1,8,0:0:0:0:
336,192,26965,1,8,0:0:0:0:
176,192,27165,5,4,0:0:0:0:
256,112,27365,1,4,0:0:0:0:
256,272,27565,1,4,0:0:0:0:
328,120,27765,6,0,P|376:96|448:160,1,150,2|0,0:0|0:0,0:0:0:0:
379,294,28365,1,0,0:0:0:0:
379,294,28465,1,0,0:0:0:0:
379,294,28565,2,0,P|331:318|251:254,1,150,2|0,0:0|0:0,0:0:0:0:
328,120,29165,1,8,0:0:0:0:
183,120,29365,6,0,P|135:96|63:160,1,150,2|0,0:0|0:0,0:0:0:0:
132,286,29965,1,0,0:0:0:0:
132,286,30065,1,0,0:0:0:0:
132,286,30165,1,8,0:0:0:0:
328,264,30365,1,4,0:0:0:0:
183,120,30565,1,4,0:0:0:0:
361,16,30965,6,2,L|385:0,6,18.75
393,64,31365,2,2,L|425:56,2,18.75
409,120,31565,2,2,L|441:120,2,18.75
401,176,31765,6,2,L|433:192,6,18.75
369,224,32165,2,2,L|391:247,2,18.75
328,264,32365,2,2,L|344:291,2,18.75
272,288,32565,5,8,0:0:0:0:
136,160,32765,1,8,0:0:0:0:
152,128,32865,1,8,0:0:0:0:
176,104,32965,1,8,0:0:0:0:
64,224,33165,1,4,0:0:0:0:
56,192,33265,1,4,0:0:0:0:
56,160,33365,2,4,P|72:96|200:32,1,209.999993591309,4|0,0:0|0:0,0:0:0:0:
216,32,33831,5,0,0:0:0:0:
240,32,33898,1,0,0:0:0:0:
264,40,33965,1,0,0:0:0:0:
288,56,34031,1,0,0:0:0:0:
304,80,34098,1,0,0:0:0:0:
312,104,34165,6,0,P|320:160|192:184,1,209.999993591309,8|0,0:0|0:0,0:0:0:0:
216,32,34765,1,0,0:0:0:0:
95,162,34965,2,0,P|64:208|56:256,2,104.999996795654,8|0|0,0:0|0:0|0:0,0:0:0:0:
126,159,35465,1,0,0:0:0:0:
158,167,35565,1,0,0:0:0:0:
182,191,35665,1,0,0:0:0:0:
198,223,35765,2,0,P|190:279|318:303,1,209.999993591309,8|0,0:0|0:0,0:0:0:0:
406,183,36365,1,0,0:0:0:0:
230,167,36565,5,10,0:0:0:0:
214,199,36665,1,0,0:0:0:0:
222,231,36765,1,2,0:0:0:0:
246,247,36865,1,0,0:0:0:0:
278,239,36965,1,2,0:0:0:0:
294,207,37065,1,2,0:0:0:0:
286,175,37165,1,2,0:0:0:0:
262,159,37265,1,2,0:0:0:0:
230,167,37365,6,0,P|223:262|317:280,1,209.999993591309,8|0,0:0|0:0,0:0:0:0:
456,136,37965,1,0,0:0:0:0:
344,16,38165,1,8,0:0:0:0:
320,184,38365,1,8,0:0:0:0:
224,64,38565,1,8,0:0:0:0:
200,248,38765,1,8,0:0:0:0:
56,192,38965,6,2,L|24:176,6,26.2499991989136
40,248,39365,2,2,L|0:248,6,26.2499991989136
56,304,39765,5,8,0:0:0:0:
88,328,39865,1,0,0:0:0:0:
128,336,39965,1,8,0:0:0:0:
168,328,40065,1,0,0:0:0:0:
200,304,40165,1,8,0:0:0:0:
240,296,40265,1,8,0:0:0:0:
280,304,40365,1,8,0:0:0:0:
312,328,40465,1,8,0:0:0:0:
352,344,40565,6,0,P|416:336|448:304,1,104.999996795654,8|0,0:0|0:0,0:0:0:0:
496,152,40965,2,0,P|492:100|460:59,1,104.999996795654
256,32,41365,6,4,L|240:83,1,52.4999983978272,8|4,0:0|0:0,0:0:0:0:
280,168,41565,2,2,L|304:216,1,52.4999983978272
256,296,41765,2,4,L|230:356,1,52.4999983978272,8|4,0:0|0:0,0:0:0:0:
128,320,41965,1,0,0:0:0:0:
128,320,42065,1,0,0:0:0:0:
128,320,42165,6,0,P|56:280|80:160,1,209.999993591309,8|0,0:0|0:0,0:0:0:0:
256,64,42765,1,0,0:0:0:0:
440,166,42965,2,8,P|464:262|384:320,1,209.999993591309,8|0,0:0|0:0,0:0:0:0:
256,192,43565,1,4,0:0:0:0:
256,64,43765,6,2,L|256:11,4,52.4999983978272
256,192,44365,1,2,0:0:0:0:
256,320,44565,1,2,0:0:0:0:
256,120,44965,5,8,0:0:0:0:
248,128,45065,1,8,0:0:0:0:
256,136,45165,1,8,0:0:0:0:
264,128,45265,1,8,0:0:0:0:
256,128,45365,5,4,0:0:0:0:
256,192,48565,5,0,0:0:0:0:
32,192,48965,1,8,0:0:0:0:
368,256,49365,1,0,0:0:0:0:
144,256,49765,1,8,0:0:0:0:
368,80,50165,1,0,0:0:0:0:
144,80,50565,1,8,0:0:0:0:
368,192,50965,2,2,P|416:152|488:200,1,150,2|0,0:0|0:0,0:0:0:0:
256,345,51765,5,0,0:0:0:0:
68,166,52165,1,8,0:0:0:0:
256,345,52565,1,0,0:0:0:0:
182,94,52965,1,8,0:0:0:0:
256,345,53365,5,8,0:0:0:0:
295,169,53565,1,8,0:0:0:0:
256,345,53765,1,8,0:0:0:0:
377,212,53965,1,8,0:0:0:0:
418,37,54165,2,0,P|341:21|273:80,1,150,2|0,0:0|0:0,0:0:0:0:
56,304,54965,5,0,0:0:0:0:
56,44,55365,1,8,0:0:0:0:
256,336,55765,1,0,0:0:0:0:
256,77,56165,1,8,0:0:0:0:
464,288,56565,1,0,0:0:0:0:
464,28,56965,1,8,0:0:0:0:
320,352,57365,2,0,P|388:343|388:266,1,150,2|0,0:0|0:0,0:0:0:0:
232,112,58165,6,2,L|184:80,3,37.5
152,144,58565,2,2,L|94:140,3,37.5
104,216,58965,2,2,L|52:241,3,37.5
91,301,59365,2,2,L|59:349,3,37.5
152,360,59765,5,8,0:0:0:0:
360,296,59965,1,8,0:0:0:0:
152,216,60165,1,8,0:0:0:0:
360,152,60365,1,8,0:0:0:0:
176,48,60565,5,8,0:0:0:0:
152,72,60665,1,0,0:0:0:0:
136,96,60765,1,8,0:0:0:0:
128,128,60865,1,0,0:0:0:0:
128,160,60965,1,8,0:0:0:0:
136,192,61065,1,8,0:0:0:0:
152,216,61165,1,8,0:0:0:0:
176,232,61265,1,8,0:0:0:0:
208,240,61365,6,0,P|272:256|352:216,1,150,4|8,0:0|0:0,0:0:0:0:
384,80,61965,1,0,0:0:0:0:
256,120,62165,1,8,0:0:0:0:
392,144,62365,1,0,0:0:0:0:
288,40,62565,1,8,0:0:0:0:
480,88,62765,1,0,0:0:0:0:
432,240,62965,6,8,B|424:272|424:272|400:288|400:288|384:320,1,75
256,336,63365,1,0,0:0:0:0:
320,160,63565,2,0,B|307:211|307:211|268:236|268:236|243:287,1,150,8|0,0:0|0:0,0:0:0:0:
136,368,64165,1,8,0:0:0:0:
104,208,64365,1,4,0:0:0:0:
100,190,64465,1,4,0:0:0:0:
96,172,64565,6,0,P|102:115|190:97,1,150,2|8,0:0|0:0,0:0:0:0:
320,152,65165,1,0,0:0:0:0:
408,280,65365,1,8,0:0:0:0:
256,288,65565,1,0,0:0:0:0:
384,208,65765,1,8,0:0:0:0:
336,352,65965,1,0,0:0:0:0:
280,208,66165,6,8,P|256:176|256:128,1,75
400,128,66565,1,0,0:0:0:0:
264,224,66765,2,0,P|232:176|256:64,1,150,8|0,0:0|0:0,0:0:0:0:
400,128,67365,2,0,P|424:160|424:208,1,75,8|0,0:0|0:0,0:0:0:0:
256,256,67765,6,0,P|208:296|168:304,1,75,2|0,0:0|0:0,0:0:0:0:
168,304,68065,1,0,0:0:0:0:
136,296,68165,2,8,P|96:264|96:160,1,150
464,192,68965,2,0,L|344:192,1,112.5,8|0,0:0|0:0,0:0:0:0:
312,192,69365,5,8,0:0:0:0:
200,72,69565,1,8,0:0:0:0:
264,224,69765,1,0,0:0:0:0:
248,56,69965,2,0,P|320:40|408:96,1,150,8|0,0:0|0:0,0:0:0:0:
448,288,70565,5,2,0:0:0:0:
432,320,70665,1,2,0:0:0:0:
400,344,70765,1,2,0:0:0:0:
368,360,70865,1,2,0:0:0:0:
328,360,70965,6,0,P|240:320|224:296,1,112.5,8|0,0:0|0:0,0:0:0:0:
216,280,71365,1,8,0:0:0:0:
328,160,71565,1,0,0:0:0:0:
184,272,71765,2,8,P|150:181|168:120,1,150
328,160,72365,1,0,0:0:0:0:
472,256,72565,5,8,0:0:0:0:
464,288,72665,1,0,0:0:0:0:
440,312,72765,1,0,0:0:0:0:
408,320,72865,1,0,0:0:0:0:
376,312,72965,1,8,0:0:0:0:
352,288,73065,1,0,0:0:0:0:
344,256,73165,1,0,0:0:0:0:
352,224,73265,1,0,0:0:0:0:
376,200,73365,5,8,0:0:0:0:
408,192,73465,1,0,0:0:0:0:
432,168,73565,1,8,0:0:0:0:
440,136,73665,1,0,0:0:0:0:
432,104,73765,1,8,0:0:0:0:
408,80,73865,1,8,0:0:0:0:
376,72,73965,1,8,0:0:0:0:
344,80,74065,1,8,0:0:0:0:
320,104,74165,6,0,B|280:160|280:160|280:24,1,187.5,2|0,0:0|0:0,0:0:0:0:
168,160,74765,1,0,0:0:0:0:
168,192,74865,1,0,0:0:0:0:
168,224,74965,2,0,B|112:264|112:264|248:264,1,187.5,2|0,0:0|0:0,0:0:0:0:
408,264,75565,1,8,0:0:0:0:
296,136,75765,6,0,B|256:80|256:80|256:216,1,187.5,2|0,0:0|0:0,0:0:0:0:
256,360,76365,1,0,0:0:0:0:
224,360,76465,1,0,0:0:0:0:
192,360,76565,1,8,0:0:0:0:
32,360,76765,1,4,0:0:0:0:
32,192,76965,1,4,0:0:0:0:
336,88,77365,6,0,B|256:40|256:40|176:88,1,187.5,2|0,0:0|0:0,0:0:0:0:
128,296,77965,1,0,0:0:0:0:
152,296,78065,1,0,0:0:0:0:
176,296,78165,2,0,B|256:344|256:344|336:296,1,187.5,2|0,0:0|0:0,0:0:0:0:
336,88,78765,1,8,0:0:0:0:
256,280,78965,2,8,B|256:256|256:256|248:240|248:240|264:224|264:224|256:208|256:208|256:176,1,93.75
256,40,79365,5,8,0:0:0:0:
360,192,79565,1,8,0:0:0:0:
152,192,79765,1,8,0:0:0:0:
256,336,79965,1,4,0:0:0:0:
380,153,80165,1,4,0:0:0:0:
131,153,80365,1,4,0:0:0:0:
392,184,80565,6,0,B|424:232|424:232|392:288|392:288|360:232,1,187.5,2|0,0:0|0:0,0:0:0:0:
120,120,81165,1,0,0:0:0:0:
120,152,81265,1,0,0:0:0:0:
120,184,81365,2,0,B|88:232|88:232|120:288|120:288|152:232,1,187.5,2|0,0:0|0:0,0:0:0:0:
256,72,81965,1,8,0:0:0:0:
256,256,82165,6,0,B|200:288|200:288|256:320|256:320|304:288,1,187.5,2|0,0:0|0:0,0:0:0:0:
256,104,82765,1,0,0:0:0:0:
256,72,82865,1,0,0:0:0:0:
256,40,82965,1,8,0:0:0:0:
256,192,83165,1,4,0:0:0:0:
256,344,83365,1,4,0:0:0:0:
64,168,83765,6,2,L|40:152,6,23.4375
128,216,84165,2,2,L|152:232,2,23.4375
208,216,84365,2,2,L|232:232,2,23.4375
272,168,84565,6,2,L|296:152,6,23.4375
336,216,84965,2,2,L|312:232,2,23.4375
416,216,85165,2,2,L|392:232,2,23.4375
480,168,85365,5,0,0:0:0:0:
256,120,85565,1,8,0:0:0:0:
224,128,85665,1,8,0:0:0:0:
200,152,85765,1,8,0:0:0:0:
168,32,85965,5,4,0:0:0:0:
136,40,86065,1,4,0:0:0:0:
112,64,86165,2,4,P|72:128|128:272,1,240,4|0,0:0|0:0,0:0:0:0:
152,280,86631,5,0,0:0:0:0:
168,280,86698,1,0,0:0:0:0:
184,272,86765,1,0,0:0:0:0:
200,256,86831,1,0,0:0:0:0:
208,240,86898,1,0,0:0:0:0:
216,224,86965,6,8,P|310:192|291:290,1,240,8|0,0:0|0:0,0:0:0:0:
72,288,87565,1,0,0:0:0:0:
264,352,87765,2,0,B|352:352|352:352|320:320,2,120,8|0|0,0:0|0:0|0:0,0:0:0:0:
224,352,88265,1,0,0:0:0:0:
184,352,88365,1,0,0:0:0:0:
144,352,88465,1,0,0:0:0:0:
104,352,88565,2,8,P|80:336|176:320,1,240,8|0,0:0|0:0,0:0:0:0:
392,272,89165,1,0,0:0:0:0:
120,280,89365,5,10,0:0:0:0:
96,256,89465,1,0,0:0:0:0:
80,224,89565,1,2,0:0:0:0:
72,192,89665,1,0,0:0:0:0:
80,160,89765,1,2,0:0:0:0:
96,128,89865,1,2,0:0:0:0:
128,112,89965,1,2,0:0:0:0:
160,120,90065,1,2,0:0:0:0:
184,144,90165,6,8,P|278:175|259:77,1,240,8|0,0:0|0:0,0:0:0:0:
88,72,90765,1,0,0:0:0:0:
184,221,90965,1,8,0:0:0:0:
52,142,91165,1,8,0:0:0:0:
198,273,91365,1,8,0:0:0:0:
61,265,91565,1,8,0:0:0:0:
269,372,91765,6,2,L|312:376,6,30
232,312,92165,2,2,L|189:316,6,30
288,264,92565,5,8,0:0:0:0:
328,248,92665,1,0,0:0:0:0:
360,216,92765,1,8,0:0:0:0:
376,176,92865,1,0,0:0:0:0:
336,184,92965,1,8,0:0:0:0:
291,178,93065,1,8,0:0:0:0:
253,155,93165,1,8,0:0:0:0:
227,120,93265,1,8,0:0:0:0:
208,80,93365,6,0,P|280:32|352:48,1,120,8|0,0:0|0:0,0:0:0:0:
432,264,93765,2,0,P|360:312|288:296,1,120
88,216,94165,6,2,L|59:161,1,60,8|2,0:0|0:0,0:0:0:0:
256,119,94365,2,2,L|317:120,1,60
256,312,94565,2,2,L|221:364,1,60,8|2,0:0|0:0,0:0:0:0:
144,192,94765,1,0,0:0:0:0:
136,160,94865,1,0,0:0:0:0:
128,128,94965,6,8,P|192:64|144:144,1,240,8|0,0:0|0:0,0:0:0:0:
256,312,95565,1,2,0:0:0:0:
384,128,95765,2,8,P|320:64|368:144,1,240,8|0,0:0|0:0,0:0:0:0:
368,168,96265,1,8,0:0:0:0:
400,184,96365,1,8,0:0:0:0:
424,208,96465,1,8,0:0:0:0:
440,240,96565,6,2,L|440:300,3,60
256,296,96965,1,2,0:0:0:0:
97,192,97165,1,2,0:0:0:0:
414,192,97365,1,2,0:0:0:0:
256,40,97765,5,8,0:0:0:0:
248,56,97865,1,8,0:0:0:0:
256,72,97965,1,8,0:0:0:0:
264,88,98065,1,8,0:0:0:0:
256,104,98165,5,4,0:0:0:0:
400,192,101692,5,8,0:0:0:0:
37,64,102160,2,0,L|72:64,2,34.9999989318848
232,128,102629,2,0,L|197:128,2,34.9999989318848
72,192,103098,1,4,0:0:0:0:
256,48,103567,5,8,0:0:0:0:
128,355,104035,2,0,L|128:320,2,34.9999989318848
192,216,104504,2,0,L|192:251,2,34.9999989318848
256,352,104973,1,4,0:0:0:0:
112,192,105442,5,8,0:0:0:0:
419,320,105910,2,0,L|384:320,2,34.9999989318848
280,256,106379,2,0,L|315:256,2,34.9999989318848
416,192,106848,1,4,0:0:0:0:
256,336,107317,5,8,0:0:0:0:
432,72,107785,2,0,L|432:24,2,34.9999989318848
320,40,108254,2,0,L|320:75,2,34.9999989318848
256,144,108723,2,0,B|248:184|248:184|264:256|264:256|256:312,1,168.750006437302,4|0,0:0|0:0,0:0:0:0:
256,344,109192,5,8,0:0:0:0:
106,156,109660,1,8,0:0:0:0:
132,112,109817,1,0,0:0:0:0:
168,77,109973,1,0,0:0:0:0:
344,77,110129,1,8,0:0:0:0:
379,112,110285,1,0,0:0:0:0:
405,156,110442,1,0,0:0:0:0:
256,236,110598,1,8,0:0:0:0:
256,32,111067,5,4,0:0:0:0:
106,227,111535,1,8,0:0:0:0:
132,271,111692,1,0,0:0:0:0:
168,306,111848,1,0,0:0:0:0:
344,306,112004,1,8,0:0:0:0:
379,271,112160,1,0,0:0:0:0:
405,227,112317,1,0,0:0:0:0:
256,104,112473,1,8,0:0:0:0:
256,352,112942,5,4,0:0:0:0:
121,96,113410,1,8,0:0:0:0:
160,124,113567,1,0,0:0:0:0:
198,153,113723,1,0,0:0:0:0:
390,96,113879,1,8,0:0:0:0:
352,124,114036,1,0,0:0:0:0:
313,153,114192,1,0,0:0:0:0:
121,278,114348,1,8,0:0:0:0:
456,192,114817,5,4,0:0:0:0:
97,95,115285,1,8,0:0:0:0:
150,95,115442,1,0,0:0:0:0:
203,95,115598,1,0,0:0:0:0:
308,288,115754,1,8,0:0:0:0:
361,288,115911,1,0,0:0:0:0:
414,288,116067,1,0,0:0:0:0:
256,192,116223,1,8,0:0:0:0:
256,192,116340,12,4,120442,0:0:0:0:
104,272,121848,6,2,L|88:280,8,12.5
120,264,122317,6,0,P|184:256|216:272,1,89.9999972534181,8|0,0:0|0:0,0:0:0:0:
392,264,122629,2,0,P|328:256|296:272,1,89.9999972534181,8|0,0:0|0:0,0:0:0:0:
112,184,122942,2,0,P|171:209|192:240,1,89.9999972534181,8|0,0:0|0:0,0:0:0:0:
400,184,123254,2,0,P|340:209|320:248,1,89.9999972534181,8|0,0:0|0:0,0:0:0:0:
104,112,123567,2,0,P|142:163|144:200,1,89.9999972534181,8|0,0:0|0:0,0:0:0:0:
408,112,123879,2,0,P|369:163|368:200,1,89.9999972534181,8|0,0:0|0:0,0:0:0:0:
256,48,124192,5,2,0:0:0:0:
256,343,124504,1,2,0:0:0:0:
292,205,124660,1,2,0:0:0:0:
328,67,124817,1,2,0:0:0:0:
254,195,124973,1,2,0:0:0:0:
179,322,125129,1,2,0:0:0:0:
380,119,125442,1,8,0:0:0:0:
124,268,125754,1,4,0:0:0:0:
416,192,126067,6,0,L|296:192,1,112.500004291535,8|0,0:0|0:0,0:0:0:0:
96,192,126379,2,0,L|216:192,1,112.500004291535,8|0,0:0|0:0,0:0:0:0:
369,305,126692,2,0,L|284:220,1,112.500004291535,8|0,0:0|0:0,0:0:0:0:
142,78,127004,2,0,L|227:163,1,112.500004291535,8|0,0:0|0:0,0:0:0:0:
256,352,127317,2,0,L|256:232,1,112.500004291535,8|0,0:0|0:0,0:0:0:0:
256,32,127629,2,0,L|256:152,1,112.500004291535,8|0,0:0|0:0,0:0:0:0:
208,320,127942,5,2,0:0:0:0:
366,51,128254,1,2,0:0:0:0:
450,183,128410,1,2,0:0:0:0:
317,266,128567,1,2,0:0:0:0:
234,136,128723,1,2,0:0:0:0:
456,128,128879,2,4,P|504:176|392:176,2,225.000008583069,8|4|4,0:0|0:0|0:0,0:0:0:0:
56,344,129817,6,0,B|96:320|96:320|160:360,1,112.500004291535,8|0,0:0|0:0,0:0:0:0:
264,336,130129,2,0,B|312:368|312:368|384:368,1,112.500004291535,8|0,0:0|0:0,0:0:0:0:
488,296,130442,1,8,0:0:0:0:
336,184,130598,1,0,0:0:0:0:
480,152,130754,2,0,B|440:200|440:200|432:232|432:232|400:232|400:232|392:264|392:264|360:272|360:272|352:296|352:296|328:320,1,225.000008583069,8|8,0:0|0:0,0:0:0:0:
120,192,131379,1,8,0:0:0:0:
256,32,131697,5,2,0:0:0:0:
256,360,132062,1,2,0:0:0:0:
256,32,132428,6,2,L|256:168,1,112.5,2|0,0:0|0:0,0:0:0:0:
256,176,132973,5,0,0:0:0:0:
240,192,133053,1,0,0:0:0:0:
232,216,133134,1,0,0:0:0:0:
240,240,133214,1,0,0:0:0:0:
256,256,133295,1,0,0:0:0:0:
280,264,133376,1,0,0:0:0:0:
296,280,133456,1,0,0:0:0:0:
304,304,133537,1,0,0:0:0:0:
296,328,133618,5,0,0:0:0:0:
280,344,133698,1,0,0:0:0:0:
256,352,133779,1,0,0:0:0:0:
232,344,133860,1,0,0:0:0:0:
216,328,133940,1,0,0:0:0:0:
208,304,134021,1,0,0:0:0:0:
216,280,134102,1,0,0:0:0:0:
232,264,134182,1,0,0:0:0:0:
256,256,134263,2,0,L|256:288,12,18.75
256,192,136843,5,8,0:0:0:0:
440,192,137043,1,0,0:0:0:0:
440,192,137143,1,0,0:0:0:0:
440,192,137243,2,0,L|352:192,1,75,8|0,0:0|0:0,0:0:0:0:
152,136,137643,2,0,L|232:136,1,75,8|0,0:0|0:0,0:0:0:0:
440,136,138043,2,0,L|360:136,1,75,8|0,0:0|0:0,0:0:0:0:
152,192,138443,6,0,B|152:240|152:240|208:288|208:288|272:288,1,150,8|8,0:0|0:0,0:0:0:0:
376,288,139043,1,0,0:0:0:0:
400,288,139143,1,0,0:0:0:0:
424,288,139243,1,2,0:0:0:0:
200,288,139443,1,2,0:0:0:0:
488,288,139643,1,2,0:0:0:0:
168,288,139843,1,2,0:0:0:0:
168,112,140043,5,8,0:0:0:0:
344,112,140243,1,0,0:0:0:0:
344,112,140343,1,0,0:0:0:0:
344,112,140443,2,8,L|344:200,1,75,8|0,0:0|0:0,0:0:0:0:
168,288,140843,2,0,L|168:208,1,75,8|0,0:0|0:0,0:0:0:0:
168,56,141243,2,8,B|168:104|168:104|120:104|120:104|120:184,1,150
120,288,141843,1,0,0:0:0:0:
144,288,141943,1,0,0:0:0:0:
168,288,142043,1,2,0:0:0:0:
256,168,142243,6,2,L|256:320,1,150
400,320,142843,1,2,0:0:0:0:
400,168,143043,1,2,0:0:0:0:
248,96,143243,5,8,0:0:0:0:
224,96,143343,1,0,0:0:0:0:
200,96,143443,1,0,0:0:0:0:
176,96,143543,1,0,0:0:0:0:
152,96,143643,1,8,0:0:0:0:
128,96,143743,1,0,0:0:0:0:
104,96,143843,1,0,0:0:0:0:
80,96,143943,1,0,0:0:0:0:
80,120,144043,5,8,0:0:0:0:
80,144,144143,1,0,0:0:0:0:
80,168,144243,1,0,0:0:0:0:
80,192,144343,1,0,0:0:0:0:
104,192,144443,1,8,0:0:0:0:
128,192,144543,1,0,0:0:0:0:
152,192,144643,1,0,0:0:0:0:
176,192,144743,1,0,0:0:0:0:
208,192,144843,5,2,0:0:0:0:
240,192,144943,1,0,0:0:0:0:
272,192,145043,1,0,0:0:0:0:
304,192,145143,1,0,0:0:0:0:
304,224,145243,1,2,0:0:0:0:
304,256,145343,1,0,0:0:0:0:
304,288,145443,1,0,0:0:0:0:
304,320,145543,1,0,0:0:0:0:
336,320,145643,5,2,0:0:0:0:
368,320,145743,1,0,0:0:0:0:
400,320,145843,1,0,0:0:0:0:
432,320,145943,1,0,0:0:0:0:
432,288,146043,1,2,0:0:0:0:
432,256,146143,1,0,0:0:0:0:
432,224,146243,1,0,0:0:0:0:
432,192,146343,1,0,0:0:0:0:
400,192,146443,5,8,0:0:0:0:
368,192,146543,1,0,0:0:0:0:
336,192,146643,1,8,0:0:0:0:
304,192,146743,1,0,0:0:0:0:
304,160,146843,1,8,0:0:0:0:
304,128,146943,1,0,0:0:0:0:
304,96,147043,1,8,0:0:0:0:
304,64,147143,1,0,0:0:0:0:
272,64,147243,5,8,0:0:0:0:
240,64,147343,1,0,0:0:0:0:
208,64,147443,1,8,0:0:0:0:
176,64,147543,1,0,0:0:0:0:
176,96,147643,1,8,0:0:0:0:
176,128,147743,1,0,0:0:0:0:
176,160,147843,1,8,0:0:0:0:
176,192,147943,1,0,0:0:0:0:
176,232,148043,5,2,0:0:0:0:
176,272,148143,1,2,0:0:0:0:
176,312,148243,1,2,0:0:0:0:
176,352,148343,1,2,0:0:0:0:
216,352,148443,1,2,0:0:0:0:
256,352,148543,1,2,0:0:0:0:
296,352,148643,1,2,0:0:0:0:
336,352,148743,1,2,0:0:0:0:
384,352,148843,5,4,0:0:0:0:
384,192,149043,1,4,0:0:0:0:
256,352,149243,1,4,0:0:0:0:
256,192,149443,1,4,0:0:0:0:
144,352,149643,6,0,P|96:320|160:200,1,225.000008583069,8|0,0:0|0:0,0:0:0:0:
160,272,150243,1,0,0:0:0:0:
160,272,150343,1,0,0:0:0:0:
160,272,150443,2,0,P|112:240|176:120,1,225.000008583069,8|0,0:0|0:0,0:0:0:0:
176,200,151043,5,0,0:0:0:0:
176,200,151143,1,0,0:0:0:0:
176,200,151243,2,0,P|296:232|400:176,1,225.000008583069,8|0,0:0|0:0,0:0:0:0:
480,104,151843,1,0,0:0:0:0:
360,40,152043,5,8,0:0:0:0:
324,40,152143,1,0,0:0:0:0:
288,40,152243,1,8,0:0:0:0:
253,40,152343,1,0,0:0:0:0:
219,40,152443,1,8,0:0:0:0:
183,40,152543,1,8,0:0:0:0:
148,40,152643,1,8,0:0:0:0:
114,40,152743,1,8,0:0:0:0:
112,72,152843,6,0,P|192:136|272:64,1,225.000008583069,8|0,0:0|0:0,0:0:0:0:
328,168,153443,1,0,0:0:0:0:
328,168,153543,1,0,0:0:0:0:
328,168,153643,2,0,P|412:105|488:176,1,225.000008583069,8|0,0:0|0:0,0:0:0:0:
408,232,154243,1,0,0:0:0:0:
408,232,154343,1,0,0:0:0:0:
408,232,154443,1,8,0:0:0:0:
256,192,154543,12,0,155843,0:0:0:0:
120,192,156043,5,0,0:0:0:0:
392,192,156443,1,8,0:0:0:0:
120,192,156843,1,0,0:0:0:0:
256,192,157043,1,0,0:0:0:0:
392,192,157243,1,8,0:0:0:0:
488,336,157643,5,0,0:0:0:0:
256,336,158043,1,8,0:0:0:0:
256,192,158243,1,8,0:0:0:0:
256,48,158443,2,2,L|256:160,1,93.75,2|0,0:0|0:0,0:0:0:0:
400,192,158843,2,0,L|288:192,1,93.75,4|0,0:0|0:0,0:0:0:0:
120,192,159243,5,0,0:0:0:0:
256,56,159643,1,8,0:0:0:0:
392,192,160043,1,0,0:0:0:0:
232,192,160243,1,0,0:0:0:0:
312,272,160443,1,8,0:0:0:0:
312,112,160643,1,0,0:0:0:0:
373,253,160843,1,8,0:0:0:0:
248,128,161043,1,8,0:0:0:0:
248,253,161243,1,8,0:0:0:0:
373,128,161443,1,8,0:0:0:0:
248,253,161643,2,0,P|184:216|256:192,1,187.5,2|4,0:0|0:0,0:0:0:0:
256,48,162443,5,0,0:0:0:0:
256,336,162843,1,8,0:0:0:0:
256,48,163243,5,0,0:0:0:0:
256,192,163443,1,0,0:0:0:0:
256,332,163643,1,8,0:0:0:0:
432,192,164043,5,0,0:0:0:0:
80,192,164443,1,8,0:0:0:0:
256,192,164643,1,8,0:0:0:0:
432,192,164843,2,0,L|328:192,1,93.75,2|0,0:0|0:0,0:0:0:0:
256,285,165243,2,0,L|256:181,1,93.75,4|0,0:0|0:0,0:0:0:0:
256,64,165643,6,2,L|256:128,3,46.875
384,192,166043,2,2,L|320:192,3,46.875
128,192,166443,2,0,L|192:192,1,46.875,8|0,0:0|0:0,0:0:0:0:
256,192,166643,2,0,L|302:192,1,46.875,8|0,0:0|0:0,0:0:0:0:
256,320,166843,2,0,L|256:256,1,46.875,8|0,0:0|0:0,0:0:0:0:
256,192,167043,2,0,L|256:145,1,46.875,8|0,0:0|0:0,0:0:0:0:
256,64,167243,5,8,0:0:0:0:
384,192,167443,1,8,0:0:0:0:
256,320,167643,1,8,0:0:0:0:
128,192,167843,1,8,0:0:0:0:
256,64,168043,5,2,0:0:0:0:
264,96,168143,1,2,0:0:0:0:
256,128,168243,1,2,0:0:0:0:
248,160,168343,1,2,0:0:0:0:
256,192,168443,1,2,0:0:0:0:
264,224,168543,1,2,0:0:0:0:
256,256,168643,1,2,0:0:0:0:
248,288,168743,1,2,0:0:0:0:
256,320,168843,6,8,P|320:344|456:288,1,187.5
344,192,169443,1,0,0:0:0:0:
256,64,169643,2,8,P|320:40|456:96,1,187.5
344,192,170243,1,0,0:0:0:0:
200,240,170443,5,8,0:0:0:0:
144,96,170643,1,0,0:0:0:0:
32,200,170843,1,8,0:0:0:0:
256,192,171043,2,0,P|288:240|144:288,1,281.25,8|0,0:0|0:0,0:0:0:0:
96,128,171843,1,0,0:0:0:0:
88,88,171943,1,0,0:0:0:0:
96,48,172043,6,0,B|144:32|144:32|184:48,1,93.75,8|0,0:0|0:0,0:0:0:0:
256,192,172443,2,0,B|208:208|208:208|168:192,1,93.75,8|0,0:0|0:0,0:0:0:0:
256,48,172843,2,8,B|296:32|296:32|336:48|336:48|336:160,1,187.5
168,346,173643,5,8,0:0:0:0:
344,346,173843,1,8,0:0:0:0:
150,293,174043,1,8,0:0:0:0:
361,293,174243,2,8,P|440:296|352:216,1,281.25
24,144,175243,6,0,L|88:216,1,93.75,8|0,0:0|0:0,0:0:0:0:
120,232,175543,1,0,0:0:0:0:
160,208,175643,2,0,B|248:168|248:168|336:208,1,187.5,8|8,0:0|0:0,0:0:0:0:
248,328,176243,2,0,B|336:368|336:368|424:328,1,187.5
496,208,176843,1,8,0:0:0:0:
432,48,177043,1,0,0:0:0:0:
432,208,177243,1,8,0:0:0:0:
368,48,177443,2,0,P|288:32|200:128,1,187.5
184,256,178043,5,2,0:0:0:0:
208,288,178143,1,2,0:0:0:0:
240,304,178243,1,2,0:0:0:0:
280,312,178343,1,2,0:0:0:0:
320,304,178443,6,0,P|392:272|448:192,1,140.625,8|0,0:0|0:0,0:0:0:0:
440,192,178843,1,8,0:0:0:0:
280,192,179043,1,0,0:0:0:0:
440,160,179243,2,8,P|408:88|296:32,1,187.5
280,192,179843,1,0,0:0:0:0:
120,192,180043,5,8,0:0:0:0:
97,218,180143,1,0,0:0:0:0:
97,251,180243,1,0,0:0:0:0:
124,279,180343,1,0,0:0:0:0:
157,279,180443,1,8,0:0:0:0:
185,251,180543,1,0,0:0:0:0:
219,251,180643,1,0,0:0:0:0:
246,279,180743,1,0,0:0:0:0:
281,279,180843,5,8,0:0:0:0:
308,251,180943,1,0,0:0:0:0:
308,218,181043,1,8,0:0:0:0:
281,192,181143,1,0,0:0:0:0:
246,192,181243,1,8,0:0:0:0:
219,163,181343,1,8,0:0:0:0:
219,130,181443,1,8,0:0:0:0:
246,102,181543,1,8,0:0:0:0:
280,104,181643,6,0,B|336:120|384:72|384:72|336:32|280:56,1,225.000008583069,2|0,0:0|0:0,0:0:0:0:
192,192,182243,1,0,0:0:0:0:
168,224,182343,1,0,0:0:0:0:
144,256,182443,2,0,B|88:240|40:288|40:288|88:328|144:304,1,225.000008583069,2|0,0:0|0:0,0:0:0:0:
320,192,183043,1,8,0:0:0:0:
480,328,183243,6,0,B|496:272|448:224|448:224|408:272|432:328,1,225.000008583069,2|0,0:0|0:0,0:0:0:0:
256,336,183843,1,0,0:0:0:0:
216,336,183943,1,0,0:0:0:0:
176,336,184043,1,8,0:0:0:0:
56,192,184243,1,4,0:0:0:0:
256,192,184443,1,4,0:0:0:0:
448,136,184843,6,0,B|488:184|488:184|488:296|488:296|448:336,1,225.000008583069,2|0,0:0|0:0,0:0:0:0:
256,336,185443,1,0,0:0:0:0:
216,336,185543,1,0,0:0:0:0:
176,336,185643,2,0,B|140:300|140:300|140:188|140:188|180:140,1,225.000008583069,2|0,0:0|0:0,0:0:0:0:
320,40,186243,1,0,0:0:0:0:
320,192,186443,1,8,0:0:0:0:
64,96,186843,2,8,B|96:56|96:56|224:56|224:56|256:96,1,225.000008583069
256,256,187443,5,4,0:0:0:0:
384,112,187643,1,4,0:0:0:0:
256,256,187843,1,4,0:0:0:0:
128,112,188043,6,0,B|80:160|80:160|96:208|48:232|48:232|64:288|128:296,1,225.000008583069,2|0,0:0|0:0,0:0:0:0:
344,288,188643,1,0,0:0:0:0:
384,288,188743,1,0,0:0:0:0:
422,284,188843,2,0,B|448:288|464:232|464:232|416:208|432:160|432:160|384:112,1,225.000008583069,2|0,0:0|0:0,0:0:0:0:
256,264,189443,1,8,0:0:0:0:
352,72,189643,6,0,B|272:48|272:48|256:24|256:24|240:48|240:48|160:72,1,225.000008583069,2|0,0:0|0:0,0:0:0:0:
256,200,190243,1,0,0:0:0:0:
256,232,190343,1,0,0:0:0:0:
256,264,190443,1,8,0:0:0:0:
424,192,190643,1,4,0:0:0:0:
88,192,190843,1,4,0:0:0:0:
208,48,191243,6,2,L|176:32,6,28.1250010728836
304,48,191643,2,2,L|336:32,2,28.1250010728836
200,104,191843,2,2,L|168:88,2,28.1250010728836
312,104,192043,6,2,L|344:88,6,28.1250010728836
192,160,192443,2,2,L|160:144,2,28.1250010728836
320,160,192643,2,2,L|352:144,2,28.1250010728836
184,216,192843,5,0,0:0:0:0:
256,48,193043,1,8,0:0:0:0:
256,96,193143,1,8,0:0:0:0:
256,144,193243,1,8,0:0:0:0:
256,288,193443,1,4,0:0:0:0:
256,240,193543,1,4,0:0:0:0:
256,192,193643,2,4,P|344:264|240:352,1,269.999991760254,4|0,0:0|0:0,0:0:0:0:
224,352,194109,5,0,0:0:0:0:
200,336,194176,1,0,0:0:0:0:
176,312,194243,1,0,0:0:0:0:
160,280,194309,1,0,0:0:0:0:
152,248,194376,1,0,0:0:0:0:
160,216,194443,6,0,B|192:144|120:144|120:144|160:72|160:72|208:144,1,269.999991760254,8|0,0:0|0:0,0:0:0:0:
400,144,195043,1,0,0:0:0:0:
400,328,195243,2,8,B|440:328|440:352|440:352|480:328|480:328|440:304,2,134.999995880127,8|0|0,0:0|0:0|0:0,0:0:0:0:
352,328,195743,1,0,0:0:0:0:
304,328,195843,1,0,0:0:0:0:
256,328,195943,1,0,0:0:0:0:
256,280,196043,6,8,B|288:208|216:208|216:208|256:136|256:136|304:208,1,269.999991760254,8|0,0:0|0:0,0:0:0:0:
144,328,196643,1,0,0:0:0:0:
144,136,196843,5,10,0:0:0:0:
176,104,196943,1,0,0:0:0:0:
216,88,197043,1,2,0:0:0:0:
256,80,197143,1,0,0:0:0:0:
296,80,197243,1,2,0:0:0:0:
336,88,197343,1,2,0:0:0:0:
376,104,197443,1,2,0:0:0:0:
408,136,197543,1,2,0:0:0:0:
432,176,197643,6,8,B|464:248|392:248|392:248|432:320|432:320|480:248,1,269.999991760254,8|0,0:0|0:0,0:0:0:0:
488,80,198243,1,0,0:0:0:0:
335,112,198443,1,8,0:0:0:0:
176,271,198643,1,8,0:0:0:0:
335,271,198843,1,8,0:0:0:0:
176,112,199043,1,8,0:0:0:0:
312,192,199243,6,2,L|344:216,6,33.7499989700318
200,192,199643,2,2,L|168:216,6,33.7499989700318
176,112,200043,5,8,0:0:0:0:
216,104,200143,1,0,0:0:0:0:
256,120,200243,1,8,0:0:0:0:
296,104,200343,1,0,0:0:0:0:
336,120,200443,1,8,0:0:0:0:
376,104,200543,1,8,0:0:0:0:
416,120,200643,1,8,0:0:0:0:
456,104,200743,1,8,0:0:0:0:
496,120,200843,6,8,P|480:208|328:312,1,269.999991760254,8|0,0:0|0:0,0:0:0:0:
256,192,201443,1,0,0:0:0:0:
40,248,201643,6,2,L|16:176,1,67.4999979400635,8|2,0:0|0:0,0:0:0:0:
80,56,201843,2,2,L|112:120,1,67.4999979400635
256,120,202043,2,2,L|255:191,1,67.4999979400635,8|2,0:0|0:0,0:0:0:0:
256,344,202243,5,0,0:0:0:0:
216,344,202343,1,0,0:0:0:0:
176,344,202443,2,8,P|112:304|224:304,1,269.999991760254,8|0,0:0|0:0,0:0:0:0:
256,96,203043,1,2,0:0:0:0:
287,270,203243,2,8,P|393:253|336:344,1,269.999991760254,8|0,0:0|0:0,0:0:0:0:
312,344,203709,5,0,0:0:0:0:
288,344,203776,1,0,0:0:0:0:
264,344,203843,1,0,0:0:0:0:
240,344,203909,1,0,0:0:0:0:
216,344,203976,1,0,0:0:0:0:
192,344,204043,5,8,0:0:0:0:
66,176,204243,1,8,0:0:0:0:
217,293,204443,1,6,0:0:0:0:
183,84,204643,1,2,0:0:0:0:
192,252,204843,1,8,0:0:0:0:
258,51,205043,1,8,0:0:0:0:
217,210,205243,1,8,0:0:0:0:
375,76,205443,1,8,0:0:0:0:
192,168,205643,6,0,P|112:160|96:112,1,134.999995880127,8|0,0:0|0:0,0:0:0:0:
104,80,205943,1,0,0:0:0:0:
128,48,206043,2,0,P|192:43|224:99,1,134.999995880127,8|0,0:0|0:0,0:0:0:0:
216,296,206443,2,8,P|288:344|392:224,1,269.999991760254
384,184,206943,1,0,0:0:0:0:
376,136,207043,1,0,0:0:0:0:
368,88,207143,1,0,0:0:0:0:
328,120,207243,6,8,B|288:144|288:144|256:128|256:128|256:48|256:48|208:24|208:24|160:48|160:48|160:88,1,300
160,240,207843,1,0,0:0:0:0:
352,240,208043,2,8,B|440:240|440:240|464:264|464:264|440:288|440:288|416:264,2,150
304,240,208543,1,0,0:0:0:0:
256,240,208643,1,0,0:0:0:0:
208,240,208743,1,0,0:0:0:0:
160,240,208843,5,8,0:0:0:0:
256,56,209043,1,0,0:0:0:0:
256,240,209243,1,8,0:0:0:0:
352,56,209443,1,0,0:0:0:0:
352,240,209643,5,2,0:0:0:0:
352,280,209743,1,0,0:0:0:0:
352,320,209843,1,2,0:0:0:0:
312,320,209943,1,0,0:0:0:0:
272,320,210043,1,2,0:0:0:0:
232,320,210143,1,2,0:0:0:0:
192,320,210243,1,2,0:0:0:0:
152,320,210343,1,2,0:0:0:0:
112,320,210443,6,8,B|112:256|112:256|72:232|72:232|72:192|72:192|112:168|112:168|152:192|152:192|200:192|200:192|248:216,1,300
256,56,211043,1,0,0:0:0:0:
416,56,211243,1,8,0:0:0:0:
256,56,211443,1,0,0:0:0:0:
96,56,211643,1,8,0:0:0:0:
256,56,211843,1,0,0:0:0:0:
416,56,212043,6,2,L|384:88,1,28.1250010728836
432,80,212143,2,2,L|400:112,1,28.1250010728836
448,104,212243,2,2,L|416:136,1,28.1250010728836
464,128,212343,2,2,L|432:152,1,28.1250010728836
480,152,212443,6,2,L|448:152,1,28.1250010728836
472,184,212543,2,2,L|440:184,1,28.1250010728836
464,216,212643,2,2,L|432:216,1,28.1250010728836
456,248,212743,2,2,L|408:248,1,28.1250010728836
448,280,212843,5,8,0:0:0:0:
416,312,212943,1,0,0:0:0:0:
376,328,213043,1,8,0:0:0:0:
336,312,213143,1,0,0:0:0:0:
320,272,213243,1,8,0:0:0:0:
336,232,213343,1,8,0:0:0:0:
376,216,213443,1,8,0:0:0:0:
416,240,213543,1,8,0:0:0:0:
376,264,213643,6,0,P|320:320|232:296,1,150,8|0,0:0|0:0,0:0:0:0:
256,88,214043,2,0,P|312:32|400:56,1,150,8|0,0:0|0:0,0:0:0:0:
219,192,214443,2,2,L|140:192,1,75,8|2,0:0|0:0,0:0:0:0:
424,160,214643,2,2,L|350:160,1,75
336,320,214843,2,2,L|258:319,1,75,8|2,0:0|0:0,0:0:0:0:
144,192,215043,1,0,0:0:0:0:
88,192,215143,1,0,0:0:0:0:
32,192,215243,6,8,B|32:296|32:296|88:360|88:360|208:360,1,300
256,128,215843,1,2,0:0:0:0:
320,360,216043,2,8,B|430:360|430:360|486:296|486:296|486:192,1,300
424,192,216543,1,0,0:0:0:0:
368,192,216643,1,0,0:0:0:0:
312,192,216743,1,0,0:0:0:0:
256,192,216843,6,2,L|160:192,3,75
184,352,217243,1,2,0:0:0:0:
368,192,217443,1,2,0:0:0:0:
184,32,217643,1,2,0:0:0:0:
256,352,218043,5,8,0:0:0:0:
280,320,218143,1,8,0:0:0:0:
256,296,218243,1,8,0:0:0:0:
272,264,218343,1,8,0:0:0:0:
256,232,218443,6,0,P|256:152|136:144,1,225.000008583069,8|0,0:0|0:0,0:0:0:0:
200,184,219043,1,0,0:0:0:0:
200,184,219143,1,0,0:0:0:0:
200,184,219243,2,0,P|130:224|183:331,1,225.000008583069,8|0,0:0|0:0,0:0:0:0:
192,256,219843,5,0,0:0:0:0:
192,256,219943,1,0,0:0:0:0:
192,256,220043,2,0,P|261:296|328:196,1,225.000008583069,8|0,0:0|0:0,0:0:0:0:
256,72,220643,1,0,0:0:0:0:
184,192,220843,5,8,0:0:0:0:
208,216,220943,1,0,0:0:0:0:
240,232,221043,1,8,0:0:0:0:
272,232,221143,1,0,0:0:0:0:
304,216,221243,1,8,0:0:0:0:
328,192,221343,1,8,0:0:0:0:
360,184,221443,1,8,0:0:0:0:
392,192,221543,1,8,0:0:0:0:
416,216,221643,6,0,P|416:272|264:272,1,225.000008583069,8|0,0:0|0:0,0:0:0:0:
344,256,222243,1,0,0:0:0:0:
344,256,222343,1,0,0:0:0:0:
344,256,222443,2,0,P|344:312|192:312,1,225.000008583069,8|0,0:0|0:0,0:0:0:0:
272,296,223043,5,0,0:0:0:0:
272,296,223143,1,0,0:0:0:0:
272,296,223243,1,8,0:0:0:0:
240,88,223443,5,0,0:0:0:0:
240,88,223543,1,0,0:0:0:0:
240,88,223643,1,8,0:0:0:0:
400,184,223843,5,0,0:0:0:0:
368,192,223943,1,0,0:0:0:0:
336,200,224043,1,8,0:0:0:0:
304,192,224143,1,0,0:0:0:0:
272,184,224243,1,8,0:0:0:0:
240,192,224343,1,0,0:0:0:0:
208,192,224443,6,0,B|176:192|176:192|160:216|160:216|112:168|112:168|88:192|88:192|8:192,1,225.000008583069,4|0,0:0|0:0,0:0:0:0:
