osu file format v14

[General]
AudioFilename: audio.mp3
AudioLeadIn: 0
PreviewTime: 43447
Countdown: 0
SampleSet: Soft
StackLeniency: 0.5
Mode: 0
LetterboxInBreaks: 0
WidescreenStoryboard: 1

[Editor]
DistanceSpacing: 3
BeatDivisor: 4
GridSize: 16
TimelineZoom: 2.899998

[Metadata]
Title:Feelin Sky
TitleUnicode:Feelin Sky
Artist:Camellia & DJ Genki
ArtistUnicode:かめりあ & DJ Genki
Creator:adioni
Version:Repercussion
Source:
Tags:dnb drum and bass drumstep starry orange Lian2002
BeatmapID:1845874
BeatmapSetID:882932

[Difficulty]
HPDrainRate:5
CircleSize:3.9
OverallDifficulty:8.6
ApproachRate:9.4
SliderMultiplier:1.8
SliderTickRate:1

[Events]
//Background and Video events
0,0,"Perezalil suka.jpg",0,0
//Break Periods
2,89854,99459
2,222268,231873
//Storyboard Layer 0 (Background)
//Storyboard Layer 1 (Fail)
//Storyboard Layer 2 (Pass)
//Storyboard Layer 3 (Foreground)
//Storyboard Sound Samples

[TimingPoints]
1379,344.827586206897,4,2,1,50,1,0
1379,-100,4,2,1,50,0,0
2758,-100,4,2,1,50,0,0
6896,-100,4,2,1,50,0,0
11034,-100,4,2,1,50,0,0
12413,-100,4,2,1,60,0,0
15172,-100,4,2,1,60,0,0
16551,-100,4,2,1,60,0,0
17930,-100,4,2,1,65,0,0
19310,-100,4,2,1,68,0,0
21379,-100,4,2,1,70,0,0
22068,-100,4,2,1,75,0,0
23103,-105.263157894737,4,2,1,85,0,0
23447,-100,4,2,1,70,0,0
35861,-100,4,2,1,75,0,0
39999,-100,4,2,1,80,0,0
43447,-100,4,2,1,85,0,0
44137,-100,4,2,1,70,0,0
45516,-90.9090909090909,4,2,1,80,0,1
67585,-90.9090909090909,4,2,1,85,0,1
67930,-90.9090909090909,4,2,1,80,0,1
89310,-90.9090909090909,4,2,1,75,0,1
89827,-142.857142857143,4,2,1,85,0,0
99999,-142.857142857143,4,2,1,60,0,0
107930,-142.857142857143,4,2,1,65,0,0
109827,-142.857142857143,4,2,1,70,0,0
117241,-142.857142857143,4,2,1,65,0,0
118620,-142.857142857143,4,2,1,60,0,0
119999,-142.857142857143,4,2,1,55,0,0
121379,-142.857142857143,4,2,1,50,0,0
124137,-142.857142857143,4,2,1,55,0,0
125516,-142.857142857143,4,2,1,60,0,0
126896,-142.857142857143,4,2,1,65,0,0
128275,-142.857142857143,4,2,1,70,0,0
131034,-83.3333333333333,4,2,1,80,0,0
132413,-83.3333333333333,4,2,1,70,0,0
133447,-83.3333333333333,4,2,1,85,0,0
133792,-66.6666666666667,4,2,1,80,0,0
139310,-62.5,4,2,1,80,0,0
139654,-66.6666666666667,4,2,1,80,0,0
145172,-76.9230769230769,4,2,1,80,0,0
145344,-66.6666666666667,4,2,1,80,0,0
147585,-62.5,4,2,1,80,0,0
148275,-83.3333333333333,4,2,1,70,0,0
149654,-66.6666666666667,4,2,1,80,0,0
150689,-62.5,4,2,1,80,0,0
151034,-66.6666666666667,4,2,1,80,0,0
153103,-100,4,2,1,70,0,0
154482,-100,4,2,1,85,0,0
155172,-100,4,2,1,70,0,0
155861,-66.6666666666667,4,2,1,70,0,0
158879,-60.6060606060606,4,2,1,70,0,0
159137,-66.6666666666667,4,2,1,70,0,0
159654,-55.5555555555556,4,2,1,70,0,0
160344,-66.6666666666667,4,2,1,70,0,0
161034,-66.6666666666667,4,2,1,80,0,0
161723,-66.6666666666667,4,2,1,70,0,0
163792,-76.9230769230769,4,2,1,70,0,0
164137,-66.6666666666667,4,2,1,70,0,0
166206,-66.6666666666667,4,2,1,85,0,0
167241,-58.8235294117647,4,2,1,75,0,0
167499,-66.6666666666667,4,2,1,75,0,0
169137,-90.9090909090909,4,2,1,75,0,0
169654,-66.6666666666667,4,2,1,75,0,0
172413,-66.6666666666667,4,2,1,80,0,0
175172,-83.3333333333333,4,2,1,80,0,0
176551,-83.3333333333333,4,2,1,70,0,0
177241,-83.3333333333333,4,2,1,85,0,0
177585,-66.6666666666667,4,2,1,85,0,0
177930,-66.6666666666667,4,2,1,80,0,1
178965,-76.9230769230769,4,2,1,80,0,1
197241,-100,4,2,1,80,0,1
202413,-142.857142857143,4,2,1,80,0,1
202758,-100,4,2,1,80,0,1
213447,-142.857142857143,4,2,1,80,0,1
213792,-100,4,2,1,80,0,1
220516,-83.3333333333333,4,2,1,75,0,1
220861,-83.3333333333333,4,2,1,65,0,1
221551,-83.3333333333333,4,2,1,80,0,1
222068,-83.3333333333333,4,2,1,60,0,0
222154,-125,4,2,1,85,0,0
232413,-125,4,2,1,60,0,0
233447,-142.857142857143,4,2,1,60,0,0
249310,-111.111111111111,4,2,1,60,0,0
249654,-142.857142857143,4,2,1,65,0,0
251034,-142.857142857143,4,2,1,70,0,0
253792,-142.857142857143,4,2,1,75,0,0
255172,-71.4285714285714,4,2,1,80,0,0
256379,-111.111111111111,4,2,1,65,0,0
256896,-83.3333333333333,4,2,1,65,0,0
259999,-100,4,2,1,65,0,0
260689,-71.4285714285714,4,2,1,85,0,0
261896,-111.111111111111,4,2,1,65,0,0
262413,-83.3333333333333,4,2,1,65,0,0
265516,-142.857142857143,4,2,1,65,0,0
269827,-142.857142857143,4,2,1,70,0,0
270516,-142.857142857143,4,2,1,75,0,0
271723,-142.857142857143,4,2,1,80,0,0
274482,-83.3333333333334,4,2,1,80,0,0
275861,-83.3333333333334,4,2,1,70,0,0
276206,-83.3333333333334,4,2,1,65,0,0
276896,-83.3333333333334,4,2,1,75,0,0
277241,-83.3333333333334,4,2,1,85,0,0
277585,-83.3333333333334,4,2,1,80,0,1
299310,-83.3333333333334,4,2,1,85,0,1
320172,-83.3333333333334,4,2,1,70,0,1
320689,-83.3333333333334,4,2,1,80,0,1
321034,-100,4,2,1,85,0,0
321379,-100,4,2,1,70,0,0
342068,-100,4,2,1,65,0,0
342758,-100,4,2,1,75,0,0
343103,-100,4,2,1,65,0,0
343189,-100,4,2,1,60,0,0
343275,-100,4,2,1,55,0,0
343361,-100,4,2,1,50,0,0
343447,-100,4,2,1,45,0,0

[Colours]
Combo1 : 247,157,157
Combo2 : 224,177,252
Combo3 : 131,180,252
Combo4 : 88,196,112

[HitObjects]
104,27,1379,5,2,3:3:0:0:
135,129,1551,1,0,3:0:0:0:
94,228,1723,1,6,3:3:0:0:
94,228,1810,1,0,3:0:0:0:
208,218,1982,1,0,3:0:0:0:
208,218,2068,1,0,3:0:0:0:
208,217,2154,2,0,L|222:323,1,90,0|0,3:0|3:3,0:0:0:0:
240,335,2413,2,0,P|281:351|325:344,1,90,6|0,3:3|3:0,0:0:0:0:
433,216,2758,5,2,3:3:0:0:
411,327,2930,1,0,3:0:0:0:
343,139,3103,1,4,3:3:0:0:
343,139,3189,1,0,3:0:0:0:
455,70,3361,2,0,L|404:112,1,45,0|0,3:0|3:0,0:0:0:0:
343,139,3533,2,0,P|293:139|252:109,1,90,0|0,3:0|3:0,0:0:0:0:
239,88,3792,2,0,L|219:190,1,90,6|0,3:3|3:0,0:0:0:0:
325,52,4137,5,0,3:3:0:0:
362,228,4310,1,0,3:0:0:0:
154,232,4482,1,6,3:3:0:0:
154,232,4568,1,0,3:0:0:0:
230,336,4741,1,0,3:0:0:0:
230,336,4827,1,0,3:0:0:0:
230,336,4913,2,0,L|247:247,1,90,0|0,3:0|3:0,0:0:0:0:
253,216,5172,1,4,3:3:0:0:
345,353,5344,1,0,3:0:0:0:
59,233,5516,5,2,3:3:0:0:
89,347,5689,1,0,3:0:0:0:
146,152,5861,1,4,3:3:0:0:
146,152,5947,1,0,3:0:0:0:
33,79,6120,2,0,L|86:110,1,45,0|0,3:0|3:0,0:0:0:0:
146,152,6292,2,0,P|190:149|225:122,1,90,0|0,3:0|3:0,0:0:0:0:
243,89,6551,1,4,3:3:0:0:
278,249,6723,1,2,3:3:0:0:
461,184,6896,5,2,3:3:0:0:
325,159,7068,1,0,3:0:0:0:
362,359,7241,1,4,3:3:0:0:
362,359,7327,1,0,3:0:0:0:
461,184,7499,5,0,3:0:0:0:
470,209,7585,1,0,3:0:0:0:
468,235,7671,1,0,3:0:0:0:
456,260,7757,1,2,3:3:0:0:
436,277,7843,1,0,3:0:0:0:
411,285,7930,2,0,P|369:268|326:277,1,90,4|0,3:3|3:0,0:0:0:0:
83,345,8275,5,2,3:3:0:0:
22,244,8447,1,0,3:0:0:0:
63,130,8620,1,4,3:3:0:0:
63,130,8706,1,0,3:0:0:0:
184,132,8879,5,0,3:0:0:0:
200,139,8965,1,0,3:0:0:0:
218,142,9051,1,0,3:0:0:0:
236,141,9137,1,2,3:3:0:0:
253,136,9223,1,0,3:0:0:0:
268,127,9310,2,0,L|258:37,1,90,4|0,3:3|3:0,0:0:0:0:
320,203,9654,5,2,3:3:0:0:
177,47,9827,1,0,3:0:0:0:
356,97,9999,1,4,3:3:0:0:
356,97,10085,1,0,3:0:0:0:
220,204,10258,5,0,3:0:0:0:
215,219,10344,1,0,3:0:0:0:
213,237,10430,1,0,3:0:0:0:
213,255,10516,1,2,3:3:0:0:
215,273,10602,1,0,3:0:0:0:
219,290,10689,2,0,L|328:298,1,90,4|0,3:3|3:0,0:0:0:0:
420,156,11034,6,0,P|403:196|407:241,1,90,2|0,3:3|3:0,0:0:0:0:
476,357,11379,1,4,3:3:0:0:
309,212,11551,1,0,3:0:0:0:
309,212,11637,1,0,3:0:0:0:
309,212,11723,1,0,3:0:0:0:
337,322,11896,1,2,3:3:0:0:
487,210,12068,1,2,3:3:0:0:
487,210,12241,1,0,3:0:0:0:
335,327,12413,6,0,P|276:327|228:295,1,90,2|0,3:3|3:0,0:0:0:0:
200,149,12758,1,4,3:3:0:0:
164,357,12930,1,0,3:0:0:0:
164,357,13016,1,0,3:0:0:0:
164,357,13103,1,0,3:0:0:0:
305,244,13275,1,2,3:3:0:0:
57,246,13447,1,4,3:3:0:0:
57,246,13620,1,0,3:0:0:0:
272,334,13792,6,0,B|343:330|343:330|431:366,1,135,2|0,3:3|3:0,0:0:0:0:
426,374,14137,1,4,3:3:0:0:
386,257,14310,1,0,3:0:0:0:
384,234,14396,1,0,3:0:0:0:
388,212,14482,1,0,3:0:0:0:
397,191,14568,1,0,3:0:0:0:
411,173,14654,2,0,L|478:165,1,45,2|0,3:3|3:0,0:0:0:0:
307,230,14827,2,0,L|205:217,1,90,4|0,3:3|3:0,0:0:0:0:
54,323,15172,6,0,B|88:265|88:265|90:182,1,135,2|0,3:3|3:0,0:0:0:0:
73,170,15516,1,8,3:1:0:0:
145,326,15689,1,0,3:0:0:0:
165,338,15775,1,0,3:0:0:0:
187,343,15861,1,0,3:0:0:0:
209,344,15947,1,0,3:0:0:0:
231,338,16034,2,0,L|244:290,1,45,2|0,3:3|3:0,0:0:0:0:
150,160,16206,2,0,L|229:239,1,90,8|0,3:1|3:0,0:0:0:0:
328,104,16551,6,0,P|299:177|312:268,1,135,2|0,3:3|3:0,0:0:0:0:
321,255,16896,1,8,3:1:0:0:
137,250,17068,1,0,3:0:0:0:
107,253,17154,1,0,3:0:0:0:
78,256,17240,1,0,3:0:0:0:
48,259,17326,1,0,3:0:0:0:
19,263,17412,1,2,3:3:0:0:
236,335,17585,1,8,3:1:0:0:
236,335,17758,1,2,3:3:0:0:
178,159,17930,6,0,P|190:81|248:10,1,135,2|0,3:3|3:0,0:0:0:0:
249,25,18275,1,8,3:1:0:0:
64,121,18447,1,0,3:0:0:0:
59,91,18533,1,0,3:0:0:0:
54,62,18619,1,0,3:0:0:0:
49,32,18705,1,0,3:0:0:0:
46,3,18791,1,2,3:3:0:0:
79,226,18965,1,8,3:1:0:0:
79,226,19137,1,0,3:0:0:0:
330,176,19310,6,0,L|429:188,1,90,2|0,3:3|3:0,0:0:0:0:
265,107,19654,1,8,3:1:0:0:
373,265,19827,2,0,L|472:277,1,90,0|0,3:0|3:0,0:0:0:0:
479,156,20172,1,2,3:3:0:0:
315,340,20344,2,0,L|216:352,1,90,8|0,3:1|3:0,0:0:0:0:
94,295,20689,5,0,3:0:0:0:
93,286,20775,1,0,3:0:0:0:
92,277,20861,1,0,3:0:0:0:
91,268,20947,1,0,3:0:0:0:
90,259,21034,5,8,3:1:0:0:
106,227,21120,1,0,3:0:0:0:
133,204,21206,1,0,3:0:0:0:
168,196,21292,1,0,3:0:0:0:
203,203,21379,5,0,3:0:0:0:
238,218,21465,1,0,3:3:0:0:
269,194,21551,1,2,3:3:0:0:
263,156,21637,1,0,3:0:0:0:
228,142,21723,5,8,3:1:0:0:
233,182,21809,1,0,3:0:0:0:
238,218,21895,1,0,3:0:0:0:
243,262,21981,1,0,3:0:0:0:
249,302,22068,6,0,P|242:324|229:342,1,45,2|2,3:3|3:3,0:0:0:0:
345,251,22241,2,0,P|351:272|365:290,1,45,2|2,3:3|3:3,0:0:0:0:
161,280,22413,2,0,P|145:296|126:307,1,45,2|2,3:3|3:3,0:0:0:0:
431,224,22585,2,0,P|446:240|465:251,1,45,2|2,3:3|3:3,0:0:0:0:
98,217,22758,5,2,3:3:0:0:
122,154,22844,1,2,3:3:0:0:
174,111,22930,1,2,3:3:0:0:
238,102,23016,1,2,3:3:0:0:
302,127,23103,2,0,L|161:110,1,128.249996575356,8|0,3:1|3:0,0:0:0:0:
305,340,23447,6,0,L|419:353,1,90,4|0,3:0|3:0,0:0:0:0:
231,262,23792,1,8,3:1:0:0:
345,230,23965,1,2,3:2:0:0:
376,233,24051,1,2,3:2:0:0:
407,237,24137,1,2,3:2:0:0:
438,240,24223,1,2,3:2:0:0:
470,244,24309,1,2,3:2:0:0:
211,359,24482,1,8,3:1:0:0:
103,274,24654,5,2,3:2:0:0:
103,274,24741,1,2,3:2:0:0:
102,273,24827,2,0,P|91:230|95:186,1,90,2|0,3:3|3:0,0:0:0:0:
220,35,25172,1,8,3:1:0:0:
303,230,25344,1,2,3:2:0:0:
273,239,25430,1,2,3:2:0:0:
241,242,25516,1,2,3:2:0:0:
210,238,25602,1,2,3:2:0:0:
180,227,25688,1,2,3:3:0:0:
354,150,25861,1,8,3:1:0:0:
410,258,26034,5,2,3:2:0:0:
410,258,26120,1,2,3:2:0:0:
410,258,26206,2,0,L|422:358,1,90,2|0,3:3|3:0,0:0:0:0:
477,178,26551,1,8,3:1:0:0:
306,241,26723,1,2,3:2:0:0:
309,272,26809,1,2,3:2:0:0:
313,303,26895,1,2,3:2:0:0:
317,334,26981,1,2,3:2:0:0:
321,366,27067,1,2,3:3:0:0:
79,294,27241,1,8,3:1:0:0:
136,131,27413,5,2,3:2:0:0:
136,131,27499,1,2,3:2:0:0:
136,131,27585,1,2,3:2:0:0:
167,270,27758,1,2,3:3:0:0:
45,102,27930,1,8,3:1:0:0:
225,159,28103,1,2,3:2:0:0:
256,160,28189,1,2,3:2:0:0:
286,151,28275,1,2,3:2:0:0:
311,133,28361,1,2,3:2:0:0:
329,107,28447,1,2,3:3:0:0:
296,237,28620,1,8,3:1:0:0:
239,71,28792,1,8,3:1:0:0:
164,277,28965,5,2,3:3:0:0:
164,277,29137,1,0,3:0:0:0:
301,232,29310,2,0,L|313:350,1,90,8|2,3:1|3:2,0:0:0:0:
324,330,29568,1,2,3:2:0:0:
332,327,29654,1,2,3:2:0:0:
340,324,29740,1,2,3:2:0:0:
349,321,29826,1,2,3:0:0:0:
219,177,29999,2,0,L|209:87,1,90,8|2,3:1|3:2,0:0:0:0:
298,118,30258,1,2,3:2:0:0:
298,118,30344,6,0,L|287:18,1,90,2|0,3:3|3:0,0:0:0:0:
123,143,30689,1,8,3:1:0:0:
343,208,30861,1,2,3:2:0:0:
368,189,30947,1,2,3:2:0:0:
385,163,31033,1,2,3:2:0:0:
394,133,31119,1,2,3:2:0:0:
392,102,31205,1,2,3:3:0:0:
461,218,31379,1,8,3:1:0:0:
461,218,31551,1,0,3:0:0:0:
292,121,31723,6,0,L|167:139,1,90,2|0,3:3|3:0,0:0:0:0:
331,33,32068,1,8,3:1:0:0:
247,202,32241,1,2,3:2:0:0:
243,233,32327,1,2,3:2:0:0:
252,263,32413,1,2,3:2:0:0:
272,287,32499,1,2,3:2:0:0:
300,301,32585,1,2,3:3:0:0:
160,294,32758,5,8,3:1:0:0:
341,220,32930,1,2,3:2:0:0:
341,220,33016,1,2,3:2:0:0:
341,220,33103,1,2,3:2:0:0:
292,121,33275,1,2,3:3:0:0:
248,310,33447,2,0,L|126:299,1,90,8|2,3:1|3:2,0:0:0:0:
143,294,33706,1,2,3:2:0:0:
140,286,33792,1,2,3:2:0:0:
137,278,33878,1,2,3:2:0:0:
134,269,33964,1,2,3:2:0:0:
330,351,34137,2,0,L|452:340,1,90,8|2,3:1|3:3,0:0:0:0:
281,89,34482,5,4,3:0:0:0:
299,186,34654,1,0,3:0:0:0:
350,33,34827,1,8,3:1:0:0:
209,144,34999,1,0,3:0:0:0:
394,217,35172,6,0,P|416:258|429:337,1,90,2|0,3:3|3:0,0:0:0:0:
132,199,35516,2,0,P|110:240|97:319,1,90,8|0,3:1|3:0,0:0:0:0:
407,126,35861,6,0,P|451:139|516:186,1,90,2|0,3:3|3:0,0:0:0:0:
107,108,36206,2,0,P|62:121|-3:168,1,90,8|0,3:1|3:0,0:0:0:0:
291,178,36551,2,0,P|246:165|181:118,1,90,2|0,3:3|3:0,0:0:0:0:
489,91,36896,2,0,P|444:104|379:151,1,90,8|0,3:1|3:0,0:0:0:0:
189,268,37241,6,0,L|197:369,1,90,2|0,3:3|3:0,0:0:0:0:
223,95,37585,2,0,L|132:52,1,90,8|0,3:1|3:0,0:0:0:0:
355,212,37930,2,0,L|438:154,1,90,2|0,3:3|3:0,0:0:0:0:
489,40,38274,1,8,3:1:0:0:
489,40,38447,1,0,3:0:0:0:
175,168,38620,6,0,L|81:183,1,90,2|0,3:3|3:0,0:0:0:0:
329,116,38965,2,0,L|235:101,1,90,8|0,3:1|3:0,0:0:0:0:
485,166,39310,2,0,L|391:181,1,90,2|0,3:3|3:0,0:0:0:0:
357,30,39654,2,0,P|396:51|416:90,1,90,8|0,3:1|3:0,0:0:0:0:
287,330,39999,5,2,3:3:0:0:
313,189,40172,1,2,3:3:0:0:
443,236,40344,5,8,3:1:0:0:
416,96,40517,1,2,3:3:0:0:
186,220,40689,5,8,3:1:0:0:
213,80,40862,1,2,3:3:0:0:
93,318,41034,5,8,3:1:0:0:
66,178,41207,1,2,3:3:0:0:
280,312,41379,5,8,3:1:0:0:
484,231,41551,1,2,3:3:0:0:
183,171,41723,5,8,3:1:0:0:
402,183,41895,1,2,3:3:0:0:
91,246,42068,5,8,3:1:0:0:
320,238,42240,1,2,3:3:0:0:
60,105,42413,5,8,3:1:0:0:
262,160,42585,1,2,3:3:0:0:
91,246,42758,5,2,3:3:0:0:
89,290,42844,1,2,3:3:0:0:
112,327,42930,1,2,3:3:0:0:
154,344,43016,1,2,3:3:0:0:
197,333,43103,5,2,3:3:0:0:
200,289,43189,1,2,3:3:0:0:
203,244,43275,1,2,3:3:0:0:
205,199,43361,1,2,3:3:0:0:
208,154,43447,5,2,3:3:0:0:
227,129,43533,1,2,3:3:0:0:
256,117,43619,1,2,3:3:0:0:
287,121,43705,1,2,3:3:0:0:
311,140,43792,5,2,3:3:0:0:
262,160,43878,1,2,3:3:0:0:
208,154,43964,1,2,3:3:0:0:
164,124,44050,1,2,3:3:0:0:
140,76,44137,2,0,L|160:6,1,45,4|0,3:0|3:0,0:0:0:0:
166,223,44310,2,0,L|177:266,1,45,0|0,3:0|3:0,0:0:0:0:
280,37,44482,6,0,P|257:34|235:37,1,45,0|0,3:0|3:0,0:0:0:0:
44,174,44654,2,0,P|66:176|88:173,1,45,0|0,3:0|3:0,0:0:0:0:
320,223,44827,1,8,3:1:0:0:
329,271,44913,1,8,3:1:0:0:
328,320,44999,2,2,P|300:333|259:331,1,45,8|8,3:1|3:0,0:0:0:0:
160,291,45172,2,0,P|179:280|201:276,1,45,8|8,3:1|3:1,0:0:0:0:
424,354,45344,2,0,L|396:290,1,45,8|8,3:1|3:1,0:0:0:0:
267,142,45516,6,0,B|311:94|366:120|366:120|420:241,1,198.000006042481,4|8,3:0|3:1,0:0:0:0:
468,375,46034,1,2,3:2:0:0:
468,375,46120,1,2,3:2:0:0:
468,375,46206,2,0,P|447:361|423:353,1,49.5000015106202,2|2,3:2|3:2,0:0:0:0:
251,273,46379,1,2,3:0:0:0:
471,159,46551,2,0,P|482:206|466:252,1,99.0000030212403,8|0,3:1|3:0,0:0:0:0:
246,281,46896,6,0,L|145:263,1,99.0000030212403,2|0,3:3|3:0,0:0:0:0:
237,115,47241,1,8,3:1:0:0:
330,249,47413,2,0,P|336:272|334:297,1,49.5000015106202,2|2,3:2|3:2,0:0:0:0:
165,300,47585,2,0,P|158:323|160:348,1,49.5000015106202,2|2,3:2|3:2,0:0:0:0:
328,242,47758,1,2,3:0:0:0:
138,197,47930,2,0,L|19:184,1,99.0000030212403,8|2,3:1|3:2,0:0:0:0:
328,242,48275,6,0,P|409:193|497:230,1,198.000006042481,2|8,3:3|3:1,0:0:0:0:
279,350,48792,1,2,3:2:0:0:
255,342,48878,1,2,3:2:0:0:
231,335,48964,1,2,3:2:0:0:
207,328,49050,1,2,3:2:0:0:
184,321,49136,1,2,3:3:0:0:
237,128,49310,1,8,3:1:0:0:
252,262,49482,1,2,3:2:0:0:
127,154,49654,1,2,3:2:0:0:
256,271,49827,1,2,3:3:0:0:
297,42,49999,1,8,3:1:0:0:
148,242,50172,5,2,3:2:0:0:
124,249,50258,1,2,3:2:0:0:
100,256,50344,1,2,3:2:0:0:
76,263,50430,1,2,3:2:0:0:
53,270,50516,1,2,3:3:0:0:
113,157,50689,1,8,3:1:0:0:
186,349,50861,1,2,3:3:0:0:
306,124,51034,6,0,P|390:99|501:144,1,198.000006042481,2|8,3:3|3:1,0:0:0:0:
436,280,51551,2,0,L|421:205,1,49.5000015106202,2|2,3:2|3:2,0:0:0:0:
306,138,51723,2,0,L|296:186,1,49.5000015106202,2|2,3:2|3:2,0:0:0:0:
276,296,51896,1,2,3:3:0:0:
408,141,52068,1,8,3:1:0:0:
408,141,52241,1,2,3:2:0:0:
168,51,52413,6,0,L|191:258,1,198.000006042481,2|8,3:3|3:1,0:0:0:0:
58,198,52930,2,0,L|129:181,1,49.5000015106202,2|2,3:2|3:2,0:0:0:0:
309,100,53103,2,0,L|238:83,2,49.5000015106202,2|2|2,3:2|3:2|3:3,0:0:0:0:
263,242,53447,2,0,P|255:289|217:320,1,99.0000030212403,8|2,3:1|3:2,0:0:0:0:
309,100,53792,6,0,P|342:190|432:225,1,198.000006042481,2|8,3:3|3:1,0:0:0:0:
236,161,54310,1,2,3:2:0:0:
202,154,54396,1,2,3:2:0:0:
167,156,54482,1,2,3:2:0:0:
135,167,54568,1,2,3:2:0:0:
106,186,54654,1,2,3:3:0:0:
153,64,54827,5,8,3:1:0:0:
185,267,54999,1,2,3:2:0:0:
185,267,55085,1,2,3:2:0:0:
185,267,55172,1,2,3:2:0:0:
243,162,55344,1,2,3:3:0:0:
63,292,55516,1,8,3:1:0:0:
271,310,55689,1,2,3:0:0:0:
64,191,55861,2,0,P|111:178|160:182,1,99.0000030212403,2|2,3:0|3:3,0:0:0:0:
363,345,56206,1,8,3:1:0:0:
182,268,56379,1,2,3:3:0:0:
420,217,56551,6,0,B|449:162|454:98|454:98|431:51|388:55,1,198.000006042481,12|8,3:1|3:1,0:0:0:0:
274,130,57068,2,0,L|294:211,1,49.5000015106202,2|2,3:2|3:2,0:0:0:0:
407,229,57241,2,0,L|326:205,1,49.5000015106202,2|2,3:2|3:2,0:0:0:0:
207,191,57413,1,2,3:3:0:0:
342,69,57585,1,8,3:1:0:0:
323,318,57758,1,2,3:2:0:0:
201,87,57930,6,0,B|103:87|127:173|22:172,1,198.000006042481,2|8,3:3|3:1,0:0:0:0:
8,43,58447,2,0,P|23:62|32:85,1,49.5000015106202,2|2,3:2|3:2,0:0:0:0:
92,273,58620,2,0,P|101:250|116:230,1,49.5000015106202,2|2,3:2|3:2,0:0:0:0:
236,189,58792,1,2,3:3:0:0:
24,167,58965,1,8,3:1:0:0:
295,113,59137,1,2,3:2:0:0:
295,113,59223,1,2,3:2:0:0:
295,113,59310,1,2,3:3:0:0:
123,29,59482,1,2,3:2:0:0:
233,195,59654,1,8,3:1:0:0:
363,34,59827,5,2,3:2:0:0:
388,70,59913,1,2,3:2:0:0:
397,114,59999,1,2,3:2:0:0:
387,158,60085,1,2,3:2:0:0:
361,194,60171,1,2,3:3:0:0:
482,88,60344,1,8,3:1:0:0:
295,113,60516,5,2,3:2:0:0:
270,149,60602,1,2,3:2:0:0:
261,193,60688,1,2,3:2:0:0:
271,237,60774,1,2,3:2:0:0:
297,273,60860,1,2,3:3:0:0:
176,167,61033,1,8,3:1:0:0:
361,194,61206,5,2,3:2:0:0:
386,230,61292,1,2,3:2:0:0:
395,274,61378,1,2,3:2:0:0:
385,318,61464,1,2,3:2:0:0:
359,354,61550,1,2,3:3:0:0:
480,248,61723,1,8,3:1:0:0:
480,248,61896,1,2,3:3:0:0:
217,358,62068,6,0,L|167:158,1,198.000006042481,2|8,3:3|3:1,0:0:0:0:
52,174,62585,2,0,P|74:184|92:200,1,49.5000015106202,2|2,3:2|3:2,0:0:0:0:
309,205,62758,2,0,P|286:215|268:231,1,49.5000015106202,2|2,3:2|3:2,0:0:0:0:
125,359,62930,1,2,3:0:0:0:
171,154,63103,1,8,3:1:0:0:
171,154,63275,1,2,3:2:0:0:
297,304,63447,6,0,B|408:297|368:225|471:226,1,198.000006042481,2|8,3:3|3:1,0:0:0:0:
296,157,63965,2,0,L|311:216,1,49.5000015106202,2|2,3:2|3:2,0:0:0:0:
444,363,64137,2,0,L|456:315,2,49.5000015106202,2|2|2,3:2|3:2|3:3,0:0:0:0:
477,220,64482,1,8,3:1:0:0:
295,314,64654,1,2,3:2:0:0:
295,314,64741,1,2,3:2:0:0:
295,314,64827,1,2,3:0:0:0:
477,220,64999,1,2,3:2:0:0:
206,145,65172,1,8,3:1:0:0:
336,121,65344,5,2,3:2:0:0:
325,169,65430,1,2,3:2:0:0:
315,217,65516,1,2,3:2:0:0:
305,266,65602,1,2,3:2:0:0:
295,314,65688,1,2,3:3:0:0:
407,232,65861,1,8,3:1:0:0:
206,145,66034,1,2,3:2:0:0:
456,117,66206,5,2,3:2:0:0:
426,85,66292,1,0,3:0:0:0:
382,77,66379,2,0,P|360:88|346:108,1,49.5000015106202,2|0,3:0|3:0,0:0:0:0:
274,81,66551,2,0,P|253:70|239:50,1,49.5000015106202,8|2,3:1|3:0,0:0:0:0:
160,76,66723,2,0,P|138:87|124:107,1,49.5000015106202,0|0,3:0|3:0,0:0:0:0:
58,51,66896,2,0,P|36:39|22:19,1,49.5000015106202,2|0,3:0|3:0,0:0:0:0:
206,145,67068,5,2,3:3:0:0:
234,201,67154,1,2,3:2:0:0:
221,263,67240,1,8,3:1:0:0:
172,302,67326,1,2,3:2:0:0:
109,302,67413,2,0,P|98:263|98:227,1,49.5000015106202,2|0,3:0|3:0,0:0:0:0:
316,150,67585,6,0,P|326:245|261:349,1,198.000006042481,12|8,3:1|3:1,0:0:0:0:
132,198,68103,1,2,3:2:0:0:
132,198,68189,1,2,3:2:0:0:
132,198,68275,2,0,L|205:189,1,49.5000015106202,2|2,3:2|3:2,0:0:0:0:
361,267,68447,1,2,3:3:0:0:
252,78,68620,1,8,3:1:0:0:
208,298,68792,1,2,3:0:0:0:
490,183,68965,6,0,B|475:143|427:138|427:138|369:181|319:156,1,198.000006042481,2|8,3:3|3:1,0:0:0:0:
84,155,69482,2,0,P|71:126|68:95,1,49.5000015106202,2|2,3:2|3:2,0:0:0:0:
79,16,69654,1,2,3:2:0:0:
79,16,69741,1,2,3:2:0:0:
79,16,69827,1,2,3:0:0:0:
283,186,69999,2,0,P|259:143|214:126,1,99.0000030212403,8|2,3:1|3:2,0:0:0:0:
171,354,70344,6,0,B|239:294|205:208|205:208|148:236,1,198.000006042481,2|8,3:3|3:1,0:0:0:0:
70,357,70861,1,2,3:2:0:0:
70,357,70947,1,2,3:2:0:0:
70,357,71034,2,0,L|80:291,1,49.5000015106202,2|2,3:2|3:2,0:0:0:0:
95,151,71206,1,2,3:3:0:0:
261,348,71379,2,0,P|310:349|356:333,1,99.0000030212403,8|2,3:1|3:2,0:0:0:0:
186,297,71723,1,2,3:0:0:0:
186,297,71896,1,2,3:3:0:0:
261,93,72068,5,8,3:1:0:0:
182,303,72241,1,2,3:2:0:0:
182,303,72327,1,2,3:2:0:0:
182,303,72413,2,0,L|99:316,1,49.5000015106202,2|2,3:2|3:2,0:0:0:0:
310,164,72585,2,0,L|393:177,1,49.5000015106202,2|0,3:3|3:0,0:0:0:0:
103,245,72758,1,8,3:1:0:0:
74,199,72844,1,2,3:2:0:0:
85,148,72930,1,2,3:3:0:0:
128,116,73016,1,2,3:2:0:0:
180,122,73103,6,0,B|220:188|220:188|171:331,1,198.000006042481,2|8,3:3|3:1,0:0:0:0:
277,118,73620,2,0,L|336:110,1,49.5000015106202,2|2,3:2|3:2,0:0:0:0:
442,190,73792,2,0,L|501:198,1,49.5000015106202,2|2,3:2|3:2,0:0:0:0:
270,114,73965,1,2,3:3:0:0:
387,263,74137,1,8,3:1:0:0:
417,98,74310,1,2,3:2:0:0:
417,98,74396,1,2,3:2:0:0:
417,98,74482,5,2,3:3:0:0:
512,226,74654,2,0,L|457:242,1,49.5000015106202,2|2,3:2|3:2,0:0:0:0:
366,364,74827,2,0,P|387:320|387:265,1,99.0000030212403,8|2,3:1|3:2,0:0:0:0:
373,253,75085,1,2,3:2:0:0:
358,250,75171,1,2,3:2:0:0:
343,247,75257,1,2,3:2:0:0:
329,244,75343,1,2,3:3:0:0:
219,351,75516,2,0,L|230:291,1,49.5000015106202,8|0,3:1|3:0,0:0:0:0:
139,117,75689,2,0,L|147:165,1,49.5000015106202,0|0,3:0|3:0,0:0:0:0:
34,271,75861,6,0,B|93:242|93:242|161:247|161:247|240:215,1,198.000006042481,2|8,3:3|3:1,0:0:0:0:
338,83,76379,1,2,3:2:0:0:
347,85,76465,1,2,3:2:0:0:
357,88,76551,1,2,3:2:0:0:
366,90,76637,1,2,3:2:0:0:
376,93,76723,2,0,L|379:152,1,49.5000015106202,2|0,3:3|3:0,0:0:0:0:
384,326,76896,1,8,3:1:0:0:
270,208,77068,5,2,3:2:0:0:
260,210,77154,1,2,3:2:0:0:
250,213,77240,1,2,3:2:0:0:
389,337,77413,1,2,3:3:0:0:
335,139,77585,1,8,3:1:0:0:
245,319,77758,5,2,3:2:0:0:
235,317,77844,1,2,3:2:0:0:
225,314,77930,1,2,3:2:0:0:
215,312,78016,1,2,3:2:0:0:
205,309,78102,1,2,3:0:0:0:
47,127,78275,1,8,3:1:0:0:
94,118,78361,1,2,3:2:0:0:
137,142,78447,1,2,3:0:0:0:
154,187,78533,1,2,3:2:0:0:
139,233,78620,6,0,B|9:263|9:263|71:199,1,198.000006042481,2|8,3:3|3:1,0:0:0:0:
249,31,79137,2,0,L|257:90,1,49.5000015106202,2|2,3:2|3:2,0:0:0:0:
289,235,79309,2,0,L|295:185,1,49.5000015106202,2|2,3:2|3:2,0:0:0:0:
385,118,79482,1,2,3:3:0:0:
183,168,79654,1,8,3:1:0:0:
481,183,79827,1,2,3:2:0:0:
481,183,79913,1,2,3:2:0:0:
481,183,79999,5,2,3:3:0:0:
330,306,80172,1,2,3:2:0:0:
330,306,80258,1,2,3:2:0:0:
329,306,80344,2,0,P|282:318|237:299,1,99.0000030212403,8|2,3:1|3:2,0:0:0:0:
145,186,80688,1,2,3:2:0:0:
142,201,80774,1,2,3:2:0:0:
139,215,80860,1,2,3:3:0:0:
222,300,81033,2,0,L|233:240,1,49.5000015106202,8|0,3:1|3:0,0:0:0:0:
51,117,81206,2,0,L|59:165,1,49.5000015106202,0|0,3:0|3:0,0:0:0:0:
37,314,81378,6,0,P|134:324|104:255,1,198.000006042481,2|8,3:3|3:1,0:0:0:0:
140,86,81896,1,2,3:2:0:0:
149,88,81982,1,2,3:2:0:0:
159,91,82068,1,2,3:2:0:0:
168,93,82154,1,2,3:2:0:0:
178,96,82240,2,0,L|235:79,1,49.5000015106202,2|0,3:3|3:0,0:0:0:0:
321,189,82413,1,8,3:1:0:0:
411,99,82585,5,2,3:2:0:0:
413,89,82671,1,2,3:2:0:0:
416,79,82757,1,2,3:2:0:0:
369,263,82930,1,2,3:3:0:0:
275,116,83102,1,8,3:1:0:0:
212,292,83275,5,2,3:2:0:0:
202,290,83361,1,2,3:2:0:0:
192,287,83447,1,2,3:2:0:0:
182,285,83533,1,2,3:2:0:0:
172,282,83620,5,2,3:0:0:0:
150,255,83706,1,2,3:2:0:0:
144,221,83792,1,8,3:1:0:0:
153,188,83879,1,2,3:2:0:0:
182,149,83965,1,2,3:0:0:0:
181,100,84051,1,2,3:2:0:0:
151,63,84137,6,0,B|27:89|27:89|126:128,1,198.000006042481,2|8,3:0|3:1,0:0:0:0:
233,214,84654,2,0,L|309:230,1,49.5000015106202,2|2,3:2|3:2,0:0:0:0:
436,300,84827,2,0,L|490:287,2,49.5000015106202,2|2|2,3:2|3:2|3:3,0:0:0:0:
309,363,85172,1,8,3:1:0:0:
362,135,85344,1,2,3:2:0:0:
362,135,85430,1,2,3:2:0:0:
362,135,85516,1,2,3:0:0:0:
206,324,85689,5,2,3:2:0:0:
204,334,85775,1,2,3:2:0:0:
203,345,85861,1,8,3:1:0:0:
51,196,86034,1,2,3:2:0:0:
50,185,86120,1,2,3:2:0:0:
47,172,86206,2,0,L|34:116,2,49.5000015106202,2|2|2,3:2|3:2|3:3,0:0:0:0:
108,315,86551,1,8,3:1:0:0:
168,153,86723,1,2,3:2:0:0:
309,266,86896,5,2,3:3:0:0:
318,266,86982,1,2,3:2:0:0:
328,264,87068,1,2,3:2:0:0:
338,262,87154,1,2,3:2:0:0:
347,257,87241,2,0,P|352:234|353:209,1,49.5000015106202,8|2,3:1|3:2,0:0:0:0:
220,263,87413,2,0,P|220:287|226:311,1,49.5000015106202,2|2,3:2|3:2,0:0:0:0:
422,327,87585,5,2,3:2:0:0:
439,285,87671,1,2,3:2:0:0:
447,242,87758,2,0,P|450:217|447:193,1,49.5000015106202,2|2,3:3|3:2,0:0:0:0:
228,171,87930,1,8,3:1:0:0:
228,171,88016,1,2,3:2:0:0:
228,171,88103,2,0,P|262:179|302:167,1,49.5000015106202,2|2,3:2|3:2,0:0:0:0:
489,124,88275,5,2,3:2:0:0:
441,89,88361,1,2,3:2:0:0:
383,90,88447,1,2,3:3:0:0:
337,126,88533,1,2,3:2:0:0:
322,182,88620,1,8,3:1:0:0:
292,232,88706,1,2,3:2:0:0:
239,257,88792,1,2,3:2:0:0:
181,247,88878,1,2,3:2:0:0:
139,207,88965,2,0,P|129:178|131:147,1,49.5000015106202,2|2,3:2|3:2,0:0:0:0:
288,21,89137,2,0,P|286:45|277:68,1,49.5000015106202,2|2,3:3|3:2,0:0:0:0:
31,138,89310,5,8,3:1:0:0:
67,80,89396,1,2,3:2:0:0:
131,59,89482,1,2,3:3:0:0:
194,84,89568,1,2,3:2:0:0:
227,144,89654,1,4,3:2:0:0:
103,110,99999,6,0,L|97:79,5,20.9999993591309,2|2|2|2|2|2,2:2|2:2|2:2|2:2|2:2|2:2,0:0:0:0:
78,202,100344,2,0,L|74:222,5,20.9999993591309,2|2|2|2|2|2,2:2|2:2|2:2|2:2|2:2|2:2,0:0:0:0:
10,134,100689,5,2,3:3:0:0:
335,196,101034,1,2,2:2:0:0:
202,316,101551,5,2,2:3:0:0:
249,109,101723,1,2,2:2:0:0:
131,260,102068,5,2,2:3:0:0:
456,198,102413,1,2,2:2:0:0:
323,78,102930,5,2,2:3:0:0:
370,285,103102,1,2,2:2:0:0:
108,170,103447,5,2,2:3:0:0:
409,151,103792,1,2,2:2:0:0:
198,93,104310,5,2,2:3:0:0:
409,151,104483,1,2,2:2:0:0:
254,305,104999,5,2,2:3:0:0:
409,151,105172,1,4,2:3:0:0:
198,93,105516,5,2,2:0:0:0:
254,305,105689,1,2,2:3:0:0:
409,151,105861,1,4,2:3:0:0:
409,151,106034,1,2,2:3:0:0:
254,305,106206,1,4,2:3:0:0:
77,28,106551,5,2,2:3:0:0:
132,358,107068,5,2,2:3:0:0:
197,186,107241,1,4,2:3:0:0:
132,358,107585,5,2,2:3:0:0:
77,28,107930,1,8,2:1:0:0:
283,146,108447,5,2,2:3:0:0:
77,28,108620,1,8,2:1:0:0:
78,266,108965,5,2,2:3:0:0:
283,146,109310,1,8,2:1:0:0:
77,28,109827,5,2,2:3:0:0:
283,146,109999,1,8,2:1:0:0:
78,266,110516,5,2,2:3:0:0:
283,146,110689,1,8,2:1:0:0:
78,266,111206,5,2,2:3:0:0:
283,146,111379,2,0,L|338:147,3,31.4999990386963,8|0|2|0,2:1|2:0|2:0|2:0,0:0:0:0:
45,144,111723,5,4,2:2:0:0:
45,144,111896,1,0,2:0:0:0:
236,291,112241,5,0,2:0:0:0:
236,291,112413,2,0,L|312:295,1,62.9999980773926,2|0,2:3|2:0,0:0:0:0:
457,215,112758,2,0,L|394:211,1,62.9999980773926,0|0,2:0|2:0,0:0:0:0:
154,199,113103,5,2,2:3:0:0:
154,199,113275,1,0,2:0:0:0:
313,110,113620,5,0,2:0:0:0:
313,110,113792,2,0,L|318:184,1,62.9999980773926,2|0,2:3|2:0,0:0:0:0:
417,318,114137,2,0,L|412:255,1,62.9999980773926,0|0,2:0|2:0,0:0:0:0:
399,31,114481,5,2,2:3:0:0:
399,31,114654,1,0,2:0:0:0:
294,255,114999,5,0,2:0:0:0:
294,255,115172,2,0,L|210:248,1,62.9999980773926,2|0,2:3|2:0,0:0:0:0:
86,150,115516,2,0,L|148:155,1,62.9999980773926,0|0,2:0|2:0,0:0:0:0:
396,170,115861,5,2,2:3:0:0:
396,170,116034,1,0,2:0:0:0:
247,65,116379,5,0,2:0:0:0:
247,65,116551,2,0,L|256:146,1,62.9999980773926,2|0,2:3|2:0,0:0:0:0:
197,298,116896,2,0,L|188:211,1,62.9999980773926,0|0,2:0|2:0,0:0:0:0:
394,115,117241,6,0,P|421:178|347:137,1,188.999994232178,2|0,2:3|2:0,0:0:0:0:
447,47,117930,2,0,P|485:80|513:165,1,125.999996154785,2|0,2:3|2:0,0:0:0:0:
118,115,118620,6,0,P|91:178|165:137,1,188.999994232178,2|0,2:3|2:0,0:0:0:0:
65,47,119309,2,0,P|27:80|-1:165,1,125.999996154785,2|0,2:3|2:0,0:0:0:0:
343,322,119999,6,0,P|256:354|171:320,1,188.999994232178,2|0,2:3|2:0,0:0:0:0:
306,238,120689,2,0,P|256:270|209:234,1,125.999996154785,2|0,2:3|2:0,0:0:0:0:
166,83,121379,6,0,P|110:110|86:167,1,125.999996154785,2|0,2:3|2:0,0:0:0:0:
425,167,122068,2,0,P|401:110|345:83,1,125.999996154785,2|0,2:3|2:0,0:0:0:0:
394,357,122758,5,2,3:3:0:0:
427,146,123103,1,8,3:1:0:0:
256,259,123447,5,2,3:3:0:0:
467,292,123792,1,8,3:1:0:0:
256,334,124137,5,2,3:3:0:0:
291,111,124482,1,8,3:1:0:0:
110,231,124826,5,2,3:3:0:0:
333,266,125171,1,8,3:1:0:0:
117,323,125516,5,2,3:3:0:0:
167,100,125861,1,8,3:1:0:0:
307,282,126206,5,2,3:3:0:0:
257,59,126551,1,8,3:1:0:0:
53,250,126896,5,2,3:3:0:0:
108,5,127241,1,8,3:1:0:0:
409,274,127585,5,2,3:3:0:0:
351,16,127930,1,8,3:1:0:0:
62,109,128275,5,8,3:1:0:0:
96,308,128447,1,2,3:3:0:0:
218,72,128620,5,8,3:1:0:0:
184,271,128792,1,2,3:3:0:0:
342,123,128965,5,8,3:1:0:0:
376,322,129137,1,2,3:3:0:0:
498,89,129310,5,8,3:1:0:0:
464,285,129482,1,2,3:3:0:0:
200,261,129654,5,8,3:1:0:0:
432,212,129827,1,2,3:3:0:0:
200,108,129999,5,8,3:1:0:0:
299,323,130172,1,2,3:3:0:0:
93,210,130344,5,8,3:1:0:0:
325,161,130517,1,2,3:3:0:0:
93,57,130689,5,8,3:1:0:0:
192,272,130862,1,2,3:3:0:0:
308,60,131034,5,2,3:3:0:0:
356,33,131120,1,2,3:3:0:0:
408,22,131206,1,2,3:3:0:0:
462,26,131292,1,2,3:3:0:0:
512,46,131379,5,2,3:3:0:0:
495,97,131465,1,2,3:3:0:0:
479,149,131551,1,2,3:3:0:0:
479,202,131637,1,2,3:3:0:0:
498,253,131723,5,2,3:3:0:0:
474,306,131809,1,2,3:3:0:0:
424,336,131895,1,2,3:3:0:0:
366,331,131981,1,2,3:3:0:0:
320,294,132068,5,2,3:3:0:0:
278,253,132154,1,2,3:3:0:0:
222,236,132240,1,2,3:3:0:0:
164,247,132326,1,2,3:3:0:0:
118,283,132413,6,0,L|107:358,1,53.9999983520508,0|0,3:0|3:0,0:0:0:0:
25,178,132585,2,0,L|36:252,1,53.9999983520508,0|0,3:0|3:0,0:0:0:0:
28,361,132758,6,0,L|36:307,1,53.9999983520508,0|0,3:0|3:0,0:0:0:0:
96,124,132930,1,0,3:0:0:0:
96,124,133016,1,0,3:0:0:0:
96,124,133103,2,0,L|107:198,1,53.9999983520508,0|0,3:0|3:0,0:0:0:0:
119,366,133275,2,0,L|127:312,1,53.9999983520508,0|0,3:0|3:0,0:0:0:0:
164,78,133447,1,2,3:0:0:0:
211,65,133533,1,0,3:0:0:0:
258,79,133619,1,0,3:0:0:0:
290,115,133705,1,0,3:0:0:0:
340,192,133792,6,0,B|367:243|327:289|327:289|274:236,1,135.000005149842,12|0,1:0|3:0,0:0:0:0:
389,121,134137,2,0,P|424:178|434:244,1,135.000005149842,8|0,3:1|3:0,0:0:0:0:
253,170,134482,6,0,P|267:140|290:116,1,67.5000025749208,0|0,3:2|3:0,0:0:0:0:
210,247,134654,2,0,P|186:222|172:192,1,67.5000025749208,2|0,3:0|3:0,0:0:0:0:
181,47,134827,1,8,3:1:0:0:
181,47,134913,1,0,3:0:0:0:
181,47,134999,2,0,L|193:116,1,67.5000025749208,0|0,3:0|3:0,0:0:0:0:
280,317,135172,6,0,L|291:250,1,67.5000025749208,2|0,3:3|3:0,0:0:0:0:
315,42,135344,1,0,3:0:0:0:
315,42,135430,1,0,3:0:0:0:
315,42,135516,2,0,L|326:108,1,67.5000025749208,8|0,3:1|3:0,0:0:0:0:
376,261,135689,2,0,P|396:233|425:217,1,67.5000025749208,2|0,3:0|3:0,0:0:0:0:
265,181,135861,2,0,P|297:175|330:184,1,67.5000025749208,0|0,3:0|3:0,0:0:0:0:
456,302,136034,1,2,3:0:0:0:
404,88,136206,1,8,3:1:0:0:
453,316,136379,1,8,3:1:0:0:
396,70,136551,6,0,B|433:50|471:83|467:144|348:146|343:67|246:106,1,270.000010299683,2|8,3:0|3:1,0:0:0:0:
95,123,137068,1,2,3:0:0:0:
285,181,137241,2,0,P|248:188|195:172,1,67.5000025749208,0|0,3:0|3:0,0:0:0:0:
326,27,137413,2,0,P|289:20|236:36,1,67.5000025749208,2|0,3:0|3:0,0:0:0:0:
444,187,137585,2,0,P|407:196|353:184,1,67.5000025749208,8|0,3:1|3:0,0:0:0:0:
231,103,137758,1,0,3:0:0:0:
330,263,137930,6,0,L|316:365,1,67.5000025749208,2|0,3:0|3:0,0:0:0:0:
210,185,138103,2,0,L|224:287,1,67.5000025749208,2|0,3:0|3:0,0:0:0:0:
146,324,138275,2,0,B|120:338|107:361|107:361|105:286|83:195|83:195|99:222|116:229,1,270.000010299683,8|0,3:1|3:0,0:0:0:0:
251,358,138792,5,2,3:0:0:0:
304,98,138965,1,8,3:1:0:0:
314,311,139137,5,2,3:0:0:0:
237,51,139310,2,0,B|208:98|238:148|238:148|158:160|176:254|176:254|183:209|221:189,1,288,4|8,1:1|3:1,0:0:0:0:
134,100,139827,1,2,3:0:0:0:
255,259,139999,2,0,P|282:240|314:232,1,67.5000025749208,0|0,3:0|3:0,0:0:0:0:
455,327,140172,2,0,P|422:319|395:299,1,67.5000025749208,2|0,3:0|3:0,0:0:0:0:
242,256,140344,5,8,3:1:0:0:
242,256,140430,1,0,3:0:0:0:
242,256,140516,2,0,P|269:236|301:228,1,67.5000025749208,0|0,3:0|3:0,0:0:0:0:
459,241,140689,2,0,L|444:161,1,67.5000025749208,2|0,3:0|3:0,0:0:0:0:
301,377,140861,5,0,3:0:0:0:
301,377,140948,1,0,3:0:0:0:
301,377,141034,2,0,L|316:297,1,67.5000025749208,8|0,3:1|3:0,0:0:0:0:
213,119,141206,2,0,P|238:142|269:154,1,67.5000025749208,2|0,3:0|3:0,0:0:0:0:
442,79,141379,2,0,P|417:101|386:113,1,67.5000025749208,0|0,3:0|3:0,0:0:0:0:
198,34,141551,1,2,3:0:0:0:
354,224,141723,1,8,3:1:0:0:
322,19,141896,1,8,3:1:0:0:
235,230,142068,6,0,B|141:216|174:279|84:265,1,135.000005149842,12|0,3:1|3:0,0:0:0:0:
80,121,142413,1,8,3:1:0:0:
202,373,142585,1,2,3:0:0:0:
202,373,142672,1,0,3:0:0:0:
202,373,142758,2,0,L|211:304,1,67.5000025749208,0|0,3:0|3:0,0:0:0:0:
227,124,142930,1,2,3:0:0:0:
302,275,143103,2,0,B|396:261|363:324|453:310,1,135.000005149842,8|0,3:1|3:0,0:0:0:0:
330,131,143447,5,0,3:0:0:0:
325,353,143620,1,2,3:0:0:0:
467,196,143792,1,8,3:1:0:0:
186,236,143965,1,2,3:2:0:0:
186,236,144051,1,2,3:2:0:0:
186,236,144137,1,2,3:2:0:0:
455,291,144310,5,2,3:3:0:0:
470,261,144396,1,0,3:2:0:0:
475,228,144482,1,8,3:1:0:0:
467,196,144568,1,2,3:2:0:0:
449,137,144654,1,2,3:3:0:0:
461,78,144740,1,2,3:2:0:0:
503,45,144827,6,0,B|438:54|438:54|370:28|370:28|306:34,1,202.500007724762,12|0,3:1|3:0,0:0:0:0:
223,53,145172,2,0,B|199:95|199:95|216:174,1,116.999994644165,8|2,3:1|3:0,0:0:0:0:
282,271,145516,2,0,L|291:190,1,67.5000025749208,0|0,3:0|3:0,0:0:0:0:
306,33,145689,1,2,3:0:0:0:
422,154,145861,1,8,3:1:0:0:
422,154,145947,1,0,3:0:0:0:
422,154,146034,2,0,P|380:167|340:166,1,67.5000025749208,0|0,3:0|3:0,0:0:0:0:
207,242,146206,2,0,P|171:233|140:232,1,67.5000025749208,2|0,3:3|3:0,0:0:0:0:
75,88,146379,5,0,3:0:0:0:
75,88,146465,1,0,3:0:0:0:
75,88,146551,1,8,3:1:0:0:
90,315,146723,6,0,P|107:286|112:253,1,67.5000025749208,2|0,3:0|3:0,0:0:0:0:
223,135,146896,2,0,L|137:160,1,67.5000025749208,0|0,3:0|3:0,0:0:0:0:
0,151,147068,2,0,P|4:184|22:212,1,67.5000025749208,2|0,3:0|3:0,0:0:0:0:
260,249,147241,2,0,L|195:230,1,67.5000025749208,8|0,3:1|3:0,0:0:0:0:
73,81,147413,2,0,L|137:62,1,67.5000025749208,2|0,3:3|3:0,0:0:0:0:
330,157,147585,6,0,P|372:252|327:346,1,216,4|0,3:0|2:0,0:0:0:0:
349,348,147930,2,0,P|394:253|351:158,1,216,8|2,3:1|2:0,0:0:0:0:
330,157,148275,5,2,3:2:0:0:
286,187,148361,1,2,3:2:0:0:
233,188,148447,1,2,3:3:0:0:
188,160,148534,1,2,3:2:0:0:
181,128,148620,1,8,3:1:0:0:
174,96,148706,1,2,3:2:0:0:
166,65,148792,5,2,3:2:0:0:
115,54,148878,1,2,3:2:0:0:
68,79,148964,1,2,3:2:0:0:
47,127,149050,1,2,3:2:0:0:
62,178,149137,1,2,3:3:0:0:
70,210,149223,1,2,3:2:0:0:
69,242,149309,1,8,3:1:0:0:
59,273,149396,5,2,3:2:0:0:
106,303,149482,1,2,3:2:0:0:
164,306,149568,1,2,3:2:0:0:
213,274,149654,2,0,B|255:233|237:170|237:170|195:210,1,135.000005149842,4|2,3:3|3:3,0:0:0:0:
325,273,149999,1,8,3:1:0:0:
134,189,150172,1,2,3:3:0:0:
311,43,150344,6,0,B|413:24|399:119|522:105,1,202.500007724762,2|0,3:3|3:0,0:0:0:0:
335,142,150689,2,0,P|258:133|206:61,1,144,12|2,1:1|3:0,0:0:0:0:
415,197,151034,2,0,P|425:234|418:276,1,67.5000025749208,0|0,3:0|3:0,0:0:0:0:
468,28,151206,1,2,3:0:0:0:
338,239,151379,5,8,3:1:0:0:
338,239,151465,1,0,3:0:0:0:
338,239,151551,2,0,P|289:238|239:222,1,67.5000025749208,0|0,3:0|3:0,0:0:0:0:
139,283,151723,2,0,P|172:278|205:279,1,67.5000025749208,2|0,3:0|3:0,0:0:0:0:
50,198,151896,5,0,3:0:0:0:
50,198,151982,1,0,3:0:0:0:
50,198,152068,1,8,3:1:0:0:
313,291,152241,2,0,P|323:322|326:356,1,67.5000025749208,2|0,3:0|3:0,0:0:0:0:
232,124,152413,2,0,P|234:90|245:58,1,67.5000025749208,0|0,3:0|3:0,0:0:0:0:
258,302,152585,6,0,P|248:334|231:363,1,67.5000025749208,2|0,3:0|3:0,0:0:0:0:
287,118,152757,2,0,P|308:91|335:72,1,67.5000025749208,8|0,3:1|3:0,0:0:0:0:
206,279,152930,2,0,P|179:300|149:314,1,67.5000025749208,8|0,3:1|3:0,0:0:0:0:
335,145,153103,5,4,3:2:0:0:
379,139,153189,1,0,3:0:0:0:
422,151,153275,1,0,3:0:0:0:
456,180,153361,1,0,3:0:0:0:
475,220,153447,5,8,3:1:0:0:
470,242,153533,1,0,3:0:0:0:
468,264,153619,1,0,3:0:0:0:
468,287,153705,1,0,3:0:0:0:
471,309,153792,5,0,3:0:0:0:
446,346,153878,1,0,3:0:0:0:
407,367,153964,1,2,3:0:0:0:
362,368,154050,1,0,3:0:0:0:
322,347,154137,1,8,3:1:0:0:
302,308,154223,1,0,3:0:0:0:
266,282,154309,1,0,3:0:0:0:
222,274,154395,1,0,3:0:0:0:
179,287,154482,5,2,3:0:0:0:
163,245,154568,1,2,3:0:0:0:
147,203,154654,1,2,3:0:0:0:
132,161,154740,1,2,3:0:0:0:
116,119,154827,5,2,3:0:0:0:
105,177,154913,1,2,3:3:0:0:
94,234,154999,1,2,3:3:0:0:
83,291,155085,1,2,3:3:0:0:
72,348,155172,5,2,3:3:0:0:
70,352,155258,1,2,3:3:0:0:
69,357,155344,1,2,3:3:0:0:
68,362,155430,1,2,3:3:0:0:
67,367,155516,5,2,3:3:0:0:
120,359,155602,1,2,3:3:0:0:
173,351,155688,1,2,3:3:0:0:
227,344,155774,1,2,3:3:0:0:
281,336,155861,6,0,B|366:319|351:230|351:230|323:248|276:249,1,202.500007724762,4|0,3:2|3:0,0:0:0:0:
171,210,156206,2,0,B|241:204|229:265|312:243,1,135.000005149842,4|0,3:0|3:0,0:0:0:0:
346,154,156465,1,0,0:0:0:0:
346,154,156551,6,0,P|313:158|282:170,1,67.5000025749208,8|0,3:1|3:0,0:0:0:0:
180,291,156723,2,0,P|146:287|115:275,1,67.5000025749208,0|0,3:0|3:0,0:0:0:0:
153,104,156896,2,0,P|211:85|181:134,1,135.000005149842
48,130,157154,1,0,3:0:0:0:
48,130,157241,2,0,P|44:163|32:194,1,67.5000025749208,2|0,3:0|3:0,0:0:0:0:
2,306,157413,2,0,P|32:291|65:286,1,67.5000025749208,4|0,3:0|3:0,0:0:0:0:
280,274,157585,6,0,P|307:221|263:251,1,135.000005149842,8|0,3:1|3:0,0:0:0:0:
171,365,157844,1,0,3:0:0:0:
171,365,157930,2,0,L|174:297,1,67.5000025749208,8|0,3:1|3:0,0:0:0:0:
187,106,158103,1,0,3:0:0:0:
187,106,158189,1,0,3:0:0:0:
187,106,158275,2,0,P|219:157|152:119,1,202.500007724762,4|0,3:3|3:0,0:0:0:0:
270,51,158620,6,0,P|305:108|307:175,1,135.000005149842,2|0,3:0|3:0,0:0:0:0:
357,252,158879,2,0,B|338:158|338:158|388:108,1,148.500001416206,4|0,3:2|3:0,0:0:0:0:
479,23,159137,1,0,3:0:0:0:
479,23,159223,1,0,3:0:0:0:
479,23,159310,2,0,P|444:79|420:17,1,135.000005149842,8|0,3:1|3:0,0:0:0:0:
458,190,159568,1,0,0:0:0:0:
458,190,159654,2,0,L|469:353,1,161.999995056153,4|0,3:0|3:0,0:0:0:0:
374,346,159913,1,0,3:0:0:0:
374,346,159999,6,0,P|317:296|222:308,1,161.999995056153,2|0,3:0|3:0,0:0:0:0:
308,153,160258,1,0,0:0:0:0:
308,153,160344,2,0,P|257:198|170:187,1,135.000005149842,4|0,3:0|3:0,0:0:0:0:
202,54,160689,2,0,L|233:130,1,67.5000025749208,8|0,3:1|3:0,0:0:0:0:
276,268,160861,5,2,3:0:0:0:
264,313,160947,1,2,3:0:0:0:
230,344,161033,1,2,3:0:0:0:
184,352,161119,1,8,3:1:0:0:
141,335,161206,1,8,3:1:0:0:
119,294,161292,1,8,3:1:0:0:
90,214,161379,6,0,B|63:81,1,135.000005149842,12|0,3:1|3:0,0:0:0:0:
166,137,161723,2,0,B|196:289,1,135.000005149842,8|2,3:1|3:0,0:0:0:0:
118,64,162068,2,0,P|94:86|79:116,1,67.5000025749208,4|0,3:2|3:0,0:0:0:0:
251,113,162241,2,0,P|235:82|211:60,1,67.5000025749208,2|0,3:0|3:0,0:0:0:0:
68,200,162413,2,0,B|54:266,1,67.5000025749208,8|0,3:1|3:0,0:0:0:0:
263,194,162585,1,0,3:0:0:0:
263,194,162672,1,0,3:0:0:0:
263,194,162758,2,0,B|276:260,1,67.5000025749208,2|0,3:0|3:0,0:0:0:0:
163,359,162930,5,0,3:0:0:0:
163,359,163017,1,0,3:0:0:0:
163,359,163103,2,0,B|176:292,1,67.5000025749208,8|0,3:1|3:0,0:0:0:0:
330,111,163275,5,2,3:0:0:0:
343,177,163361,1,0,3:0:0:0:
356,243,163447,1,0,3:0:0:0:
369,309,163533,1,0,3:0:0:0:
382,375,163620,2,0,L|300:362,1,67.5000025749208
512,177,163792,2,0,B|461:210|461:210|444:345,1,175.499991966248,8|0,3:1|3:0,0:0:0:0:
382,375,164137,6,0,B|341:168,1,202.500007724762,4|0,3:0|3:0,0:0:0:0:
287,108,164482,2,0,B|313:240,1,135.000005149842,8|2,3:1|3:0,0:0:0:0:
422,86,164827,2,0,P|391:72|357:67,2,67.5000025749208,0|0|2,3:0|3:0|3:0,0:0:0:0:
313,248,165172,1,8,3:1:0:0:
142,154,165344,2,0,P|172:140|206:135,2,67.5000025749208,0|0|0,3:0|3:0|3:0,0:0:0:0:
250,321,165689,5,2,3:0:0:0:
360,167,165861,1,8,3:1:0:0:
401,362,166034,1,2,3:0:0:0:
45,220,166206,5,8,3:1:0:0:
45,220,166292,2,0,L|110:234,1,67.5000025749208,2|0,3:0|3:0,0:0:0:0:
398,254,166465,5,8,3:1:0:0:
398,254,166551,2,0,L|332:268,1,67.5000025749208,2|0,3:0|3:0,0:0:0:0:
64,327,166724,5,8,3:1:0:0:
64,327,166810,1,2,3:3:0:0:
64,327,166896,2,0,L|216:294,1,135.000005149842,12|0,3:1|3:0,0:0:0:0:
203,58,167241,2,0,B|205:119|205:119|189:152|189:152|192:229,1,153.000002918243,4|0,3:2|3:0,0:0:0:0:
98,141,167585,5,8,3:1:0:0:
94,154,167671,1,0,3:0:0:0:
91,167,167757,1,0,3:0:0:0:
88,180,167843,1,0,3:0:0:0:
85,193,167929,1,4,3:2:0:0:
199,320,168103,5,0,3:0:0:0:
202,333,168189,1,0,3:0:0:0:
205,346,168275,1,2,3:3:0:0:
238,122,168447,2,0,P|204:120|175:136,1,67.5000025749208,4|0,3:2|3:0,0:0:0:0:
379,182,168620,2,0,P|396:153|397:120,1,67.5000025749208,4|0,3:2|3:0,0:0:0:0:
250,248,168792,1,0,3:0:0:0:
253,261,168878,1,0,3:0:0:0:
256,274,168965,2,0,P|271:303|300:320,1,67.5000025749208,8|0,3:1|3:0,0:0:0:0:
429,258,169137,2,0,L|357:270,1,49.5000015106202,2|0,3:3|3:0,0:0:0:0:
385,352,169310,5,2,3:3:0:0:
427,375,169396,1,2,3:3:0:0:
475,370,169482,1,2,3:3:0:0:
512,338,169568,1,2,3:3:0:0:
512,301,169654,2,0,B|489:238|511:116|511:116|490:180|482:193,1,270.000010299683,12|4,3:1|3:2,0:0:0:0:
359,252,170172,5,0,3:0:0:0:
322,223,170258,1,0,3:0:0:0:
308,179,170344,1,0,3:0:0:0:
323,135,170430,1,0,3:0:0:0:
361,108,170516,2,0,L|377:187,1,67.5000025749208,2|0,3:3|3:0,0:0:0:0:
249,121,170689,6,0,B|224:20|224:20|271:67,1,135.000005149842,8|0,3:1|3:0,0:0:0:0:
383,180,171034,1,0,3:0:0:0:
383,180,171206,1,2,3:3:0:0:
152,233,171379,1,8,3:1:0:0:
152,233,171551,1,0,3:0:0:0:
398,299,171723,1,0,3:0:0:0:
398,299,171895,1,2,3:3:0:0:
167,352,172068,1,8,3:1:0:0:
167,352,172240,1,2,3:3:0:0:
37,131,172413,5,8,3:1:0:0:
257,286,172585,1,2,3:3:0:0:
173,56,172758,1,8,3:1:0:0:
81,309,172930,1,2,3:3:0:0:
166,144,173103,5,8,3:1:0:0:
386,299,173275,1,2,3:3:0:0:
302,69,173447,1,8,3:1:0:0:
210,322,173620,1,2,3:3:0:0:
399,177,173792,5,8,3:1:0:0:
115,200,173965,1,2,3:3:0:0:
405,193,174137,5,8,3:1:0:0:
103,172,174310,1,2,3:3:0:0:
411,209,174482,5,8,3:1:0:0:
91,144,174654,1,2,3:3:0:0:
417,225,174827,5,8,3:1:0:0:
79,116,174999,1,2,3:3:0:0:
321,18,175172,5,2,3:0:0:0:
340,67,175258,1,2,3:0:0:0:
340,121,175344,1,2,3:0:0:0:
320,171,175430,1,2,3:0:0:0:
283,210,175516,2,2,P|256:207|231:196,1,53.9999983520508,2|2,3:0|3:0,0:0:0:0:
174,68,175689,2,2,P|198:57|225:54,1,53.9999983520508,2|2,3:0|3:0,0:0:0:0:
391,269,175861,5,2,3:0:0:0:
346,309,175947,1,2,3:0:0:0:
288,326,176033,1,2,3:0:0:0:
228,314,176119,1,2,3:0:0:0:
180,277,176206,2,2,L|157:366,1,53.9999983520508,2|0,3:0|3:0,0:0:0:0:
84,187,176379,2,2,L|103:266,1,53.9999983520508,2|2,3:0|3:0,0:0:0:0:
219,133,176551,6,0,L|199:212,1,53.9999983520508,2|0,3:3|3:0,0:0:0:0:
91,361,176723,2,0,P|79:336|57:322,1,53.9999983520508,0|0,3:0|3:0,0:0:0:0:
64,109,176896,2,0,L|83:188,1,53.9999983520508,0|0,3:0|3:0,0:0:0:0:
181,369,177068,2,0,P|192:344|214:330,1,53.9999983520508,0|0,3:0|3:0,0:0:0:0:
464,365,177241,5,8,3:1:0:0:
446,326,177327,1,8,3:1:0:0:
412,299,177413,1,8,3:1:0:0:
348,308,177499,1,8,3:1:0:0:
300,372,177585,2,0,B|321:314|265:280|303:213|303:213|308:238|326:266,1,202.500007724762,8|0,3:1|3:0,0:0:0:0:
418,78,177930,6,0,P|381:134|380:200,1,135.000005149842,12|0,3:1|3:0,0:0:0:0:
287,108,178275,1,8,3:1:0:0:
489,168,178447,1,2,3:2:0:0:
489,168,178534,1,2,3:2:0:0:
489,168,178620,1,2,3:2:0:0:
361,281,178792,1,2,3:3:0:0:
391,8,178965,2,0,L|376:155,1,116.999994644165,8|2,3:1|3:2,0:0:0:0:
366,292,179310,6,0,P|309:197|199:208,1,233.999989288331,2|8,3:3|3:1,0:0:0:0:
73,106,179827,1,2,3:2:0:0:
92,142,179913,1,2,3:2:0:0:
99,182,179999,1,2,3:2:0:0:
95,222,180085,1,2,3:2:0:0:
79,260,180172,1,2,3:3:0:0:
182,126,180344,1,8,3:1:0:0:
2,197,180516,1,2,3:2:0:0:
165,319,180689,6,0,B|216:326|216:326|278:302,1,116.999994644165,2|0,3:3|3:0,0:0:0:0:
326,118,181034,1,8,3:1:0:0:
405,251,181206,1,2,3:2:0:0:
405,251,181292,1,2,3:2:0:0:
405,251,181379,2,0,L|484:271,1,58.4999973220826,2|2,3:2|3:2,0:0:0:0:
331,125,181551,1,2,3:3:0:0:
349,359,181723,1,8,3:1:0:0:
470,133,181896,1,2,3:2:0:0:
219,221,182068,6,0,L|105:192,1,116.999994644165,4|2,3:0|3:3,0:0:0:0:
296,142,182413,1,8,3:1:0:0:
122,290,182585,2,0,L|134:359,1,58.4999973220826,2|2,3:2|3:2,0:0:0:0:
305,135,182758,2,0,L|315:77,1,58.4999973220826,2|2,3:2|3:2,0:0:0:0:
115,303,182930,1,2,3:3:0:0:
286,296,183103,6,0,P|314:302|343:302,1,58.4999973220826,8|0,3:1|3:0,0:0:0:0:
141,170,183275,2,0,P|112:163|83:163,1,58.4999973220826,2|0,3:3|3:0,0:0:0:0:
206,350,183447,6,0,B|163:232|264:233|222:109,1,233.999989288331,2|8,3:3|3:1,0:0:0:0:
69,35,183965,1,2,3:2:0:0:
69,35,184051,1,2,3:2:0:0:
69,35,184137,1,2,3:2:0:0:
144,178,184310,1,2,3:3:0:0:
318,95,184482,1,8,3:1:0:0:
277,294,184654,5,2,3:2:0:0:
277,294,184741,1,2,3:2:0:0:
277,294,184827,1,2,3:3:0:0:
144,178,184999,1,2,3:2:0:0:
391,227,185172,1,8,3:1:0:0:
180,279,185344,2,0,L|100:292,1,58.4999973220826,2|2,3:2|3:2,0:0:0:0:
359,348,185516,2,0,L|439:361,1,58.4999973220826,2|2,3:2|3:2,0:0:0:0:
175,384,185689,1,2,3:3:0:0:
397,224,185861,2,0,B|433:105|433:105|410:133|393:136,1,175.499991966248,8|0,3:1|3:0,0:0:0:0:
175,140,186206,6,0,B|154:145|126:126|130:93|153:71|194:71|233:116|233:116|273:142|295:137,1,233.999989288331,2|8,3:3|3:1,0:0:0:0:
397,226,186723,2,0,P|368:218|344:202,1,58.4999973220826,2|2,3:2|3:2,0:0:0:0:
350,31,186896,2,0,P|321:38|297:54,1,58.4999973220826,2|2,3:2|3:2,0:0:0:0:
196,216,187068,1,2,3:3:0:0:
401,124,187241,1,8,3:1:0:0:
134,81,187413,5,2,3:2:0:0:
134,81,187499,1,2,3:2:0:0:
134,81,187585,2,0,L|142:152,1,58.4999973220826,2|2,3:2|3:2,0:0:0:0:
162,292,187758,1,2,3:3:0:0:
304,215,187930,2,0,B|266:192|266:192|188:205,1,116.999994644165,8|2,3:1|3:2,0:0:0:0:
29,309,188275,1,2,3:2:0:0:
29,309,188361,1,2,3:2:0:0:
29,309,188447,2,0,P|58:312|100:300,2,58.4999973220826,2|2|8,3:3|3:2|3:1,0:0:0:0:
0,189,188792,1,2,3:3:0:0:
203,371,188965,6,0,B|337:393|300:283|415:304,1,233.999989288331,2|8,3:3|3:1,0:0:0:0:
332,162,189482,1,2,3:2:0:0:
332,162,189568,1,2,3:2:0:0:
332,162,189654,2,0,L|348:227,1,58.4999973220826,2|2,3:2|3:2,0:0:0:0:
387,381,189827,1,2,3:3:0:0:
472,227,189999,1,8,3:1:0:0:
240,272,190172,1,2,3:2:0:0:
240,272,190258,1,2,3:2:0:0:
240,272,190344,5,2,3:3:0:0:
392,384,190516,1,2,3:2:0:0:
326,172,190689,2,0,P|335:112|376:56,1,116.999994644165,8|2,3:1|3:2,0:0:0:0:
383,69,190947,1,2,3:2:0:0:
390,77,191033,1,2,3:2:0:0:
398,86,191119,1,2,3:2:0:0:
406,94,191205,1,2,3:3:0:0:
246,120,191379,1,8,3:1:0:0:
447,189,191551,1,2,3:2:0:0:
205,270,191723,6,0,P|211:154|157:51,1,233.999989288331,2|8,3:3|3:1,0:0:0:0:
31,29,192241,1,2,3:2:0:0:
32,38,192327,1,2,3:2:0:0:
34,50,192413,1,2,3:2:0:0:
35,61,192499,1,2,3:2:0:0:
37,73,192585,1,2,3:0:0:0:
239,129,192758,1,8,3:1:0:0:
59,174,192930,5,2,3:2:0:0:
58,185,193016,1,2,3:2:0:0:
56,197,193102,1,2,3:2:0:0:
245,272,193275,1,2,3:3:0:0:
330,121,193447,1,8,3:1:0:0:
408,309,193620,1,2,3:2:0:0:
408,309,193706,1,2,3:2:0:0:
408,309,193792,2,0,P|432:324|460:334,1,58.4999973220826,2|2,3:2|3:2,0:0:0:0:
238,262,193965,2,0,P|210:271|185:287,1,58.4999973220826,2|0,3:3|3:0,0:0:0:0:
295,334,194137,2,0,P|326:285|327:227,1,116.999994644165,8|2,3:1|3:3,0:0:0:0:
107,89,194482,6,0,B|188:108|188:108|250:98|250:98|352:122,1,233.999989288331,2|8,3:3|3:1,0:0:0:0:
472,246,194999,1,2,3:2:0:0:
472,246,195085,1,2,3:2:0:0:
472,246,195172,2,0,L|456:183,1,58.4999973220826,2|2,3:2|3:2,0:0:0:0:
413,27,195344,1,2,3:3:0:0:
328,213,195516,2,0,P|275:237|217:234,1,116.999994644165,8|0,3:1|3:0,0:0:0:0:
20,54,195861,6,0,B|72:100|72:100|94:283,1,233.999989288331,2|8,3:3|3:1,0:0:0:0:
295,313,196379,1,2,3:2:0:0:
270,344,196465,1,2,3:2:0:0:
235,362,196551,1,2,3:2:0:0:
194,363,196637,1,2,3:2:0:0:
156,348,196723,1,2,3:0:0:0:
35,190,196896,1,8,3:1:0:0:
66,363,197068,1,2,3:2:0:0:
225,218,197241,5,2,3:0:0:0:
250,200,197327,1,0,3:0:0:0:
280,190,197413,1,0,3:0:0:0:
312,190,197499,1,0,3:0:0:0:
342,198,197585,1,8,3:1:0:0:
378,224,197671,5,0,3:0:0:0:
422,231,197757,1,0,3:0:0:0:
464,217,197843,1,0,3:0:0:0:
495,184,197929,1,0,3:0:0:0:
506,141,198016,5,0,3:0:0:0:
499,130,198102,1,2,3:0:0:0:
493,118,198189,1,0,3:0:0:0:
488,106,198274,1,8,3:1:0:0:
485,92,198360,1,0,3:0:0:0:
484,79,198447,1,0,3:0:0:0:
484,66,198533,1,0,3:0:0:0:
490,55,198620,5,0,3:0:0:0:
480,104,198706,1,0,3:0:0:0:
449,141,198792,1,2,3:0:0:0:
404,161,198878,1,0,3:0:0:0:
355,158,198964,5,8,3:1:0:0:
313,134,199051,1,0,3:0:0:0:
265,122,199137,1,0,3:0:0:0:
216,127,199223,1,0,3:0:0:0:
172,150,199310,1,0,3:0:0:0:
139,187,199395,1,0,3:0:0:0:
122,233,199482,6,0,L|145:296,1,45,2|0,3:3|3:2,0:0:0:0:
305,355,199654,2,0,L|289:312,1,45,8|0,3:1|3:0,0:0:0:0:
112,227,199827,2,0,L|127:269,1,45,2|0,3:0|3:0,0:0:0:0:
314,363,199999,6,0,P|395:331|474:367,1,180,2|8,3:3|3:1,0:0:0:0:
486,117,200516,2,0,L|471:159,1,45,2|0,3:0|3:0,0:0:0:0:
430,256,200689,1,2,3:2:0:0:
430,256,200775,1,2,3:2:0:0:
430,256,200861,1,2,3:3:0:0:
355,139,201034,2,0,L|234:155,1,90,8|2,3:1|3:2,0:0:0:0:
220,246,201292,1,2,3:2:0:0:
220,246,201379,6,0,L|99:262,1,90,2|0,3:3|3:0,0:0:0:0:
37,135,201723,1,8,3:1:0:0:
90,341,201896,1,2,3:2:0:0:
90,341,201982,1,2,3:2:0:0:
90,341,202068,1,2,3:2:0:0:
179,172,202241,1,2,3:3:0:0:
6,256,202413,1,8,3:1:0:0:
33,126,202585,1,2,3:2:0:0:
224,261,202758,6,0,B|275:231|275:231|290:87,1,180,2|8,3:3|3:1,0:0:0:0:
462,14,203275,1,2,3:2:0:0:
418,26,203361,1,2,3:2:0:0:
375,40,203447,2,0,L|371:118,1,45,2|2,3:2|3:2,0:0:0:0:
195,118,203620,2,0,L|191:196,1,45,2|0,3:0|3:0,0:0:0:0:
356,236,203792,2,0,P|395:261|470:245,1,90,8|2,3:1|3:2,0:0:0:0:
472,251,204051,1,2,3:2:0:0:
499,238,204137,1,2,3:2:0:0:
282,104,204310,6,0,L|293:170,1,45,2|0,3:3|3:0,0:0:0:0:
319,317,204482,1,8,3:1:0:0:
420,174,204654,1,2,3:2:0:0:
420,174,204741,1,2,3:2:0:0:
420,174,204827,2,0,L|479:159,1,45,2|2,3:2|3:2,0:0:0:0:
233,229,204999,2,0,L|174:214,1,45,2|0,3:0|3:0,0:0:0:0:
402,280,205172,6,0,P|410:300|411:322,1,45,8|0,3:1|3:0,0:0:0:0:
213,139,205344,2,0,P|213:116|222:96,1,45,2|0,3:3|3:0,0:0:0:0:
314,324,205516,6,0,P|263:339|193:314,1,90,2|2,3:3|3:2,0:0:0:0:
198,325,205775,1,2,3:2:0:0:
172,315,205861,1,8,3:1:0:0:
13,215,206034,1,2,3:2:0:0:
43,212,206120,1,2,3:2:0:0:
74,210,206207,1,2,3:2:0:0:
105,207,206293,1,2,3:2:0:0:
136,205,206379,1,2,3:3:0:0:
42,344,206551,1,8,3:1:0:0:
6,110,206723,5,2,3:2:0:0:
6,110,206810,1,2,3:2:0:0:
6,110,206896,1,2,3:3:0:0:
136,205,207068,1,2,3:2:0:0:
245,55,207241,2,0,L|352:49,1,90,8|2,3:1|3:2,0:0:0:0:
410,107,207499,5,2,3:2:0:0:
410,107,207585,2,0,L|422:168,1,45,2|2,3:2|3:2,0:0:0:0:
332,217,207758,2,0,L|344:278,1,45,2|0,3:3|3:0,0:0:0:0:
454,330,207930,1,8,3:1:0:0:
454,330,208016,1,2,3:2:0:0:
454,330,208103,1,2,3:2:0:0:
454,330,208189,1,2,3:2:0:0:
454,330,208275,6,0,L|434:228,1,90,2|2,3:3|3:2,0:0:0:0:
218,167,208620,2,0,L|235:255,1,90,8|2,3:1|3:2,0:0:0:0:
247,275,208879,1,2,3:2:0:0:
243,287,208965,1,2,3:2:0:0:
239,300,209051,1,2,3:2:0:0:
235,313,209137,1,2,3:3:0:0:
67,269,209310,1,8,3:1:0:0:
305,189,209482,5,2,3:2:0:0:
305,189,209568,1,2,3:2:0:0:
305,189,209654,1,2,3:2:0:0:
109,139,209827,1,2,3:3:0:0:
165,365,209999,1,8,3:1:0:0:
228,109,210172,2,0,L|217:52,1,45,2|2,3:2|3:2,0:0:0:0:
315,201,210344,2,0,L|306:245,1,45,2|2,3:2|3:2,0:0:0:0:
371,85,210516,6,0,P|349:90|328:99,1,45,2|0,3:0|3:0,0:0:0:0:
163,208,210689,2,0,P|183:217|205:222,1,45,8|2,3:1|3:2,0:0:0:0:
405,180,210861,1,2,3:2:0:0:
405,180,210947,1,2,3:2:0:0:
405,180,211034,6,0,P|442:261|422:348,1,180,2|8,3:3|3:1,0:0:0:0:
479,115,211551,1,2,3:2:0:0:
479,115,211637,1,2,3:2:0:0:
479,115,211723,1,2,3:2:0:0:
292,178,211896,1,2,3:3:0:0:
337,354,212068,1,8,3:1:0:0:
407,217,212241,1,2,3:3:0:0:
168,133,212413,6,0,L|58:136,1,90,2|2,3:3|3:2,0:0:0:0:
46,136,212672,1,2,3:2:0:0:
14,137,212758,1,8,3:1:0:0:
106,346,212930,1,2,3:2:0:0:
106,346,213016,1,2,3:2:0:0:
106,346,213102,2,0,L|92:275,1,45,2|2,3:2|3:2,0:0:0:0:
249,180,213275,2,0,L|240:224,1,45,2|0,3:3|3:0,0:0:0:0:
209,364,213447,1,8,3:1:0:0:
161,139,213620,1,2,3:2:0:0:
398,324,213792,6,0,L|517:321,1,90,2|0,3:3|3:0,0:0:0:0:
255,170,214137,1,8,3:1:0:0:
120,356,214310,2,0,L|125:301,1,45,2|2,3:2|3:2,0:0:0:0:
249,180,214482,2,0,L|253:224,1,45,2|2,3:2|3:2,0:0:0:0:
276,376,214654,1,2,3:3:0:0:
79,233,214827,6,0,P|122:221|165:231,1,90,8|2,3:1|3:2,0:0:0:0:
260,280,215085,1,2,3:2:0:0:
260,280,215172,1,2,3:2:0:0:
157,131,215344,1,2,3:3:0:0:
346,143,215516,2,0,P|389:154|432:144,1,90,8|2,3:1|3:2,0:0:0:0:
485,64,215775,1,2,3:2:0:0:
485,64,215861,2,0,L|494:4,1,45,2|2,3:2|3:2,0:0:0:0:
332,140,216034,2,0,L|323:80,1,45,2|0,3:3|3:0,0:0:0:0:
503,213,216206,2,0,P|515:280|499:320,1,90,8|2,3:1|3:3,0:0:0:0:
239,190,216551,5,8,3:1:0:0:
342,345,216723,1,2,3:3:0:0:
269,90,216896,1,8,3:1:0:0:
244,363,217068,1,2,3:3:0:0:
165,116,217241,5,8,3:1:0:0:
62,271,217413,1,2,3:3:0:0:
135,16,217586,1,8,3:1:0:0:
160,289,217758,1,2,3:3:0:0:
378,177,217930,5,8,3:1:0:0:
121,153,218103,1,2,3:3:0:0:
166,303,218275,1,8,3:1:0:0:
229,19,218447,1,2,3:3:0:0:
229,353,218620,5,8,3:1:0:0:
166,69,218792,1,2,3:3:0:0:
307,371,218965,1,8,3:1:0:0:
116,140,219137,1,2,3:3:0:0:
260,197,219310,5,12,3:1:0:0:
132,232,219482,6,2,L|209:210,1,45,2|2,3:3|3:3,0:0:0:0:
432,136,219654,1,2,3:3:0:0:
71,133,219827,6,2,L|150:145,1,45,2|2,3:3|3:3,0:0:0:0:
367,199,219999,1,2,3:3:0:0:
0,239,220172,6,2,L|77:217,1,45,2|2,3:3|3:3,0:0:0:0:
313,142,220344,1,2,3:3:0:0:
114,82,220516,5,2,3:3:0:0:
67,107,220602,1,2,3:3:0:0:
43,155,220688,1,2,3:3:0:0:
50,208,220774,1,2,3:3:0:0:
85,248,220861,5,0,3:0:0:0:
102,268,220947,1,0,3:0:0:0:
112,293,221033,1,0,3:0:0:0:
113,320,221119,1,0,3:0:0:0:
105,345,221206,6,2,P|79:354|52:357,1,53.9999983520508,0|0,3:0|3:0,0:0:0:0:
143,178,221379,2,2,P|169:181|195:189,1,53.9999983520508,0|0,3:0|3:0,0:0:0:0:
224,344,221551,1,8,3:3:0:0:
224,344,221637,1,0,3:0:0:0:
224,344,221723,2,2,P|215:318|212:291,1,53.9999983520508,8|0,3:3|3:0,0:0:0:0:
334,138,221896,2,2,P|330:164|322:190,1,53.9999983520508,0|0,3:0|3:0,0:0:0:0:
224,344,222068,1,4,3:0:0:0:
20,221,232413,6,0,L|13:260,5,24,2|2|2|2|2|2,2:2|2:2|2:2|2:2|2:2|2:2,0:0:0:0:
40,125,232758,6,0,L|35:101,4,24,2|2|2|2|2,2:2|2:2|2:2|2:2|2:2,0:0:0:0:
136,342,233103,5,4,3:2:0:0:
136,342,233447,2,0,L|68:335,1,62.9999980773926,2|0,2:0|2:0,0:0:0:0:
224,262,233792,2,0,L|292:255,1,62.9999980773926,2|0,2:0|2:0,0:0:0:0:
116,217,234137,6,0,L|48:210,1,62.9999980773926,2|0,2:0|2:0,0:0:0:0:
204,137,234482,2,0,L|272:130,1,62.9999980773926,2|0,2:0|2:0,0:0:0:0:
190,270,234827,2,0,P|175:297|152:318,1,62.9999980773926,2|0,2:0|2:0,0:0:0:0:
287,255,235171,2,0,P|284:286|273:315,1,62.9999980773926,2|0,2:0|2:0,0:0:0:0:
369,199,235516,2,0,P|380:228|382:259,1,62.9999980773926,2|0,2:0|2:0,0:0:0:0:
201,78,235861,6,0,P|229:62|250:39,1,62.9999980773926,2|0,2:0|2:0,0:0:0:0:
186,175,236206,2,0,P|217:173|250:160,1,62.9999980773926,2|0,2:0|2:0,0:0:0:0:
130,257,236550,2,0,P|160:267|191:269,1,62.9999980773926,2|0,2:0|2:0,0:0:0:0:
362,287,236895,6,0,P|363:319|372:349,1,62.9999980773926,2|0,2:0|2:0,0:0:0:0:
300,193,237240,2,0,P|299:224|290:254,1,62.9999980773926,2|0,2:0|2:0,0:0:0:0:
368,108,237585,2,0,P|370:139|379:169,1,62.9999980773926,2|0,2:0|2:0,0:0:0:0:
140,172,237930,5,0,0:0:0:0:
140,172,238103,1,0,0:0:0:0:
210,92,238275,1,0,0:0:0:0:
210,92,238447,1,0,0:0:0:0:
181,256,238620,6,0,L|101:289,1,62.9999980773926,2|0,2:0|2:0,0:0:0:0:
274,270,238964,2,0,L|228:343,1,62.9999980773926,2|0,2:0|2:0,0:0:0:0:
359,228,239309,2,0,L|363:315,1,62.9999980773926,2|0,2:0|2:0,0:0:0:0:
405,144,239654,2,0,L|458:213,1,62.9999980773926,2|0,2:0|2:0,0:0:0:0:
219,175,239999,6,0,P|251:177|281:168,1,62.9999980773926,2|0,2:0|2:0,0:0:0:0:
86,122,240344,2,0,P|111:141|140:152,1,62.9999980773926,2|0,2:0|2:0,0:0:0:0:
137,249,240689,2,0,P|169:246|199:255,1,62.9999980773926,2|0,2:0|2:0,0:0:0:0:
4,302,241034,2,0,P|29:282|58:271,1,62.9999980773926,2|0,2:0|2:0,0:0:0:0:
274,310,241378,6,0,P|287:281|289:249,1,62.9999980773926,2|0,2:0|2:0,0:0:0:0:
398,246,241723,2,0,P|386:217|384:185,1,62.9999980773926,2|0,2:0|2:0,0:0:0:0:
277,150,242068,2,0,P|290:121|292:89,1,62.9999980773926,2|0,2:0|2:0,0:0:0:0:
469,113,242413,2,0,P|457:84|455:52,1,62.9999980773926,2|0,2:0|2:0,0:0:0:0:
203,101,242758,6,0,L|131:114,1,62.9999980773926,2|0,2:0|2:0,0:0:0:0:
281,234,243102,2,0,L|209:221,1,62.9999980773926,2|0,2:0|2:0,0:0:0:0:
354,78,243447,2,0,L|282:91,1,62.9999980773926,2|0,2:0|2:0,0:0:0:0:
427,261,243792,2,0,L|355:248,1,62.9999980773926,2|0,2:0|2:0,0:0:0:0:
136,228,244137,6,0,P|101:239|74:262,1,62.9999980773926,2|0,2:0|2:0,0:0:0:0:
156,135,244482,2,0,P|190:146|217:169,1,62.9999980773926,2|0,2:0|2:0,0:0:0:0:
245,262,244827,2,0,P|252:297|246:332,1,62.9999980773926,2|0,2:0|2:0,0:0:0:0:
294,169,245172,2,0,P|321:146|356:135,1,62.9999980773926,2|0,2:0|2:0,0:0:0:0:
361,294,245517,6,0,P|354:258|362:223,1,62.9999980773926,2|0,2:0|2:0,0:0:0:0:
476,86,245861,2,0,L|425:102,3,31.4999990386963,2|0|0|0,2:0|2:0|2:0|2:0,0:0:0:0:
351,38,246206,2,0,L|303:23,3,31.4999990386963,2|0|0|0,2:0|2:0|2:0|2:0,0:0:0:0:
224,87,246551,2,0,L|173:103,3,31.4999990386963,2|0|0|0,2:0|2:0|2:0|2:0,0:0:0:0:
54,58,246896,6,0,P|64:92|66:128,1,62.9999980773926,2|0,2:0|2:0,0:0:0:0:
89,282,247241,2,0,P|91:246|101:211,1,62.9999980773926,2|0,2:0|2:0,0:0:0:0:
253,237,247585,2,0,P|220:253|185:260,1,62.9999980773926,2|0,2:0|2:0,0:0:0:0:
296,148,247930,2,0,P|326:167|350:194,1,62.9999980773926,2|0,2:0|2:0,0:0:0:0:
187,156,248275,6,0,L|180:74,1,62.9999980773926,2|0,2:0|2:0,0:0:0:0:
377,193,248620,2,0,L|384:107,1,62.9999980773926,2|0,2:0|2:0,0:0:0:0:
194,258,248965,2,0,L|192:229,5,20.9999993591309,2|2|2|2|2|2,2:0|2:0|2:0|2:0|2:0|2:0,0:0:0:0:
274,321,249310,2,0,L|276:292,5,26.9999991760254,2|2|2|2|2|2,2:0|2:0|2:0|2:0|2:0|2:0,0:0:0:0:
177,348,249654,5,2,2:0:0:0:
144,337,249827,1,0,2:0:0:0:
114,316,249999,1,2,2:0:0:0:
93,288,250172,1,0,2:0:0:0:
270,268,250344,5,2,2:0:0:0:
233,268,250517,1,0,2:0:0:0:
198,259,250689,1,2,2:0:0:0:
169,239,250862,1,0,2:0:0:0:
328,160,251034,5,2,2:0:0:0:
293,173,251207,1,0,2:0:0:0:
258,176,251379,1,2,2:0:0:0:
223,167,251552,1,0,2:0:0:0:
345,38,251723,5,2,2:0:0:0:
317,62,251896,1,0,2:0:0:0:
285,77,252068,1,2,2:0:0:0:
249,81,252241,1,0,2:0:0:0:
104,64,252413,5,2,2:0:0:0:
101,74,252585,1,0,2:0:0:0:
258,176,252758,5,2,2:0:0:0:
261,186,252930,1,0,2:0:0:0:
72,259,253103,5,2,2:0:0:0:
69,269,253275,1,0,2:0:0:0:
292,323,253447,5,2,2:0:0:0:
295,333,253619,1,0,2:0:0:0:
504,235,253792,5,2,2:0:0:0:
499,246,253964,1,0,2:0:0:0:
321,136,254137,5,2,2:0:0:0:
324,146,254309,1,0,2:0:0:0:
506,42,254482,5,2,2:0:0:0:
503,52,254654,1,0,2:0:0:0:
256,16,254827,5,2,2:0:0:0:
258,25,254999,1,0,2:0:0:0:
148,268,255172,6,0,B|243:259|243:259|288:223|288:223|400:213,1,251.999992309571,2|0,2:3|2:0,0:0:0:0:
121,192,255689,2,0,B|216:183|216:183|261:147|261:147|373:137,1,251.999992309571,2|0,2:3|2:0,0:0:0:0:
68,258,256206,1,0,2:0:0:0:
324,346,256379,2,0,P|234:343|169:269,1,161.999995056153,0|0,2:0|2:0,0:0:0:0:
320,164,256896,5,2,2:0:0:0:
308,198,257069,1,0,2:0:0:0:
287,228,257241,1,2,2:0:0:0:
259,249,257414,1,0,2:0:0:0:
172,128,257585,1,2,2:0:0:0:
175,143,257758,1,0,2:0:0:0:
81,301,257930,5,2,2:0:0:0:
110,280,258103,1,0,2:0:0:0:
145,268,258275,1,2,2:0:0:0:
180,268,258448,1,0,2:0:0:0:
218,349,258620,5,2,2:0:0:0:
242,323,258793,1,0,2:0:0:0:
275,305,258965,1,2,2:0:0:0:
309,299,259138,1,0,2:0:0:0:
361,372,259310,5,2,2:0:0:0:
380,342,259483,1,0,2:0:0:0:
409,319,259655,1,2,2:0:0:0:
442,307,259828,1,0,2:0:0:0:
389,212,259999,2,0,P|345:167|421:211,1,315,4|0,3:0|3:0,0:0:0:0:
130,283,260689,6,0,B|138:187|138:187|174:142|174:142|184:30,1,251.999992309571,2|0,2:3|2:0,0:0:0:0:
206,310,261206,2,0,B|214:214|214:214|250:169|250:169|258:71,1,251.999992309571,2|0,2:3|2:0,0:0:0:0:
141,364,261723,1,0,2:0:0:0:
362,347,261896,2,0,P|305:297|212:316,1,161.999995056153,0|0,2:0|2:0,0:0:0:0:
316,253,262413,5,2,2:0:0:0:
336,223,262586,1,0,2:0:0:0:
346,188,262758,1,2,2:0:0:0:
344,153,262931,1,0,2:0:0:0:
231,77,263103,1,2,2:0:0:0:
235,93,263275,1,0,2:0:0:0:
165,217,263447,5,2,2:0:0:0:
157,179,263620,1,0,2:0:0:0:
150,142,263792,1,2,2:0:0:0:
143,105,263965,1,0,2:0:0:0:
237,280,264137,5,2,2:0:0:0:
244,242,264310,1,0,2:0:0:0:
251,205,264482,1,2,2:0:0:0:
258,168,264655,1,0,2:0:0:0:
114,366,264827,5,2,2:0:0:0:
106,328,265000,1,0,2:0:0:0:
99,291,265172,1,2,2:0:0:0:
92,254,265345,1,0,2:0:0:0:
125,148,265516,2,0,L|119:117,5,20.9999993591309,2|2|2|2|2|2,2:0|2:0|2:0|2:0|2:0|2:0,0:0:0:0:
92,254,265861,2,0,L|88:274,5,20.9999993591309,2|2|2|2|2|2,2:0|2:0|2:0|2:0|2:0|2:0,0:0:0:0:
21,178,266206,5,2,3:3:0:0:
335,196,266551,1,4,3:3:0:0:
202,316,267068,5,2,3:3:0:0:
249,109,267240,1,4,3:3:0:0:
131,260,267585,5,2,3:3:0:0:
456,198,267930,1,4,3:3:0:0:
323,78,268447,5,2,3:3:0:0:
370,285,268619,1,4,3:3:0:0:
108,170,268964,5,2,3:3:0:0:
409,151,269309,1,4,3:0:0:0:
198,93,269827,5,2,3:0:0:0:
409,151,269999,1,8,3:1:0:0:
254,305,270516,5,2,3:3:0:0:
409,151,270689,1,8,3:1:0:0:
198,93,271034,5,0,3:0:0:0:
198,93,271206,1,2,3:3:0:0:
409,151,271379,1,8,3:1:0:0:
409,151,271551,1,0,3:0:0:0:
277,333,271723,5,8,3:1:0:0:
327,120,271896,1,2,3:3:0:0:
295,336,272068,5,8,3:1:0:0:
238,116,272241,1,2,3:3:0:0:
319,338,272413,5,8,3:1:0:0:
153,149,272585,1,2,3:3:0:0:
343,335,272758,5,8,3:1:0:0:
82,219,272930,1,2,3:3:0:0:
279,36,273103,5,8,3:1:0:0:
229,249,273276,1,2,3:3:0:0:
261,33,273448,5,8,3:1:0:0:
318,253,273621,1,2,3:3:0:0:
237,31,273793,5,8,3:1:0:0:
403,220,273965,1,2,3:3:0:0:
213,34,274138,5,8,3:1:0:0:
474,150,274310,1,2,3:3:0:0:
226,150,274482,5,2,3:3:0:0:
172,159,274568,1,2,3:3:0:0:
119,168,274654,1,2,3:3:0:0:
66,177,274740,1,2,3:3:0:0:
13,186,274827,5,2,3:3:0:0:
0,233,274913,1,2,3:3:0:0:
0,287,274999,1,2,3:3:0:0:
12,335,275085,1,2,3:3:0:0:
55,367,275172,5,2,3:3:0:0:
96,332,275258,1,2,3:3:0:0:
147,318,275344,1,2,3:3:0:0:
201,325,275430,1,2,3:3:0:0:
246,353,275516,1,2,3:3:0:0:
298,368,275602,1,2,3:3:0:0:
349,353,275688,1,2,3:3:0:0:
386,315,275774,1,2,3:3:0:0:
397,263,275861,5,2,3:3:0:0:
388,237,275947,1,2,3:3:0:0:
384,210,276033,1,2,3:3:0:0:
386,184,276119,1,2,3:3:0:0:
399,148,276206,1,0,0:0:0:0:
403,138,276292,1,0,0:0:0:0:
409,129,276378,1,0,0:0:0:0:
417,121,276464,1,0,0:0:0:0:
425,115,276551,6,2,P|452:115|478:123,1,53.9999983520508,0|0,3:0|3:0,0:0:0:0:
333,5,276723,1,2,3:3:0:0:
333,5,276810,1,0,3:0:0:0:
333,5,276896,2,2,P|333:37|321:74,1,53.9999983520508,0|0,3:0|3:0,0:0:0:0:
294,216,277068,2,2,P|265:200|239:171,1,53.9999983520508,0|0,3:0|3:0,0:0:0:0:
104,22,277241,1,2,3:3:0:0:
104,22,277585,6,0,L|88:163,1,107.999996704102,12|2,1:0|3:2,0:0:0:0:
67,307,277844,1,2,3:2:0:0:
67,307,277930,2,0,P|80:330|89:355,1,53.9999983520508,2|2,3:2|3:2,0:0:0:0:
228,209,278103,2,0,P|214:232|205:257,1,53.9999983520508,2|0,3:3|3:0,0:0:0:0:
169,384,278275,1,8,3:1:0:0:
138,139,278447,1,2,3:2:0:0:
138,139,278534,1,2,3:2:0:0:
138,139,278620,6,0,P|214:89|333:154,1,215.999993408203,2|8,3:3|3:1,0:0:0:0:
472,163,279137,1,2,3:2:0:0:
466,211,279223,1,2,3:2:0:0:
461,259,279309,1,2,3:2:0:0:
456,308,279395,1,2,3:2:0:0:
451,356,279481,1,2,3:3:0:0:
321,133,279654,1,8,3:1:0:0:
321,133,279827,1,2,3:2:0:0:
187,308,279999,6,0,B|71:281|109:400|-1:379,1,215.999993408203,2|8,3:3|3:1,0:0:0:0:
90,184,280516,2,0,P|88:210|94:237,1,53.9999983520508,2|2,3:2|3:2,0:0:0:0:
159,382,280689,1,2,3:2:0:0:
259,104,280861,2,0,P|260:130|254:157,1,53.9999983520508,2|0,3:3|3:0,0:0:0:0:
190,302,281034,1,8,3:1:0:0:
38,103,281206,1,2,3:2:0:0:
90,89,281292,1,2,3:2:0:0:
140,106,281378,1,2,3:2:0:0:
173,147,281464,1,2,3:2:0:0:
179,201,281550,1,2,3:3:0:0:
385,343,281723,6,0,P|333:328|280:339,1,107.999996704102,8|2,3:1|3:2,0:0:0:0:
152,380,281982,1,2,3:2:0:0:
152,380,282068,2,0,P|149:353|144:326,1,53.9999983520508,2|2,3:2|3:2,0:0:0:0:
275,186,282241,2,0,P|269:212|267:239,1,53.9999983520508,2|0,3:3|3:0,0:0:0:0:
283,376,282413,1,8,3:1:0:0:
211,291,282585,1,2,3:3:0:0:
512,302,282758,6,0,B|433:291|433:291|379:311|379:311|296:298,1,215.999993408203,12|8,1:1|3:1,0:0:0:0:
91,250,283275,1,2,3:2:0:0:
142,236,283361,1,2,3:2:0:0:
181,199,283447,1,2,3:2:0:0:
197,148,283533,1,2,3:2:0:0:
186,96,283619,1,2,3:3:0:0:
277,221,283792,1,8,3:1:0:0:
87,143,283965,5,2,3:2:0:0:
87,143,284051,1,2,3:2:0:0:
87,143,284137,1,2,3:3:0:0:
352,133,284310,1,2,3:2:0:0:
296,338,284482,2,0,P|281:278|278:228,1,107.999996704102,8|2,3:1|3:2,0:0:0:0:
190,145,284741,1,2,3:2:0:0:
190,145,284827,2,0,L|251:140,1,53.9999983520508,2|2,3:2|3:2,0:0:0:0:
361,127,284999,1,2,3:3:0:0:
135,283,285172,2,0,P|84:264|30:260,1,107.999996704102,8|2,3:1|3:2,0:0:0:0:
251,50,285516,6,0,P|160:83|64:90,1,161.999995056153,2|0,3:3|3:0,0:0:0:0:
31,45,285861,2,0,P|51:90|30:176,1,107.999996704102,8|2,3:1|3:2,0:0:0:0:
16,273,286120,1,2,3:2:0:0:
15,273,286206,2,0,P|40:261|66:255,1,53.9999983520508,2|2,3:2|3:2,0:0:0:0:
148,103,286379,2,0,P|174:109|198:120,1,53.9999983520508,2|0,3:3|3:0,0:0:0:0:
322,301,286551,6,0,L|297:162,1,107.999996704102,8|2,3:1|3:2,0:0:0:0:
334,95,286810,1,2,3:2:0:0:
334,95,286896,2,0,L|391:82,1,53.9999983520508,2|2,3:2|3:2,0:0:0:0:
214,225,287068,2,0,L|157:212,1,53.9999983520508,2|0,3:3|3:0,0:0:0:0:
406,234,287241,2,0,L|425:340,1,107.999996704102,8|2,3:1|3:2,0:0:0:0:
409,360,287499,1,2,3:2:0:0:
398,359,287585,1,2,3:2:0:0:
387,358,287671,1,2,3:2:0:0:
376,357,287757,1,2,3:3:0:0:
473,161,287930,1,8,3:1:0:0:
473,161,288103,1,2,3:0:0:0:
203,349,288275,6,0,P|150:272|145:121,1,215.999993408203,4|8,1:0|3:1,0:0:0:0:
303,59,288792,1,2,3:2:0:0:
352,39,288878,1,2,3:2:0:0:
401,58,288965,1,2,3:2:0:0:
450,77,289051,1,2,3:2:0:0:
499,58,289137,1,2,3:3:0:0:
356,153,289310,2,0,L|375:289,1,107.999996704102,8|2,3:1|3:2,0:0:0:0:
457,337,289568,1,2,3:2:0:0:
457,337,289654,6,0,L|471:230,1,107.999996704102,2|2,3:3|3:2,0:0:0:0:
502,51,289999,1,8,3:1:0:0:
366,267,290172,1,2,3:2:0:0:
316,287,290258,1,2,3:2:0:0:
268,268,290345,1,2,3:2:0:0:
219,249,290431,1,2,3:2:0:0:
170,268,290517,1,2,3:0:0:0:
29,365,290689,2,0,L|40:223,1,107.999996704102,8|2,3:1|3:2,0:0:0:0:
173,93,291034,6,0,B|248:97|290:37|290:37|286:81|319:107,1,215.999993408203,2|8,3:0|3:1,0:0:0:0:
344,244,291551,1,2,3:2:0:0:
344,244,291637,1,2,3:2:0:0:
344,244,291723,2,0,L|352:170,1,53.9999983520508,2|2,3:2|3:2,0:0:0:0:
372,44,291896,1,2,3:3:0:0:
430,278,292068,1,8,3:1:0:0:
235,171,292241,5,2,3:2:0:0:
235,171,292327,1,2,3:2:0:0:
235,171,292413,1,2,3:2:0:0:
476,146,292585,1,2,3:3:0:0:
360,337,292758,1,8,3:1:0:0:
360,337,292930,1,2,3:2:0:0:
225,167,293103,5,2,3:2:0:0:
361,204,293275,1,2,3:3:0:0:
117,227,293447,1,8,3:1:0:0:
421,272,293620,1,2,3:3:0:0:
261,360,293792,6,0,P|203:258|250:139,1,215.999993408203,12|8,1:0|3:1,0:0:0:0:
420,101,294310,1,2,3:2:0:0:
420,101,294396,1,2,3:2:0:0:
419,100,294482,2,0,L|345:122,2,53.9999983520508,2|2|2,3:2|3:2|3:3,0:0:0:0:
444,244,294827,2,0,P|452:296|431:345,1,107.999996704102,8|0,3:1|3:0,0:0:0:0:
154,344,295172,6,0,B|193:287|193:287|362:288,1,215.999993408203,2|8,3:0|3:1,0:0:0:0:
260,194,295689,1,2,3:2:0:0:
229,150,295775,1,2,3:2:0:0:
224,97,295861,1,2,3:2:0:0:
247,48,295947,1,2,3:2:0:0:
290,17,296033,1,2,3:0:0:0:
435,123,296206,2,0,L|305:113,1,107.999996704102,8|2,3:1|3:2,0:0:0:0:
108,20,296551,5,2,3:3:0:0:
122,71,296637,1,2,3:2:0:0:
117,125,296723,1,2,3:2:0:0:
93,172,296809,1,2,3:2:0:0:
52,208,296896,1,8,3:1:0:0:
32,257,296982,1,2,3:2:0:0:
45,308,297068,1,2,3:2:0:0:
86,341,297154,1,2,3:2:0:0:
139,342,297241,5,2,3:2:0:0:
147,335,297327,1,2,3:2:0:0:
156,329,297413,1,2,3:3:0:0:
165,324,297499,1,2,3:2:0:0:
174,320,297585,2,0,L|238:332,1,53.9999983520508,8|2,3:1|3:2,0:0:0:0:
357,255,297758,5,2,3:2:0:0:
366,260,297844,1,2,3:2:0:0:
374,264,297930,2,0,L|438:252,1,53.9999983520508,2|2,3:3|3:2,0:0:0:0:
211,173,298103,6,0,P|219:199|233:223,1,53.9999983520508,2|2,3:2|3:2,0:0:0:0:
242,383,298275,2,0,P|255:359|263:333,1,53.9999983520508,8|2,3:1|3:2,0:0:0:0:
292,144,298447,6,0,P|300:173|316:200,1,53.9999983520508,2|2,3:2|3:2,0:0:0:0:
326,384,298619,2,0,P|341:357|350:327,1,53.9999983520508,2|2,3:2|3:2,0:0:0:0:
403,77,298792,6,0,L|384:142,1,53.9999983520508,2|2,3:2|3:2,0:0:0:0:
448,384,298965,2,0,L|432:332,1,53.9999983520508,8|2,3:1|3:2,0:0:0:0:
499,69,299137,2,0,P|493:103|477:134,1,53.9999983520508,2|2,3:3|3:2,0:0:0:0:
248,253,299310,6,0,P|195:241|141:238,1,107.999996704102,12|2,1:0|3:2,0:0:0:0:
108,239,299568,1,2,3:2:0:0:
100,244,299654,1,8,3:1:0:0:
204,96,299827,1,2,3:2:0:0:
204,96,299913,1,2,3:2:0:0:
204,96,299999,2,0,L|199:181,1,53.9999983520508,2|2,3:2|3:2,0:0:0:0:
187,333,300172,1,2,3:0:0:0:
37,148,300344,2,0,P|17:98|23:44,1,107.999996704102,8|2,3:1|3:2,0:0:0:0:
13,242,300689,5,2,3:0:0:0:
118,83,300861,1,2,3:2:0:0:
125,289,301034,1,8,3:1:0:0:
17,61,301206,2,0,L|38:140,1,53.9999983520508,2|0,3:2|3:0,0:0:0:0:
131,294,301379,2,0,P|185:297|234:277,1,107.999996704102,2|2,0:2|3:0,0:0:0:0:
460,64,301723,2,0,L|444:198,1,107.999996704102,8|0,3:1|3:0,0:0:0:0:
411,329,302068,6,0,P|335:257|233:276,1,215.999993408203,12|8,1:0|3:1,0:0:0:0:
76,354,302585,1,2,3:2:0:0:
76,354,302672,1,2,3:2:0:0:
76,354,302758,2,0,P|89:324|88:282,1,53.9999983520508,2|2,3:2|3:2,0:0:0:0:
17,152,302930,2,0,P|20:178|32:202,1,53.9999983520508,2|0,3:3|3:0,0:0:0:0:
169,331,303103,1,8,3:1:0:0:
5,305,303275,5,2,3:2:0:0:
5,305,303361,1,2,3:2:0:0:
5,305,303447,1,2,3:2:0:0:
105,149,303620,1,2,3:0:0:0:
233,276,303792,2,0,P|282:254|335:252,1,107.999996704102,8|2,3:1|3:2,0:0:0:0:
417,314,304051,5,2,3:2:0:0:
417,314,304137,2,0,L|409:374,1,53.9999983520508,2|2,3:2|3:2,0:0:0:0:
221,277,304310,2,0,L|213:223,1,53.9999983520508,2|2,3:3|3:2,0:0:0:0:
393,76,304482,1,8,3:1:0:0:
374,125,304568,1,2,3:2:0:0:
331,157,304654,1,2,3:0:0:0:
278,161,304740,1,2,3:2:0:0:
231,134,304827,6,0,P|337:127|436:168,1,215.999993408203,12|8,1:0|3:1,0:0:0:0:
308,36,305344,1,2,3:2:0:0:
308,36,305430,1,2,3:2:0:0:
308,36,305516,1,2,3:2:0:0:
444,177,305689,1,2,3:0:0:0:
298,270,305861,2,0,L|170:254,1,107.999996704102,8|2,3:1|3:2,0:0:0:0:
108,159,306120,1,2,3:2:0:0:
108,159,306206,6,0,P|113:234|75:289,1,107.999996704102,2|2,3:3|3:2,0:0:0:0:
81,275,306465,1,2,3:2:0:0:
74,279,306551,1,8,3:1:0:0:
22,85,306723,1,2,3:2:0:0:
65,54,306809,1,2,3:2:0:0:
118,47,306895,1,2,3:2:0:0:
169,64,306981,1,2,3:2:0:0:
206,103,307067,1,2,3:0:0:0:
17,202,307241,1,8,3:1:0:0:
138,347,307413,1,2,3:2:0:0:
138,347,307499,1,2,3:2:0:0:
137,347,307585,6,0,L|272:332,1,107.999996704102,2|0,3:0|3:0,0:0:0:0:
345,127,307930,2,0,P|355:194|403:239,1,107.999996704102,8|2,3:1|3:2,0:0:0:0:
496,226,308189,1,2,3:2:0:0:
496,226,308275,2,0,L|503:155,1,53.9999983520508,2|2,3:2|3:2,0:0:0:0:
311,307,308447,2,0,L|316:360,1,53.9999983520508,2|2,3:3|3:2,0:0:0:0:
412,265,308620,5,8,3:1:0:0:
379,224,308706,1,2,3:2:0:0:
330,202,308792,1,2,3:2:0:0:
277,206,308878,1,2,3:2:0:0:
231,234,308965,2,0,P|191:270|138:276,1,107.999996704102,2|2,3:0|3:0,0:0:0:0:
43,209,309223,5,0,3:0:0:0:
42,209,309310,2,0,P|52:184|56:157,1,53.9999983520508,8|0,3:1|3:0,0:0:0:0:
8,4,309482,2,0,P|11:30|22:55,1,53.9999983520508,0|0,3:0|3:0,0:0:0:0:
151,100,309654,1,0,3:0:0:0:
198,124,309740,1,0,3:0:0:0:
250,117,309826,1,2,3:0:0:0:
289,81,309913,1,0,3:0:0:0:
331,48,309999,1,8,3:1:0:0:
384,47,310085,1,0,3:0:0:0:
427,78,310172,2,0,L|435:172,1,53.9999983520508,2|0,3:0|3:0,0:0:0:0:
450,338,310344,6,0,B|337:359|363:243|212:287,1,215.999993408203,12|8,1:0|3:1,0:0:0:0:
108,352,310861,2,0,L|98:277,1,53.9999983520508,2|2,3:2|3:2,0:0:0:0:
220,150,311034,2,0,L|212:203,1,53.9999983520508,2|2,3:2|3:2,0:0:0:0:
96,360,311206,2,0,L|86:285,1,53.9999983520508,2|0,3:3|3:0,0:0:0:0:
65,131,311379,1,8,3:1:0:0:
248,296,311551,5,2,3:2:0:0:
248,296,311637,1,2,3:2:0:0:
248,296,311723,2,0,L|315:306,1,53.9999983520508,2|0,3:3|3:0,0:0:0:0:
480,247,311895,2,0,L|413:257,1,53.9999983520508,2|0,3:2|3:0,0:0:0:0:
251,203,312068,2,0,L|318:213,1,53.9999983520508,8|0,3:1|3:0,0:0:0:0:
483,154,312240,5,2,3:2:0:0:
442,171,312326,1,0,3:0:0:0:
397,168,312412,1,2,3:2:0:0:
359,145,312498,1,0,3:0:0:0:
336,107,312585,2,0,L|350:52,1,53.9999983520508,2|0,3:0|3:0,0:0:0:0:
360,253,312757,2,0,L|386:363,1,107.999996704102,8|2,3:1|3:0,0:0:0:0:
206,159,313103,6,0,P|102:129|-12:178,1,215.999993408203,12|8,1:0|3:1,0:0:0:0:
95,358,313620,2,0,L|101:292,1,53.9999983520508,2|2,3:2|3:2,0:0:0:0:
215,175,313792,2,0,L|222:258,1,53.9999983520508,2|2,3:2|3:2,0:0:0:0:
242,371,313964,1,2,3:3:0:0:
45,228,314137,6,0,P|97:213|149:225,1,107.999996704102,8|2,3:1|3:2,0:0:0:0:
226,275,314395,1,2,3:2:0:0:
226,275,314482,1,2,3:2:0:0:
123,126,314654,1,2,3:0:0:0:
330,149,314826,2,0,P|385:163|440:150,1,107.999996704102,8|2,3:1|3:2,0:0:0:0:
469,70,315085,1,2,3:2:0:0:
469,70,315171,2,0,L|478:10,1,53.9999983520508,2|2,3:2|3:2,0:0:0:0:
316,146,315344,2,0,L|307:86,1,53.9999983520508,2|2,3:0|3:2,0:0:0:0:
487,219,315516,2,0,P|499:286|483:326,1,107.999996704102,8|2,3:1|3:3,0:0:0:0:
239,190,315861,5,8,3:1:0:0:
397,349,316034,1,2,3:0:0:0:
468,80,316206,5,8,3:1:0:0:
205,281,316379,1,2,3:0:0:0:
135,52,316551,5,8,3:1:0:0:
412,271,316723,1,2,3:0:0:0:
85,353,316896,5,8,3:1:0:0:
236,77,317068,1,2,3:0:0:0:
259,354,317241,5,8,3:1:0:0:
0,218,317413,1,2,3:0:0:0:
364,185,317585,5,8,3:1:0:0:
76,362,317758,1,2,3:0:0:0:
76,362,317844,1,2,3:0:0:0:
76,362,317930,1,8,3:1:0:0:
121,53,318103,5,2,3:0:0:0:
250,350,318275,1,8,3:1:0:0:
295,41,318448,5,8,3:1:0:0:
424,338,318620,1,8,3:1:0:0:
121,236,318792,6,2,L|198:258,1,53.9999983520508,2|2,3:0|3:0,0:0:0:0:
434,333,318964,1,8,3:1:0:0:
113,145,319137,6,2,L|190:167,1,53.9999983520508,2|2,3:0|3:0,0:0:0:0:
426,242,319309,1,8,3:1:0:0:
105,54,319482,6,2,L|182:76,1,53.9999983520508,2|2,3:0|3:0,0:0:0:0:
418,151,319654,1,8,3:1:0:0:
242,13,319827,1,2,3:0:0:0:
270,58,319913,1,2,3:0:0:0:
274,111,319999,1,2,3:0:0:0:
252,160,320085,1,2,3:0:0:0:
211,194,320172,5,2,3:0:0:0:
198,217,320258,1,2,3:0:0:0:
194,244,320344,1,2,3:0:0:0:
199,270,320430,1,0,3:0:0:0:
213,292,320516,6,2,P|222:267|220:241,1,53.9999983520508,2|2,3:0|3:0,0:0:0:0:
144,98,320689,2,0,P|134:123|136:149,1,53.9999983520508,8|0,3:1|3:0,0:0:0:0:
240,321,320861,2,0,P|249:295|247:269,1,53.9999983520508,2|0,3:0|3:0,0:0:0:0:
77,38,321034,2,0,P|48:99|53:176,1,135,8|0,3:1|3:0,0:0:0:0:
99,358,321379,6,0,P|177:293|255:348,1,180,4|8,3:2|3:1,0:0:0:0:
389,271,321896,1,2,3:2:0:0:
383,278,321982,1,2,3:2:0:0:
379,286,322068,2,0,P|380:320|390:343,1,45,2|2,3:2|3:2,0:0:0:0:
442,209,322241,1,2,3:3:0:0:
246,337,322413,1,8,3:1:0:0:
334,152,322585,1,2,3:2:0:0:
334,152,322672,1,2,3:2:0:0:
334,152,322758,6,0,B|227:151|273:77|141:85,1,180,2|8,3:0|3:1,0:0:0:0:
157,216,323275,1,2,3:2:0:0:
157,216,323361,1,2,3:2:0:0:
157,216,323447,2,0,P|169:198|177:177,1,45,2|2,3:2|3:2,0:0:0:0:
69,42,323620,1,2,3:0:0:0:
324,61,323792,2,0,B|386:64|386:64|426:36|411:-5,1,135,8|0,3:1|3:0,0:0:0:0:
328,156,324137,6,0,P|318:238|389:319,1,180,2|8,3:0|3:1,0:0:0:0:
443,187,324654,1,2,3:2:0:0:
439,194,324740,1,2,3:2:0:0:
435,202,324826,1,2,3:2:0:0:
433,211,324912,1,2,3:2:0:0:
431,220,324999,2,0,L|442:281,1,45,2|0,3:3|3:0,0:0:0:0:
455,368,325172,1,8,3:1:0:0:
331,148,325344,1,2,3:2:0:0:
296,338,325516,1,0,3:2:0:0:
213,240,325689,6,0,L|281:234,1,45,2|0,3:0|3:0,0:0:0:0:
431,220,325861,1,8,3:1:0:0:
226,152,326034,1,2,3:2:0:0:
204,129,326120,1,2,3:2:0:0:
193,99,326206,1,2,3:2:0:0:
192,68,326292,1,2,3:2:0:0:
204,39,326379,2,0,L|273:50,1,45,2|0,3:0|3:0,0:0:0:0:
385,75,326551,1,8,3:1:0:0:
187,348,326723,1,2,3:0:0:0:
187,348,326810,1,2,3:0:0:0:
187,348,326896,6,0,B|136:335|118:297|118:297|128:248|104:177,1,180,2|8,3:0|3:1,0:0:0:0:
63,33,327413,1,2,3:2:0:0:
66,55,327499,1,2,3:2:0:0:
64,76,327585,2,0,P|59:98|48:118,1,45,2|2,3:2|3:2,0:0:0:0:
199,200,327758,2,0,P|188:180|183:158,1,45,2|0,3:0|3:0,0:0:0:0:
154,23,327930,1,8,3:1:0:0:
154,23,328103,1,2,3:2:0:0:
188,290,328275,6,0,B|292:292|253:215|341:214,1,180,2|8,3:0|3:1,0:0:0:0:
462,277,328792,1,2,3:2:0:0:
479,301,328878,1,2,3:2:0:0:
474,331,328964,1,2,3:2:0:0:
448,348,329050,1,2,3:2:0:0:
418,340,329137,2,0,P|415:312|419:275,1,45,2|0,3:0|3:0,0:0:0:0:
429,152,329310,1,8,3:1:0:0:
429,152,329482,1,2,3:2:0:0:
235,330,329654,6,0,P|193:257|254:201,1,180,2|8,3:0|3:1,0:0:0:0:
131,345,330172,2,0,P|123:323|120:301,1,45,2|2,3:2|3:2,0:0:0:0:
185,103,330344,2,0,P|182:125|174:146,1,45,2|2,3:2|3:2,0:0:0:0:
130,221,330516,1,2,3:0:0:0:
60,44,330689,1,8,3:1:0:0:
60,44,330861,1,2,3:2:0:0:
253,201,331034,1,2,3:2:0:0:
35,161,331206,6,0,L|111:147,1,45,2|0,3:0|3:0,0:0:0:0:
310,107,331379,1,8,3:1:0:0:
437,225,331551,1,2,3:2:0:0:
428,250,331637,1,2,3:2:0:0:
408,267,331723,1,2,3:2:0:0:
382,272,331809,1,2,3:2:0:0:
357,263,331896,2,0,P|347:243|342:222,1,45,2|0,3:0|3:0,0:0:0:0:
404,116,332068,2,0,P|399:137|388:157,1,45,8|0,3:1|3:0,0:0:0:0:
256,224,332241,2,0,L|193:205,1,45,2|2,3:0|3:0,0:0:0:0:
29,117,332413,6,0,P|84:78|185:94,1,135,4|0,3:2|3:0,0:0:0:0:
170,95,332758,2,0,P|232:133|334:103,1,180,8|2,3:1|3:2,0:0:0:0:
256,32,333275,1,2,3:0:0:0:
256,224,333447,2,0,L|256:336,1,90,8|2,3:1|3:2,0:0:0:0:
480,272,333792,6,0,P|425:311|324:295,1,135,2|0,3:0|3:0,0:0:0:0:
339,294,334137,2,0,P|277:256|175:286,1,180,8|2,3:1|3:2,0:0:0:0:
253,357,334654,1,2,3:0:0:0:
253,165,334826,2,0,L|253:53,1,90,0|2,3:0|3:2,0:0:0:0:
21,169,335172,6,0,P|40:224|128:263,1,135,2|0,3:0|3:0,0:0:0:0:
122,258,335516,2,0,B|162:232|172:198|172:198|203:248|180:310,1,180,8|2,3:1|3:2,0:0:0:0:
106,372,336034,1,2,3:0:0:0:
187,115,336206,1,8,3:1:0:0:
401,304,336723,5,2,3:0:0:0:
316,59,336895,1,8,3:1:0:0:
186,207,337241,5,2,3:2:0:0:
186,207,337413,1,2,3:0:0:0:
447,196,337585,1,8,3:1:0:0:
311,322,337758,1,2,3:0:0:0:
235,65,337930,1,2,3:0:0:0:
186,207,338275,6,0,P|182:138|224:69,1,135,8|0,3:1|3:0,0:0:0:0:
235,65,338620,1,2,3:2:0:0:
293,164,338792,1,2,3:0:0:0:
47,199,338965,1,8,3:1:0:0:
256,359,339310,6,0,P|260:290|218:221,1,135,2|0,3:0|3:0,0:0:0:0:
207,217,339655,1,8,3:1:0:0:
149,316,339827,1,2,3:2:0:0:
395,351,340000,1,2,3:2:0:0:
309,165,340172,1,2,3:3:0:0:
255,368,340344,1,8,3:1:0:0:
41,307,340689,5,2,3:3:0:0:
58,265,340775,1,2,3:2:0:0:
90,234,340861,1,2,3:2:0:0:
131,217,340947,1,2,3:2:0:0:
176,216,341034,5,8,3:1:0:0:
214,239,341120,1,2,3:2:0:0:
258,246,341206,1,2,3:2:0:0:
301,235,341292,1,2,3:2:0:0:
337,208,341379,5,2,3:2:0:0:
333,163,341465,1,0,3:3:0:0:
329,118,341551,1,2,3:3:0:0:
325,73,341637,1,2,3:2:0:0:
322,28,341723,5,8,3:1:0:0:
283,6,341809,1,2,3:2:0:0:
239,11,341895,1,2,3:2:0:0:
207,41,341981,1,2,3:2:0:0:
198,85,342068,5,2,3:2:0:0:
214,131,342154,1,2,3:2:0:0:
203,179,342240,1,2,3:3:0:0:
169,214,342326,1,2,3:2:0:0:
122,228,342413,1,8,3:1:0:0:
75,252,342499,1,2,3:2:0:0:
59,302,342585,1,2,3:2:0:0:
84,349,342671,1,2,3:2:0:0:
129,366,342758,6,0,P|138:345|144:323,1,45,8|8,3:3|3:3,0:0:0:0:
112,97,342930,2,0,P|117:118|126:139,1,45,2|2,3:0|3:0,0:0:0:0:
229,278,343103,5,8,3:0:0:0:
287,271,343189,1,8,3:0:0:0:
345,264,343275,1,2,3:0:0:0:
403,257,343361,1,2,3:0:0:0:
461,250,343447,1,4,3:2:0:0:
