osu file format v14

[General]
AudioFilename: audio.mp3
AudioLeadIn: 0
PreviewTime: 132413
Countdown: 0
SampleSet: Normal
StackLeniency: 0.7
Mode: 1
LetterboxInBreaks: 0
WidescreenStoryboard: 0

[Editor]
DistanceSpacing: 0.1
BeatDivisor: 4
GridSize: 32
TimelineZoom: 3.699998

[Metadata]
Title:Feelin Sky
TitleUnicode:Feelin Sky
Artist:Camellia & DJ Genki
ArtistUnicode:かめりあ & DJ Genki
Creator:Don Omar
Version:Deprivation
Source:Starry Orange
Tags:
BeatmapID:1333151
BeatmapSetID:631364

[Difficulty]
HPDrainRate:6
CircleSize:5
OverallDifficulty:6.5
ApproachRate:5
SliderMultiplier:1.4
SliderTickRate:1

[Events]
//Background and Video events
0,0,"Big-fluffy-cloud-on-the-beautiful-blue-sky-abstract-drawing_1920x1080.jpg",0,0
//Break Periods
//Storyboard Layer 0 (Background)
//Storyboard Layer 1 (Fail)
//Storyboard Layer 2 (Pass)
//Storyboard Layer 3 (Foreground)
//Storyboard Layer 4 (Overlay)
//Storyboard Sound Samples

[TimingPoints]
1379,344.827586206897,4,1,0,40,1,0
8275,-100,4,1,0,45,0,0
9654,-100,4,1,0,50,0,0
20689,-95.2380952380952,4,1,0,60,0,0
22068,-86.9565217391304,4,1,0,80,0,0
23275,-90.9090909090909,4,1,0,50,0,0
23447,-100,4,1,0,65,0,0
34482,-71.4285714285714,4,1,0,100,0,0
34827,-80,4,1,0,100,0,0
35172,-86.9565217391304,4,1,0,100,0,0
35861,-71.4285714285714,4,1,0,100,0,0
42758,-100,4,1,0,80,0,0
45516,-100,4,1,0,100,0,1
89654,-100,4,1,0,100,0,0
90344,-100,4,1,0,50,0,0
111723,-100,4,1,0,75,0,0
122758,-100,4,1,0,80,0,0
128275,-100,4,1,0,100,0,0
132413,-100,4,1,0,60,0,0
133792,-100,4,1,0,100,0,1
155861,-100,4,1,0,100,0,0
177930,-100,4,1,0,100,0,1
222068,-100,4,1,0,100,0,0
226551,-100,4,1,0,50,0,0
255172,-71.4285714285714,4,1,0,100,0,0
255689,-83.3333333333333,4,1,0,80,0,0
256034,-100,4,1,0,60,0,0
260689,-71.4285714285714,4,1,0,100,0,0
261206,-83.3333333333333,4,1,0,80,0,0
261551,-100,4,1,0,60,0,0
266206,-100,4,1,0,80,0,0
271723,-100,4,1,0,100,0,0
277241,-86.9565217391304,4,1,0,100,0,0
277585,-71.4285714285714,4,1,0,100,0,1
277612,-90.9090909090909,4,1,0,100,0,1
321379,-100,4,1,0,60,0,0

[HitObjects]
256,192,1379,5,0,0:0:0:0:
256,192,1551,1,0,0:0:0:0:
256,192,1724,1,0,0:0:0:0:
256,192,1810,1,0,0:0:0:0:
256,192,1982,1,0,0:0:0:0:
256,192,2069,1,8,0:0:0:0:
256,192,2155,1,0,0:0:0:0:
256,192,2241,1,8,0:0:0:0:
256,192,2327,1,8,0:0:0:0:
256,192,2413,1,0,0:0:0:0:
256,192,2586,1,0,0:0:0:0:
256,192,2758,1,0,0:0:0:0:
256,192,2930,1,0,0:0:0:0:
256,192,3103,1,0,0:0:0:0:
256,192,3189,1,0,0:0:0:0:
256,192,3361,1,0,0:0:0:0:
256,192,3448,1,8,0:0:0:0:
256,192,3534,1,0,0:0:0:0:
256,192,3620,1,8,0:0:0:0:
256,192,3706,1,0,0:0:0:0:
256,192,3792,1,0,0:0:0:0:
256,192,3965,1,0,0:0:0:0:
256,192,4137,1,0,0:0:0:0:
256,192,4310,1,0,0:0:0:0:
256,192,4482,1,0,0:0:0:0:
256,192,4568,1,0,0:0:0:0:
256,192,4741,1,0,0:0:0:0:
256,192,4827,1,8,0:0:0:0:
256,192,4913,1,0,0:0:0:0:
256,192,4999,1,8,0:0:0:0:
256,192,5085,1,8,0:0:0:0:
256,192,5172,1,0,0:0:0:0:
256,192,5344,1,0,0:0:0:0:
256,192,5516,1,0,0:0:0:0:
256,192,5689,1,0,0:0:0:0:
256,192,5861,1,0,0:0:0:0:
256,192,5947,1,0,0:0:0:0:
256,192,6120,1,0,0:0:0:0:
256,192,6206,1,8,0:0:0:0:
256,192,6292,1,0,0:0:0:0:
256,192,6379,1,8,0:0:0:0:
256,192,6465,1,0,0:0:0:0:
256,192,6551,1,0,0:0:0:0:
256,192,6723,1,0,0:0:0:0:
256,192,6896,1,0,0:0:0:0:
256,192,7068,1,0,0:0:0:0:
256,192,7241,1,0,0:0:0:0:
256,192,7327,1,0,0:0:0:0:
256,192,7499,1,0,0:0:0:0:
256,192,7585,1,8,0:0:0:0:
256,192,7672,1,0,0:0:0:0:
256,192,7758,1,8,0:0:0:0:
256,192,7844,1,8,0:0:0:0:
256,192,7930,1,0,0:0:0:0:
256,192,8103,1,8,0:0:0:0:
256,192,8189,1,8,0:0:0:0:
256,192,8275,1,0,0:0:0:0:
256,192,8447,1,0,0:0:0:0:
256,192,8620,1,8,0:0:0:0:
256,192,8792,1,8,0:0:0:0:
256,192,8879,1,0,0:0:0:0:
256,192,8965,1,0,0:0:0:0:
256,192,9051,1,8,0:0:0:0:
256,192,9137,1,0,0:0:0:0:
256,192,9223,1,8,0:0:0:0:
256,192,9310,1,0,0:0:0:0:
256,192,9482,1,8,0:0:0:0:
256,192,9568,1,0,0:0:0:0:
256,192,9654,1,0,0:0:0:0:
256,192,9827,1,0,0:0:0:0:
256,192,9999,1,8,0:0:0:0:
256,192,10172,1,8,0:0:0:0:
256,192,10258,1,0,0:0:0:0:
256,192,10344,1,0,0:0:0:0:
256,192,10430,1,8,0:0:0:0:
256,192,10516,1,8,0:0:0:0:
256,192,10603,1,0,0:0:0:0:
256,192,10689,1,8,0:0:0:0:
256,192,10861,1,8,0:0:0:0:
256,192,10947,1,0,0:0:0:0:
256,192,11034,1,0,0:0:0:0:
256,192,11206,1,0,0:0:0:0:
256,192,11379,1,8,0:0:0:0:
256,192,11551,1,8,0:0:0:0:
256,192,11637,1,0,0:0:0:0:
256,192,11723,1,8,0:0:0:0:
256,192,11810,1,8,0:0:0:0:
256,192,11896,1,0,0:0:0:0:
256,192,11982,1,0,0:0:0:0:
256,192,12068,1,8,0:0:0:0:
256,192,12241,1,8,0:0:0:0:
256,192,12327,1,0,0:0:0:0:
256,192,12413,1,0,0:0:0:0:
256,192,12585,1,0,0:0:0:0:
256,192,12758,1,8,0:0:0:0:
256,192,12930,1,0,0:0:0:0:
256,192,13016,1,0,0:0:0:0:
256,192,13103,1,8,0:0:0:0:
256,192,13189,1,0,0:0:0:0:
256,192,13275,1,8,0:0:0:0:
256,192,13447,1,8,0:0:0:0:
256,192,13620,1,0,0:0:0:0:
256,192,13792,1,8,0:0:0:0:
256,192,13879,1,0,0:0:0:0:
256,192,13965,1,0,0:0:0:0:
256,192,14137,1,8,0:0:0:0:
256,192,14310,1,8,0:0:0:0:
256,192,14396,1,0,0:0:0:0:
256,192,14482,1,8,0:0:0:0:
256,192,14568,1,0,0:0:0:0:
256,192,14654,1,0,0:0:0:0:
256,192,14827,1,8,0:0:0:0:
256,192,14999,1,0,0:0:0:0:
256,192,15172,1,8,0:0:0:0:
256,192,15258,1,0,0:0:0:0:
256,192,15344,1,0,0:0:0:0:
256,192,15516,1,8,0:0:0:0:
256,192,15689,1,0,0:0:0:0:
256,192,15775,1,0,0:0:0:0:
256,192,15861,1,8,0:0:0:0:
256,192,15947,1,0,0:0:0:0:
256,192,16034,1,8,0:0:0:0:
256,192,16206,1,8,0:0:0:0:
256,192,16379,1,0,0:0:0:0:
256,192,16551,1,0,0:0:0:0:
256,192,16637,1,0,0:0:0:0:
256,192,16723,1,8,0:0:0:0:
256,192,16896,1,8,0:0:0:0:
256,192,17068,1,0,0:0:0:0:
256,192,17154,1,0,0:0:0:0:
256,192,17241,1,8,0:0:0:0:
256,192,17327,1,0,0:0:0:0:
256,192,17413,1,8,0:0:0:0:
256,192,17499,1,8,0:0:0:0:
256,192,17585,1,0,0:0:0:0:
256,192,17758,1,8,0:0:0:0:
256,192,17930,1,0,0:0:0:0:
256,192,18103,1,0,0:0:0:0:
256,192,18275,1,8,0:0:0:0:
256,192,18447,1,0,0:0:0:0:
256,192,18534,1,0,0:0:0:0:
256,192,18620,1,8,0:0:0:0:
256,192,18706,1,8,0:0:0:0:
256,192,18792,1,0,0:0:0:0:
256,192,18879,1,0,0:0:0:0:
256,192,18965,1,8,0:0:0:0:
256,192,19137,1,8,0:0:0:0:
256,192,19223,1,8,0:0:0:0:
256,192,19309,1,0,0:0:0:0:
256,192,19482,1,0,0:0:0:0:
256,192,19654,1,8,0:0:0:0:
256,192,19827,1,8,0:0:0:0:
256,192,19913,1,8,0:0:0:0:
256,192,19999,1,0,0:0:0:0:
256,192,20085,1,8,0:0:0:0:
256,192,20172,1,0,0:0:0:0:
256,192,20258,1,0,0:0:0:0:
256,192,20344,1,8,0:0:0:0:
256,192,20516,1,8,0:0:0:0:
256,192,20689,1,0,0:0:0:0:
256,192,20775,1,0,0:0:0:0:
256,192,20861,1,8,0:0:0:0:
256,192,20947,1,0,0:0:0:0:
256,192,21034,1,8,0:0:0:0:
256,192,21120,1,8,0:0:0:0:
256,192,21206,1,0,0:0:0:0:
256,192,21292,1,8,0:0:0:0:
256,192,21379,1,0,0:0:0:0:
256,192,21465,1,8,0:0:0:0:
256,192,21551,1,0,0:0:0:0:
256,192,21637,1,0,0:0:0:0:
256,192,21723,1,8,0:0:0:0:
256,192,21810,1,8,0:0:0:0:
256,192,21896,1,0,0:0:0:0:
256,192,21982,1,0,0:0:0:0:
256,192,22068,1,8,0:0:0:0:
256,192,22154,1,8,0:0:0:0:
256,192,22241,1,8,0:0:0:0:
256,192,22327,1,8,0:0:0:0:
256,192,22413,1,0,0:0:0:0:
256,192,22499,1,0,0:0:0:0:
256,192,22585,1,0,0:0:0:0:
256,192,22672,1,0,0:0:0:0:
256,192,22758,1,8,0:0:0:0:
256,192,22844,1,8,0:0:0:0:
256,192,22930,1,0,0:0:0:0:
256,192,23016,1,0,0:0:0:0:
256,192,23103,1,8,0:0:0:0:
256,192,23275,1,0,0:0:0:0:
256,192,23447,1,12,0:0:0:0:
256,192,23620,1,0,0:0:0:0:
256,192,23792,1,8,0:0:0:0:
256,192,23965,1,0,0:0:0:0:
256,192,24051,1,0,0:0:0:0:
256,192,24137,1,8,0:0:0:0:
256,192,24223,1,8,0:0:0:0:
256,192,24310,1,0,0:0:0:0:
256,192,24396,1,0,0:0:0:0:
256,192,24482,1,8,0:0:0:0:
256,192,24654,1,0,0:0:0:0:
256,192,24827,1,8,0:0:0:0:
256,192,24999,1,0,0:0:0:0:
256,192,25172,1,0,0:0:0:0:
256,192,25344,1,8,0:0:0:0:
256,192,25430,1,0,0:0:0:0:
256,192,25516,1,8,0:0:0:0:
256,192,25603,1,0,0:0:0:0:
256,192,25689,1,0,0:0:0:0:
256,192,25775,1,0,0:0:0:0:
256,192,25861,1,8,0:0:0:0:
256,192,26034,1,0,0:0:0:0:
256,192,26206,1,8,0:0:0:0:
256,192,26379,1,0,0:0:0:0:
256,192,26551,1,8,0:0:0:0:
256,192,26723,1,0,0:0:0:0:
256,192,26810,1,8,0:0:0:0:
256,192,26896,1,8,0:0:0:0:
256,192,26982,1,8,0:0:0:0:
256,192,27068,1,0,0:0:0:0:
256,192,27154,1,0,0:0:0:0:
256,192,27241,1,8,0:0:0:0:
256,192,27413,1,0,0:0:0:0:
256,192,27585,1,8,0:0:0:0:
256,192,27758,1,0,0:0:0:0:
256,192,27930,1,0,0:0:0:0:
256,192,28103,1,8,0:0:0:0:
256,192,28189,1,0,0:0:0:0:
256,192,28275,1,8,0:0:0:0:
256,192,28361,1,0,0:0:0:0:
256,192,28447,1,0,0:0:0:0:
256,192,28534,1,0,0:0:0:0:
256,192,28620,1,8,0:0:0:0:
256,192,28792,1,0,0:0:0:0:
256,192,28965,1,8,0:0:0:0:
256,192,29137,1,0,0:0:0:0:
256,192,29310,1,8,0:0:0:0:
256,192,29482,1,0,0:0:0:0:
256,192,29568,1,8,0:0:0:0:
256,192,29654,1,8,0:0:0:0:
256,192,29741,1,0,0:0:0:0:
256,192,29827,1,8,0:0:0:0:
256,192,29913,1,0,0:0:0:0:
256,192,29999,1,8,0:0:0:0:
256,192,30172,1,0,0:0:0:0:
256,192,30344,1,8,0:0:0:0:
256,192,30516,1,0,0:0:0:0:
256,192,30689,1,0,0:0:0:0:
256,192,30861,1,8,0:0:0:0:
256,192,30947,1,0,0:0:0:0:
256,192,31034,1,8,0:0:0:0:
256,192,31120,1,0,0:0:0:0:
256,192,31206,1,0,0:0:0:0:
256,192,31292,1,0,0:0:0:0:
256,192,31379,1,8,0:0:0:0:
256,192,31551,1,0,0:0:0:0:
256,192,31723,1,8,0:0:0:0:
256,192,31896,1,0,0:0:0:0:
256,192,32068,1,8,0:0:0:0:
256,192,32241,1,0,0:0:0:0:
256,192,32327,1,8,0:0:0:0:
256,192,32413,1,8,0:0:0:0:
256,192,32499,1,8,0:0:0:0:
256,192,32585,1,0,0:0:0:0:
256,192,32672,1,0,0:0:0:0:
256,192,32758,1,8,0:0:0:0:
256,192,32930,1,0,0:0:0:0:
256,192,33103,1,8,0:0:0:0:
256,192,33275,1,0,0:0:0:0:
256,192,33447,1,0,0:0:0:0:
256,192,33620,1,8,0:0:0:0:
256,192,33706,1,0,0:0:0:0:
256,192,33792,1,8,0:0:0:0:
256,192,33879,1,8,0:0:0:0:
256,192,33965,1,0,0:0:0:0:
256,192,34051,1,0,0:0:0:0:
256,192,34137,1,8,0:0:0:0:
256,192,34310,1,0,0:0:0:0:
256,192,34482,5,4,0:0:0:0:
256,192,34827,1,8,0:0:0:0:
256,192,35172,1,0,0:0:0:0:
256,192,35344,1,0,0:0:0:0:
256,192,35516,1,8,0:0:0:0:
256,192,35861,1,4,0:0:0:0:
256,192,36206,1,8,0:0:0:0:
256,192,36551,1,0,0:0:0:0:
256,192,36723,1,0,0:0:0:0:
256,192,36896,1,8,0:0:0:0:
256,192,37241,1,4,0:0:0:0:
256,192,37585,1,8,0:0:0:0:
256,192,37930,1,0,0:0:0:0:
256,192,38102,1,0,0:0:0:0:
256,192,38275,1,8,0:0:0:0:
256,192,38620,1,4,0:0:0:0:
256,192,38965,1,8,0:0:0:0:
256,192,39310,1,0,0:0:0:0:
256,192,39482,1,0,0:0:0:0:
256,192,39654,1,8,0:0:0:0:
256,192,39999,1,12,0:0:0:0:
256,192,40172,1,0,0:0:0:0:
256,192,40344,1,8,0:0:0:0:
256,192,40516,1,0,0:0:0:0:
256,192,40689,1,8,0:0:0:0:
256,192,40861,1,0,0:0:0:0:
256,192,41034,1,8,0:0:0:0:
256,192,41206,1,0,0:0:0:0:
256,192,41379,1,12,0:0:0:0:
256,192,41551,1,0,0:0:0:0:
256,192,41723,1,8,0:0:0:0:
256,192,41896,1,0,0:0:0:0:
256,192,42068,1,8,0:0:0:0:
256,192,42241,1,0,0:0:0:0:
256,192,42413,1,8,0:0:0:0:
256,192,42585,1,0,0:0:0:0:
256,192,42758,1,8,0:0:0:0:
256,192,42844,1,0,0:0:0:0:
256,192,42930,1,8,0:0:0:0:
256,192,43016,1,0,0:0:0:0:
256,192,43103,1,8,0:0:0:0:
256,192,43189,1,8,0:0:0:0:
256,192,43275,1,0,0:0:0:0:
256,192,43361,1,0,0:0:0:0:
256,192,43447,1,8,0:0:0:0:
256,192,43534,1,8,0:0:0:0:
256,192,43620,1,0,0:0:0:0:
256,192,43706,1,8,0:0:0:0:
256,192,43792,1,8,0:0:0:0:
256,192,43879,1,0,0:0:0:0:
256,192,43965,1,0,0:0:0:0:
256,192,44051,1,0,0:0:0:0:
256,192,44137,1,8,0:0:0:0:
256,192,44223,1,0,0:0:0:0:
256,192,44310,1,0,0:0:0:0:
256,192,44396,1,0,0:0:0:0:
256,192,44482,1,8,0:0:0:0:
256,192,44568,1,8,0:0:0:0:
256,192,44654,1,0,0:0:0:0:
256,192,44741,1,0,0:0:0:0:
256,192,44827,1,8,0:0:0:0:
256,192,44913,1,8,0:0:0:0:
256,192,44999,1,8,0:0:0:0:
256,192,45085,1,0,0:0:0:0:
256,192,45172,1,8,0:0:0:0:
256,192,45344,1,0,0:0:0:0:
256,192,45516,1,12,0:0:0:0:
256,192,45689,1,0,0:0:0:0:
256,192,45861,1,8,0:0:0:0:
256,192,46034,1,0,0:0:0:0:
256,192,46120,1,0,0:0:0:0:
256,192,46206,1,8,0:0:0:0:
256,192,46292,1,0,0:0:0:0:
256,192,46379,1,0,0:0:0:0:
256,192,46551,1,8,0:0:0:0:
256,192,46723,1,0,0:0:0:0:
256,192,46896,1,8,0:0:0:0:
256,192,47068,1,0,0:0:0:0:
256,192,47241,1,8,0:0:0:0:
256,192,47413,1,0,0:0:0:0:
256,192,47499,1,0,0:0:0:0:
256,192,47585,1,8,0:0:0:0:
256,192,47672,1,0,0:0:0:0:
256,192,47758,1,0,0:0:0:0:
256,192,47930,1,8,0:0:0:0:
256,192,48103,1,8,0:0:0:0:
256,192,48189,1,0,0:0:0:0:
256,192,48275,1,8,0:0:0:0:
256,192,48447,1,0,0:0:0:0:
256,192,48620,1,8,0:0:0:0:
256,192,48792,1,0,0:0:0:0:
256,192,48879,1,8,0:0:0:0:
256,192,48965,1,8,0:0:0:0:
256,192,49051,1,0,0:0:0:0:
256,192,49137,1,8,0:0:0:0:
256,192,49310,1,8,0:0:0:0:
256,192,49482,1,0,0:0:0:0:
256,192,49568,1,0,0:0:0:0:
256,192,49654,1,8,0:0:0:0:
256,192,49827,1,0,0:0:0:0:
256,192,49999,1,8,0:0:0:0:
256,192,50172,1,0,0:0:0:0:
256,192,50258,1,0,0:0:0:0:
256,192,50344,1,8,0:0:0:0:
256,192,50430,1,0,0:0:0:0:
256,192,50516,1,0,0:0:0:0:
256,192,50689,1,8,0:0:0:0:
256,192,50861,1,0,0:0:0:0:
256,192,51034,1,12,0:0:0:0:
256,192,51206,1,0,0:0:0:0:
256,192,51379,1,8,0:0:0:0:
256,192,51551,1,0,0:0:0:0:
256,192,51637,1,0,0:0:0:0:
256,192,51723,1,8,0:0:0:0:
256,192,51896,1,0,0:0:0:0:
256,192,51982,1,8,0:0:0:0:
256,192,52068,1,8,0:0:0:0:
256,192,52154,1,0,0:0:0:0:
256,192,52241,1,0,0:0:0:0:
256,192,52327,1,0,0:0:0:0:
256,192,52413,1,8,0:0:0:0:
256,192,52585,1,0,0:0:0:0:
256,192,52758,1,8,0:0:0:0:
256,192,52930,1,8,0:0:0:0:
256,192,53016,1,8,0:0:0:0:
256,192,53103,1,0,0:0:0:0:
256,192,53275,1,8,0:0:0:0:
256,192,53361,1,0,0:0:0:0:
256,192,53447,1,8,0:0:0:0:
256,192,53534,1,8,0:0:0:0:
256,192,53620,1,0,0:0:0:0:
256,192,53706,1,0,0:0:0:0:
256,192,53792,1,8,0:0:0:0:
256,192,53965,1,0,0:0:0:0:
256,192,54137,1,8,0:0:0:0:
256,192,54310,1,8,0:0:0:0:
256,192,54396,1,0,0:0:0:0:
256,192,54482,1,8,0:0:0:0:
256,192,54568,1,8,0:0:0:0:
256,192,54654,1,8,0:0:0:0:
256,192,54741,1,0,0:0:0:0:
256,192,54827,1,8,0:0:0:0:
256,192,54999,1,0,0:0:0:0:
256,192,55172,1,8,0:0:0:0:
256,192,55344,1,8,0:0:0:0:
256,192,55430,1,0,0:0:0:0:
256,192,55516,1,8,0:0:0:0:
256,192,55689,1,0,0:0:0:0:
256,192,55775,1,0,0:0:0:0:
256,192,55861,1,8,0:0:0:0:
256,192,55947,1,8,0:0:0:0:
256,192,56034,1,0,0:0:0:0:
256,192,56120,1,0,0:0:0:0:
256,192,56206,1,8,0:0:0:0:
256,192,56379,1,0,0:0:0:0:
256,192,56551,1,12,0:0:0:0:
256,192,56723,1,0,0:0:0:0:
256,192,56896,1,8,0:0:0:0:
256,192,57068,1,0,0:0:0:0:
256,192,57154,1,0,0:0:0:0:
256,192,57241,1,8,0:0:0:0:
256,192,57327,1,0,0:0:0:0:
256,192,57413,1,0,0:0:0:0:
256,192,57585,1,8,0:0:0:0:
256,192,57758,1,0,0:0:0:0:
256,192,57930,1,8,0:0:0:0:
256,192,58103,1,0,0:0:0:0:
256,192,58275,1,8,0:0:0:0:
256,192,58447,1,0,0:0:0:0:
256,192,58534,1,0,0:0:0:0:
256,192,58620,1,8,0:0:0:0:
256,192,58792,1,8,0:0:0:0:
256,192,58879,1,0,0:0:0:0:
256,192,58965,1,8,0:0:0:0:
256,192,59051,1,8,0:0:0:0:
256,192,59137,1,0,0:0:0:0:
256,192,59223,1,0,0:0:0:0:
256,192,59310,1,8,0:0:0:0:
256,192,59482,1,0,0:0:0:0:
256,192,59654,1,8,0:0:0:0:
256,192,59827,1,0,0:0:0:0:
256,192,59914,1,8,0:0:0:0:
256,192,60000,1,8,0:0:0:0:
256,192,60086,1,0,0:0:0:0:
256,192,60172,1,8,0:0:0:0:
256,192,60345,1,8,0:0:0:0:
256,192,60516,1,0,0:0:0:0:
256,192,60689,1,8,0:0:0:0:
256,192,60861,1,0,0:0:0:0:
256,192,60947,1,0,0:0:0:0:
256,192,61034,1,8,0:0:0:0:
256,192,61206,1,8,0:0:0:0:
256,192,61292,1,0,0:0:0:0:
256,192,61379,1,8,0:0:0:0:
256,192,61465,1,8,0:0:0:0:
256,192,61551,1,0,0:0:0:0:
256,192,61723,1,8,0:0:0:0:
256,192,61896,1,0,0:0:0:0:
256,192,62068,1,12,0:0:0:0:
256,192,62241,1,0,0:0:0:0:
256,192,62413,1,8,0:0:0:0:
256,192,62585,1,0,0:0:0:0:
256,192,62672,1,0,0:0:0:0:
256,192,62758,1,8,0:0:0:0:
256,192,62930,1,0,0:0:0:0:
256,192,63016,1,8,0:0:0:0:
256,192,63103,1,8,0:0:0:0:
256,192,63189,1,0,0:0:0:0:
256,192,63275,1,8,0:0:0:0:
256,192,63361,1,0,0:0:0:0:
256,192,63447,1,8,0:0:0:0:
256,192,63620,1,0,0:0:0:0:
256,192,63792,1,8,0:0:0:0:
256,192,63965,1,0,0:0:0:0:
256,192,64051,1,0,0:0:0:0:
256,192,64137,1,8,0:0:0:0:
256,192,64310,1,8,0:0:0:0:
256,192,64396,1,8,0:0:0:0:
256,192,64482,1,0,0:0:0:0:
256,192,64568,1,0,0:0:0:0:
256,192,64654,1,8,0:0:0:0:
256,192,64741,1,0,0:0:0:0:
256,192,64827,1,8,0:0:0:0:
256,192,64999,1,0,0:0:0:0:
256,192,65172,1,8,0:0:0:0:
256,192,65344,1,0,0:0:0:0:
256,192,65430,1,0,0:0:0:0:
256,192,65516,1,8,0:0:0:0:
256,192,65603,1,0,0:0:0:0:
256,192,65689,1,8,0:0:0:0:
256,192,65861,1,8,0:0:0:0:
256,192,66034,1,0,0:0:0:0:
256,192,66206,1,8,0:0:0:0:
256,192,66379,1,0,0:0:0:0:
256,192,66465,1,0,0:0:0:0:
256,192,66551,1,8,0:0:0:0:
256,192,66723,1,0,0:0:0:0:
256,192,66810,1,0,0:0:0:0:
256,192,66896,1,8,0:0:0:0:
256,192,66982,1,0,0:0:0:0:
256,192,67068,1,8,0:0:0:0:
256,192,67126,1,0,0:0:0:0:
256,192,67183,1,0,0:0:0:0:
256,192,67241,1,8,0:0:0:0:
256,192,67327,1,0,0:0:0:0:
256,192,67413,1,8,0:0:0:0:
256,192,67499,1,0,0:0:0:0:
256,192,67585,1,8,0:0:0:0:
256,192,67758,1,0,0:0:0:0:
256,192,67930,1,8,0:0:0:0:
256,192,68103,1,0,0:0:0:0:
256,192,68189,1,0,0:0:0:0:
256,192,68275,1,8,0:0:0:0:
256,192,68361,1,0,0:0:0:0:
256,192,68447,1,0,0:0:0:0:
256,192,68620,1,8,0:0:0:0:
256,192,68792,1,0,0:0:0:0:
256,192,68965,1,8,0:0:0:0:
256,192,69137,1,0,0:0:0:0:
256,192,69310,1,8,0:0:0:0:
256,192,69482,1,0,0:0:0:0:
256,192,69568,1,0,0:0:0:0:
256,192,69654,1,8,0:0:0:0:
256,192,69827,1,0,0:0:0:0:
256,192,69913,1,0,0:0:0:0:
256,192,69999,1,8,0:0:0:0:
256,192,70085,1,0,0:0:0:0:
256,192,70172,1,8,0:0:0:0:
256,192,70258,1,0,0:0:0:0:
256,192,70344,1,8,0:0:0:0:
256,192,70516,1,0,0:0:0:0:
256,192,70689,1,8,0:0:0:0:
256,192,70861,1,0,0:0:0:0:
256,192,70947,1,0,0:0:0:0:
256,192,71034,1,8,0:0:0:0:
256,192,71120,1,8,0:0:0:0:
256,192,71206,1,0,0:0:0:0:
256,192,71379,1,8,0:0:0:0:
256,192,71551,1,0,0:0:0:0:
256,192,71723,1,8,0:0:0:0:
256,192,71896,1,0,0:0:0:0:
256,192,71982,1,0,0:0:0:0:
256,192,72068,1,8,0:0:0:0:
256,192,72241,1,0,0:0:0:0:
256,192,72327,1,0,0:0:0:0:
256,192,72413,1,8,0:0:0:0:
256,192,72499,1,0,0:0:0:0:
256,192,72585,1,0,0:0:0:0:
256,192,72758,1,8,0:0:0:0:
256,192,72930,1,0,0:0:0:0:
256,192,73103,1,12,0:0:0:0:
256,192,73275,1,0,0:0:0:0:
256,192,73447,1,8,0:0:0:0:
256,192,73620,1,0,0:0:0:0:
256,192,73706,1,0,0:0:0:0:
256,192,73792,1,8,0:0:0:0:
256,192,73965,1,0,0:0:0:0:
256,192,74051,1,8,0:0:0:0:
256,192,74137,1,8,0:0:0:0:
256,192,74223,1,0,0:0:0:0:
256,192,74310,1,0,0:0:0:0:
256,192,74395,1,0,0:0:0:0:
256,192,74482,1,8,0:0:0:0:
256,192,74654,1,0,0:0:0:0:
256,192,74827,1,8,0:0:0:0:
256,192,74999,1,0,0:0:0:0:
256,192,75085,1,0,0:0:0:0:
256,192,75172,1,8,0:0:0:0:
256,192,75344,1,0,0:0:0:0:
256,192,75430,1,0,0:0:0:0:
256,192,75516,1,8,0:0:0:0:
256,192,75603,1,0,0:0:0:0:
256,192,75689,1,0,0:0:0:0:
256,192,75775,1,0,0:0:0:0:
256,192,75861,1,8,0:0:0:0:
256,192,76034,1,0,0:0:0:0:
256,192,76206,1,8,0:0:0:0:
256,192,76379,1,0,0:0:0:0:
256,192,76465,1,0,0:0:0:0:
256,192,76551,1,8,0:0:0:0:
256,192,76637,1,0,0:0:0:0:
256,192,76723,1,0,0:0:0:0:
256,192,76896,1,8,0:0:0:0:
256,192,77068,1,0,0:0:0:0:
256,192,77241,1,8,0:0:0:0:
256,192,77413,1,0,0:0:0:0:
256,192,77499,1,0,0:0:0:0:
256,192,77585,1,8,0:0:0:0:
256,192,77758,1,8,0:0:0:0:
256,192,77844,1,8,0:0:0:0:
256,192,77930,1,0,0:0:0:0:
256,192,78016,1,8,0:0:0:0:
256,192,78103,1,0,0:0:0:0:
256,192,78275,1,8,0:0:0:0:
256,192,78447,1,0,0:0:0:0:
256,192,78620,1,12,0:0:0:0:
256,192,78792,1,0,0:0:0:0:
256,192,78965,1,8,0:0:0:0:
256,192,79137,1,0,0:0:0:0:
256,192,79223,1,0,0:0:0:0:
256,192,79310,1,8,0:0:0:0:
256,192,79396,1,8,0:0:0:0:
256,192,79482,1,0,0:0:0:0:
256,192,79654,1,8,0:0:0:0:
256,192,79827,1,0,0:0:0:0:
256,192,79999,1,8,0:0:0:0:
256,192,80172,1,0,0:0:0:0:
256,192,80344,1,8,0:0:0:0:
256,192,80516,1,0,0:0:0:0:
256,192,80603,1,0,0:0:0:0:
256,192,80689,1,8,0:0:0:0:
256,192,80861,1,8,0:0:0:0:
256,192,80947,1,0,0:0:0:0:
256,192,81034,1,0,0:0:0:0:
256,192,81120,1,8,0:0:0:0:
256,192,81206,1,8,0:0:0:0:
256,192,81292,1,0,0:0:0:0:
256,192,81379,1,8,0:0:0:0:
256,192,81551,1,0,0:0:0:0:
256,192,81723,1,8,0:0:0:0:
256,192,81896,1,0,0:0:0:0:
256,192,81982,1,0,0:0:0:0:
256,192,82068,1,8,0:0:0:0:
256,192,82154,1,0,0:0:0:0:
256,192,82241,1,8,0:0:0:0:
256,192,82413,1,8,0:0:0:0:
256,192,82499,1,0,0:0:0:0:
256,192,82585,1,8,0:0:0:0:
256,192,82672,1,8,0:0:0:0:
256,192,82758,1,0,0:0:0:0:
256,192,82930,1,0,0:0:0:0:
256,192,83103,1,8,0:0:0:0:
256,192,83275,1,0,0:0:0:0:
256,192,83361,1,0,0:0:0:0:
256,192,83447,1,8,0:0:0:0:
256,192,83534,1,0,0:0:0:0:
256,192,83620,1,0,0:0:0:0:
256,192,83792,1,8,0:0:0:0:
256,192,83965,1,0,0:0:0:0:
256,192,84137,1,12,0:0:0:0:
256,192,84310,1,0,0:0:0:0:
256,192,84482,1,8,0:0:0:0:
256,192,84654,1,0,0:0:0:0:
256,192,84741,1,0,0:0:0:0:
256,192,84827,1,8,0:0:0:0:
256,192,84999,1,8,0:0:0:0:
256,192,85085,1,0,0:0:0:0:
256,192,85172,1,0,0:0:0:0:
256,192,85258,1,8,0:0:0:0:
256,192,85344,1,8,0:0:0:0:
256,192,85430,1,0,0:0:0:0:
256,192,85516,1,8,0:0:0:0:
256,192,85689,1,0,0:0:0:0:
256,192,85861,1,8,0:0:0:0:
256,192,86034,1,0,0:0:0:0:
256,192,86120,1,0,0:0:0:0:
256,192,86206,1,8,0:0:0:0:
256,192,86292,1,0,0:0:0:0:
256,192,86379,1,0,0:0:0:0:
256,192,86551,1,8,0:0:0:0:
256,192,86723,1,0,0:0:0:0:
256,192,86896,1,8,0:0:0:0:
256,192,86982,1,0,0:0:0:0:
256,192,87068,1,0,0:0:0:0:
256,192,87154,1,0,0:0:0:0:
256,192,87241,1,8,0:0:0:0:
256,192,87327,1,0,0:0:0:0:
256,192,87413,1,0,0:0:0:0:
256,192,87499,1,0,0:0:0:0:
256,192,87585,1,8,0:0:0:0:
256,192,87672,1,0,0:0:0:0:
256,192,87758,1,8,0:0:0:0:
256,192,87844,1,0,0:0:0:0:
256,192,87930,1,8,0:0:0:0:
256,192,88016,1,8,0:0:0:0:
256,192,88103,1,0,0:0:0:0:
256,192,88189,1,0,0:0:0:0:
256,192,88275,1,8,0:0:0:0:
256,192,88361,1,0,0:0:0:0:
256,192,88447,1,0,0:0:0:0:
256,192,88534,1,0,0:0:0:0:
256,192,88620,1,8,0:0:0:0:
256,192,88706,1,8,0:0:0:0:
256,192,88792,1,0,0:0:0:0:
256,192,88879,1,0,0:0:0:0:
256,192,88965,1,8,0:0:0:0:
256,192,89022,1,0,0:0:0:0:
256,192,89080,1,0,0:0:0:0:
256,192,89137,1,8,0:0:0:0:
256,192,89223,1,0,0:0:0:0:
256,192,89310,1,8,0:0:0:0:
256,192,89367,1,8,0:0:0:0:
256,192,89424,1,8,0:0:0:0:
256,192,89482,1,0,0:0:0:0:
256,192,89568,1,0,0:0:0:0:
256,192,89654,1,8,0:0:0:0:
256,192,90344,1,8,0:0:0:0:
256,192,90516,1,0,0:0:0:0:
256,192,90861,1,0,0:0:0:0:
256,192,92413,1,8,0:0:0:0:
256,192,92758,1,8,0:0:0:0:
256,192,92930,1,0,0:0:0:0:
256,192,93275,1,0,0:0:0:0:
256,192,93620,1,8,0:0:0:0:
256,192,95861,1,8,0:0:0:0:
256,192,96033,1,0,0:0:0:0:
256,192,96379,1,0,0:0:0:0:
256,192,97930,1,8,0:0:0:0:
256,192,98275,1,0,0:0:0:0:
256,192,98447,1,8,0:0:0:0:
256,192,98792,1,0,0:0:0:0:
256,192,99137,1,8,0:0:0:0:
256,192,99999,1,8,0:0:0:0:
256,192,100057,1,0,0:0:0:0:
256,192,100114,1,0,0:0:0:0:
256,192,100172,1,8,0:0:0:0:
256,192,100258,1,0,0:0:0:0:
256,192,100344,1,8,0:0:0:0:
256,192,100401,1,8,0:0:0:0:
256,192,100459,1,8,0:0:0:0:
256,192,100516,1,0,0:0:0:0:
256,192,100603,1,0,0:0:0:0:
256,192,100689,1,8,0:0:0:0:
256,192,101379,1,8,0:0:0:0:
256,192,101551,1,0,0:0:0:0:
256,192,101896,1,0,0:0:0:0:
256,192,102068,1,8,0:0:0:0:
256,192,103275,1,0,0:0:0:0:
256,192,103448,1,8,0:0:0:0:
256,192,103792,1,0,0:0:0:0:
256,192,103965,1,8,0:0:0:0:
256,192,104310,1,8,0:0:0:0:
256,192,104654,1,8,0:0:0:0:
256,192,104827,1,0,0:0:0:0:
256,192,104999,1,0,0:0:0:0:
256,192,105172,1,8,0:0:0:0:
256,192,105689,1,0,0:0:0:0:
256,192,105861,1,8,0:0:0:0:
256,192,106034,1,0,0:0:0:0:
256,192,106206,1,4,0:0:0:0:
256,192,106551,1,8,0:0:0:0:
256,192,106896,1,8,0:0:0:0:
256,192,107068,1,0,0:0:0:0:
256,192,107241,1,8,0:0:0:0:
256,192,107585,1,0,0:0:0:0:
256,192,107930,1,8,0:0:0:0:
256,192,108103,1,0,0:0:0:0:
256,192,108447,1,0,0:0:0:0:
256,192,108620,1,8,0:0:0:0:
256,192,108792,1,0,0:0:0:0:
256,192,108965,1,0,0:0:0:0:
256,192,109310,1,8,0:0:0:0:
256,192,109482,1,0,0:0:0:0:
256,192,109654,1,8,0:0:0:0:
256,192,109827,1,0,0:0:0:0:
256,192,109999,1,0,0:0:0:0:
256,192,110344,1,8,0:0:0:0:
256,192,110517,1,0,0:0:0:0:
256,192,110689,1,0,0:0:0:0:
256,192,111034,1,8,0:0:0:0:
256,192,111206,1,0,0:0:0:0:
256,192,111379,1,0,0:0:0:0:
256,192,111551,1,0,0:0:0:0:
256,192,111723,1,0,0:0:0:0:
256,192,111809,1,8,0:0:0:0:
256,192,111895,1,0,0:0:0:0:
256,192,111982,1,8,0:0:0:0:
256,192,112241,1,0,0:0:0:0:
256,192,112413,1,8,0:0:0:0:
256,192,112499,1,0,0:0:0:0:
256,192,112672,1,0,0:0:0:0:
256,192,112758,1,8,0:0:0:0:
256,192,112930,1,0,0:0:0:0:
256,192,113103,1,8,0:0:0:0:
256,192,113189,1,0,0:0:0:0:
256,192,113275,1,8,0:0:0:0:
256,192,113361,1,0,0:0:0:0:
256,192,113620,1,0,0:0:0:0:
256,192,113792,1,8,0:0:0:0:
256,192,113879,1,0,0:0:0:0:
256,192,114051,1,0,0:0:0:0:
256,192,114137,1,8,0:0:0:0:
256,192,114310,1,0,0:0:0:0:
256,192,114482,1,0,0:0:0:0:
256,192,114569,1,8,0:0:0:0:
256,192,114655,1,0,0:0:0:0:
256,192,114741,1,8,0:0:0:0:
256,192,114999,1,0,0:0:0:0:
256,192,115172,1,8,0:0:0:0:
256,192,115258,1,0,0:0:0:0:
256,192,115430,1,0,0:0:0:0:
256,192,115516,1,8,0:0:0:0:
256,192,115689,1,0,0:0:0:0:
256,192,115861,1,8,0:0:0:0:
256,192,115947,1,0,0:0:0:0:
256,192,116034,1,8,0:0:0:0:
256,192,116120,1,0,0:0:0:0:
256,192,116379,1,0,0:0:0:0:
256,192,116551,1,8,0:0:0:0:
256,192,116637,1,0,0:0:0:0:
256,192,116810,1,0,0:0:0:0:
256,192,116896,1,8,0:0:0:0:
256,192,117068,1,0,0:0:0:0:
256,192,117241,1,0,0:0:0:0:
256,192,117327,1,8,0:0:0:0:
256,192,117413,1,0,0:0:0:0:
256,192,117499,1,8,0:0:0:0:
256,192,117758,1,0,0:0:0:0:
256,192,117930,1,8,0:0:0:0:
256,192,118016,1,0,0:0:0:0:
256,192,118189,1,0,0:0:0:0:
256,192,118275,1,8,0:0:0:0:
256,192,118447,1,0,0:0:0:0:
256,192,118620,1,8,0:0:0:0:
256,192,118706,1,0,0:0:0:0:
256,192,118792,1,8,0:0:0:0:
256,192,118879,1,0,0:0:0:0:
256,192,119137,1,0,0:0:0:0:
256,192,119310,1,8,0:0:0:0:
256,192,119396,1,0,0:0:0:0:
256,192,119568,1,0,0:0:0:0:
256,192,119654,1,8,0:0:0:0:
256,192,119827,1,0,0:0:0:0:
256,192,119999,1,0,0:0:0:0:
256,192,120085,1,8,0:0:0:0:
256,192,120172,1,0,0:0:0:0:
256,192,120258,1,8,0:0:0:0:
256,192,120516,1,0,0:0:0:0:
256,192,120689,1,8,0:0:0:0:
256,192,120775,1,0,0:0:0:0:
256,192,120947,1,0,0:0:0:0:
256,192,121034,1,8,0:0:0:0:
256,192,121206,1,0,0:0:0:0:
256,192,121379,1,8,0:0:0:0:
256,192,121465,1,0,0:0:0:0:
256,192,121551,1,8,0:0:0:0:
256,192,121637,1,0,0:0:0:0:
256,192,121896,1,8,0:0:0:0:
256,192,122068,1,8,0:0:0:0:
256,192,122154,1,0,0:0:0:0:
256,192,122327,1,0,0:0:0:0:
256,192,122413,1,8,0:0:0:0:
256,192,122585,1,0,0:0:0:0:
256,192,122758,1,4,0:0:0:0:
256,192,123103,1,8,0:0:0:0:
256,192,123447,1,0,0:0:0:0:
256,192,123620,1,0,0:0:0:0:
256,192,123792,1,8,0:0:0:0:
256,192,124137,1,4,0:0:0:0:
256,192,124310,1,0,0:0:0:0:
256,192,124482,1,8,0:0:0:0:
256,192,124654,1,0,0:0:0:0:
256,192,124827,1,0,0:0:0:0:
256,192,124999,1,0,0:0:0:0:
256,192,125172,1,8,0:0:0:0:
256,192,125516,1,4,0:0:0:0:
256,192,125689,1,0,0:0:0:0:
256,192,125861,1,8,0:0:0:0:
256,192,126034,1,0,0:0:0:0:
256,192,126206,1,0,0:0:0:0:
256,192,126378,1,0,0:0:0:0:
256,192,126550,1,8,0:0:0:0:
256,192,126896,1,4,0:0:0:0:
256,192,127068,1,0,0:0:0:0:
256,192,127241,1,8,0:0:0:0:
256,192,127413,1,0,0:0:0:0:
256,192,127585,1,0,0:0:0:0:
256,192,127758,1,0,0:0:0:0:
256,192,127930,1,8,0:0:0:0:
256,192,128275,1,12,0:0:0:0:
256,192,128447,1,0,0:0:0:0:
256,192,128620,1,8,0:0:0:0:
256,192,128792,1,0,0:0:0:0:
256,192,128965,1,8,0:0:0:0:
256,192,129137,1,0,0:0:0:0:
256,192,129310,1,8,0:0:0:0:
256,192,129482,1,0,0:0:0:0:
256,192,129654,1,12,0:0:0:0:
256,192,129827,1,0,0:0:0:0:
256,192,129999,1,8,0:0:0:0:
256,192,130172,1,0,0:0:0:0:
256,192,130344,1,8,0:0:0:0:
256,192,130516,1,0,0:0:0:0:
256,192,130689,1,8,0:0:0:0:
256,192,130861,1,0,0:0:0:0:
256,192,131034,1,8,0:0:0:0:
256,192,131120,1,0,0:0:0:0:
256,192,131206,1,0,0:0:0:0:
256,192,131292,1,0,0:0:0:0:
256,192,131379,1,8,0:0:0:0:
256,192,131465,1,0,0:0:0:0:
256,192,131551,1,0,0:0:0:0:
256,192,131637,1,0,0:0:0:0:
256,192,131723,1,8,0:0:0:0:
256,192,131810,1,8,0:0:0:0:
256,192,131896,1,0,0:0:0:0:
256,192,131982,1,0,0:0:0:0:
256,192,132068,1,8,0:0:0:0:
256,192,132154,1,0,0:0:0:0:
256,192,132241,1,0,0:0:0:0:
256,192,132327,1,0,0:0:0:0:
256,192,132413,1,8,0:0:0:0:
256,192,132499,1,8,0:0:0:0:
256,192,132585,1,0,0:0:0:0:
256,192,132672,1,0,0:0:0:0:
256,192,132758,1,8,0:0:0:0:
256,192,132844,1,8,0:0:0:0:
256,192,132930,1,0,0:0:0:0:
256,192,133016,1,8,0:0:0:0:
256,192,133103,1,0,0:0:0:0:
256,192,133189,1,0,0:0:0:0:
256,192,133275,1,8,0:0:0:0:
256,192,133447,1,8,0:0:0:0:
256,192,133620,1,0,0:0:0:0:
256,192,133792,5,4,0:0:0:0:
256,192,133965,1,8,0:0:0:0:
256,192,134137,1,8,0:0:0:0:
256,192,134223,1,8,0:0:0:0:
256,192,134310,1,0,0:0:0:0:
256,192,134482,1,8,0:0:0:0:
256,192,134654,1,8,0:0:0:0:
256,192,134741,1,0,0:0:0:0:
256,192,134827,1,8,0:0:0:0:
256,192,134913,1,8,0:0:0:0:
256,192,134999,1,0,0:0:0:0:
256,192,135172,1,8,0:0:0:0:
256,192,135344,1,8,0:0:0:0:
256,192,135430,1,8,0:0:0:0:
256,192,135516,1,0,0:0:0:0:
256,192,135689,1,8,0:0:0:0:
256,192,135861,1,0,0:0:0:0:
256,192,135947,1,8,0:0:0:0:
256,192,136034,1,0,0:0:0:0:
256,192,136120,1,0,0:0:0:0:
256,192,136206,1,8,0:0:0:0:
256,192,136379,1,8,0:0:0:0:
256,192,136551,1,0,0:0:0:0:
256,192,136896,1,0,0:0:0:0:
256,192,137241,1,8,0:0:0:0:
256,192,137298,1,0,0:0:0:0:
256,192,137356,1,0,0:0:0:0:
256,192,137413,1,8,0:0:0:0:
256,192,137499,1,0,0:0:0:0:
256,192,137585,1,8,0:0:0:0:
256,192,137672,1,0,0:0:0:0:
256,192,137758,1,0,0:0:0:0:
256,192,137930,1,8,0:0:0:0:
256,192,137988,1,8,0:0:0:0:
256,192,138046,1,8,0:0:0:0:
256,192,138103,1,0,0:0:0:0:
256,192,138189,1,0,0:0:0:0:
256,192,138275,1,8,0:0:0:0:
256,192,138361,1,8,0:0:0:0:
256,192,138447,1,0,0:0:0:0:
256,192,138620,1,8,0:0:0:0:
256,192,138706,1,0,0:0:0:0:
256,192,138792,1,0,0:0:0:0:
256,192,138965,1,8,0:0:0:0:
256,192,139137,1,0,0:0:0:0:
256,192,139310,1,4,0:0:0:0:
256,192,139482,1,8,0:0:0:0:
256,192,139655,1,8,0:0:0:0:
256,192,139741,1,8,0:0:0:0:
256,192,139828,1,0,0:0:0:0:
256,192,139999,1,8,0:0:0:0:
256,192,140172,1,8,0:0:0:0:
256,192,140258,1,0,0:0:0:0:
256,192,140344,1,8,0:0:0:0:
256,192,140430,1,8,0:0:0:0:
256,192,140516,1,0,0:0:0:0:
256,192,140689,1,0,0:0:0:0:
256,192,140861,1,8,0:0:0:0:
256,192,140947,1,0,0:0:0:0:
256,192,141034,1,8,0:0:0:0:
256,192,141206,1,0,0:0:0:0:
256,192,141379,1,8,0:0:0:0:
256,192,141465,1,0,0:0:0:0:
256,192,141551,1,8,0:0:0:0:
256,192,141637,1,0,0:0:0:0:
256,192,141723,1,8,0:0:0:0:
256,192,141810,1,8,0:0:0:0:
256,192,141896,1,0,0:0:0:0:
256,192,142068,1,8,0:0:0:0:
256,192,142154,1,8,0:0:0:0:
256,192,142241,1,0,0:0:0:0:
256,192,142327,1,0,0:0:0:0:
256,192,142413,1,8,0:0:0:0:
256,192,142499,1,0,0:0:0:0:
256,192,142585,1,8,0:0:0:0:
256,192,142672,1,0,0:0:0:0:
256,192,142758,1,0,0:0:0:0:
256,192,142844,1,0,0:0:0:0:
256,192,142930,1,8,0:0:0:0:
256,192,143016,1,0,0:0:0:0:
256,192,143103,1,8,0:0:0:0:
256,192,143189,1,8,0:0:0:0:
256,192,143275,1,0,0:0:0:0:
256,192,143361,1,0,0:0:0:0:
256,192,143447,1,8,0:0:0:0:
256,192,143620,1,0,0:0:0:0:
256,192,143706,1,0,0:0:0:0:
256,192,143792,1,8,0:0:0:0:
256,192,143965,1,0,0:0:0:0:
256,192,144137,1,0,0:0:0:0:
256,192,144223,1,0,0:0:0:0:
256,192,144310,1,8,0:0:0:0:
256,192,144367,1,0,0:0:0:0:
256,192,144424,1,0,0:0:0:0:
256,192,144482,1,8,0:0:0:0:
256,192,144568,1,0,0:0:0:0:
256,192,144654,1,8,0:0:0:0:
256,192,144741,1,8,0:0:0:0:
256,192,144827,1,4,0:0:0:0:
256,192,144999,1,0,0:0:0:0:
256,192,145172,1,8,0:0:0:0:
256,192,145258,1,0,0:0:0:0:
256,192,145344,1,0,0:0:0:0:
256,192,145516,1,8,0:0:0:0:
256,192,145689,1,8,0:0:0:0:
256,192,145775,1,0,0:0:0:0:
256,192,145861,1,8,0:0:0:0:
256,192,145947,1,8,0:0:0:0:
256,192,146034,1,0,0:0:0:0:
256,192,146206,1,8,0:0:0:0:
256,192,146379,1,0,0:0:0:0:
256,192,146465,1,0,0:0:0:0:
192,96,146551,1,8,0:0:0:0:
224,128,146723,1,0,0:0:0:0:
224,128,146896,1,8,0:0:0:0:
224,96,146982,1,8,0:0:0:0:
224,96,147068,1,8,0:0:0:0:
256,128,147154,1,0,0:0:0:0:
288,128,147241,1,8,0:0:0:0:
352,160,147413,1,8,0:0:0:0:
288,288,147585,1,8,0:0:0:0:
320,288,147643,1,0,0:0:0:0:
181,152,147700,1,0,0:0:0:0:
352,224,147930,1,8,0:0:0:0:
229,151,147988,1,0,0:0:0:0:
352,224,148045,1,0,0:0:0:0:
256,160,148275,1,8,0:0:0:0:
256,160,148361,1,8,0:0:0:0:
256,160,148447,1,0,0:0:0:0:
256,160,148534,1,0,0:0:0:0:
256,160,148620,1,8,0:0:0:0:
192,160,148706,1,0,0:0:0:0:
192,160,148792,1,8,0:0:0:0:
288,160,148879,1,0,0:0:0:0:
288,160,148965,1,8,0:0:0:0:
288,160,149051,1,8,0:0:0:0:
256,160,149137,1,0,0:0:0:0:
256,160,149223,1,0,0:0:0:0:
288,160,149310,1,8,0:0:0:0:
256,160,149396,1,0,0:0:0:0:
288,160,149482,1,8,0:0:0:0:
320,160,149568,1,0,0:0:0:0:
320,160,149654,1,8,0:0:0:0:
384,256,149827,1,8,0:0:0:0:
256,256,149999,1,0,0:0:0:0:
256,256,150172,1,8,0:0:0:0:
256,256,150344,1,4,0:0:0:0:
352,224,150516,1,8,0:0:0:0:
256,160,150689,1,8,0:0:0:0:
384,160,150775,1,8,0:0:0:0:
320,160,150861,1,0,0:0:0:0:
352,96,151034,1,8,0:0:0:0:
352,96,151206,1,8,0:0:0:0:
384,96,151292,1,8,0:0:0:0:
384,96,151379,1,0,0:0:0:0:
256,128,151465,1,0,0:0:0:0:
384,96,151551,1,8,0:0:0:0:
320,192,151723,1,8,0:0:0:0:
256,128,151896,1,0,0:0:0:0:
256,128,151982,1,0,0:0:0:0:
224,128,152068,1,8,0:0:0:0:
352,160,152241,1,8,0:0:0:0:
320,256,152413,1,8,0:0:0:0:
320,256,152499,1,0,0:0:0:0:
320,256,152585,1,8,0:0:0:0:
336,192,152672,1,8,0:0:0:0:
320,256,152758,1,0,0:0:0:0:
320,256,152930,1,8,0:0:0:0:
352,160,153103,1,0,0:0:0:0:
352,160,153189,1,0,0:0:0:0:
352,160,153275,1,8,0:0:0:0:
352,160,153361,1,0,0:0:0:0:
352,160,153447,1,8,0:0:0:0:
384,224,153534,1,0,0:0:0:0:
384,160,153620,1,0,0:0:0:0:
384,160,153706,1,0,0:0:0:0:
384,256,153792,1,8,0:0:0:0:
384,256,153879,1,8,0:0:0:0:
384,256,153965,1,0,0:0:0:0:
384,256,154051,1,0,0:0:0:0:
384,256,154137,1,8,0:0:0:0:
384,256,154223,1,0,0:0:0:0:
384,256,154310,1,0,0:0:0:0:
384,256,154396,1,0,0:0:0:0:
384,256,154482,1,8,0:0:0:0:
384,192,154568,1,8,0:0:0:0:
384,192,154654,1,8,0:0:0:0:
384,192,154741,1,8,0:0:0:0:
384,192,154827,1,0,0:0:0:0:
352,192,154913,1,0,0:0:0:0:
352,192,154999,1,0,0:0:0:0:
352,192,155085,1,0,0:0:0:0:
352,160,155172,1,8,0:0:0:0:
352,160,155258,1,8,0:0:0:0:
352,160,155344,1,0,0:0:0:0:
416,160,155430,1,0,0:0:0:0:
384,160,155516,1,8,0:0:0:0:
352,160,155574,1,0,0:0:0:0:
352,160,155631,1,0,0:0:0:0:
384,160,155689,1,8,0:0:0:0:
448,160,155775,1,8,0:0:0:0:
320,160,155861,1,4,0:0:0:0:
160,160,156034,1,0,0:0:0:0:
288,96,156206,1,8,0:0:0:0:
288,96,156264,1,0,0:0:0:0:
288,96,156321,1,0,0:0:0:0:
288,96,156379,1,0,0:0:0:0:
320,192,156551,1,8,0:0:0:0:
320,192,156637,1,0,0:0:0:0:
320,192,156723,1,8,0:0:0:0:
384,192,156810,1,8,0:0:0:0:
384,192,156896,1,0,0:0:0:0:
320,192,156953,1,0,0:0:0:0:
320,192,157011,1,0,0:0:0:0:
480,256,157068,1,8,0:0:0:0:
416,160,157154,1,0,0:0:0:0:
288,128,157241,1,8,0:0:0:0:
224,224,157413,1,8,0:0:0:0:
224,224,157470,1,8,0:0:0:0:
224,224,157528,1,8,0:0:0:0:
224,224,157585,1,0,0:0:0:0:
256,192,157672,1,0,0:0:0:0:
320,224,157758,1,8,0:0:0:0:
256,192,157844,1,0,0:0:0:0:
416,256,157930,1,8,0:0:0:0:
416,256,158016,1,8,0:0:0:0:
384,256,158103,1,0,0:0:0:0:
416,256,158189,1,0,0:0:0:0:
416,256,158275,1,8,0:0:0:0:
416,256,158333,1,8,0:0:0:0:
448,256,158390,1,8,0:0:0:0:
416,256,158447,1,8,0:0:0:0:
416,256,158504,1,8,0:0:0:0:
416,256,158562,1,8,0:0:0:0:
416,256,158620,1,0,0:0:0:0:
320,160,158792,1,0,0:0:0:0:
320,160,158879,1,0,0:0:0:0:
352,160,158965,1,8,0:0:0:0:
416,96,159137,1,8,0:0:0:0:
416,96,159223,1,0,0:0:0:0:
416,96,159310,1,8,0:0:0:0:
384,96,159396,1,8,0:0:0:0:
384,96,159482,1,0,0:0:0:0:
384,96,159568,1,0,0:0:0:0:
384,96,159654,1,8,0:0:0:0:
416,192,159741,1,0,0:0:0:0:
416,192,159827,1,8,0:0:0:0:
384,160,159913,1,8,0:0:0:0:
448,160,159999,1,0,0:0:0:0:
160,160,160258,1,0,0:0:0:0:
192,192,160344,1,8,0:0:0:0:
256,224,160516,1,0,0:0:0:0:
352,192,160689,1,8,0:0:0:0:
352,224,160775,1,0,0:0:0:0:
352,224,160861,1,0,0:0:0:0:
384,224,160947,1,0,0:0:0:0:
352,256,161034,1,8,0:0:0:0:
384,224,161120,1,8,0:0:0:0:
320,224,161206,1,8,0:0:0:0:
384,224,161292,1,8,0:0:0:0:
352,224,161379,1,4,0:0:0:0:
320,160,161551,1,0,0:0:0:0:
416,128,161723,1,8,0:0:0:0:
416,128,161781,1,0,0:0:0:0:
416,128,161838,1,0,0:0:0:0:
320,128,161896,1,0,0:0:0:0:
320,224,162068,1,8,0:0:0:0:
320,224,162241,1,8,0:0:0:0:
320,224,162327,1,8,0:0:0:0:
352,224,162413,1,0,0:0:0:0:
384,224,162470,1,0,0:0:0:0:
384,224,162528,1,0,0:0:0:0:
352,224,162585,1,8,0:0:0:0:
256,192,162758,1,0,0:0:0:0:
416,192,162930,1,8,0:0:0:0:
352,160,162988,1,8,0:0:0:0:
448,160,163045,1,8,0:0:0:0:
288,160,163103,1,0,0:0:0:0:
320,160,163189,1,0,0:0:0:0:
320,128,163275,1,8,0:0:0:0:
224,128,163361,1,0,0:0:0:0:
320,160,163447,1,8,0:0:0:0:
352,192,163534,1,0,0:0:0:0:
352,192,163620,1,0,0:0:0:0:
384,192,163706,1,0,0:0:0:0:
320,160,163792,1,8,0:0:0:0:
384,192,163850,1,8,0:0:0:0:
288,160,163907,1,8,0:0:0:0:
352,192,163965,1,8,0:0:0:0:
352,192,164022,1,8,0:0:0:0:
352,192,164080,1,8,0:0:0:0:
352,192,164137,1,0,0:0:0:0:
160,160,164310,1,0,0:0:0:0:
160,160,164396,1,0,0:0:0:0:
160,160,164482,1,8,0:0:0:0:
224,192,164654,1,0,0:0:0:0:
256,192,164741,1,0,0:0:0:0:
352,192,164827,1,8,0:0:0:0:
288,192,164913,1,0,0:0:0:0:
288,192,164999,1,8,0:0:0:0:
256,192,165172,1,0,0:0:0:0:
352,160,165344,1,8,0:0:0:0:
320,160,165430,1,0,0:0:0:0:
320,160,165516,1,8,0:0:0:0:
288,192,165689,1,0,0:0:0:0:
352,224,165775,1,0,0:0:0:0:
320,160,165861,1,8,0:0:0:0:
320,160,166034,1,0,0:0:0:0:
320,160,166120,1,0,0:0:0:0:
320,160,166206,1,8,0:0:0:0:
320,160,166292,1,0,0:0:0:0:
320,160,166379,1,8,0:0:0:0:
320,160,166436,1,0,0:0:0:0:
320,160,166493,1,0,0:0:0:0:
320,160,166551,1,8,0:0:0:0:
320,160,166637,1,8,0:0:0:0:
320,160,166723,1,8,0:0:0:0:
320,160,166810,1,8,0:0:0:0:
320,160,166896,1,0,0:0:0:0:
320,160,167068,1,0,0:0:0:0:
320,160,167241,1,8,0:0:0:0:
320,160,167298,1,0,0:0:0:0:
320,160,167356,1,0,0:0:0:0:
320,160,167413,1,0,0:0:0:0:
320,160,167585,1,0,0:0:0:0:
320,160,167672,1,0,0:0:0:0:
320,160,167758,1,8,0:0:0:0:
320,160,167844,1,8,0:0:0:0:
128,224,167930,1,0,0:0:0:0:
128,224,167988,1,0,0:0:0:0:
128,224,168045,1,0,0:0:0:0:
96,224,168103,1,8,0:0:0:0:
192,192,168189,1,8,0:0:0:0:
192,224,168275,1,0,0:0:0:0:
288,128,168447,1,8,0:0:0:0:
288,128,168505,1,8,0:0:0:0:
288,128,168562,1,8,0:0:0:0:
288,128,168620,1,0,0:0:0:0:
352,192,168706,1,0,0:0:0:0:
320,256,168792,1,8,0:0:0:0:
192,224,168879,1,0,0:0:0:0:
352,192,168965,1,8,0:0:0:0:
320,192,169051,1,8,0:0:0:0:
384,192,169137,1,0,0:0:0:0:
384,192,169223,1,0,0:0:0:0:
416,192,169310,1,8,0:0:0:0:
416,192,169367,1,8,0:0:0:0:
416,192,169424,1,8,0:0:0:0:
416,192,169482,1,8,0:0:0:0:
416,192,169539,1,8,0:0:0:0:
416,192,169597,1,8,0:0:0:0:
352,224,169654,1,0,0:0:0:0:
320,160,169827,1,0,0:0:0:0:
320,160,169913,1,0,0:0:0:0:
320,160,169999,1,8,0:0:0:0:
192,224,170172,1,0,0:0:0:0:
192,224,170258,1,0,0:0:0:0:
192,224,170344,1,8,0:0:0:0:
192,224,170430,1,0,0:0:0:0:
192,224,170516,1,0,0:0:0:0:
192,224,170603,1,0,0:0:0:0:
192,224,170689,1,8,0:0:0:0:
416,256,170861,1,8,0:0:0:0:
352,192,171034,1,0,0:0:0:0:
384,128,171206,1,8,0:0:0:0:
384,128,171292,1,0,0:0:0:0:
384,128,171379,1,8,0:0:0:0:
224,224,171551,1,0,0:0:0:0:
224,224,171637,1,0,0:0:0:0:
256,224,171723,1,8,0:0:0:0:
288,192,171810,1,8,0:0:0:0:
256,192,171896,1,0,0:0:0:0:
320,192,171982,1,0,0:0:0:0:
320,192,172068,1,8,0:0:0:0:
288,192,172241,1,0,0:0:0:0:
384,128,172413,1,12,0:0:0:0:
352,128,172585,1,0,0:0:0:0:
384,128,172758,1,8,0:0:0:0:
352,128,172930,1,0,0:0:0:0:
384,128,173103,1,8,0:0:0:0:
384,128,173275,1,0,0:0:0:0:
352,128,173447,1,8,0:0:0:0:
352,128,173620,1,0,0:0:0:0:
352,128,173792,1,12,0:0:0:0:
352,128,173965,1,0,0:0:0:0:
320,128,174137,1,8,0:0:0:0:
352,128,174310,1,0,0:0:0:0:
320,128,174482,1,8,0:0:0:0:
288,128,174654,1,0,0:0:0:0:
320,128,174827,1,8,0:0:0:0:
320,160,174999,1,0,0:0:0:0:
160,192,175172,1,8,0:0:0:0:
160,192,175258,1,0,0:0:0:0:
192,192,175344,1,8,0:0:0:0:
160,192,175430,1,0,0:0:0:0:
192,192,175516,1,8,0:0:0:0:
192,192,175603,1,0,0:0:0:0:
160,192,175689,1,0,0:0:0:0:
192,192,175775,1,0,0:0:0:0:
192,192,175861,1,8,0:0:0:0:
192,192,175947,1,8,0:0:0:0:
192,192,176034,1,0,0:0:0:0:
224,192,176120,1,0,0:0:0:0:
224,192,176206,1,8,0:0:0:0:
224,192,176292,1,0,0:0:0:0:
224,192,176379,1,8,0:0:0:0:
224,192,176465,1,0,0:0:0:0:
224,192,176551,1,8,0:0:0:0:
224,192,176637,1,8,0:0:0:0:
224,192,176723,1,0,0:0:0:0:
224,192,176810,1,0,0:0:0:0:
224,192,176896,1,8,0:0:0:0:
224,192,176982,1,0,0:0:0:0:
224,192,177068,1,8,0:0:0:0:
224,192,177154,1,0,0:0:0:0:
256,192,177241,1,8,0:0:0:0:
256,192,177327,1,0,0:0:0:0:
256,224,177413,1,0,0:0:0:0:
288,192,177499,1,0,0:0:0:0:
224,192,177585,1,8,0:0:0:0:
448,192,177758,1,0,0:0:0:0:
448,192,177930,1,4,0:0:0:0:
192,128,178103,1,0,0:0:0:0:
192,128,178275,1,8,0:0:0:0:
352,192,178447,1,0,0:0:0:0:
256,192,178534,1,0,0:0:0:0:
160,256,178620,1,8,0:0:0:0:
160,256,178706,1,0,0:0:0:0:
160,256,178792,1,0,0:0:0:0:
320,256,178965,1,8,0:0:0:0:
256,224,179137,1,0,0:0:0:0:
256,192,179223,1,0,0:0:0:0:
320,192,179310,1,8,0:0:0:0:
224,128,179482,1,0,0:0:0:0:
224,128,179654,1,8,0:0:0:0:
224,128,179827,1,0,0:0:0:0:
224,128,179913,1,0,0:0:0:0:
320,160,179999,1,8,0:0:0:0:
256,192,180085,1,0,0:0:0:0:
320,160,180172,1,0,0:0:0:0:
288,256,180344,1,8,0:0:0:0:
288,256,180430,1,0,0:0:0:0:
288,256,180516,1,0,0:0:0:0:
288,256,180603,1,0,0:0:0:0:
288,256,180689,1,8,0:0:0:0:
192,160,180861,1,0,0:0:0:0:
192,160,180947,1,0,0:0:0:0:
192,160,181034,1,8,0:0:0:0:
352,192,181206,1,0,0:0:0:0:
352,160,181379,1,8,0:0:0:0:
352,160,181465,1,0,0:0:0:0:
384,192,181551,1,0,0:0:0:0:
224,256,181723,1,8,0:0:0:0:
384,224,181896,1,0,0:0:0:0:
288,256,182068,1,8,0:0:0:0:
320,160,182241,1,0,0:0:0:0:
320,160,182327,1,0,0:0:0:0:
288,160,182413,1,8,0:0:0:0:
352,192,182585,1,8,0:0:0:0:
352,192,182672,1,0,0:0:0:0:
352,192,182758,1,8,0:0:0:0:
352,192,182844,1,0,0:0:0:0:
352,192,182930,1,0,0:0:0:0:
352,192,183103,1,0,0:0:0:0:
256,192,183189,1,0,0:0:0:0:
320,192,183275,1,8,0:0:0:0:
320,192,183447,1,12,0:0:0:0:
160,128,183620,1,0,0:0:0:0:
192,128,183792,1,8,0:0:0:0:
256,128,183965,1,0,0:0:0:0:
384,224,184051,1,0,0:0:0:0:
384,160,184137,1,8,0:0:0:0:
416,160,184223,1,0,0:0:0:0:
416,160,184310,1,0,0:0:0:0:
352,192,184482,1,8,0:0:0:0:
384,160,184654,1,0,0:0:0:0:
384,160,184827,1,8,0:0:0:0:
416,224,184999,1,0,0:0:0:0:
416,224,185085,1,0,0:0:0:0:
448,224,185172,1,8,0:0:0:0:
224,192,185344,1,0,0:0:0:0:
224,192,185430,1,0,0:0:0:0:
256,192,185516,1,8,0:0:0:0:
288,192,185603,1,0,0:0:0:0:
288,192,185689,1,8,0:0:0:0:
320,224,185861,1,0,0:0:0:0:
384,192,185947,1,0,0:0:0:0:
352,224,186034,1,0,0:0:0:0:
384,192,186120,1,0,0:0:0:0:
384,192,186206,1,8,0:0:0:0:
320,224,186379,1,0,0:0:0:0:
320,224,186465,1,0,0:0:0:0:
320,224,186551,1,8,0:0:0:0:
352,224,186723,1,0,0:0:0:0:
384,224,186896,1,8,0:0:0:0:
416,224,186982,1,0,0:0:0:0:
416,224,187068,1,0,0:0:0:0:
352,256,187241,1,8,0:0:0:0:
320,160,187413,1,0,0:0:0:0:
384,224,187585,1,8,0:0:0:0:
448,224,187758,1,0,0:0:0:0:
448,224,187844,1,0,0:0:0:0:
448,224,187930,1,8,0:0:0:0:
288,224,188103,1,0,0:0:0:0:
271,175,188189,1,0,0:0:0:0:
288,160,188275,1,8,0:0:0:0:
320,160,188361,1,8,0:0:0:0:
320,160,188447,1,0,0:0:0:0:
352,192,188620,1,8,0:0:0:0:
352,192,188792,1,0,0:0:0:0:
384,192,188965,1,12,0:0:0:0:
224,192,189137,1,0,0:0:0:0:
224,192,189223,1,0,0:0:0:0:
256,192,189310,1,8,0:0:0:0:
384,224,189482,1,0,0:0:0:0:
448,160,189568,1,0,0:0:0:0:
448,256,189654,1,8,0:0:0:0:
448,256,189741,1,0,0:0:0:0:
448,256,189827,1,0,0:0:0:0:
384,192,189999,1,8,0:0:0:0:
480,192,190172,1,0,0:0:0:0:
480,192,190344,1,8,0:0:0:0:
480,192,190516,1,0,0:0:0:0:
480,192,190689,1,8,0:0:0:0:
352,224,190861,1,0,0:0:0:0:
256,224,190947,1,0,0:0:0:0:
352,224,191034,1,8,0:0:0:0:
352,224,191206,1,0,0:0:0:0:
224,128,191379,1,0,0:0:0:0:
224,128,191465,1,8,0:0:0:0:
256,128,191551,1,8,0:0:0:0:
256,128,191637,1,0,0:0:0:0:
256,128,191723,1,8,0:0:0:0:
256,224,191896,1,0,0:0:0:0:
160,160,191982,1,0,0:0:0:0:
256,224,192068,1,8,0:0:0:0:
288,160,192241,1,0,0:0:0:0:
352,160,192327,1,0,0:0:0:0:
256,160,192413,1,8,0:0:0:0:
384,224,192499,1,0,0:0:0:0:
352,160,192585,1,8,0:0:0:0:
416,192,192758,1,8,0:0:0:0:
352,160,192930,1,0,0:0:0:0:
352,160,193103,1,8,0:0:0:0:
384,224,193275,1,0,0:0:0:0:
352,192,193447,1,8,0:0:0:0:
256,160,193620,1,0,0:0:0:0:
256,160,193706,1,0,0:0:0:0:
352,192,193792,1,8,0:0:0:0:
352,192,193879,1,8,0:0:0:0:
352,192,193965,1,0,0:0:0:0:
384,192,194137,1,8,0:0:0:0:
352,192,194310,1,0,0:0:0:0:
384,224,194482,1,12,0:0:0:0:
256,192,194654,1,0,0:0:0:0:
320,192,194741,1,0,0:0:0:0:
256,192,194827,1,8,0:0:0:0:
256,192,194999,1,0,0:0:0:0:
256,192,195086,1,0,0:0:0:0:
384,192,195172,1,8,0:0:0:0:
256,224,195258,1,0,0:0:0:0:
192,256,195344,1,8,0:0:0:0:
256,224,195516,1,8,0:0:0:0:
352,192,195689,1,0,0:0:0:0:
320,224,195861,1,8,0:0:0:0:
320,96,196034,1,0,0:0:0:0:
320,128,196120,1,0,0:0:0:0:
320,96,196206,1,8,0:0:0:0:
128,192,196379,1,8,0:0:0:0:
128,192,196465,1,0,0:0:0:0:
128,192,196551,1,8,0:0:0:0:
128,192,196637,1,8,0:0:0:0:
128,192,196723,1,0,0:0:0:0:
352,192,196896,1,8,0:0:0:0:
352,192,197068,1,0,0:0:0:0:
352,192,197241,1,0,0:0:0:0:
224,160,197327,1,0,0:0:0:0:
352,160,197413,1,8,0:0:0:0:
480,192,197499,1,0,0:0:0:0:
480,192,197585,1,8,0:0:0:0:
480,192,197672,1,8,0:0:0:0:
448,192,197758,1,0,0:0:0:0:
448,192,197844,1,0,0:0:0:0:
448,192,197930,1,8,0:0:0:0:
480,192,198016,1,0,0:0:0:0:
480,192,198103,1,8,0:0:0:0:
480,192,198189,1,0,0:0:0:0:
384,160,198275,1,8,0:0:0:0:
352,224,198361,1,8,0:0:0:0:
320,224,198447,1,0,0:0:0:0:
320,224,198534,1,0,0:0:0:0:
320,224,198620,1,8,0:0:0:0:
288,224,198706,1,0,0:0:0:0:
288,224,198792,1,0,0:0:0:0:
288,224,198879,1,0,0:0:0:0:
352,192,198965,1,8,0:0:0:0:
352,160,199051,1,0,0:0:0:0:
352,160,199137,1,0,0:0:0:0:
352,160,199223,1,0,0:0:0:0:
352,160,199310,1,8,0:0:0:0:
352,160,199396,1,0,0:0:0:0:
224,128,199482,1,8,0:0:0:0:
224,128,199568,1,8,0:0:0:0:
224,128,199654,1,0,0:0:0:0:
320,128,199741,1,8,0:0:0:0:
320,128,199827,1,8,0:0:0:0:
320,128,199913,1,0,0:0:0:0:
384,128,199999,1,12,0:0:0:0:
224,224,200172,1,0,0:0:0:0:
224,224,200258,1,0,0:0:0:0:
224,224,200344,1,8,0:0:0:0:
288,160,200430,1,0,0:0:0:0:
352,224,200516,1,8,0:0:0:0:
352,224,200603,1,8,0:0:0:0:
352,224,200689,1,0,0:0:0:0:
352,224,200775,1,0,0:0:0:0:
352,224,200861,1,8,0:0:0:0:
352,224,201034,1,8,0:0:0:0:
384,224,201206,1,0,0:0:0:0:
224,160,201292,1,0,0:0:0:0:
384,224,201379,1,8,0:0:0:0:
384,224,201551,1,0,0:0:0:0:
384,224,201637,1,0,0:0:0:0:
384,256,201723,1,8,0:0:0:0:
384,224,201896,1,0,0:0:0:0:
384,224,201982,1,0,0:0:0:0:
384,224,202068,1,8,0:0:0:0:
384,224,202154,1,0,0:0:0:0:
384,224,202241,1,8,0:0:0:0:
320,128,202413,1,8,0:0:0:0:
192,96,202585,1,0,0:0:0:0:
288,128,202758,1,8,0:0:0:0:
352,128,203016,1,0,0:0:0:0:
416,160,203103,1,8,0:0:0:0:
256,256,203275,1,0,0:0:0:0:
384,224,203447,1,8,0:0:0:0:
384,224,203534,1,0,0:0:0:0:
384,224,203620,1,8,0:0:0:0:
416,224,203706,1,8,0:0:0:0:
416,224,203792,1,0,0:0:0:0:
288,160,203965,1,0,0:0:0:0:
288,160,204051,1,0,0:0:0:0:
288,160,204137,1,8,0:0:0:0:
320,160,204223,1,0,0:0:0:0:
320,160,204310,1,8,0:0:0:0:
160,224,204482,1,0,0:0:0:0:
160,224,204568,1,0,0:0:0:0:
160,224,204654,1,8,0:0:0:0:
192,224,204741,1,0,0:0:0:0:
192,224,204827,1,8,0:0:0:0:
192,224,204913,1,8,0:0:0:0:
192,224,204999,1,0,0:0:0:0:
192,224,205085,1,0,0:0:0:0:
192,224,205172,1,8,0:0:0:0:
352,160,205258,1,8,0:0:0:0:
224,192,205344,1,0,0:0:0:0:
448,256,205430,1,0,0:0:0:0:
192,224,205516,1,8,0:0:0:0:
448,192,205689,1,0,0:0:0:0:
320,192,205775,1,0,0:0:0:0:
320,192,205861,1,8,0:0:0:0:
352,128,206034,1,8,0:0:0:0:
352,128,206120,1,8,0:0:0:0:
352,160,206206,1,0,0:0:0:0:
352,128,206292,1,8,0:0:0:0:
384,128,206379,1,8,0:0:0:0:
320,192,206551,1,8,0:0:0:0:
384,192,206723,1,0,0:0:0:0:
384,128,206810,1,0,0:0:0:0:
288,192,206896,1,8,0:0:0:0:
192,192,207068,1,0,0:0:0:0:
192,192,207154,1,0,0:0:0:0:
224,192,207241,1,8,0:0:0:0:
288,192,207413,1,0,0:0:0:0:
288,192,207499,1,0,0:0:0:0:
192,192,207585,1,8,0:0:0:0:
224,192,207672,1,0,0:0:0:0:
192,192,207758,1,8,0:0:0:0:
416,160,207930,1,8,0:0:0:0:
416,160,208103,1,0,0:0:0:0:
416,192,208275,1,8,0:0:0:0:
352,96,208534,1,0,0:0:0:0:
384,128,208620,1,8,0:0:0:0:
320,192,208792,1,0,0:0:0:0:
448,224,208965,1,8,0:0:0:0:
416,192,209051,1,0,0:0:0:0:
416,192,209137,1,0,0:0:0:0:
416,192,209223,1,0,0:0:0:0:
416,224,209310,1,8,0:0:0:0:
320,160,209482,1,0,0:0:0:0:
320,160,209568,1,0,0:0:0:0:
320,160,209654,1,8,0:0:0:0:
320,160,209741,1,8,0:0:0:0:
320,160,209827,1,0,0:0:0:0:
352,160,209913,1,0,0:0:0:0:
352,160,209999,1,8,0:0:0:0:
288,224,210085,1,8,0:0:0:0:
288,224,210172,1,8,0:0:0:0:
288,224,210258,1,8,0:0:0:0:
320,224,210344,1,0,0:0:0:0:
256,224,210430,1,0,0:0:0:0:
256,224,210516,1,8,0:0:0:0:
320,224,210603,1,0,0:0:0:0:
288,224,210689,1,8,0:0:0:0:
320,192,210775,1,8,0:0:0:0:
320,192,210861,1,0,0:0:0:0:
256,192,210947,1,0,0:0:0:0:
320,192,211034,1,8,0:0:0:0:
384,192,211206,1,0,0:0:0:0:
320,192,211292,1,0,0:0:0:0:
384,192,211379,1,8,0:0:0:0:
320,192,211551,1,0,0:0:0:0:
192,128,211637,1,0,0:0:0:0:
352,224,211723,1,8,0:0:0:0:
352,224,211810,1,0,0:0:0:0:
320,192,211896,1,8,0:0:0:0:
352,192,212068,1,8,0:0:0:0:
416,160,212241,1,0,0:0:0:0:
416,160,212327,1,0,0:0:0:0:
384,192,212413,1,8,0:0:0:0:
384,192,212585,1,0,0:0:0:0:
384,192,212672,1,0,0:0:0:0:
384,192,212758,1,8,0:0:0:0:
384,256,212930,1,8,0:0:0:0:
384,256,213016,1,0,0:0:0:0:
416,256,213103,1,8,0:0:0:0:
384,256,213189,1,0,0:0:0:0:
384,256,213275,1,0,0:0:0:0:
384,224,213447,1,8,0:0:0:0:
416,224,213620,1,0,0:0:0:0:
448,224,213792,1,8,0:0:0:0:
320,160,214051,1,0,0:0:0:0:
320,160,214137,1,8,0:0:0:0:
320,192,214310,1,0,0:0:0:0:
384,256,214482,1,8,0:0:0:0:
384,224,214568,1,0,0:0:0:0:
384,256,214654,1,0,0:0:0:0:
384,256,214741,1,0,0:0:0:0:
352,224,214827,1,8,0:0:0:0:
320,224,214999,1,0,0:0:0:0:
320,224,215085,1,0,0:0:0:0:
352,224,215172,1,8,0:0:0:0:
288,224,215258,1,8,0:0:0:0:
352,224,215344,1,0,0:0:0:0:
352,224,215430,1,0,0:0:0:0:
256,224,215516,1,8,0:0:0:0:
160,160,215689,1,0,0:0:0:0:
160,160,215775,1,0,0:0:0:0:
192,160,215862,1,8,0:0:0:0:
192,160,215948,1,8,0:0:0:0:
160,160,216034,1,0,0:0:0:0:
160,160,216120,1,0,0:0:0:0:
160,160,216207,1,8,0:0:0:0:
416,128,216293,1,0,0:0:0:0:
288,192,216379,1,0,0:0:0:0:
288,160,216465,1,0,0:0:0:0:
160,160,216551,1,12,0:0:0:0:
448,256,216723,1,0,0:0:0:0:
416,224,216896,1,8,0:0:0:0:
384,192,217068,1,0,0:0:0:0:
416,224,217241,1,8,0:0:0:0:
352,192,217413,1,0,0:0:0:0:
384,192,217585,1,8,0:0:0:0:
416,192,217758,1,0,0:0:0:0:
448,192,217930,1,12,0:0:0:0:
320,224,218103,1,0,0:0:0:0:
320,224,218189,1,0,0:0:0:0:
416,224,218275,1,8,0:0:0:0:
320,160,218447,1,0,0:0:0:0:
320,160,218534,1,0,0:0:0:0:
320,160,218620,1,8,0:0:0:0:
352,192,218706,1,0,0:0:0:0:
320,160,218792,1,0,0:0:0:0:
416,160,218965,1,8,0:0:0:0:
416,192,219137,1,0,0:0:0:0:
384,160,219310,1,12,0:0:0:0:
256,256,219482,1,0,0:0:0:0:
256,256,219568,1,0,0:0:0:0:
320,224,219654,1,8,0:0:0:0:
224,128,219827,1,0,0:0:0:0:
224,128,219913,1,0,0:0:0:0:
288,160,219999,1,8,0:0:0:0:
256,128,220172,1,0,0:0:0:0:
192,192,220258,1,0,0:0:0:0:
288,192,220344,1,8,0:0:0:0:
288,192,220516,1,0,0:0:0:0:
288,192,220603,1,0,0:0:0:0:
352,192,220689,1,8,0:0:0:0:
352,192,220775,1,8,0:0:0:0:
416,160,220861,1,0,0:0:0:0:
416,160,220947,5,0,0:0:0:0:
384,192,221034,1,8,0:0:0:0:
384,192,221120,1,8,0:0:0:0:
416,224,221206,1,0,0:0:0:0:
416,224,221292,1,0,0:0:0:0:
384,192,221379,1,8,0:0:0:0:
416,224,221465,1,0,0:0:0:0:
416,224,221551,1,0,0:0:0:0:
448,224,221637,1,0,0:0:0:0:
416,224,221723,1,8,0:0:0:0:
448,224,221810,1,8,0:0:0:0:
448,224,221896,1,0,0:0:0:0:
448,224,221982,1,0,0:0:0:0:
352,224,222068,5,12,0:0:0:0:
64,256,226551,2,0,B|128:160|192:352|416:64,1,420
419,320,231723,6,0,P|358:333|207:263,1,210
448,224,232413,1,8,0:0:0:0:
448,224,232471,1,0,0:0:0:0:
176,128,232528,1,0,0:0:0:0:
448,224,232586,1,8,0:0:0:0:
320,240,232672,1,0,0:0:0:0:
320,240,232758,1,8,0:0:0:0:
176,128,232815,1,8,0:0:0:0:
176,128,232873,1,8,0:0:0:0:
176,128,232930,1,0,0:0:0:0:
176,128,233017,1,0,0:0:0:0:
192,128,233103,1,8,0:0:0:0:
288,224,233706,1,8,0:0:0:0:
288,224,233792,1,0,0:0:0:0:
288,224,233965,1,0,0:0:0:0:
416,160,234310,1,8,0:0:0:0:
384,160,235746,1,0,0:0:0:0:
384,160,235804,1,0,0:0:0:0:
416,160,235861,1,8,0:0:0:0:
288,192,236207,1,0,0:0:0:0:
352,256,236379,1,8,0:0:0:0:
384,128,236723,1,0,0:0:0:0:
160,288,237068,2,0,B|128:256|192:192|320:192,1,210
224,192,237930,1,8,0:0:0:0:
224,192,238016,1,8,0:0:0:0:
224,192,238103,1,8,0:0:0:0:
288,192,238189,1,0,0:0:0:0:
320,192,238275,1,8,0:0:0:0:
384,192,238447,1,8,0:0:0:0:
224,160,239223,1,0,0:0:0:0:
224,160,239310,1,8,0:0:0:0:
384,160,239482,1,0,0:0:0:0:
0,256,239827,2,0,P|128:224|288:160,1,280
416,160,241206,1,0,0:0:0:0:
416,160,241379,1,8,0:0:0:0:
256,224,241723,1,0,0:0:0:0:
320,256,241896,1,8,0:0:0:0:
416,288,242241,1,0,0:0:0:0:
0,352,242585,2,0,L|544:0,1,630
288,192,244654,1,0,0:0:0:0:
352,192,244827,1,8,0:0:0:0:
320,224,244999,1,0,0:0:0:0:
320,96,245344,1,0,0:0:0:0:
256,128,245516,1,8,0:0:0:0:
256,160,245689,1,0,0:0:0:0:
256,160,245775,1,8,0:0:0:0:
256,160,245861,1,0,0:0:0:0:
256,160,245947,1,8,0:0:0:0:
256,160,246034,1,8,0:0:0:0:
256,160,246120,1,8,0:0:0:0:
256,160,246206,1,0,0:0:0:0:
256,160,246292,1,8,0:0:0:0:
256,160,246379,1,8,0:0:0:0:
256,160,246465,1,8,0:0:0:0:
256,160,246551,1,0,0:0:0:0:
288,160,246637,1,8,0:0:0:0:
288,160,246723,1,8,0:0:0:0:
288,160,246810,1,8,0:0:0:0:
288,160,246896,1,0,0:0:0:0:
416,128,247241,1,0,0:0:0:0:
320,128,247413,1,8,0:0:0:0:
384,192,247758,1,0,0:0:0:0:
384,96,248103,1,8,0:0:0:0:
448,128,248275,1,0,0:0:0:0:
448,224,248965,1,8,0:0:0:0:
448,224,249023,1,0,0:0:0:0:
176,128,249080,1,0,0:0:0:0:
448,224,249138,1,8,0:0:0:0:
320,240,249224,1,0,0:0:0:0:
320,240,249310,1,8,0:0:0:0:
160,128,249367,1,8,0:0:0:0:
176,128,249424,1,8,0:0:0:0:
176,128,249482,1,0,0:0:0:0:
176,128,249569,1,0,0:0:0:0:
192,128,249655,1,8,0:0:0:0:
256,192,250344,1,8,0:0:0:0:
352,128,250602,1,0,0:0:0:0:
384,160,250689,1,8,0:0:0:0:
32,192,250861,2,0,L|448:320,1,420
288,224,252758,1,8,0:0:0:0:
352,128,252931,1,0,0:0:0:0:
352,160,253103,1,8,0:0:0:0:
288,192,253276,1,0,0:0:0:0:
64,288,253620,2,0,L|576:0,1,560
256,192,255172,5,12,0:0:0:0:
352,128,255689,1,12,0:0:0:0:
320,192,256034,1,8,0:0:0:0:
352,192,256206,1,8,0:0:0:0:
384,160,256379,1,0,0:0:0:0:
256,256,257413,1,8,0:0:0:0:
256,256,257585,1,0,0:0:0:0:
256,256,257758,1,0,0:0:0:0:
288,224,257930,1,8,0:0:0:0:
384,128,260689,1,12,0:0:0:0:
384,224,261206,1,12,0:0:0:0:
448,160,261551,1,8,0:0:0:0:
480,160,261723,1,0,0:0:0:0:
448,160,261896,1,8,0:0:0:0:
448,224,262930,1,8,0:0:0:0:
480,224,263103,1,0,0:0:0:0:
448,224,263275,1,8,0:0:0:0:
448,224,265516,1,8,0:0:0:0:
448,224,265574,1,0,0:0:0:0:
176,128,265631,1,0,0:0:0:0:
448,224,265689,1,8,0:0:0:0:
320,240,265775,1,0,0:0:0:0:
320,240,265861,1,8,0:0:0:0:
256,192,265919,1,8,0:0:0:0:
176,128,265976,1,8,0:0:0:0:
176,128,266033,1,0,0:0:0:0:
176,128,266120,1,0,0:0:0:0:
192,128,266206,1,8,0:0:0:0:
192,96,266551,1,8,0:0:0:0:
384,224,267068,1,0,0:0:0:0:
480,128,267240,1,8,0:0:0:0:
416,128,267413,1,0,0:0:0:0:
416,128,267585,1,0,0:0:0:0:
352,192,267930,1,8,0:0:0:0:
192,160,268447,1,0,0:0:0:0:
288,160,268620,1,8,0:0:0:0:
288,160,268792,1,0,0:0:0:0:
288,160,268965,1,8,0:0:0:0:
384,160,269310,1,8,0:0:0:0:
320,128,269827,1,0,0:0:0:0:
480,160,269999,1,8,0:0:0:0:
192,160,270516,1,0,0:0:0:0:
192,160,270689,1,8,0:0:0:0:
256,128,271206,1,0,0:0:0:0:
416,160,271379,1,8,0:0:0:0:
448,160,271551,1,0,0:0:0:0:
288,128,271723,1,12,0:0:0:0:
192,192,271896,1,0,0:0:0:0:
288,96,272068,1,8,0:0:0:0:
192,192,272241,1,0,0:0:0:0:
288,96,272413,1,8,0:0:0:0:
320,192,272585,1,0,0:0:0:0:
288,96,272758,1,8,0:0:0:0:
320,192,272930,1,0,0:0:0:0:
288,96,273103,1,12,0:0:0:0:
320,192,273275,1,0,0:0:0:0:
288,96,273447,1,8,0:0:0:0:
320,192,273620,1,0,0:0:0:0:
288,96,273792,1,8,0:0:0:0:
320,192,273965,1,0,0:0:0:0:
288,96,274137,1,8,0:0:0:0:
320,192,274310,1,0,0:0:0:0:
256,224,274482,1,8,0:0:0:0:
320,224,274568,1,0,0:0:0:0:
384,192,274654,1,0,0:0:0:0:
384,256,274741,1,0,0:0:0:0:
384,160,274827,1,8,0:0:0:0:
384,160,274913,1,0,0:0:0:0:
416,160,274999,1,0,0:0:0:0:
384,192,275085,1,8,0:0:0:0:
352,224,275172,1,8,0:0:0:0:
352,224,275258,1,0,0:0:0:0:
352,224,275344,1,0,0:0:0:0:
320,192,275430,1,8,0:0:0:0:
352,224,275516,1,8,0:0:0:0:
320,192,275603,1,0,0:0:0:0:
320,192,275689,1,0,0:0:0:0:
352,192,275775,1,0,0:0:0:0:
320,160,275861,1,8,0:0:0:0:
320,160,275947,1,8,0:0:0:0:
320,160,276034,1,0,0:0:0:0:
320,160,276120,1,8,0:0:0:0:
320,128,276206,1,0,0:0:0:0:
320,160,276292,1,0,0:0:0:0:
320,160,276379,1,8,0:0:0:0:
320,160,276465,1,0,0:0:0:0:
320,160,276551,1,8,0:0:0:0:
320,160,276637,1,8,0:0:0:0:
320,160,276723,1,0,0:0:0:0:
384,160,276810,1,0,0:0:0:0:
384,160,276896,1,8,0:0:0:0:
320,192,277068,1,0,0:0:0:0:
352,128,277241,1,4,0:0:0:0:
416,192,277585,1,12,0:0:0:0:
224,224,277758,1,0,0:0:0:0:
224,224,277844,1,0,0:0:0:0:
224,224,277930,1,8,0:0:0:0:
240,160,278016,1,0,0:0:0:0:
352,160,278103,1,8,0:0:0:0:
384,160,278275,1,8,0:0:0:0:
352,192,278447,1,0,0:0:0:0:
256,160,278620,1,8,0:0:0:0:
256,256,278792,1,0,0:0:0:0:
256,256,278965,1,8,0:0:0:0:
448,256,279137,1,8,0:0:0:0:
384,224,279223,1,0,0:0:0:0:
448,256,279310,1,8,0:0:0:0:
448,256,279396,1,0,0:0:0:0:
448,256,279482,1,0,0:0:0:0:
384,160,279654,1,0,0:0:0:0:
384,160,279741,1,8,0:0:0:0:
416,160,279827,1,8,0:0:0:0:
416,160,279913,1,0,0:0:0:0:
448,160,279999,1,8,0:0:0:0:
320,224,280172,1,0,0:0:0:0:
416,192,280344,1,8,0:0:0:0:
320,160,280516,1,0,0:0:0:0:
400,144,280603,1,0,0:0:0:0:
352,128,280689,1,8,0:0:0:0:
320,160,280775,1,0,0:0:0:0:
320,160,280861,1,0,0:0:0:0:
448,192,281034,1,8,0:0:0:0:
448,192,281206,1,0,0:0:0:0:
416,192,281379,1,8,0:0:0:0:
320,224,281551,1,0,0:0:0:0:
448,192,281637,1,0,0:0:0:0:
352,224,281723,1,8,0:0:0:0:
224,128,281896,1,0,0:0:0:0:
224,128,281982,1,0,0:0:0:0:
224,128,282068,1,8,0:0:0:0:
224,128,282154,1,0,0:0:0:0:
224,128,282241,1,0,0:0:0:0:
224,128,282413,1,8,0:0:0:0:
224,128,282585,1,0,0:0:0:0:
224,128,282758,1,12,0:0:0:0:
224,128,282930,1,0,0:0:0:0:
224,128,283103,1,8,0:0:0:0:
224,128,283275,1,0,0:0:0:0:
224,128,283361,1,0,0:0:0:0:
224,128,283447,1,8,0:0:0:0:
224,128,283534,1,0,0:0:0:0:
224,128,283620,1,8,0:0:0:0:
480,224,283792,1,8,0:0:0:0:
448,256,283965,1,0,0:0:0:0:
512,192,284137,1,8,0:0:0:0:
480,192,284310,1,0,0:0:0:0:
480,192,284397,1,0,0:0:0:0:
416,160,284482,1,8,0:0:0:0:
256,192,284654,1,8,0:0:0:0:
256,192,284741,1,0,0:0:0:0:
224,192,284827,1,8,0:0:0:0:
256,192,284913,1,0,0:0:0:0:
256,192,284999,1,0,0:0:0:0:
384,224,285172,1,0,0:0:0:0:
384,224,285258,1,0,0:0:0:0:
416,224,285344,1,8,0:0:0:0:
448,224,285430,1,0,0:0:0:0:
448,224,285516,1,8,0:0:0:0:
256,192,285689,1,0,0:0:0:0:
352,128,285775,1,0,0:0:0:0:
512,192,285861,1,8,0:0:0:0:
256,192,286034,1,0,0:0:0:0:
448,192,286206,1,8,0:0:0:0:
416,160,286292,1,0,0:0:0:0:
416,160,286379,1,0,0:0:0:0:
384,160,286551,1,8,0:0:0:0:
224,160,286723,1,0,0:0:0:0:
416,160,286896,1,8,0:0:0:0:
352,224,287068,1,0,0:0:0:0:
480,192,287241,1,8,0:0:0:0:
144,160,287413,1,0,0:0:0:0:
144,160,287499,1,0,0:0:0:0:
320,160,287585,1,8,0:0:0:0:
128,160,287672,1,0,0:0:0:0:
416,224,287757,1,0,0:0:0:0:
352,224,287930,1,8,0:0:0:0:
128,160,288016,1,0,0:0:0:0:
320,192,288103,1,0,0:0:0:0:
416,160,288275,1,12,0:0:0:0:
128,160,288447,1,0,0:0:0:0:
416,160,288534,1,0,0:0:0:0:
512,192,288620,1,8,0:0:0:0:
480,160,288792,1,0,0:0:0:0:
480,160,288879,1,0,0:0:0:0:
480,160,288965,1,8,0:0:0:0:
480,160,289051,1,0,0:0:0:0:
480,160,289137,1,0,0:0:0:0:
416,192,289310,1,8,0:0:0:0:
480,160,289482,1,0,0:0:0:0:
352,192,289654,1,8,0:0:0:0:
352,160,289827,1,0,0:0:0:0:
352,160,289913,1,0,0:0:0:0:
320,160,289999,1,8,0:0:0:0:
320,160,290172,1,0,0:0:0:0:
352,224,290258,1,0,0:0:0:0:
416,192,290344,1,8,0:0:0:0:
384,192,290430,1,0,0:0:0:0:
384,192,290516,1,8,0:0:0:0:
320,224,290689,1,0,0:0:0:0:
320,224,290775,1,0,0:0:0:0:
320,224,290861,1,8,0:0:0:0:
320,224,290947,1,8,0:0:0:0:
384,224,291034,1,0,0:0:0:0:
160,160,291206,1,0,0:0:0:0:
160,160,291292,1,0,0:0:0:0:
160,160,291379,1,8,0:0:0:0:
288,192,291551,1,0,0:0:0:0:
352,160,291723,1,8,0:0:0:0:
384,160,291810,1,0,0:0:0:0:
384,160,291896,1,0,0:0:0:0:
352,160,292068,1,8,0:0:0:0:
448,160,292241,1,0,0:0:0:0:
416,192,292413,1,8,0:0:0:0:
352,192,292585,1,0,0:0:0:0:
384,192,292758,1,8,0:0:0:0:
160,144,292930,1,0,0:0:0:0:
160,144,293016,1,0,0:0:0:0:
384,160,293103,1,8,0:0:0:0:
160,144,293189,1,0,0:0:0:0:
384,160,293275,1,0,0:0:0:0:
384,160,293447,1,8,0:0:0:0:
384,224,293620,1,0,0:0:0:0:
352,192,293792,1,12,0:0:0:0:
128,128,293965,1,0,0:0:0:0:
480,192,294051,1,0,0:0:0:0:
480,192,294137,1,8,0:0:0:0:
128,128,294310,1,0,0:0:0:0:
128,128,294396,1,0,0:0:0:0:
192,160,294482,1,8,0:0:0:0:
192,160,294568,1,0,0:0:0:0:
192,160,294654,1,0,0:0:0:0:
320,160,294827,1,8,0:0:0:0:
384,160,294999,1,0,0:0:0:0:
384,160,295172,1,0,0:0:0:0:
384,160,295344,1,0,0:0:0:0:
384,160,295430,1,0,0:0:0:0:
384,160,295516,1,8,0:0:0:0:
288,256,295689,1,0,0:0:0:0:
320,256,295775,1,8,0:0:0:0:
320,256,295861,1,0,0:0:0:0:
288,256,295947,1,8,0:0:0:0:
320,256,296034,1,0,0:0:0:0:
288,160,296206,1,8,0:0:0:0:
320,160,296379,1,0,0:0:0:0:
352,160,296551,1,0,0:0:0:0:
352,160,296637,1,0,0:0:0:0:
352,128,296723,1,8,0:0:0:0:
352,160,296810,1,0,0:0:0:0:
384,160,296896,1,8,0:0:0:0:
384,160,296982,1,8,0:0:0:0:
384,160,297068,1,0,0:0:0:0:
352,160,297154,1,0,0:0:0:0:
256,192,297241,1,8,0:0:0:0:
256,192,297327,1,8,0:0:0:0:
256,192,297413,1,0,0:0:0:0:
256,192,297499,1,8,0:0:0:0:
288,192,297585,1,0,0:0:0:0:
320,192,297672,1,0,0:0:0:0:
352,192,297758,1,8,0:0:0:0:
352,192,297844,1,0,0:0:0:0:
288,128,297930,1,8,0:0:0:0:
384,128,298103,1,0,0:0:0:0:
384,128,298189,1,8,0:0:0:0:
320,128,298275,1,0,0:0:0:0:
192,192,298447,1,0,0:0:0:0:
192,192,298534,1,0,0:0:0:0:
192,192,298620,1,8,0:0:0:0:
224,192,298706,1,0,0:0:0:0:
320,192,298792,1,8,0:0:0:0:
320,192,298879,1,8,0:0:0:0:
224,224,298965,1,0,0:0:0:0:
224,224,299051,1,8,0:0:0:0:
320,192,299137,1,0,0:0:0:0:
320,160,299223,1,0,0:0:0:0:
320,160,299310,1,8,0:0:0:0:
256,160,299396,1,0,0:0:0:0:
224,160,299482,1,8,0:0:0:0:
288,160,299568,1,0,0:0:0:0:
256,128,299654,1,8,0:0:0:0:
352,160,299827,1,0,0:0:0:0:
352,160,299913,1,0,0:0:0:0:
320,160,299999,1,8,0:0:0:0:
320,160,300085,1,0,0:0:0:0:
288,192,300172,1,8,0:0:0:0:
288,192,300344,1,8,0:0:0:0:
416,192,300516,1,0,0:0:0:0:
288,128,300603,1,0,0:0:0:0:
320,224,300689,1,8,0:0:0:0:
288,128,300861,1,0,0:0:0:0:
288,128,300947,1,0,0:0:0:0:
352,160,301034,1,8,0:0:0:0:
384,160,301206,1,0,0:0:0:0:
384,160,301292,1,0,0:0:0:0:
416,160,301379,1,8,0:0:0:0:
480,160,301465,1,0,0:0:0:0:
512,160,301551,1,8,0:0:0:0:
224,224,301723,1,8,0:0:0:0:
256,192,301896,1,0,0:0:0:0:
160,160,302068,1,4,0:0:0:0:
416,192,302241,1,0,0:0:0:0:
352,128,302327,1,0,0:0:0:0:
352,160,302413,1,8,0:0:0:0:
224,192,302585,1,8,0:0:0:0:
256,224,302672,1,0,0:0:0:0:
320,224,302758,1,8,0:0:0:0:
352,192,302844,1,0,0:0:0:0:
352,192,302930,1,0,0:0:0:0:
352,192,303016,1,0,0:0:0:0:
384,192,303103,1,8,0:0:0:0:
288,128,303275,1,0,0:0:0:0:
288,128,303361,1,0,0:0:0:0:
352,160,303447,1,8,0:0:0:0:
320,128,303534,1,0,0:0:0:0:
320,128,303620,1,8,0:0:0:0:
288,224,303706,1,0,0:0:0:0:
288,192,303792,1,8,0:0:0:0:
256,160,303879,1,0,0:0:0:0:
320,192,303965,1,0,0:0:0:0:
320,224,304051,1,0,0:0:0:0:
320,192,304137,1,8,0:0:0:0:
352,192,304223,1,8,0:0:0:0:
352,192,304310,1,8,0:0:0:0:
288,224,304396,1,0,0:0:0:0:
352,192,304482,1,8,0:0:0:0:
320,160,304654,1,0,0:0:0:0:
224,128,304827,1,0,0:0:0:0:
224,128,304913,1,8,0:0:0:0:
256,128,304999,1,0,0:0:0:0:
224,128,305085,1,0,0:0:0:0:
256,96,305172,1,8,0:0:0:0:
256,96,305344,1,0,0:0:0:0:
256,96,305430,1,0,0:0:0:0:
320,128,305516,1,8,0:0:0:0:
320,128,305603,1,8,0:0:0:0:
288,128,305689,1,0,0:0:0:0:
288,128,305775,1,0,0:0:0:0:
256,128,305861,1,8,0:0:0:0:
320,192,306034,1,8,0:0:0:0:
224,128,306120,1,0,0:0:0:0:
320,192,306206,1,0,0:0:0:0:
384,256,306379,1,8,0:0:0:0:
320,256,306465,1,0,0:0:0:0:
320,256,306551,1,8,0:0:0:0:
384,160,306723,1,8,0:0:0:0:
320,128,306810,1,0,0:0:0:0:
352,160,306896,1,8,0:0:0:0:
352,192,306982,1,0,0:0:0:0:
288,160,307068,1,0,0:0:0:0:
320,224,307241,1,8,0:0:0:0:
384,192,307413,1,0,0:0:0:0:
288,160,307585,1,4,0:0:0:0:
160,160,307758,1,0,0:0:0:0:
352,96,307844,1,0,0:0:0:0:
320,128,307930,1,8,0:0:0:0:
288,192,308103,1,0,0:0:0:0:
320,144,308189,1,0,0:0:0:0:
288,256,308275,1,8,0:0:0:0:
288,256,308361,1,8,0:0:0:0:
320,256,308447,1,0,0:0:0:0:
320,256,308534,1,0,0:0:0:0:
320,256,308620,1,8,0:0:0:0:
320,192,308792,1,8,0:0:0:0:
384,160,308879,1,0,0:0:0:0:
352,160,308965,1,8,0:0:0:0:
384,160,309051,1,0,0:0:0:0:
352,160,309137,1,0,0:0:0:0:
352,160,309223,1,0,0:0:0:0:
352,160,309310,1,8,0:0:0:0:
352,160,309396,1,8,0:0:0:0:
352,160,309482,1,0,0:0:0:0:
352,160,309568,1,0,0:0:0:0:
352,160,309654,1,8,0:0:0:0:
256,192,309827,1,8,0:0:0:0:
256,192,309913,1,8,0:0:0:0:
256,160,309999,1,0,0:0:0:0:
256,160,310172,1,0,0:0:0:0:
320,160,310344,1,8,0:0:0:0:
352,160,310430,1,8,0:0:0:0:
320,160,310516,1,0,0:0:0:0:
320,160,310603,1,8,0:0:0:0:
320,160,310689,1,8,0:0:0:0:
320,160,310861,1,0,0:0:0:0:
320,128,310947,1,0,0:0:0:0:
320,128,311034,1,8,0:0:0:0:
128,208,311120,1,0,0:0:0:0:
320,160,311206,1,8,0:0:0:0:
121,203,311379,1,0,0:0:0:0:
320,128,311551,1,8,0:0:0:0:
320,112,311637,1,0,0:0:0:0:
320,128,311723,1,0,0:0:0:0:
320,128,311896,1,8,0:0:0:0:
320,128,311982,1,8,0:0:0:0:
320,112,312068,1,0,0:0:0:0:
320,112,312240,1,8,0:0:0:0:
320,112,312326,1,8,0:0:0:0:
328,119,312413,1,0,0:0:0:0:
316,118,312499,1,8,0:0:0:0:
316,118,312585,1,0,0:0:0:0:
296,201,312758,1,8,0:0:0:0:
296,201,312930,1,0,0:0:0:0:
296,201,313103,1,4,0:0:0:0:
296,201,313361,1,0,0:0:0:0:
296,201,313447,1,8,0:0:0:0:
96,144,313620,1,0,0:0:0:0:
192,112,313792,1,0,0:0:0:0:
192,112,313879,1,0,0:0:0:0:
240,128,313965,1,8,0:0:0:0:
224,128,314051,1,0,0:0:0:0:
240,128,314137,1,8,0:0:0:0:
240,112,314310,1,0,0:0:0:0:
320,144,314396,1,0,0:0:0:0:
320,144,314482,1,8,0:0:0:0:
240,112,314568,1,0,0:0:0:0:
304,160,314655,1,8,0:0:0:0:
240,112,314741,1,0,0:0:0:0:
240,112,314828,1,8,0:0:0:0:
336,144,314913,1,8,0:0:0:0:
336,144,314999,1,0,0:0:0:0:
320,144,315085,1,0,0:0:0:0:
320,144,315172,1,8,0:0:0:0:
160,176,315258,1,8,0:0:0:0:
160,176,315344,1,8,0:0:0:0:
160,176,315430,1,0,0:0:0:0:
160,160,315516,1,8,0:0:0:0:
288,176,315689,1,0,0:0:0:0:
352,128,315861,1,12,0:0:0:0:
336,160,316034,1,0,0:0:0:0:
352,144,316206,1,8,0:0:0:0:
384,160,316379,1,0,0:0:0:0:
352,144,316551,1,8,0:0:0:0:
400,128,316723,1,0,0:0:0:0:
384,144,316896,1,8,0:0:0:0:
400,144,317068,1,0,0:0:0:0:
400,144,317241,1,12,0:0:0:0:
256,144,317413,1,0,0:0:0:0:
272,144,317499,1,0,0:0:0:0:
256,160,317585,1,8,0:0:0:0:
224,192,317758,1,0,0:0:0:0:
224,192,317844,1,0,0:0:0:0:
288,208,317930,1,8,0:0:0:0:
288,208,318016,1,0,0:0:0:0:
304,176,318103,1,8,0:0:0:0:
416,192,318275,1,8,0:0:0:0:
336,160,318447,1,0,0:0:0:0:
336,96,318620,1,12,0:0:0:0:
160,176,318792,1,0,0:0:0:0:
160,176,318879,1,0,0:0:0:0:
192,176,318965,1,8,0:0:0:0:
336,192,319137,1,0,0:0:0:0:
288,144,319223,1,0,0:0:0:0:
336,192,319310,1,8,0:0:0:0:
352,192,319482,1,0,0:0:0:0:
320,128,319568,1,0,0:0:0:0:
384,192,319654,1,8,0:0:0:0:
320,112,319827,1,0,0:0:0:0:
352,144,319913,1,0,0:0:0:0:
352,128,319999,1,8,0:0:0:0:
352,128,320085,1,0,0:0:0:0:
352,128,320172,1,0,0:0:0:0:
336,128,320258,1,8,0:0:0:0:
336,128,320344,1,8,0:0:0:0:
336,128,320430,1,0,0:0:0:0:
352,128,320516,1,8,0:0:0:0:
336,128,320603,1,0,0:0:0:0:
352,128,320689,1,8,0:0:0:0:
352,112,320775,1,8,0:0:0:0:
352,112,320861,1,0,0:0:0:0:
352,112,320947,1,0,0:0:0:0:
352,112,321034,1,8,0:0:0:0:
384,128,321206,1,8,0:0:0:0:
240,160,321379,1,4,0:0:0:0:
240,240,321551,1,0,0:0:0:0:
432,240,321723,1,8,0:0:0:0:
320,192,321896,1,0,0:0:0:0:
320,192,321982,1,0,0:0:0:0:
384,176,322068,1,8,0:0:0:0:
416,176,322154,1,0,0:0:0:0:
416,176,322241,1,0,0:0:0:0:
464,176,322413,1,8,0:0:0:0:
336,272,322758,1,8,0:0:0:0:
272,144,322930,1,0,0:0:0:0:
288,160,323103,1,8,0:0:0:0:
304,176,323275,1,0,0:0:0:0:
304,176,323361,1,0,0:0:0:0:
240,160,323447,1,8,0:0:0:0:
288,160,323534,1,0,0:0:0:0:
288,176,323620,1,0,0:0:0:0:
352,192,323792,1,8,0:0:0:0:
256,240,324137,1,8,0:0:0:0:
336,240,324310,1,0,0:0:0:0:
320,240,324482,1,8,0:0:0:0:
320,240,324654,1,0,0:0:0:0:
320,240,324741,1,0,0:0:0:0:
368,240,324827,1,8,0:0:0:0:
304,256,324913,1,0,0:0:0:0:
336,272,324999,1,0,0:0:0:0:
352,256,325172,1,8,0:0:0:0:
224,176,325344,1,0,0:0:0:0:
224,176,325516,1,8,0:0:0:0:
176,128,325689,1,0,0:0:0:0:
400,176,325861,1,8,0:0:0:0:
384,144,326034,1,0,0:0:0:0:
384,144,326120,1,0,0:0:0:0:
448,192,326206,1,8,0:0:0:0:
144,192,326292,1,0,0:0:0:0:
240,224,326379,1,0,0:0:0:0:
208,144,326551,1,8,0:0:0:0:
448,176,326896,1,8,0:0:0:0:
112,192,327068,1,0,0:0:0:0:
128,192,327241,1,8,0:0:0:0:
192,224,327413,1,0,0:0:0:0:
192,224,327499,1,0,0:0:0:0:
256,192,327585,1,8,0:0:0:0:
192,208,327672,1,0,0:0:0:0:
192,208,327758,1,0,0:0:0:0:
336,192,327930,1,8,0:0:0:0:
304,160,328275,1,8,0:0:0:0:
304,176,328447,1,0,0:0:0:0:
384,160,328620,1,8,0:0:0:0:
192,176,328792,1,0,0:0:0:0:
192,176,328879,1,0,0:0:0:0:
192,176,328965,1,8,0:0:0:0:
192,176,329051,1,0,0:0:0:0:
192,176,329137,1,0,0:0:0:0:
320,176,329310,1,8,0:0:0:0:
160,240,329654,1,8,0:0:0:0:
160,240,329827,1,0,0:0:0:0:
192,240,329999,1,8,0:0:0:0:
192,240,330172,1,0,0:0:0:0:
192,240,330258,1,0,0:0:0:0:
224,240,330344,1,8,0:0:0:0:
224,240,330430,1,8,0:0:0:0:
192,240,330516,1,0,0:0:0:0:
208,256,330689,1,8,0:0:0:0:
176,96,330861,1,0,0:0:0:0:
240,208,331034,1,8,0:0:0:0:
240,208,331206,1,0,0:0:0:0:
288,208,331379,1,8,0:0:0:0:
320,176,331551,1,0,0:0:0:0:
320,176,331637,1,0,0:0:0:0:
400,160,331723,1,8,0:0:0:0:
400,160,331781,1,0,0:0:0:0:
400,160,331838,1,0,0:0:0:0:
368,160,331896,1,8,0:0:0:0:
256,208,331982,1,0,0:0:0:0:
240,144,332068,1,8,0:0:0:0:
240,144,332126,1,8,0:0:0:0:
240,144,332183,1,8,0:0:0:0:
272,144,332241,1,0,0:0:0:0:
384,144,332327,1,0,0:0:0:0:
400,144,332413,1,8,0:0:0:0:
304,208,332585,1,0,0:0:0:0:
320,192,332758,1,8,0:0:0:0:
224,192,332930,1,0,0:0:0:0:
224,192,333016,1,0,0:0:0:0:
240,192,333103,1,8,0:0:0:0:
272,192,333189,1,0,0:0:0:0:
192,192,333275,1,0,0:0:0:0:
272,176,333447,1,8,0:0:0:0:
352,208,333792,1,8,0:0:0:0:
352,208,333965,1,0,0:0:0:0:
416,224,334137,1,8,0:0:0:0:
272,192,334310,1,0,0:0:0:0:
272,192,334396,1,0,0:0:0:0:
272,176,334482,1,8,0:0:0:0:
336,192,334568,1,0,0:0:0:0:
272,192,334654,1,0,0:0:0:0:
320,176,334827,1,8,0:0:0:0:
400,224,335172,1,8,0:0:0:0:
384,224,335344,1,0,0:0:0:0:
416,240,335516,1,8,0:0:0:0:
192,176,335689,1,0,0:0:0:0:
192,176,335775,1,0,0:0:0:0:
192,176,335861,1,8,0:0:0:0:
192,176,335947,1,0,0:0:0:0:
144,176,336034,1,0,0:0:0:0:
208,176,336206,1,8,0:0:0:0:
224,176,336379,1,0,0:0:0:0:
96,176,336551,1,8,0:0:0:0:
304,208,336723,1,0,0:0:0:0:
304,208,336810,1,0,0:0:0:0:
288,224,336896,1,8,0:0:0:0:
352,240,337068,1,8,0:0:0:0:
448,208,337154,1,8,0:0:0:0:
368,144,337241,1,0,0:0:0:0:
368,144,337327,1,0,0:0:0:0:
384,160,337413,1,8,0:0:0:0:
368,144,337499,1,0,0:0:0:0:
368,144,337585,1,8,0:0:0:0:
336,208,337758,1,0,0:0:0:0:
448,160,337930,1,8,0:0:0:0:
176,256,338103,1,0,0:0:0:0:
352,208,338189,1,0,0:0:0:0:
256,192,338275,1,8,0:0:0:0:
288,144,338447,1,0,0:0:0:0:
288,144,338534,1,0,0:0:0:0:
240,144,338620,1,8,0:0:0:0:
272,160,338706,1,0,0:0:0:0:
336,256,338792,1,0,0:0:0:0:
224,144,338965,1,8,0:0:0:0:
288,208,339310,1,8,0:0:0:0:
416,208,339482,1,0,0:0:0:0:
288,288,339568,1,0,0:0:0:0:
320,288,339654,1,8,0:0:0:0:
304,176,339827,1,0,0:0:0:0:
352,192,339913,1,0,0:0:0:0:
352,192,339999,1,8,0:0:0:0:
272,224,340085,1,0,0:0:0:0:
336,256,340172,1,0,0:0:0:0:
464,176,340344,1,8,0:0:0:0:
160,160,340689,1,0,0:0:0:0:
160,160,340775,1,0,0:0:0:0:
320,208,340861,1,8,0:0:0:0:
304,224,340947,1,0,0:0:0:0:
384,256,341034,1,8,0:0:0:0:
384,256,341120,1,8,0:0:0:0:
304,224,341206,1,0,0:0:0:0:
304,224,341292,1,0,0:0:0:0:
400,160,341379,1,8,0:0:0:0:
400,160,341465,1,8,0:0:0:0:
400,160,341551,1,8,0:0:0:0:
304,224,341637,1,0,0:0:0:0:
416,160,341723,1,8,0:0:0:0:
304,224,341810,1,0,0:0:0:0:
352,208,341896,1,8,0:0:0:0:
352,192,341982,1,8,0:0:0:0:
352,192,342068,1,0,0:0:0:0:
304,224,342154,1,0,0:0:0:0:
384,224,342241,1,8,0:0:0:0:
304,224,342327,1,0,0:0:0:0:
384,224,342413,1,8,0:0:0:0:
304,224,342499,1,0,0:0:0:0:
304,224,342585,1,0,0:0:0:0:
304,224,342672,1,0,0:0:0:0:
432,224,342758,1,8,0:0:0:0:
240,160,342815,1,0,0:0:0:0:
240,160,342873,1,0,0:0:0:0:
256,160,342930,1,8,0:0:0:0:
368,160,343016,1,0,0:0:0:0:
272,96,343103,1,8,0:0:0:0:
272,96,343160,1,8,0:0:0:0:
272,96,343218,1,8,0:0:0:0:
272,96,343275,1,0,0:0:0:0:
272,96,343361,1,0,0:0:0:0:
272,96,343447,1,8,0:0:0:0:
