osu file format v14

[General]
AudioFilename: audio.mp3
AudioLeadIn: 0
PreviewTime: 275863
Countdown: 0
SampleSet: Soft
StackLeniency: 0.9
Mode: 0
LetterboxInBreaks: 0
WidescreenStoryboard: 0

[Editor]
Bookmarks: 1381,12415,23449,34484,45518,56553,67587,78622,89656,100691,111725,122760,133794,144829,155863,166898,177932,188967,200001,211036,222070,233105,244139,255174,266208,277243,288277,299312,310346,321381,332415,343449
DistanceSpacing: 0.8
BeatDivisor: 4
GridSize: 16
TimelineZoom: 2.3

[Metadata]
Title:Feelin Sky
TitleUnicode:Feelin Sky
Artist:Camellia & DJ Genki
ArtistUnicode:かめりあ & DJ Genki
Creator:Daycore
Version:Ascension to Heaven
Source:
Tags:fa featured artist mappers' guild mg mpg hivie electronic instrumental dnb drum and bass feeling starry orange drumstep feelin' kamel kamelcamellia c86 comiket 86 cametek 'n'
BeatmapID:4242237
BeatmapSetID:2034706

[Difficulty]
HPDrainRate:5
CircleSize:7
OverallDifficulty:9
ApproachRate:9.3
SliderMultiplier:1.8
SliderTickRate:1

[Events]
//Background and Video events
0,0,"bg.jpg",0,0
//Break Periods
2,92615,99447
2,222270,231861
//Storyboard Layer 0 (Background)
//Storyboard Layer 1 (Fail)
//Storyboard Layer 2 (Pass)
//Storyboard Layer 3 (Foreground)
//Storyboard Layer 4 (Overlay)
//Storyboard Sound Samples

[TimingPoints]
2,344.827586206897,4,2,1,50,1,8
1381,344.827586206897,4,2,1,50,1,0
1381,-142.857142857143,4,2,1,50,0,0
2329,-142.857142857143,4,2,1,5,0,0
2415,-142.857142857143,4,2,1,50,0,0
2674,-142.857142857143,4,2,1,5,0,0
2760,-142.857142857143,4,2,1,50,0,0
3277,-142.857142857143,4,2,1,5,0,0
3363,-142.857142857143,4,2,1,50,0,0
3536,-142.857142857143,4,2,1,50,0,0
3622,-142.857142857143,4,2,1,50,0,0
3708,-142.857142857143,4,2,1,5,0,0
3794,-142.857142857143,4,2,1,50,0,0
4053,-142.857142857143,4,2,1,5,0,0
4139,-117.647058823529,4,2,1,50,0,0
4398,-117.647058823529,4,2,1,5,0,0
4484,-133.333333333333,4,2,1,50,0,0
5949,-133.333333333333,4,2,1,50,0,0
6036,-133.333333333333,4,2,1,50,0,0
6898,-125,4,2,1,52,0,0
7156,-125,4,2,1,5,0,0
7243,-125,4,2,1,52,0,0
7415,-125,4,2,1,5,0,0
7501,-125,4,2,1,52,0,0
7674,-125,4,2,1,52,0,0
7760,-125,4,2,1,52,0,0
7846,-125,4,2,1,5,0,0
7932,-125,4,2,1,52,0,0
8277,-125,4,2,1,54,0,0
8536,-125,4,2,1,5,0,0
8622,-125,4,2,1,54,0,0
9053,-125,4,2,1,54,0,0
9139,-125,4,2,1,54,0,0
9656,-117.647058823529,4,2,1,56,0,0
11036,-117.647058823529,4,2,1,58,0,0
11294,-117.647058823529,4,2,1,5,0,0
11381,-117.647058823529,4,2,1,58,0,0
12415,-111.111111111111,4,2,1,60,0,0
13708,-111.111111111111,4,2,1,5,0,0
13794,-111.111111111111,4,2,1,62,0,0
14312,-111.111111111111,4,2,1,5,0,0
14398,-111.111111111111,4,2,1,62,0,0
14570,-111.111111111111,4,2,1,62,0,0
14656,-111.111111111111,4,2,1,62,0,0
15087,-111.111111111111,4,2,1,5,0,0
15174,-111.111111111111,4,2,1,65,0,0
15432,-111.111111111111,4,2,1,5,0,0
15518,-111.111111111111,4,2,1,65,0,0
16467,-111.111111111111,4,2,1,5,0,0
16553,-111.111111111111,4,2,1,67,0,0
17070,-111.111111111111,4,2,1,5,0,0
17156,-111.111111111111,4,2,1,67,0,0
17329,-111.111111111111,4,2,1,67,0,0
17415,-111.111111111111,4,2,1,67,0,0
17932,-111.111111111111,4,2,1,70,0,0
19570,-111.111111111111,4,2,1,5,0,0
19656,-111.111111111111,4,2,1,70,0,0
23105,-100,4,2,1,70,0,0
23363,-100,4,2,1,5,0,0
23449,-100,4,2,1,80,0,0
29225,-100,4,2,1,5,0,0
29312,-100,4,2,1,80,0,0
31984,-100,4,2,1,5,0,0
32070,-100,4,2,1,80,0,0
34743,-100,4,2,1,5,0,0
34829,-100,4,2,1,80,0,0
35346,-142.857142857143,4,2,1,80,0,0
35518,-100,4,2,1,80,0,0
35777,-100,4,2,1,5,0,0
35863,-100,4,2,1,80,0,0
36122,-100,4,2,1,5,0,0
36208,-100,4,2,1,80,0,0
36725,-133.333333333333,4,2,1,80,0,0
36898,-100,4,2,1,80,0,0
37156,-100,4,2,1,5,0,0
37243,-100,4,2,1,80,0,0
37501,-100,4,2,1,5,0,0
37587,-100,4,2,1,80,0,0
38105,-125,4,2,1,80,0,0
38277,-100,4,2,1,80,0,0
38536,-100,4,2,1,5,0,0
38622,-100,4,2,1,80,0,0
38881,-100,4,2,1,5,0,0
38967,-100,4,2,1,80,0,0
39484,-117.647058823529,4,2,1,80,0,0
39656,-100,4,2,1,80,0,0
40001,-100,4,2,1,85,0,0
44139,-100,4,2,1,75,0,0
45001,-133.333333333333,4,2,1,75,0,0
45518,-90.9090909090909,4,2,1,90,0,0
45777,-90.9090909090909,4,2,1,5,0,0
45863,-90.9090909090909,4,2,1,90,0,0
47156,-90.9090909090909,4,2,1,5,0,0
47242,-90.9090909090909,4,2,1,90,0,0
48536,-90.9090909090909,4,2,1,5,0,0
48622,-90.9090909090909,4,2,1,90,0,0
51294,-90.9090909090909,4,2,1,5,0,0
51380,-90.9090909090909,4,2,1,90,0,0
52674,-90.9090909090909,4,2,1,5,0,0
52760,-90.9090909090909,4,2,1,90,0,0
54053,-90.9090909090909,4,2,1,5,0,0
54139,-90.9090909090909,4,2,1,90,0,0
56812,-90.9090909090909,4,2,1,5,0,0
56898,-90.9090909090909,4,2,1,90,0,0
58191,-90.9090909090909,4,2,1,5,0,0
58277,-90.9090909090909,4,2,1,90,0,0
59570,-90.9090909090909,4,2,1,5,0,0
59656,-90.9090909090909,4,2,1,90,0,0
62329,-90.9090909090909,4,2,1,5,0,0
62415,-90.9090909090909,4,2,1,90,0,0
63708,-90.9090909090909,4,2,1,5,0,0
63794,-90.9090909090909,4,2,1,90,0,0
65087,-90.9090909090909,4,2,1,5,0,0
65173,-90.9090909090909,4,2,1,90,0,0
67587,-80,4,2,1,90,0,0
67846,-80,4,2,1,5,0,0
67932,-90.9090909090909,4,2,1,90,0,0
69225,-90.9090909090909,4,2,1,5,0,0
69311,-90.9090909090909,4,2,1,90,0,0
70605,-90.9090909090909,4,2,1,5,0,0
70691,-90.9090909090909,4,2,1,90,0,0
73363,-90.9090909090909,4,2,1,5,0,0
73449,-90.9090909090909,4,2,1,90,0,0
74743,-90.9090909090909,4,2,1,5,0,0
74829,-90.9090909090909,4,2,1,90,0,0
76122,-90.9090909090909,4,2,1,5,0,0
76208,-90.9090909090909,4,2,1,90,0,0
78881,-90.9090909090909,4,2,1,5,0,0
78967,-90.9090909090909,4,2,1,90,0,0
80260,-90.9090909090909,4,2,1,5,0,0
80346,-90.9090909090909,4,2,1,90,0,0
81639,-90.9090909090909,4,2,1,5,0,0
81725,-90.9090909090909,4,2,1,90,0,0
84398,-90.9090909090909,4,2,1,5,0,0
84484,-90.9090909090909,4,2,1,90,0,0
86898,-153.846153846153,4,2,2,90,0,0
87243,-142.857142857143,4,2,2,90,0,0
87587,-133.333333333333,4,2,2,90,0,0
87932,-125,4,2,2,90,0,0
88277,-117.647058823529,4,2,2,90,0,0
88622,-111.111111111111,4,2,2,90,0,0
88967,-105.263157894737,4,2,2,90,0,0
89312,-100,4,2,2,90,0,0
89656,-100,4,2,1,70,0,0
100001,-181.818181818181,4,2,1,70,0,0
100691,-117.647058823529,4,2,1,70,0,0
111725,-133.333333333333,4,2,1,60,0,0
114743,-133.333333333333,4,2,1,5,0,0
114829,-133.333333333333,4,2,1,60,0,0
116898,-250,4,2,1,60,0,0
117243,-133.333333333333,4,2,1,60,0,0
120001,-250,4,2,1,60,0,0
122760,-125,4,2,1,70,0,0
123449,-200,4,2,1,70,0,0
123794,-125,4,2,1,70,0,0
124139,-125,4,2,1,73,0,0
124829,-181.818181818182,4,2,1,73,0,0
125174,-125,4,2,1,73,0,0
125518,-125,4,2,1,76,0,0
126208,-166.666666666667,4,2,1,76,0,0
126553,-125,4,2,1,76,0,0
126898,-125,4,2,1,80,0,0
127587,-153.846153846154,4,2,1,80,0,0
127932,-125,4,2,1,80,0,0
128277,-125,4,2,1,85,0,0
133794,-50,4,2,1,95,0,0
134139,-83.3333333333333,4,2,1,95,0,0
135863,-133.333333333333,4,2,1,95,0,0
136036,-40,4,2,1,95,0,0
136208,-133.333333333333,4,2,1,95,0,0
136381,-50,4,2,1,95,0,0
136553,-66.6666666666667,4,2,1,95,0,0
137070,-100,4,2,1,95,0,0
137243,-133.333333333333,4,2,1,95,0,0
138794,-76.9230769230769,4,2,1,95,0,0
138967,-100,4,2,1,95,0,0
139139,-133.333333333333,4,2,1,95,0,0
139312,-76.9230769230769,4,2,1,95,0,0
139570,-76.9230769230769,4,2,1,5,0,0
139656,-76.9230769230769,4,2,1,95,0,0
139915,-76.9230769230769,4,2,1,5,0,0
140001,-100,4,2,1,95,0,0
144829,-50,4,2,1,95,0,0
145174,-100,4,2,1,95,0,0
147415,-58.8235294117647,4,2,1,95,0,0
147846,-58.8235294117647,4,2,1,5,0,0
147932,-58.8235294117647,4,2,1,95,0,0
148191,-58.8235294117647,4,2,1,5,0,0
148277,-58.8235294117647,4,2,1,95,0,0
149139,-83.3333333333333,4,2,1,95,0,0
150605,-83.3333333333333,4,2,1,5,0,0
150691,-83.3333333333333,4,2,1,95,0,0
150949,-83.3333333333333,4,2,1,5,0,0
151036,-83.3333333333333,4,2,1,95,0,0
151725,-66.6666666666667,4,2,1,95,0,0
151898,-50,4,2,1,95,0,0
152415,-43.4782608695652,4,2,1,95,0,0
152760,-50,4,2,1,95,0,0
153105,-83.3333333333333,4,2,1,95,0,0
155863,-58.8235294117647,4,2,1,95,0,0
156122,-58.8235294117647,4,2,1,5,0,0
156208,-43.4782608695652,4,2,1,95,0,0
156553,-66.6666666666667,4,2,1,95,0,0
157243,-50,4,2,1,95,0,0
157501,-50,4,2,1,5,0,0
157587,-50,4,2,1,95,0,0
157932,-58.8235294117647,4,2,1,95,0,0
158277,-47.6190476190476,4,2,1,95,0,0
158536,-47.6190476190476,4,2,1,5,0,0
158622,-66.6666666666667,4,2,1,95,0,0
159312,-45.4545454545455,4,2,1,95,0,0
159484,-45.4545454545455,4,2,1,5,0,0
159570,-52.6315789473684,4,2,1,95,0,0
159743,-52.6315789473684,4,2,1,5,0,0
159829,-52.6315789473684,4,2,1,95,0,0
160174,-52.6315789473684,4,2,1,5,0,0
160260,-62.5,4,2,1,95,0,0
160432,-62.5,4,2,1,5,0,0
160518,-62.5,4,2,1,95,0,0
161725,-52.6315789473684,4,2,1,95,0,0
163105,-71.4285714285714,4,2,1,95,0,0
163449,-45.4545454545455,4,2,1,95,0,0
164053,-45.4545454545455,4,2,1,5,0,0
164139,-41.6666666666667,4,2,1,95,0,0
164570,-58.8235294117647,4,2,1,5,0,0
164656,-58.8235294117647,4,2,1,95,0,0
165001,-66.6666666666667,4,2,1,95,0,0
165174,-50,4,2,1,95,0,0
165863,-45.4545454545455,4,2,1,95,0,0
166208,-55.5555555555556,4,2,1,95,0,0
166381,-55.5555555555556,4,2,1,5,0,0
166467,-55.5555555555556,4,2,1,95,0,0
166639,-55.5555555555556,4,2,1,5,0,0
166725,-55.5555555555556,4,2,1,95,0,0
166898,-66.6666666666667,4,2,1,95,0,0
167156,-66.6666666666667,4,2,1,5,0,0
167243,-50,4,2,1,95,0,0
167587,-58.8235294117647,4,2,1,95,0,0
168449,-45.4545454545455,4,2,1,95,0,0
169312,-55.5555555555556,4,2,1,95,0,0
169829,-55.5555555555556,4,2,1,5,0,0
169915,-43.4782608695652,4,2,1,95,0,0
170518,-43.4782608695652,4,2,1,95,0,0
170605,-62.5,4,2,1,95,0,0
170777,-62.5,4,2,1,5,0,0
170863,-62.5,4,2,1,95,0,0
176553,-111.111111111111,4,2,2,95,0,0
177932,-76.9230769230769,4,2,1,90,0,0
178191,-76.9230769230769,4,2,1,5,0,0
178277,-76.9230769230769,4,2,1,90,0,0
179570,-76.9230769230769,4,2,1,5,0,0
179656,-76.9230769230769,4,2,1,90,0,0
180949,-76.9230769230769,4,2,1,5,0,0
181035,-76.9230769230769,4,2,1,90,0,0
183708,-76.9230769230769,4,2,1,5,0,0
183794,-76.9230769230769,4,2,1,90,0,0
185087,-76.9230769230769,4,2,1,5,0,0
185173,-76.9230769230769,4,2,1,90,0,0
186467,-76.9230769230769,4,2,1,5,0,0
186553,-76.9230769230769,4,2,1,90,0,0
189225,-76.9230769230769,4,2,1,5,0,0
189311,-76.9230769230769,4,2,1,90,0,0
190605,-76.9230769230769,4,2,1,5,0,0
190691,-76.9230769230769,4,2,1,90,0,0
191984,-76.9230769230769,4,2,1,5,0,0
192070,-76.9230769230769,4,2,1,90,0,0
194743,-76.9230769230769,4,2,1,5,0,0
194829,-76.9230769230769,4,2,1,90,0,0
196122,-76.9230769230769,4,2,1,5,0,0
196208,-76.9230769230769,4,2,1,90,0,0
197243,-100,4,2,2,90,0,0
200001,-76.9230769230769,4,2,1,90,0,0
200260,-76.9230769230769,4,2,1,5,0,0
200346,-76.9230769230769,4,2,1,90,0,0
203018,-76.9230769230769,4,2,1,5,0,0
203104,-76.9230769230769,4,2,1,90,0,0
204225,-76.9230769230769,4,2,1,5,0,0
204311,-76.9230769230769,4,2,1,90,0,0
205777,-76.9230769230769,4,2,1,5,0,0
205863,-76.9230769230769,4,2,1,90,0,0
208536,-76.9230769230769,4,2,1,5,0,0
208622,-76.9230769230769,4,2,1,90,0,0
211294,-76.9230769230769,4,2,1,5,0,0
211380,-76.9230769230769,4,2,1,90,0,0
214053,-76.9230769230769,4,2,1,5,0,0
214139,-76.9230769230769,4,2,1,90,0,0
220691,-100,4,2,1,90,0,0
222070,-100,4,2,1,70,0,0
232415,-133.333333333333,4,2,1,70,0,0
232760,-100,4,2,1,70,0,0
233105,-166.666666666667,4,2,1,60,0,0
235863,-133.333333333333,4,2,1,60,0,0
238277,-200,4,2,1,60,0,0
238622,-153.846153846154,4,2,1,60,0,0
241381,-125,4,2,1,60,0,0
246553,-166.666666666667,4,2,1,60,0,0
246898,-111.111111111111,4,2,1,60,0,0
249312,-105.263157894737,4,2,1,60,0,0
249484,-95.238095238095,4,2,1,60,0,0
249656,-105.263157894737,4,2,1,60,0,0
255174,-95.2380952380954,4,2,1,70,0,0
266208,-105.263157894737,4,2,1,70,0,0
268967,-105.263157894737,4,2,1,75,0,0
270346,-105.263157894737,4,2,1,80,0,0
271725,-105.263157894737,4,2,1,85,0,0
276898,-62.5,4,2,1,85,0,0
277156,-62.5,4,2,1,5,0,0
277243,-62.5,4,2,1,90,0,0
277587,-66.6666666666667,4,2,1,90,0,1
280260,-66.6666666666667,4,2,1,5,0,1
280346,-66.6666666666667,4,2,1,90,0,1
294053,-66.6666666666667,4,2,1,5,0,1
294139,-66.6666666666667,4,2,1,90,0,1
296553,-66.6666666666667,4,2,2,90,0,1
299312,-66.6666666666667,4,2,1,95,0,1
299570,-66.6666666666667,4,2,1,5,0,1
299656,-66.6666666666667,4,2,1,95,0,1
302329,-66.6666666666667,4,2,1,5,0,1
302415,-66.6666666666667,4,2,1,95,0,1
303536,-66.6666666666667,4,2,1,5,0,1
303622,-66.6666666666667,4,2,1,95,0,1
305087,-66.6666666666667,4,2,1,5,0,1
305173,-66.6666666666667,4,2,1,95,0,1
307846,-66.6666666666667,4,2,1,5,0,1
307932,-66.6666666666667,4,2,1,95,0,1
309656,-100,4,2,1,95,0,1
310346,-66.6666666666667,4,2,1,95,0,1
310605,-66.6666666666667,4,2,1,5,0,1
310691,-66.6666666666667,4,2,1,95,0,1
313363,-66.6666666666667,4,2,1,5,0,1
313449,-66.6666666666667,4,2,1,95,0,1
321381,-90.9090909090909,4,2,1,80,0,0
332415,-117.647058823529,4,2,1,70,0,0
340691,-117.647058823529,4,2,2,65,0,0
343449,-117.647058823529,4,2,1,60,0,0

[Colours]
Combo1 : 249,81,0
Combo2 : 255,128,64
Combo3 : 255,128,0
Combo4 : 255,169,128

[HitObjects]
146,293,1381,6,0,L|126:212,1,62.9999980773926,2|2,3:2|0:0,0:0:0:0:
126,227,1639,1,0,0:0:0:0:
121,222,1725,2,0,L|109:177,1,31.4999990386963,10|2,0:0|0:0,0:0:0:0:
146,147,1898,5,0,0:0:0:0:
146,147,1984,1,2,0:0:0:0:
217,43,2156,1,2,0:0:0:0:
217,43,2243,2,0,L|209:93,1,31.4999990386963,0|0,3:0|0:0,0:0:0:0:
175,105,2415,2,0,B|189:111|196:127|196:127|268:112,1,94.499997116089,8|0,0:0|0:0,0:0:0:0:
353,58,2760,6,0,B|368:56|383:68|383:68|365:61|341:73,1,62.9999980773926,2|2,3:2|0:0,0:0:0:0:
371,117,3018,1,0,0:0:0:0:
371,117,3105,2,0,P|377:153|395:204,1,62.9999980773926,10|0,0:0|0:0,0:0:0:0:
332,200,3363,2,0,P|326:164|308:113,1,62.9999980773926,2|2,0:0|0:0,0:0:0:0:
437,177,3622,2,0,P|434:200|417:214,1,31.4999990386963,0|0,3:0|0:0,0:0:0:0:
384,237,3794,6,0,B|357:238|339:282|360:246|359:299|311:304,1,94.499997116089,8|0,0:0|0:0,0:0:0:0:
402,296,4139,6,0,B|374:307|335:271|373:283|338:231|296:262,1,114.750002188683,2|0,3:2|0:0,0:0:0:0:
264,289,4484,2,0,P|236:303|182:276,1,67.5000025749208,10|0,0:0|0:0,0:0:0:0:
201,296,4743,1,2,0:0:0:0:
201,296,4829,1,2,0:0:0:0:
227,251,5001,1,0,3:0:0:0:
194,191,5174,1,8,0:0:0:0:
185,215,5346,1,2,0:0:0:0:
114,251,5518,6,0,L|100:168,1,67.5000025749208,2|2,3:2|0:0,0:0:0:0:
97,180,5777,1,0,0:0:0:0:
91,175,5863,2,0,P|59:182|53:203,1,33.7500012874604,10|2,0:0|0:0,0:0:0:0:
58,234,6036,1,0,0:0:0:0:
58,234,6122,1,2,0:0:0:0:
21,346,6294,6,0,B|14:330|14:330|37:312,1,33.7500012874604,2|0,0:0|3:0,0:0:0:0:
36,306,6467,1,0,0:0:0:0:
48,312,6553,1,8,0:0:0:0:
103,370,6725,1,2,3:2:0:0:
146,330,6898,6,0,B|173:328|201:291|159:313|203:248|247:280,1,108,2|0,3:2|0:0,0:0:0:0:
228,322,7243,2,0,P|185:288|148:273,1,72,10|0,0:0|0:0,0:0:0:0:
216,225,7501,2,0,P|259:259|296:274,1,72,2|2,0:0|0:0,0:0:0:0:
155,231,7760,2,0,B|154:224|149:214|149:214|159:220|176:223,1,36,0|0,3:0|0:0,0:0:0:0:
233,163,7932,1,8,0:0:0:0:
181,173,8105,1,2,0:0:0:0:
119,116,8277,6,0,B|98:112|94:69|142:57|145:66|145:66|149:86|173:95,1,108,2|0,3:2|0:0,0:0:0:0:
191,51,8622,2,0,P|217:38|213:-11,1,72,10|0,0:0|0:0,0:0:0:0:
282,54,8881,1,2,0:0:0:0:
277,58,8967,2,0,P|258:52|237:51,1,36,2|2,0:0|0:0,0:0:0:0:
280,0,9139,2,0,P|299:6|320:7,1,36,0|0,3:0|0:0,0:0:0:0:
363,31,9312,1,8,0:0:0:0:
440,7,9484,1,2,0:0:0:0:
477,44,9656,6,0,B|485:61|498:67|498:67|487:110,1,76.5000014591217,2|2,3:2|0:0,0:0:0:0:
476,123,9915,1,0,0:0:0:0:
484,137,10001,1,10,0:0:0:0:
443,181,10174,1,0,0:0:0:0:
491,219,10346,1,2,0:0:0:0:
500,232,10432,1,2,0:0:0:0:
491,248,10518,1,0,3:0:0:0:
418,300,10691,2,0,B|433:298|442:285|442:285|505:310,1,76.5000014591217,8|2,0:0|0:0,0:0:0:0:
450,344,10949,1,0,0:0:0:0:
445,350,11036,6,0,B|424:356|381:333|422:329|382:283|333:308,1,114.750002188683,2|0,3:2|0:0,0:0:0:0:
318,342,11381,2,0,B|303:331|300:314|300:314|229:323,1,76.5000014591217,10|0,0:0|0:0,0:0:0:0:
253,325,11639,1,2,0:0:0:0:
248,331,11725,2,0,P|234:300|232:283,1,38.2500007295609,2|2,0:0|0:0,0:0:0:0:
169,283,11898,2,0,P|183:314|185:331,1,38.2500007295609,0|0,3:0|0:0,0:0:0:0:
149,363,12070,1,8,0:0:0:0:
75,296,12243,1,2,3:2:0:0:
98,344,12415,6,0,L|120:229,1,80.9999975280763,2|2,3:2|0:0,0:0:0:0:
110,256,12674,1,0,0:0:0:0:
107,248,12760,2,0,P|114:223|140:212,1,40.4999987640381,10|2,0:0|0:0,0:0:0:0:
164,179,12932,1,0,0:0:0:0:
173,185,13018,1,2,0:0:0:0:
115,132,13191,5,2,0:0:0:0:
125,124,13277,2,0,P|145:107|171:117,1,40.4999987640381,0|0,3:0|0:0,0:0:0:0:
209,112,13449,2,0,B|209:141|184:155|184:155|215:224,1,121.499996292114,8|0,0:0|0:0,0:0:0:0:
231,291,13794,6,0,B|233:240|265:268|267:203,1,80.9999975280763,2|2,3:2|0:0,0:0:0:0:
296,179,14053,1,0,0:0:0:0:
298,174,14139,2,0,P|317:161|361:198,1,80.9999975280763,10|0,0:0|0:0,0:0:0:0:
361,243,14398,2,0,P|387:270|423:257,1,80.9999975280763,2|2,0:0|0:0,0:0:0:0:
450,210,14656,1,0,3:0:0:0:
509,109,14829,2,0,B|474:114|474:114|471:122|471:122|386:134,1,121.499996292114,8|0,0:0|0:0,0:0:0:0:
406,26,15174,6,0,B|460:44|460:44|431:101,1,121.499996292114,2|0,3:2|0:0,0:0:0:0:
402,33,15518,2,0,L|312:58,1,80.9999975280763,10|0,0:0|0:0,0:0:0:0:
315,53,15777,1,2,0:0:0:0:
306,52,15863,2,0,P|283:69|281:90,1,40.4999987640381,2|2,0:0|0:0,0:0:0:0:
326,137,16036,2,0,L|279:128,1,40.4999987640381,0|0,3:0|0:0,0:0:0:0:
225,68,16208,2,0,B|186:68|152:111|178:92|174:129|127:143,1,121.499996292114,8|0,0:0|0:0,0:0:0:0:
122,92,16553,6,0,P|181:116|204:132,1,80.9999975280763,2|2,3:2|0:0,0:0:0:0:
198,132,16812,1,2,0:0:0:0:
201,139,16898,2,0,P|212:186|178:201,1,80.9999975280763,10|0,0:0|0:0,0:0:0:0:
148,228,17156,2,0,P|89:204|66:188,1,80.9999975280763,2|2,0:0|0:0,0:0:0:0:
24,200,17415,1,0,3:0:0:0:
53,301,17587,1,8,0:0:0:0:
98,271,17760,1,2,3:2:0:0:
157,364,17932,6,0,P|212:353|205:304,1,80.9999975280763,2|2,3:2|0:0,0:0:0:0:
213,319,18191,1,2,0:0:0:0:
222,305,18277,2,0,L|313:314,1,80.9999975280763,10|0,0:0|0:0,0:0:0:0:
309,308,18536,1,2,0:0:0:0:
315,303,18622,1,2,0:0:0:0:
321,298,18708,1,2,0:0:0:0:
327,293,18794,1,0,3:0:0:0:
347,242,18967,1,8,0:0:0:0:
428,214,19139,1,2,0:0:0:0:
465,303,19312,6,0,B|473:283|494:275|494:275|478:185,1,121.499996292114,2|0,3:2|0:0,0:0:0:0:
480,146,19656,2,0,B|461:142|461:142|455:147|455:147|389:136,1,80.9999975280763,10|0,0:0|0:0,0:0:0:0:
395,132,19915,1,2,0:0:0:0:
388,126,20001,1,2,0:0:0:0:
381,120,20087,1,2,0:0:0:0:
374,114,20174,1,0,3:0:0:0:
379,64,20346,1,8,0:0:0:0:
447,43,20518,1,2,0:0:0:0:
324,3,20691,6,0,L|244:10,1,80.9999975280763,10|10,3:3|0:3,0:0:0:0:
197,35,20949,1,8,0:3:0:0:
191,41,21036,2,0,L|196:97,3,40.4999987640381,8|10|8|8,0:3|0:3|0:3|0:3,0:0:0:0:
116,125,21381,6,0,L|196:132,1,80.9999975280763,8|8,0:3|0:3,0:0:0:0:
243,157,21639,1,8,0:3:0:0:
249,163,21725,2,0,L|244:219,3,40.4999987640381,8|8|8|8,0:3|0:3|0:3|0:3,0:0:0:0:
277,257,22070,5,4,3:3:0:0:
272,276,22156,1,0,3:2:0:0:
257,290,22243,1,4,3:3:0:0:
238,293,22329,1,0,3:2:0:0:
219,286,22415,1,4,3:3:0:0:
200,278,22501,1,0,3:2:0:0:
181,282,22587,1,4,3:3:0:0:
166,295,22674,1,0,3:2:0:0:
161,315,22760,1,4,3:3:0:0:
156,334,22846,1,0,3:2:0:0:
141,348,22932,1,4,3:3:0:0:
122,351,23018,1,0,3:2:0:0:
103,344,23105,6,0,B|164:337|164:337|209:333|185:362|245:349,1,135,12|0,0:1|0:0,0:0:0:0:
261,296,23449,6,0,P|303:289|318:350,1,90,4|0,3:2|0:0,0:0:0:0:
326,324,23708,1,0,0:0:0:0:
326,324,23794,1,8,0:0:0:0:
404,278,23967,5,2,0:2:0:0:
401,288,24053,1,2,0:2:0:0:
398,299,24139,1,2,0:2:0:0:
396,310,24225,1,2,0:2:0:0:
393,321,24312,5,2,3:2:0:0:
451,312,24484,1,8,0:0:0:0:
384,230,24656,1,0,0:0:0:0:
421,189,24829,6,0,L|513:204,1,90,0|0,3:2|0:0,0:0:0:0:
509,203,25087,1,0,0:0:0:0:
509,203,25174,1,8,0:0:0:0:
470,93,25346,5,2,0:2:0:0:
458,92,25432,1,2,0:2:0:0:
448,95,25518,1,2,0:2:0:0:
439,103,25605,1,2,0:2:0:0:
435,113,25691,5,2,3:2:0:0:
482,144,25863,1,8,0:0:0:0:
367,183,26036,1,0,0:0:0:0:
344,178,26122,1,0,0:0:0:0:
327,193,26208,6,0,B|312:192|297:214|297:214|277:189|245:189,1,90,0|0,3:2|0:0,0:0:0:0:
252,189,26467,1,0,0:0:0:0:
252,189,26553,1,8,0:0:0:0:
189,110,26725,5,2,0:2:0:0:
190,121,26812,1,2,0:2:0:0:
192,132,26898,1,2,0:2:0:0:
194,143,26984,1,2,0:2:0:0:
196,154,27070,1,2,3:2:0:0:
247,123,27243,1,8,0:0:0:0:
160,55,27415,5,0,0:0:0:0:
160,55,27501,2,0,P|164:33|200:20,1,45
194,7,27674,1,0,0:0:0:0:
210,12,27760,1,0,3:2:0:0:
134,130,27932,6,0,B|113:131|104:143|104:143|38:111,1,90,8|2,0:0|0:2,0:0:0:0:
53,109,28191,1,2,0:2:0:0:
52,100,28277,1,2,0:2:0:0:
51,91,28363,1,2,0:2:0:0:
51,82,28449,1,2,3:2:0:0:
95,48,28622,1,8,0:0:0:0:
8,4,28794,1,0,3:0:0:0:
5,170,28967,6,0,B|35:148|93:165|49:191|113:207|148:176,1,135,0|0,3:2|0:0,0:0:0:0:
107,141,29312,2,0,P|66:169|39:221,1,90,8|2,0:0|0:2,0:0:0:0:
12,247,29570,1,2,0:2:0:0:
16,252,29656,2,0,P|46:261|63:246,1,45,2|2,0:2|0:2,0:0:0:0:
93,219,29829,1,2,3:2:0:0:
175,347,30001,2,0,P|175:287|212:272,1,90,8|0,0:0|0:0,0:0:0:0:
183,361,30260,1,0,0:0:0:0:
183,361,30346,6,0,L|91:346,1,90,0|0,3:2|0:0,0:0:0:0:
242,304,30691,2,0,P|243:332|221:358,1,45,8|0,0:0|0:0,0:0:0:0:
281,380,30863,1,2,0:2:0:0:
294,377,30949,1,2,0:2:0:0:
307,374,31036,1,2,0:2:0:0:
320,371,31122,1,2,0:2:0:0:
333,369,31208,1,2,3:2:0:0:
384,384,31381,1,8,0:0:0:0:
447,284,31553,1,0,0:0:0:0:
396,269,31725,6,0,P|358:231|419:188,1,135,0|0,3:2|0:0,0:0:0:0:
396,269,32070,2,0,B|413:215|442:247|462:185,1,90,8|2,0:0|0:2,0:0:0:0:
450,152,32329,1,2,0:2:0:0:
453,149,32415,2,0,P|472:128|496:133,1,45,2|2,0:2|0:2,0:0:0:0:
500,180,32587,1,2,3:2:0:0:
444,85,32760,1,8,0:0:0:0:
398,114,32932,1,0,0:0:0:0:
307,63,33105,5,0,0:0:0:0:
339,104,33277,1,0,3:2:0:0:
301,142,33449,1,8,0:0:0:0:
215,135,33622,1,2,0:2:0:0:
203,132,33708,1,2,0:2:0:0:
192,130,33794,1,2,0:2:0:0:
181,128,33881,1,2,0:2:0:0:
170,126,33967,1,2,3:2:0:0:
145,82,34139,1,8,0:0:0:0:
205,22,34312,1,0,3:0:0:0:
98,0,34484,6,0,B|85:28|52:35|52:35|76:117,1,135,4|0,3:2|0:0,0:0:0:0:
102,152,34829,2,0,B|83:165|83:165|4:140,1,90,8|0,0:0|0:0,0:0:0:0:
11,231,35174,1,2,3:2:0:0:
11,231,35260,1,2,0:2:0:0:
11,231,35346,2,0,L|20:269,1,31.4999990386963,2|0,0:2|0:0,0:0:0:0:
17,310,35518,2,0,P|9:287|109:242,1,135,8|0,0:0|0:0,0:0:0:0:
95,271,35863,6,0,B|144:261|103:243|142:224|194:224|158:261|213:261,1,135,0|0,3:0|0:0,0:0:0:0:
160,309,36208,2,0,P|168:335|156:308,1,90,8|0,0:0|0:0,0:0:0:0:
214,213,36553,1,2,3:2:0:0:
214,213,36639,1,2,0:0:0:0:
214,213,36725,2,0,L|256:217,1,33.7500012874604,2|0,0:0|0:0,0:0:0:0:
287,254,36898,2,0,B|331:239|331:239|335:218|335:218|412:195,1,135,8|0,0:0|0:0,0:0:0:0:
361,119,37243,6,0,B|319:108|319:108|309:122|309:122|343:210,1,135,0|0,3:0|0:0,0:0:0:0:
369,122,37587,2,0,B|397:130|397:130|463:94,1,90,8|0,0:0|0:0,0:0:0:0:
352,23,37932,1,2,3:2:0:0:
352,23,38018,1,2,0:0:0:0:
352,23,38105,2,0,P|327:34|321:60,1,36,2|0,0:0|0:0,0:0:0:0:
306,93,38277,2,0,B|274:82|269:46|269:46|230:69|185:41,1,135,8|0,0:0|0:0,0:0:0:0:
160,109,38622,6,0,B|136:74|189:41|222:74|224:139|174:160,1,135,0|0,3:0|0:0,0:0:0:0:
213,190,38967,2,0,B|165:188|183:219|125:231,1,90,8|0,0:0|0:0,0:0:0:0:
22,199,39312,1,2,3:2:0:0:
22,199,39398,1,2,0:2:0:0:
22,199,39484,2,0,P|43:186|76:201,1,38.2500007295609,2|0,0:2|0:0,0:0:0:0:
82,234,39656,2,0,L|73:334,1,90,8|0,0:0|0:0,0:0:0:0:
188,379,40001,5,8,0:2:0:0:
270,271,40174,1,2,3:2:0:0:
171,320,40346,1,8,0:2:0:0:
206,266,40518,1,2,3:2:0:0:
267,384,40691,5,8,0:2:0:0:
298,328,40863,1,2,3:2:0:0:
359,340,41036,1,8,0:2:0:0:
392,287,41208,1,2,3:2:0:0:
367,168,41381,5,8,0:2:0:0:
444,266,41553,1,2,3:2:0:0:
366,225,41725,1,8,0:2:0:0:
442,210,41898,1,2,3:2:0:0:
293,99,42070,5,8,0:2:0:0:
233,120,42243,1,2,3:2:0:0:
253,179,42415,1,8,0:2:0:0:
313,158,42588,1,2,3:2:0:0:
204,299,42760,5,8,0:2:0:0:
171,304,42846,1,2,3:2:0:0:
142,288,42932,1,8,0:2:0:0:
128,258,43018,1,2,3:2:0:0:
136,225,43104,1,8,0:2:0:0:
151,196,43191,1,2,3:2:0:0:
144,164,43277,1,8,0:2:0:0:
118,143,43363,1,2,3:2:0:0:
86,145,43449,1,8,0:2:0:0:
51,135,43536,1,2,3:2:0:0:
31,104,43622,1,8,0:2:0:0:
34,63,43708,1,2,3:2:0:0:
66,39,43794,1,8,3:2:0:0:
111,40,43881,1,8,3:2:0:0:
145,69,43967,1,8,3:2:0:0:
189,73,44053,1,8,3:2:0:0:
228,51,44139,5,12,0:2:0:0:
233,56,44829,5,8,0:0:0:0:
233,56,44915,1,8,0:0:0:0:
233,56,45001,2,0,L|294:63,1,33.7500012874604,0|8,3:0|0:0,0:0:0:0:
318,35,45174,1,8,0:0:0:0:
342,38,45260,1,2,0:0:0:0:
362,54,45346,1,2,0:2:0:0:
371,77,45432,1,2,0:2:0:0:
367,102,45518,6,0,B|296:129|340:159|301:213|242:209,1,148.50000453186,4|0,3:2|0:0,0:0:0:0:
224,175,45863,1,8,0:0:0:0:
186,299,46036,1,2,0:0:0:0:
186,299,46122,1,2,0:0:0:0:
186,299,46208,2,0,P|160:269|166:247,1,49.5000015106202,2|2,0:0|0:0,0:0:0:0:
129,220,46381,1,2,3:2:0:0:
175,145,46553,1,8,0:0:0:0:
89,109,46725,1,2,0:0:0:0:
241,32,46898,6,0,B|278:19|278:19|296:30|296:30|394:-7,1,148.50000453186,2|0,3:2|0:0,0:0:0:0:
428,12,47243,1,8,0:0:0:0:
506,117,47415,1,2,0:2:0:0:
481,114,47501,1,2,0:2:0:0:
456,111,47587,1,2,0:2:0:0:
432,109,47673,1,2,0:2:0:0:
407,106,47759,1,2,3:2:0:0:
361,61,47932,1,8,0:0:0:0:
227,156,48105,1,2,0:0:0:0:
280,1,48277,6,0,B|305:28|305:28|266:173,1,148.50000453186,2|0,3:2|0:0,0:0:0:0:
227,156,48622,2,0,P|275:189|311:176,1,99.0000030212403,8|2,0:0|0:2,0:0:0:0:
309,177,48881,1,2,0:2:0:0:
309,177,48967,1,2,0:2:0:0:
237,322,49139,6,0,B|223:301|223:301|244:262,1,49.5000015106202,2|0,3:2|0:0,0:0:0:0:
275,242,49312,2,0,L|406:264,1,99.0000030212403,8|2,0:0|0:2,0:0:0:0:
383,268,49570,1,2,0:2:0:0:
394,277,49656,1,2,0:2:0:0:
231,322,49829,6,0,B|217:301|217:301|238:262,1,49.5000015106202,2|0,3:2|0:0,0:0:0:0:
272,237,50002,2,0,L|403:259,1,99.0000030212403,8|2,0:0|0:2,0:0:0:0:
380,263,50260,1,2,0:2:0:0:
391,272,50346,1,2,0:2:0:0:
373,373,50518,5,2,3:2:0:0:
335,314,50691,1,8,0:0:0:0:
285,358,50863,1,0,3:0:0:0:
478,371,51036,6,0,B|492:309|492:309|481:292|481:292|498:208,1,148.50000453186,2|0,3:2|0:0,0:0:0:0:
469,183,51381,1,8,0:0:0:0:
508,74,51553,1,2,0:2:0:0:
508,74,51639,1,2,0:2:0:0:
508,74,51725,2,0,L|453:90,1,49.5000015106202,2|2,0:2|0:2,0:0:0:0:
421,54,51898,1,2,3:2:0:0:
369,113,52070,1,8,0:0:0:0:
415,178,52243,1,2,0:0:0:0:
278,31,52415,6,0,B|301:-3|364:17|340:104|266:102,1,148.50000453186,0|0,3:0|0:0,0:0:0:0:
237,94,52760,1,8,0:0:0:0:
198,9,52932,1,2,0:2:0:0:
174,1,53018,1,2,0:2:0:0:
151,7,53104,1,2,0:2:0:0:
136,26,53190,1,2,0:2:0:0:
134,51,53276,1,2,3:2:0:0:
94,87,53449,1,8,0:0:0:0:
164,179,53622,1,2,0:0:0:0:
5,231,53794,6,0,B|29:226|65:245|42:250|53:268|86:270|86:270|162:278,1,148.50000453186,0|0,3:2|0:0,0:0:0:0:
178,242,54139,1,8,0:0:0:0:
231,348,54312,1,2,0:2:0:0:
231,348,54398,1,2,0:2:0:0:
231,348,54484,2,0,P|198:370|169:360,1,49.5000015106202,2|2,0:2|0:2,0:0:0:0:
150,335,54656,1,2,3:2:0:0:
226,279,54829,1,8,0:0:0:0:
96,148,55001,5,2,0:2:0:0:
96,172,55087,1,2,0:2:0:0:
97,197,55173,1,2,0:2:0:0:
98,222,55259,1,2,0:2:0:0:
99,246,55345,1,2,3:2:0:0:
163,193,55518,1,8,0:0:0:0:
65,99,55691,5,2,0:2:0:0:
65,99,55777,1,2,0:2:0:0:
65,99,55863,2,0,P|76:71|115:72,1,49.5000015106202,2|2,0:2|0:2,0:0:0:0:
139,88,56036,1,2,3:2:0:0:
219,27,56208,1,8,0:0:0:0:
106,1,56381,1,0,3:0:0:0:
237,139,56553,6,0,B|284:124|284:124|292:99|292:99|360:75,1,148.50000453186,4|0,3:2|0:0,0:0:0:0:
391,30,56898,2,0,P|438:56|419:114,1,99.0000030212403,8|2,0:0|0:0,0:0:0:0:
426,113,57156,1,2,0:0:0:0:
424,131,57242,1,2,0:0:0:0:
430,148,57328,1,2,0:0:0:0:
444,161,57414,1,2,3:2:0:0:
411,204,57587,1,8,0:0:0:0:
495,269,57760,1,2,0:0:0:0:
370,311,57932,6,0,B|306:306|370:347|230:355|306:306|205:333,1,148.50000453186,2|0,3:2|0:0,0:0:0:0:
195,288,58277,1,8,0:0:0:0:
114,322,58449,1,2,0:2:0:0:
90,327,58535,1,2,0:2:0:0:
66,320,58621,1,2,0:2:0:0:
50,302,58707,1,2,0:2:0:0:
44,278,58793,1,2,3:2:0:0:
39,367,58967,1,8,0:0:0:0:
101,262,59139,1,2,0:0:0:0:
210,362,59312,6,0,P|281:346|276:279,1,148.50000453186,2|0,3:2|0:0,0:0:0:0:
235,248,59656,1,8,0:0:0:0:
357,139,59829,1,2,0:2:0:0:
352,163,59915,1,2,0:2:0:0:
348,187,60001,1,2,0:2:0:0:
344,212,60087,1,2,0:2:0:0:
340,236,60173,1,2,3:2:0:0:
404,192,60346,1,8,0:0:0:0:
286,226,60519,5,2,0:2:0:0:
290,201,60605,1,2,0:2:0:0:
294,177,60691,1,2,0:2:0:0:
298,152,60777,1,2,0:2:0:0:
302,128,60863,1,2,3:2:0:0:
414,194,61036,1,8,0:0:0:0:
236,162,61208,5,2,0:2:0:0:
213,151,61294,1,2,0:2:0:0:
191,141,61380,1,2,0:2:0:0:
179,163,61466,1,2,0:2:0:0:
167,185,61552,1,2,3:2:0:0:
115,170,61725,1,8,0:0:0:0:
42,106,61898,1,0,3:0:0:0:
126,15,62070,6,0,B|162:21|162:21|171:47|171:47|282:65,1,148.50000453186,2|0,3:2|0:0,0:0:0:0:
292,22,62415,1,8,0:0:0:0:
361,97,62587,1,2,0:2:0:0:
361,97,62674,1,2,0:2:0:0:
361,97,62760,2,0,P|387:81|387:46,1,49.5000015106202,2|2,0:2|0:2,0:0:0:0:
368,19,62932,1,2,3:2:0:0:
298,86,63105,1,8,0:0:0:0:
244,0,63277,1,2,0:0:0:0:
463,23,63449,6,0,B|498:57|498:57|467:166,1,148.50000453186,0|0,3:0|0:0,0:0:0:0:
419,185,63794,1,8,0:0:0:0:
335,297,63967,1,2,0:2:0:0:
312,289,64053,1,2,0:2:0:0:
296,270,64139,1,2,0:2:0:0:
291,246,64225,1,2,0:2:0:0:
298,223,64311,1,2,3:2:0:0:
257,166,64484,1,8,0:0:0:0:
321,141,64656,1,2,0:0:0:0:
147,305,64829,6,0,B|174:310|195:286|189:260|189:260|166:185,1,148.50000453186,0|0,3:2|0:0,0:0:0:0:
191,142,65174,1,8,0:0:0:0:
70,72,65346,1,2,0:2:0:0:
70,72,65432,1,2,0:2:0:0:
70,72,65518,2,0,P|91:94|128:91,1,49.5000015106202,2|2,0:2|0:2,0:0:0:0:
153,69,65691,1,2,3:2:0:0:
195,148,65863,6,0,L|227:31,1,99.0000030212403,8|2,0:0|0:2,0:0:0:0:
237,34,66122,1,2,0:2:0:0:
261,28,66208,1,2,0:2:0:0:
284,35,66294,1,2,0:2:0:0:
300,54,66380,1,2,3:2:0:0:
284,107,66553,1,8,0:0:0:0:
341,194,66725,5,2,0:2:0:0:
364,201,66811,1,2,0:2:0:0:
387,194,66897,1,2,0:2:0:0:
403,175,66983,1,2,0:2:0:0:
405,151,67069,1,2,3:2:0:0:
398,127,67156,1,2,0:2:0:0:
402,97,67243,1,10,0:2:0:0:
424,77,67329,1,2,0:2:0:0:
458,76,67415,1,2,3:2:0:0:
482,100,67501,1,2,0:2:0:0:
485,133,67587,6,0,B|432:126|462:92|386:81|386:81|323:70,1,168.75,4|0,3:2|0:0,0:0:0:0:
293,97,67932,1,8,0:0:0:0:
223,13,68105,1,2,0:0:0:0:
198,12,68191,1,2,0:0:0:0:
177,24,68277,1,2,0:0:0:0:
163,45,68363,1,2,0:0:0:0:
162,69,68449,1,2,3:2:0:0:
119,104,68622,1,8,0:0:0:0:
212,177,68794,1,2,0:0:0:0:
74,248,68967,6,0,P|22:236|36:150,1,148.50000453186,2|0,3:2|0:0,0:0:0:0:
65,122,69312,2,0,L|168:140,1,99.0000030212403,8|2,0:0|0:2,0:0:0:0:
162,139,69570,1,2,0:2:0:0:
162,139,69656,1,2,0:2:0:0:
216,108,69829,1,2,3:2:0:0:
305,207,70001,1,8,0:0:0:0:
379,96,70174,1,2,0:0:0:0:
261,155,70346,6,0,B|244:100|244:100|264:69|264:69|237:-15,1,148.50000453186,2|0,3:2|0:0,0:0:0:0:
196,6,70691,1,8,0:0:0:0:
329,12,70863,1,2,0:2:0:0:
327,24,70949,1,2,0:2:0:0:
326,36,71035,1,2,0:2:0:0:
325,48,71121,1,2,0:2:0:0:
323,61,71207,1,2,3:2:0:0:
386,42,71381,1,8,0:0:0:0:
440,86,71553,5,2,0:2:0:0:
441,66,71639,1,2,0:2:0:0:
443,48,71725,1,2,0:2:0:0:
444,30,71811,1,2,0:2:0:0:
447,10,71897,1,2,3:2:0:0:
386,42,72070,1,8,0:0:0:0:
295,120,72243,5,2,0:2:0:0:
277,137,72329,1,2,0:2:0:0:
261,155,72415,1,2,0:2:0:0:
278,172,72501,1,2,0:2:0:0:
296,190,72587,1,2,3:2:0:0:
343,153,72760,1,8,0:0:0:0:
396,156,72932,1,0,3:0:0:0:
197,155,73105,6,0,B|129:155|158:199|108:205|108:205|50:208,1,148.50000453186,2|0,3:2|0:0,0:0:0:0:
33,168,73449,1,8,0:0:0:0:
132,269,73622,1,2,0:2:0:0:
132,269,73708,1,2,0:2:0:0:
132,269,73794,2,0,L|138:189,1,49.5000015106202,2|2,0:2|0:2,0:0:0:0:
99,157,73967,1,2,3:2:0:0:
27,244,74139,1,8,0:0:0:0:
119,325,74312,1,2,0:0:0:0:
191,238,74484,6,0,B|214:213|257:228|262:258|262:258|265:294|289:311|326:306,1,148.50000453186,0|0,3:0|0:0,0:0:0:0:
348,267,74829,2,0,B|371:238|371:238|289:266,1,99.0000030212403,8|2,0:0|0:2,0:0:0:0:
315,233,75087,1,2,0:2:0:0:
318,208,75173,1,2,0:2:0:0:
321,184,75259,1,2,0:2:0:0:
324,159,75345,1,2,3:2:0:0:
371,131,75518,1,8,0:0:0:0:
296,54,75691,1,2,0:0:0:0:
421,2,75863,6,0,B|428:33|459:42|459:42|434:142,1,148.50000453186,0|0,3:2|0:0,0:0:0:0:
475,166,76208,1,8,0:0:0:0:
367,200,76381,1,2,0:2:0:0:
367,200,76467,1,2,0:2:0:0:
367,200,76553,2,0,L|284:214,1,49.5000015106202,2|2,0:2|0:2,0:0:0:0:
271,189,76725,1,2,3:2:0:0:
232,85,76898,6,0,P|199:112|215:183,1,99.0000030212403,8|2,0:0|0:2,0:0:0:0:
199,165,77156,1,2,0:2:0:0:
199,165,77243,1,2,0:2:0:0:
249,138,77415,1,2,3:2:0:0:
160,81,77587,1,8,0:0:0:0:
104,130,77760,5,2,0:2:0:0:
83,142,77846,1,2,0:2:0:0:
59,141,77932,1,2,0:2:0:0:
40,125,78018,1,2,0:2:0:0:
34,101,78104,1,2,3:2:0:0:
110,200,78277,5,10,0:2:0:0:
85,197,78363,1,2,0:2:0:0:
64,208,78449,1,2,3:2:0:0:
54,230,78535,1,2,0:2:0:0:
58,254,78622,6,0,B|47:360|47:360|67:338|113:348,1,148.50000453186,4|0,3:2|0:0,0:0:0:0:
122,310,78967,2,0,B|138:321|137:345|137:345|225:337,1,99.0000030212403,8|2,0:0|0:0,0:0:0:0:
195,339,79225,1,2,0:0:0:0:
195,339,79312,1,2,0:0:0:0:
234,283,79484,1,2,3:2:0:0:
347,249,79656,1,8,0:0:0:0:
239,202,79828,1,2,0:0:0:0:
386,360,80001,6,0,P|462:342|444:274,1,148.50000453186,2|0,3:2|0:0,0:0:0:0:
411,257,80346,1,8,0:0:0:0:
476,155,80518,1,2,0:2:0:0:
476,155,80605,1,2,0:2:0:0:
476,155,80691,2,0,P|458:172|416:165,1,49.5000015106202,2|2,0:2|0:2,0:0:0:0:
396,141,80863,1,2,3:2:0:0:
491,72,81036,2,0,B|445:51|445:51|405:94,1,99.0000030212403,8|2,0:0|0:0,0:0:0:0:
412,87,81294,1,2,0:0:0:0:
412,87,81381,6,0,P|367:120|312:48,1,148.50000453186,2|0,3:2|0:0,0:0:0:0:
338,23,81725,1,8,0:0:0:0:
217,59,81898,1,2,0:2:0:0:
192,55,81984,1,2,0:2:0:0:
168,51,82070,1,2,0:2:0:0:
143,47,82156,1,2,0:2:0:0:
119,43,82242,1,2,3:2:0:0:
179,1,82415,1,8,0:0:0:0:
233,111,82587,5,2,0:2:0:0:
208,114,82673,1,2,0:2:0:0:
184,118,82759,1,2,0:2:0:0:
159,122,82845,1,2,0:2:0:0:
135,126,82931,1,2,3:2:0:0:
67,60,83105,1,8,0:0:0:0:
6,174,83277,5,2,0:2:0:0:
31,177,83363,1,2,0:2:0:0:
55,181,83449,1,2,0:2:0:0:
80,185,83535,1,2,0:2:0:0:
104,189,83621,1,2,3:2:0:0:
201,176,83794,1,8,0:0:0:0:
200,292,83967,1,0,3:0:0:0:
103,279,84139,6,0,B|145:269|145:269|156:242|156:242|230:224,1,148.50000453186,2|0,3:2|0:0,0:0:0:0:
264,187,84484,1,8,0:0:0:0:
336,180,84656,1,2,0:2:0:0:
336,180,84743,1,2,0:2:0:0:
336,180,84829,2,0,P|366:180|393:214,1,49.5000015106202,2|2,0:2|0:2,0:0:0:0:
389,242,85001,1,2,3:2:0:0:
474,191,85174,1,8,0:0:0:0:
494,288,85346,1,2,0:0:0:0:
405,331,85518,6,0,B|375:350|375:350|358:340|337:341|337:341|299:203,1,198.000006042481,0|8,3:0|0:0,0:0:0:0:
352,183,86036,1,2,0:2:0:0:
352,183,86122,1,2,0:2:0:0:
352,183,86208,2,0,L|336:127,1,49.5000015106202,2|2,0:2|0:2,0:0:0:0:
373,96,86381,1,2,3:2:0:0:
279,128,86553,2,0,L|309:235,1,99.0000030212403,8|2,0:0|0:0,0:0:0:0:
251,287,86898,5,2,3:2:0:0:
239,284,86984,1,0,0:0:0:0:
231,279,87070,1,0,0:0:0:0:
223,272,87156,1,0,0:0:0:0:
217,261,87243,1,8,0:0:0:0:
214,239,87329,1,0,0:0:0:0:
202,221,87415,1,0,0:0:0:0:
182,212,87501,1,0,0:0:0:0:
158,211,87587,1,2,0:0:0:0:
134,215,87673,1,0,0:0:0:0:
112,208,87759,1,0,3:0:0:0:
96,191,87845,1,0,0:0:0:0:
94,169,87931,1,8,0:0:0:0:
99,144,88018,1,0,0:0:0:0:
91,121,88104,1,0,0:0:0:0:
71,106,88190,1,0,0:0:0:0:
47,103,88276,5,0,0:0:0:0:
74,100,88363,1,0,0:0:0:0:
101,96,88449,1,0,3:0:0:0:
126,92,88535,1,0,0:0:0:0:
147,75,88621,1,8,0:0:0:0:
174,79,88708,1,0,0:0:0:0:
202,83,88794,1,0,0:0:0:0:
230,88,88880,1,0,0:0:0:0:
252,106,88966,1,8,0:3:0:0:
280,113,89053,1,8,0:3:0:0:
308,104,89139,1,8,3:3:0:0:
326,82,89225,1,8,0:3:0:0:
330,53,89312,1,8,0:2:0:0:
342,23,89398,1,8,0:3:0:0:
365,4,89484,1,8,3:3:0:0:
396,1,89570,1,8,0:3:0:0:
424,13,89656,5,4,3:2:0:0:
256,192,89829,12,0,92415,0:0:0:0:
129,114,100001,6,0,L|131:94,2,16.5000005035401,2|2|0,0:2|0:2|0:0,0:0:0:0:
122,167,100174,2,0,L|120:187,2,16.5000005035401,2|2|0,0:2|0:2|0:0,0:0:0:0:
171,143,100346,6,0,L|191:145,2,16.5000005035401,2|2|0,0:2|0:2|0:0,0:0:0:0:
80,135,100519,2,0,L|60:133,2,16.5000005035401,2|2|0,0:2|0:2|0:0,0:0:0:0:
187,220,100691,6,0,B|213:169|169:171|197:125|197:125|228:82,1,153.000002918243,0|8,3:2|0:0,0:0:0:0:
187,220,101553,1,2,3:2:0:0:
218,262,101725,2,0,P|251:252|254:202,1,76.5000014591217,8|2,0:0|0:0,0:0:0:0:
187,220,102070,6,0,B|159:234|159:234|152:252|152:252|55:302,1,153.000002918243,0|8,3:0|0:0,0:0:0:0:
187,220,102932,1,0,3:0:0:0:
164,171,103105,2,0,P|164:125|190:110,1,76.5000014591217,8|2,0:0|0:0,0:0:0:0:
220,58,103449,6,0,P|251:100|359:77,1,153.000002918243,2|10,3:2|0:0,0:0:0:0:
220,58,104312,1,2,3:2:0:0:
265,19,104484,2,0,B|363:44|363:44|386:25|419:33,1,153.000002918243,8|2,0:0|0:0,0:0:0:0:
220,58,105001,1,0,3:0:0:0:
187,9,105174,2,0,B|175:38|137:39|137:39|169:163,1,153.000002918243,8|0,0:0|0:0,0:0:0:0:
213,219,105691,1,0,3:0:0:0:
160,211,105863,1,8,0:0:0:0:
106,203,106036,1,0,3:0:0:0:
219,226,106208,6,0,P|267:227|264:140,1,153.000002918243,0|8,3:0|0:0,0:0:0:0:
219,226,107070,1,2,3:2:0:0:
275,193,107243,2,0,P|314:190|338:240,1,76.5000014591217,8|2,0:2|0:0,0:0:0:0:
246,281,107587,2,0,B|189:280|215:312|134:319|169:281|88:309,1,153.000002918243,0|8,3:0|0:0,0:0:0:0:
219,226,108449,1,0,3:0:0:0:
170,188,108622,2,0,P|134:161|147:101,1,76.5000014591217,8|0,0:0|0:0,0:0:0:0:
26,65,108967,6,0,B|109:44|109:44|149:34|110:10|190:0,1,153.000002918243,0|10,3:0|0:0,0:0:0:0:
26,65,109829,1,2,3:2:0:0:
82,23,110001,2,0,P|132:39|122:129,1,153.000002918243,8|0,0:0|0:0,0:0:0:0:
26,65,110518,1,0,3:0:0:0:
132,66,110691,2,0,B|167:62|152:42|197:35|197:35|280:28,1,153.000002918243,8|0,0:0|0:0,0:0:0:0:
257,173,111208,5,0,3:0:0:0:
349,60,111381,1,8,0:0:0:0:
370,33,111467,1,8,0:3:0:0:
404,35,111553,1,8,0:3:0:0:
437,42,111639,1,8,0:3:0:0:
458,15,111725,6,0,L|470:150,1,135.000005149842,4|0,3:2|0:0,0:0:0:0:
488,95,112243,1,2,0:0:0:0:
500,234,112415,2,0,B|483:216|415:230|463:241|413:277|359:248,1,135.000005149842,0|2,3:0|0:0,0:0:0:0:
226,212,113105,5,0,3:0:0:0:
226,212,113277,2,0,B|203:187|203:187|224:150,1,67.5000025749208,2|0,0:0|0:0,0:0:0:0:
335,121,113622,1,2,0:0:0:0:
335,121,113794,2,0,B|359:159|359:159|247:189,1,135.000005149842,0|2,3:0|0:0,0:0:0:0:
89,154,114484,6,0,P|47:119|57:62,1,101.250003862381,0|0,3:2|0:0,0:0:0:0:
66,55,114829,1,0,0:0:0:0:
101,97,115001,1,2,0:0:0:0:
152,35,115174,2,0,P|197:27|230:12,1,67.5000025749208,0|0,3:0|0:0,0:0:0:0:
239,76,115518,2,0,P|194:84|161:99,1,67.5000025749208,2|0,0:0|0:0,0:0:0:0:
187,201,115863,6,0,P|252:191|252:119,1,135.000005149842,0|0,3:0|0:0,0:0:0:0:
293,88,116381,1,2,0:0:0:0:
346,130,116553,1,0,3:2:0:0:
376,72,116725,1,2,0:2:0:0:
376,72,116812,1,2,0:2:0:0:
376,72,116898,2,0,L|382:42,3,18,2|0|0|0,0:2|0:2|0:2|0:2,0:0:0:0:
400,4,117243,6,0,L|411:151,1,135.000005149842,2|0,3:2|0:2,0:0:0:0:
491,124,117760,1,2,0:2:0:0:
491,124,117846,1,2,0:2:0:0:
491,124,117932,2,0,P|453:94|408:109,1,67.5000025749208,2|0,3:2|0:2,0:0:0:0:
356,163,118277,2,0,P|394:193|439:178,1,67.5000025749208,2|0,0:2|0:2,0:0:0:0:
509,273,118622,6,0,B|463:278|463:278|450:309|450:309|381:319,1,135.000005149842,2|0,3:2|0:2,0:0:0:0:
338,373,119139,1,2,0:2:0:0:
338,373,119225,1,2,0:2:0:0:
338,373,119312,2,0,P|305:354|303:324,1,67.5000025749208,2|0,3:2|0:2,0:0:0:0:
342,267,119656,1,2,0:2:0:0:
366,270,119742,1,2,0:2:0:0:
390,261,119828,1,2,0:2:0:0:
405,242,119914,1,2,0:2:0:0:
406,217,120001,6,0,L|387:213,3,18,2|0|2|0,3:2|0:2|0:2|0:2,0:0:0:0:
355,169,120346,2,0,L|335:165,3,18,0|0|2|0,0:2|0:2|0:2|0:2,0:0:0:0:
301,230,120691,2,0,L|282:226,3,18,2|0|0|0,3:2|0:2|0:2|0:2,0:0:0:0:
250,182,121036,2,0,L|230:178,3,18,2|0|0|0,0:2|0:2|0:2|0:2,0:0:0:0:
173,207,121381,6,0,L|178:183,3,18,2|0|2|0,3:2|0:2|0:2|0:2,0:0:0:0:
137,255,121725,2,0,L|131:281,3,18,0|0|2|0,0:2|0:2|0:2|0:2,0:0:0:0:
111,200,122070,2,0,L|116:173,3,18,2|0|0|0,3:2|0:2|0:2|0:2,0:0:0:0:
84,215,122414,2,0,L|79:234,3,18,2|0|0|0,0:2|0:2|0:2|0:2,0:0:0:0:
110,115,122760,6,0,P|78:91|38:108,1,72,0|0,3:2|0:0,0:0:0:0:
49,97,123018,1,0,0:0:0:0:
49,97,123105,2,0,L|56:186,1,72,8|0,0:0|0:0,0:0:0:0:
26,225,123449,2,0,L|28:260,3,22.5,2|2|2|2,3:2|0:0|0:0|0:0,0:0:0:0:
6,295,123794,2,0,B|31:305|31:305|96:277,1,72,8|0,0:0|0:0,0:0:0:0:
162,360,124139,6,0,B|182:339|182:339|156:272,1,72,0|0,3:0|0:0,0:0:0:0:
169,292,124398,1,0,0:0:0:0:
172,285,124484,2,0,P|203:259|247:284,1,72,8|0,0:0|0:0,0:0:0:0:
280,314,124829,2,0,L|290:268,3,24.7500007553101,2|2|2|2,3:2|0:0|0:0|0:0,0:0:0:0:
332,263,125174,2,0,P|353:235|327:183,1,72,8|0,0:0|0:0,0:0:0:0:
234,117,125518,6,0,L|335:138,1,72,0|0,3:0|0:0,0:0:0:0:
314,126,125777,1,0,0:0:0:0:
323,121,125863,2,0,L|409:138,1,72,8|0,0:0|0:0,0:0:0:0:
358,35,126208,2,0,B|348:44|348:44|356:64,3,26.9999991760254,2|2|2|2,3:2|0:0|0:0|0:0,0:0:0:0:
407,56,126553,2,0,L|493:73,1,72,8|0,0:0|0:0,0:0:0:0:
506,175,126898,6,0,P|480:218|441:204,1,72,0|0,3:0|0:0,0:0:0:0:
449,215,127156,1,0,0:0:0:0:
434,211,127243,2,0,L|441:309,1,72,8|0,0:0|0:0,0:0:0:0:
456,383,127587,2,0,P|445:368|425:363,3,29.2499986610413,2|2|2|2,3:2|0:2|0:2|0:2,0:0:0:0:
400,324,127932,2,0,L|307:340,1,72,8|0,0:0|0:0,0:0:0:0:
188,273,128277,5,8,0:0:0:0:
105,252,128449,1,2,3:2:0:0:
126,167,128622,1,8,0:0:0:0:
209,188,128794,1,2,3:2:0:0:
134,308,128967,5,8,0:0:0:0:
70,196,129139,1,2,3:2:0:0:
182,129,129312,1,8,0:0:0:0:
247,238,129484,1,2,3:2:0:0:
188,273,129656,5,8,0:0:0:0:
209,188,129828,1,2,3:2:0:0:
126,167,130001,1,8,0:0:0:0:
105,252,130173,1,2,3:2:0:0:
244,244,130346,5,8,0:0:0:0:
180,132,130518,1,2,3:2:0:0:
67,202,130691,1,8,0:0:0:0:
132,311,130863,1,2,3:2:0:0:
334,375,131036,5,8,0:0:0:0:
336,368,131122,1,0,3:2:0:0:
343,359,131208,1,8,0:0:0:0:
352,354,131294,1,0,3:2:0:0:
366,353,131381,1,8,0:0:0:0:
383,348,131467,1,0,3:2:0:0:
399,341,131553,1,8,0:0:0:0:
415,326,131639,1,0,3:2:0:0:
424,302,131725,5,8,0:0:0:0:
421,276,131812,1,0,3:2:0:0:
404,252,131898,1,8,0:0:0:0:
375,247,131984,1,0,3:2:0:0:
343,241,132070,1,8,0:0:0:0:
319,214,132156,1,0,3:2:0:0:
320,174,132243,1,8,0:0:0:0:
354,147,132329,1,0,3:2:0:0:
394,162,132415,5,8,0:2:0:0:
429,162,132501,1,8,0:2:0:0:
455,142,132587,1,8,0:2:0:0:
462,113,132674,1,8,0:2:0:0:
453,89,132760,1,8,0:2:0:0:
436,75,132846,1,8,0:2:0:0:
418,71,132932,1,8,0:2:0:0:
403,73,133018,1,8,0:2:0:0:
393,81,133105,6,0,B|404:90|404:90|448:81,1,36,8|0,0:2|0:0,0:0:0:0:
483,45,133277,1,2,3:2:0:0:
341,35,133449,1,10,0:2:0:0:
341,35,133622,1,0,0:0:0:0:
185,20,133794,6,0,B|180:47|154:57|154:57|148:68|148:68|163:125|163:125|173:133|173:133|208:129|231:165,1,180,4|2,3:2|0:2,0:0:0:0:
180,191,134053,1,2,0:2:0:0:
180,191,134139,2,0,B|162:206|162:206|193:163,1,53.9999983520508,8|0,0:0|0:0,0:0:0:0:
211,85,134312,1,2,0:2:0:0:
301,248,134484,6,0,B|291:260|291:260|232:240,1,53.9999983520508,2|0,0:3|0:0,0:0:0:0:
234,197,134656,1,2,3:3:0:0:
345,126,134829,1,8,0:2:0:0:
358,149,134915,1,2,0:3:0:0:
342,170,135001,1,2,0:3:0:0:
289,146,135174,1,2,3:3:0:0:
415,145,135346,1,2,0:3:0:0:
441,145,135432,1,2,0:3:0:0:
467,145,135518,1,8,0:2:0:0:
509,96,135691,1,2,0:3:0:0:
394,31,135863,6,0,L|390:64,1,33.7500012874604,2|0,0:3|0:0,0:0:0:0:
327,38,136036,6,0,P|293:24|327:35,1,112.5,2|0,3:3|0:0,0:0:0:0:
229,9,136208,6,0,L|225:42,1,33.7500012874604,8|0,0:2|0:0,0:0:0:0:
192,126,136381,6,0,B|181:92|181:92|166:86|166:86|151:21,1,90,2|0,0:3|0:0,0:0:0:0:
45,2,136553,6,0,L|33:199,1,135.000005149842,0|2,3:0|0:0,0:0:0:0:
41,149,136812,1,2,0:0:0:0:
45,161,136898,2,0,B|71:182|71:182|109:166,1,67.5000025749208,8|0,0:0|0:0,0:0:0:0:
154,169,137070,6,0,L|216:185,1,45,2|0,0:0|0:0,0:0:0:0:
119,311,137243,6,0,L|100:267,1,33.7500012874604,2|0,0:2|0:0,0:0:0:0:
84,232,137415,2,0,L|127:213,1,33.7500012874604,2|0,3:2|0:0,0:0:0:0:
197,180,137587,2,0,L|215:223,1,33.7500012874604,10|0,0:2|0:0,0:0:0:0:
232,259,137759,2,0,L|188:277,1,33.7500012874604,2|0,0:2|0:0,0:0:0:0:
109,304,137932,6,0,L|98:257,1,33.7500012874604,2|0,0:2|0:0,0:0:0:0:
87,220,138104,2,0,L|133:209,1,33.7500012874604,2|0,3:2|0:0,0:0:0:0:
206,186,138276,2,0,L|217:233,1,33.7500012874604,10|0,0:2|0:0,0:0:0:0:
228,270,138448,2,0,L|182:281,1,33.7500012874604,2|0,0:2|0:0,0:0:0:0:
255,355,138622,6,0,L|267:297,1,33.7500012874604,2|0,0:2|0:0,0:0:0:0:
344,219,138794,2,0,L|331:278,1,58.4999973220826,2|0,3:2|0:0,0:0:0:0:
354,323,138967,2,0,B|336:337|336:337|292:317,1,45,10|0,0:2|0:0,0:0:0:0:
276,179,139139,2,0,L|334:167,1,33.7500012874604,2|0,3:2|0:0,0:0:0:0:
414,177,139312,6,0,B|426:74|506:153|503:11,1,175.499991966248,0|2,3:2|0:2,0:0:0:0:
414,42,139656,2,0,B|379:32|368:70|336:72|336:72|383:87|357:131|446:112,1,175.499991966248,8|0,0:0|0:0,0:0:0:0:
512,149,140001,6,0,L|468:163,1,45,2|0,0:3|0:0,0:0:0:0:
414,177,140174,1,2,3:3:0:0:
512,210,140346,1,8,0:2:0:0:
501,214,140432,1,2,0:3:0:0:
491,217,140518,2,0,L|447:231,1,45,2|0,0:3|0:0,0:0:0:0:
372,191,140691,2,0,L|414:177,1,45,2|0,3:3|0:0,0:0:0:0:
465,312,140863,1,2,0:3:0:0:
478,329,140949,1,2,0:3:0:0:
471,350,141036,2,0,B|436:341|436:341|422:346|422:346|369:334,1,90,8|2,0:2|0:3,0:0:0:0:
297,362,141381,6,0,B|278:348|278:348|291:312,1,45,2|0,0:3|0:0,0:0:0:0:
340,331,141553,2,0,L|403:346,1,45,2|0,3:3|0:0,0:0:0:0:
300,255,141725,2,0,B|307:234|307:234|288:220,1,45,8|0,0:2|0:0,0:0:0:0:
256,287,141898,2,0,L|193:302,1,45,2|0,0:3|0:0,0:0:0:0:
166,362,142070,6,0,B|116:347|137:302|68:288|68:288|-1:275,1,180,4|8,3:2|0:0,0:0:0:0:
129,169,142587,2,0,P|157:221|133:252,1,90,2|2,0:0|0:2,0:0:0:0:
144,243,142846,1,2,0:2:0:0:
144,243,142932,1,2,3:2:0:0:
91,222,143105,1,10,0:0:0:0:
169,126,143277,1,0,0:0:0:0:
115,105,143449,5,2,0:0:0:0:
111,50,143622,1,2,3:2:0:0:
111,50,143708,1,2,0:0:0:0:
111,50,143794,2,0,L|210:19,1,90,8|2,0:0|0:0,0:0:0:0:
196,23,144053,1,2,0:0:0:0:
196,23,144139,1,2,0:0:0:0:
302,80,144312,5,2,3:2:0:0:
296,46,144398,1,2,0:2:0:0:
315,15,144484,1,10,0:2:0:0:
354,10,144570,1,2,0:2:0:0:
380,39,144656,1,2,3:2:0:0:
422,58,144743,1,2,0:2:0:0:
456,28,144829,6,0,B|396:63|396:63|394:94|394:94|323:139,1,180,4|2,3:2|0:2,0:0:0:0:
341,205,145087,1,2,0:2:0:0:
337,211,145174,2,0,B|327:213|327:213|295:172,1,45,8|0,0:0|0:0,0:0:0:0:
273,144,145346,1,2,0:2:0:0:
209,230,145518,6,0,P|196:256|218:295,1,45,2|0,0:3|0:0,0:0:0:0:
244,300,145691,1,2,3:3:0:0:
140,362,145863,1,8,0:2:0:0:
120,342,145949,1,2,0:3:0:0:
94,351,146036,1,2,0:3:0:0:
143,294,146208,1,2,3:3:0:0:
33,261,146381,5,2,0:3:0:0:
39,287,146467,1,2,0:3:0:0:
45,313,146553,1,8,0:2:0:0:
144,284,146725,1,2,0:3:0:0:
48,166,146898,6,0,B|29:160|29:160|61:157,1,45,2|0,0:3|0:0,0:0:0:0:
107,208,147070,2,0,P|131:215|151:204,1,45,2|0,3:3|0:0,0:0:0:0:
199,157,147243,6,0,B|218:151|218:151|186:148,1,45,8|0,0:2|0:0,0:0:0:0:
114,82,147415,2,0,L|125:178,1,76.5000014591217,2|0,0:3|0:0,0:0:0:0:
140,277,147587,6,0,L|200:55,1,229.500004377365,2|0,3:2|0:0,0:0:0:0:
144,36,147932,2,0,L|84:258,1,229.500004377365,10|0,0:2|0:0,0:0:0:0:
16,367,148277,5,2,0:3:0:0:
31,332,148363,1,2,0:3:0:0:
62,312,148449,1,2,3:3:0:0:
100,314,148535,1,2,0:3:0:0:
130,336,148622,1,10,0:2:0:0:
160,358,148708,1,2,0:3:0:0:
197,360,148794,1,2,0:3:0:0:
229,339,148880,1,2,0:3:0:0:
243,305,148966,5,2,0:3:0:0:
240,298,149053,1,2,0:3:0:0:
237,290,149139,2,0,P|228:254|217:229,1,53.9999983520508,2|2,3:3|0:3,0:0:0:0:
278,220,149312,2,0,P|287:256|298:281,1,53.9999983520508,8|2,0:2|0:3,0:0:0:0:
358,278,149484,1,2,0:3:0:0:
473,107,149656,6,0,P|497:124|484:173,1,53.9999983520508,2|0,0:2|0:0,0:0:0:0:
491,197,149829,2,0,P|474:221|425:208,1,53.9999983520508,2|0,3:2|0:0,0:0:0:0:
399,216,150001,2,0,P|375:199|388:150,1,53.9999983520508,10|0,0:2|0:0,0:0:0:0:
381,126,150174,2,0,P|398:102|447:115,1,53.9999983520508,2|0,3:2|0:0,0:0:0:0:
485,194,150346,6,0,B|434:208|462:249|415:264|415:264|332:285,1,161.999995056153,2|2,3:2|0:2,0:0:0:0:
419,355,150691,2,0,B|368:341|396:300|349:285|349:285|266:264,1,161.999995056153,8|0,0:0|0:0,0:0:0:0:
264,221,151036,6,0,L|179:235,1,53.9999983520508,2|0,0:3|0:0,0:0:0:0:
187,275,151208,1,2,3:3:0:0:
59,293,151380,1,8,0:2:0:0:
59,293,151466,1,2,0:3:0:0:
59,293,151553,6,0,L|50:218,1,53.9999983520508,2|0,0:3|0:0,0:0:0:0:
104,214,151725,2,0,L|112:283,1,67.5000025749208,2|0,3:3|0:0,0:0:0:0:
191,278,151898,1,2,0:3:0:0:
191,278,151984,1,2,0:3:0:0:
191,278,152070,2,0,L|178:177,1,90,8|0,0:2|0:0,0:0:0:0:
231,182,152243,2,0,L|241:271,1,90,2|0,0:3|0:0,0:0:0:0:
165,291,152415,6,0,L|182:170,1,103.500001974106,2|0,0:3|0:0,0:0:0:0:
256,168,152588,2,0,L|240:274,1,103.500001974106,2|0,3:3|0:0,0:0:0:0:
191,278,152760,6,0,L|178:177,1,90,8|0,0:2|0:0,0:0:0:0:
231,182,152933,2,0,L|241:271,1,90,2|0,0:3|0:0,0:0:0:0:
301,357,153105,6,0,B|304:304|389:240|362:324|457:275|438:180,1,215.999993408203,4|8,3:2|0:0,0:0:0:0:
323,146,153622,2,0,P|344:213|397:211,1,107.999996704102,2|2,0:0|0:0,0:0:0:0:
373,219,153881,1,2,0:0:0:0:
373,219,153967,1,0,3:2:0:0:
488,99,154139,2,0,B|463:124|463:124|376:108,1,107.999996704102,8|0,0:0|0:0,0:0:0:0:
288,12,154484,5,2,3:2:0:0:
245,6,154570,1,0,3:2:0:0:
209,30,154656,1,2,3:2:0:0:
206,73,154743,1,0,3:2:0:0:
235,104,154829,1,0,3:2:0:0:
254,136,154915,1,0,3:2:0:0:
253,168,155001,1,2,3:2:0:0:
238,190,155087,1,0,3:2:0:0:
213,202,155174,1,2,3:2:0:0:
191,201,155260,1,2,3:2:0:0:
174,186,155346,1,2,3:2:0:0:
174,164,155432,1,2,3:2:0:0:
191,151,155518,1,2,3:2:0:0:
198,136,155605,1,2,3:2:0:0:
196,125,155691,1,2,3:2:0:0:
192,121,155777,1,2,3:2:0:0:
187,119,155863,6,0,B|165:55|113:23|32:102|140:168|176:83,1,229.500004377365,2|0,3:2|0:0,0:0:0:0:
225,45,156208,2,0,B|257:59|293:43|293:43|268:101|268:101|313:87|358:108,1,207.000003948212,2|2,0:3|0:0,0:0:0:0:
349,107,156467,1,2,0:0:0:0:
358,112,156553,2,0,P|359:122|308:155,1,67.5000025749208,8|0,0:0|0:0,0:0:0:0:
276,199,156725,1,2,0:2:0:0:
276,199,156812,1,2,0:2:0:0:
276,199,156898,2,0,P|260:171|216:176,1,67.5000025749208,2|0,0:3|0:0,0:0:0:0:
187,119,157070,5,2,0:0:0:0:
178,270,157243,2,0,B|138:272|126:358|262:356|242:218|120:213|110:271|110:271|104:301|77:316|55:306,1,270,0|0,3:0|0:0,0:0:0:0:
125,348,157587,2,0,B|86:387|86:387|57:264,1,180,2|2,0:3|0:2,0:0:0:0:
27,218,157846,1,2,0:2:0:0:
34,211,157932,2,0,B|5:174|5:174|146:207,1,153.000002918243,8|0,0:0|0:0,0:0:0:0:
207,213,158277,6,0,B|264:133|264:133|135:154|135:154|167:177|159:228,1,283.499991348267,2|0,0:1|0:0,0:0:0:0:
130,249,158622,6,0,P|119:266|131:249,1,67.5000025749208,0|0,3:0|0:0,0:0:0:0:
232,300,158794,2,0,B|275:286|275:286|287:253|287:253|385:225,1,135.000005149842,2|2,0:3|0:2,0:0:0:0:
339,237,159053,1,2,0:2:0:0:
339,237,159139,1,2,0:2:0:0:
207,213,159312,6,0,B|271:233|271:233|289:283|289:283|436:325,1,198.000006042481,8|0,0:0|0:0,0:0:0:0:
225,315,159570,2,0,B|280:296|280:296|295:254|295:254|422:218,1,170.999995433807,2|0,0:3|0:0,0:0:0:0:
413,221,159829,1,2,0:3:0:0:
429,329,160001,6,0,P|487:299|418:205,1,170.999995433807,2|0,3:3|0:0,0:0:0:0:
503,172,160260,2,0,P|505:118|409:128,1,144,2|0,0:3|0:0,0:0:0:0:
376,93,160518,1,2,0:3:0:0:
280,162,160691,1,8,0:0:0:0:
313,66,160863,1,0,3:0:0:0:
313,66,160949,1,0,3:0:0:0:
316,68,161036,5,8,0:0:0:0:
320,94,161122,1,8,0:0:0:0:
324,121,161208,1,8,0:0:0:0:
328,148,161294,1,8,0:0:0:0:
332,174,161381,6,0,B|289:167|271:246|309:212|309:296|240:295,1,144,4|2,3:2|0:0,0:0:0:0:
230,325,161639,1,2,0:0:0:0:
224,329,161725,2,0,B|166:283|155:235|243:176|260:279,1,170.999995433807,8|2,0:0|0:0,0:0:0:0:
364,261,162070,5,2,0:0:0:0:
387,274,162156,1,2,0:0:0:0:
387,303,162243,1,2,3:2:0:0:
362,316,162329,1,2,0:0:0:0:
335,304,162415,2,0,B|324:258|324:258|360:222|360:222|341:135,1,170.999995433807,10|2,0:0|0:2,0:0:0:0:
344,150,162674,1,2,0:2:0:0:
347,152,162760,1,2,3:2:0:0:
402,91,162932,6,0,B|422:114|404:144|404:144|402:111|349:69|293:126,1,170.999995433807,2|10,0:3|0:0,0:0:0:0:
285,116,163191,1,2,0:0:0:0:
262,105,163277,1,2,0:0:0:0:
253,88,163363,1,2,0:0:0:0:
257,68,163449,1,2,0:0:0:0:
152,32,163622,6,0,P|145:1|154:32,1,99.0000030212403,0|0,3:0|0:0,0:0:0:0:
190,78,163794,2,0,B|87:31|87:31|99:91|99:91|138:112|138:112|120:221,1,297.000009063721,10|0,0:2|0:0,0:0:0:0:
113,243,164139,1,2,3:2:0:0:
187,144,164312,6,0,B|89:95|89:95|69:203|69:203|64:229|37:236|37:236|66:254|67:295,1,323.999990112305,2|0,0:3|0:0,0:0:0:0:
12,284,164656,2,0,P|38:328|97:323,1,76.5000014591217,2|0,0:3|0:0,0:0:0:0:
108,368,164829,1,2,0:3:0:0:
108,368,164915,1,2,0:3:0:0:
108,368,165001,6,0,B|134:346|134:346|174:359,1,67.5000025749208,0|0,3:0|0:0,0:0:0:0:
191,299,165174,2,0,B|233:321|227:367|227:367|244:317|301:285|301:285|348:256|310:187|218:213|241:293,1,360,8|2,0:0|0:3,0:0:0:0:
238,269,165691,6,0,P|230:216|188:197,1,90,0|0,3:0|0:0,0:0:0:0:
149,190,165863,1,8,0:0:0:0:
232,136,166036,1,2,3:2:0:0:
99,117,166208,6,0,P|94:197|69:291,1,161.999995056153,8|0,0:0|0:0,0:0:0:0:
124,349,166467,2,0,P|129:269|154:175,1,161.999995056153,8|0,0:0|0:0,0:0:0:0:
178,148,166725,1,8,0:0:0:0:
51,136,166898,6,0,B|12:118|-26:180|36:235|139:185|87:84,1,202.500007724762,2|0,3:2|0:0,0:0:0:0:
57,50,167243,2,0,B|41:86|85:110|112:88|112:88|165:30|219:54,1,180,2|2,0:3|0:0,0:0:0:0:
220,9,167501,1,2,0:0:0:0:
224,16,167587,2,0,P|235:57|210:90,1,76.5000014591217,8|0,0:0|0:0,0:0:0:0:
262,117,167760,1,2,0:0:0:0:
263,114,167846,1,2,0:0:0:0:
265,110,167932,2,0,P|289:81|327:80,1,76.5000014591217,2|0,0:3|0:0,0:0:0:0:
366,118,168105,1,2,0:0:0:0:
479,206,168277,5,0,3:0:0:0:
472,53,168449,2,0,B|534:23|494:-54|406:-24|384:44|436:106|441:98|441:98|492:99|497:149|497:149|431:140|420:206,1,396.000012084961,2|2,0:0|0:2,0:0:0:0:
427,180,168881,1,2,0:2:0:0:
427,180,168967,1,10,0:0:0:0:
485,261,169139,1,0,3:0:0:0:
367,316,169312,1,10,0:2:0:0:
402,268,169484,1,8,0:2:0:0:
402,268,169570,1,8,0:2:0:0:
402,268,169656,6,0,B|431:294|431:294|414:371|414:371|355:384,1,161.999995056153,0|0,3:0|0:0,0:0:0:0:
314,384,169915,2,0,B|276:350|276:350|298:251|298:251|354:239|354:239|383:99,1,310.500005922318,2|2,0:3|0:2,0:0:0:0:
426,64,170260,1,2,0:2:0:0:
426,64,170346,6,0,B|461:89|445:128|445:128|442:86|384:38|312:91,1,207.000003948212,2|0,0:3|3:0,0:0:0:0:
301,30,170605,2,0,B|286:58|246:75|246:75|291:85|322:140,1,144,2|0,0:3|0:0,0:0:0:0:
315,163,170863,1,2,0:3:0:0:
230,193,171036,5,2,3:3:0:0:
314,337,171208,2,0,B|339:314|339:314|286:266,1,72,0|2,3:0|0:3,0:0:0:0:
263,319,171381,2,0,L|120:335,1,144,8|2,0:0|0:3,0:0:0:0:
55,274,171725,1,2,0:2:0:0:
55,274,171811,1,2,0:2:0:0:
55,274,171897,1,0,3:0:0:0:
211,217,172070,6,0,B|231:187|231:187|221:243,1,72,8|0,0:0|0:0,0:0:0:0:
206,271,172243,1,0,3:0:0:0:
206,271,172329,1,2,0:0:0:0:
206,271,172415,5,12,0:0:0:0:
164,213,172587,1,2,3:2:0:0:
176,142,172760,1,8,0:0:0:0:
234,100,172932,1,2,3:2:0:0:
305,112,173105,1,8,0:0:0:0:
347,170,173277,1,2,3:2:0:0:
335,241,173449,1,8,0:0:0:0:
277,283,173622,1,2,3:2:0:0:
196,287,173794,5,8,0:0:0:0:
281,301,173967,1,2,3:2:0:0:
351,251,174139,1,8,0:0:0:0:
365,166,174311,1,2,3:2:0:0:
315,96,174484,1,8,0:0:0:0:
230,82,174656,1,2,3:2:0:0:
160,132,174829,1,8,0:0:0:0:
146,217,175001,1,2,3:2:0:0:
208,287,175174,5,12,0:2:0:0:
220,253,175260,1,0,3:2:0:0:
232,219,175346,1,8,0:2:0:0:
244,185,175432,1,0,3:2:0:0:
256,151,175518,5,8,0:2:0:0:
268,184,175604,1,0,3:2:0:0:
280,218,175690,1,8,0:2:0:0:
292,252,175776,1,0,3:2:0:0:
304,286,175863,5,8,0:2:0:0:
274,265,175949,1,0,3:2:0:0:
244,245,176035,1,8,0:2:0:0:
214,224,176121,1,0,3:2:0:0:
185,204,176209,5,8,0:2:0:0:
221,203,176295,1,0,3:2:0:0:
257,201,176381,1,8,0:2:0:0:
294,201,176467,1,0,3:2:0:0:
329,200,176553,5,2,0:0:0:0:
346,183,176639,1,2,0:2:0:0:
365,176,176725,1,2,0:0:0:0:
381,176,176811,1,2,0:0:0:0:
392,178,176897,1,2,0:0:0:0:
399,182,176984,1,0,0:0:0:0:
401,185,177070,1,2,0:0:0:0:
402,188,177156,1,0,0:0:0:0:
404,190,177242,5,2,3:2:0:0:
423,215,177329,1,0,3:2:0:0:
454,221,177415,1,2,3:2:0:0:
478,200,177501,1,0,3:2:0:0:
481,167,177587,1,10,0:0:0:0:
467,132,177674,1,0,0:0:0:0:
440,106,177760,1,2,0:2:0:0:
402,91,177846,1,2,0:2:0:0:
363,101,177932,6,0,B|324:81|324:81|318:49|318:49|262:20|262:20|278:103,1,175.499991966248,4|0,3:2|0:0,0:0:0:0:
271,106,178277,1,8,0:0:0:0:
241,203,178449,1,2,0:0:0:0:
241,203,178536,1,2,0:0:0:0:
241,203,178622,2,0,L|257:287,1,58.4999973220826,2|2,0:0|0:0,0:0:0:0:
264,311,178795,1,2,3:2:0:0:
346,246,178967,1,8,0:0:0:0:
197,285,179139,1,2,0:0:0:0:
357,362,179312,6,0,P|423:373|423:263,1,175.499991966248,2|0,3:2|0:0,0:0:0:0:
421,243,179657,1,8,0:0:0:0:
339,244,179829,1,2,0:2:0:0:
342,214,179915,1,2,0:2:0:0:
345,185,180001,1,2,0:2:0:0:
348,156,180087,1,2,0:2:0:0:
351,127,180173,1,2,3:2:0:0:
284,221,180346,1,8,0:0:0:0:
405,145,180519,1,2,0:0:0:0:
280,49,180691,6,0,B|273:5|202:0|167:57|193:115,1,175.499991966248,2|0,3:2|0:0,0:0:0:0:
143,126,181036,2,0,P|191:159|243:123,1,116.999994644165,8|2,0:0|0:2,0:0:0:0:
237,133,181295,1,2,0:2:0:0:
237,133,181381,1,2,0:2:0:0:
127,233,181553,6,0,L|115:163,1,58.4999973220826,2|0,3:2|0:0,0:0:0:0:
143,126,181725,2,0,B|100:85|100:85|70:147,1,116.999994644165,8|2,0:0|0:2,0:0:0:0:
134,290,182070,1,2,0:2:0:0:
233,125,182243,6,0,L|221:195,1,58.4999973220826,2|0,3:2|0:0,0:0:0:0:
249,232,182415,2,0,B|206:273|206:273|176:211,1,116.999994644165,8|2,0:0|0:2,0:0:0:0:
240,68,182760,1,2,0:2:0:0:
310,152,182932,5,2,3:2:0:0:
156,127,183105,1,8,0:0:0:0:
250,8,183277,1,0,3:0:0:0:
223,183,183449,6,0,B|225:128|225:128|91:174,1,175.499991966248,2|0,3:2|0:0,0:0:0:0:
61,189,183795,1,8,0:0:0:0:
4,74,183967,1,2,0:2:0:0:
4,74,184053,1,2,0:2:0:0:
4,74,184139,2,0,B|9:81|9:81|59:90,1,58.4999973220826,2|2,0:2|0:2,0:0:0:0:
103,61,184312,1,2,3:2:0:0:
156,127,184484,1,8,0:0:0:0:
241,46,184657,1,2,0:0:0:0:
326,160,184829,6,0,B|316:107|351:76|412:79|457:143,1,175.499991966248,0|0,3:0|0:0,0:0:0:0:
481,162,185174,1,8,0:0:0:0:
406,256,185346,1,2,0:2:0:0:
402,226,185432,1,2,0:2:0:0:
396,198,185518,1,2,0:2:0:0:
387,170,185604,1,2,0:2:0:0:
375,143,185690,1,2,3:2:0:0:
256,114,185863,1,8,0:0:0:0:
336,222,186036,1,2,0:0:0:0:
235,328,186208,6,0,B|215:301|224:266|224:266|139:234|105:296,1,175.499991966248,0|0,3:2|0:0,0:0:0:0:
99,328,186553,1,8,0:0:0:0:
243,380,186725,1,2,0:2:0:0:
243,380,186812,1,2,0:2:0:0:
243,380,186898,2,0,P|282:352|275:302,1,58.4999973220826,2|2,0:2|0:2,0:0:0:0:
277,286,187070,1,2,3:2:0:0:
404,246,187243,1,8,0:0:0:0:
343,365,187415,5,2,0:2:0:0:
345,341,187501,1,2,0:2:0:0:
349,316,187587,1,2,0:2:0:0:
352,291,187673,1,2,0:2:0:0:
356,267,187759,1,2,3:2:0:0:
457,227,187932,1,8,0:0:0:0:
354,121,188105,5,2,0:2:0:0:
354,121,188191,1,2,0:2:0:0:
354,121,188277,2,0,P|360:92|406:108,1,58.4999973220826,2|2,0:2|0:2,0:0:0:0:
436,96,188450,1,2,3:2:0:0:
458,186,188622,1,8,0:0:0:0:
370,219,188795,1,0,3:0:0:0:
296,161,188967,6,0,B|231:126|231:126|221:135|210:140|210:140|236:245,1,175.499991966248,4|0,3:2|0:0,0:0:0:0:
288,237,189312,2,0,B|260:245|250:275|250:275|214:252|179:277,1,116.999994644165,8|2,0:0|0:0,0:0:0:0:
169,251,189570,1,2,0:0:0:0:
145,233,189656,1,2,0:0:0:0:
123,252,189743,1,2,0:0:0:0:
101,271,189829,1,2,3:2:0:0:
43,197,190001,1,8,0:0:0:0:
106,128,190174,1,2,0:0:0:0:
190,168,190346,6,0,B|205:128|258:147|249:183|249:183|241:216|270:249|328:227,1,175.499991966248,2|0,3:2|0:0,0:0:0:0:
343,212,190691,1,8,0:0:0:0:
407,328,190863,1,2,0:2:0:0:
415,300,190949,1,2,0:2:0:0:
423,272,191035,1,2,0:2:0:0:
432,244,191121,1,2,0:2:0:0:
440,216,191207,1,2,3:2:0:0:
404,161,191381,1,8,0:0:0:0:
492,244,191553,1,2,0:0:0:0:
340,297,191725,6,0,B|277:303|277:303|267:351|267:351|169:361,1,175.499991966248,2|0,3:2|0:0,0:0:0:0:
158,337,192070,1,8,0:0:0:0:
115,213,192243,1,2,0:2:0:0:
131,190,192329,1,2,0:2:0:0:
158,178,192415,1,2,0:2:0:0:
187,182,192501,1,2,0:2:0:0:
209,200,192587,1,2,3:2:0:0:
248,162,192760,1,8,0:0:0:0:
225,304,192932,5,2,0:2:0:0:
195,302,193018,1,2,0:2:0:0:
172,285,193104,1,2,0:2:0:0:
161,258,193190,1,2,0:2:0:0:
166,230,193276,1,2,3:2:0:0:
115,213,193449,1,8,0:0:0:0:
248,162,193622,5,2,0:2:0:0:
260,189,193708,1,2,0:2:0:0:
258,217,193794,1,2,0:2:0:0:
240,240,193880,1,2,0:2:0:0:
212,250,193966,1,2,3:2:0:0:
225,304,194139,1,8,0:0:0:0:
209,200,194312,1,0,3:0:0:0:
40,132,194484,6,0,B|-10:151|-10:151|-11:160|-19:182|-19:182|23:291,1,175.499991966248,2|0,3:2|0:0,0:0:0:0:
29,316,194829,1,8,0:0:0:0:
150,215,195001,1,2,0:2:0:0:
150,215,195088,1,2,0:2:0:0:
150,215,195174,2,0,P|178:228|176:271,1,58.4999973220826,2|2,0:2|0:2,0:0:0:0:
178,306,195346,1,2,3:2:0:0:
270,324,195519,1,8,0:0:0:0:
288,232,195691,1,2,0:0:0:0:
163,127,195863,6,0,B|217:115|217:115|227:78|227:78|331:54,1,175.499991966248,0|0,3:0|0:0,0:0:0:0:
357,50,196208,1,8,0:0:0:0:
413,143,196381,1,2,0:2:0:0:
407,171,196467,1,2,0:2:0:0:
402,200,196553,1,2,0:2:0:0:
397,229,196639,1,2,0:2:0:0:
392,258,196725,1,2,3:2:0:0:
381,362,196898,2,0,P|442:337|431:273,1,116.999994644165,8|2,0:0|0:0,0:0:0:0:
304,231,197243,5,0,3:2:0:0:
300,228,197329,1,0,0:0:0:0:
296,225,197415,1,0,0:0:0:0:
291,223,197501,1,0,0:0:0:0:
286,220,197587,1,8,0:0:0:0:
277,215,197674,1,0,0:0:0:0:
268,212,197760,1,2,0:2:0:0:
259,213,197846,1,2,0:2:0:0:
250,216,197932,5,2,0:2:0:0:
238,223,198018,1,2,0:2:0:0:
230,234,198105,1,2,3:2:0:0:
226,247,198191,1,0,0:0:0:0:
226,260,198277,1,8,0:0:0:0:
217,280,198363,1,0,0:0:0:0:
198,293,198449,1,2,0:2:0:0:
175,291,198536,1,2,0:2:0:0:
158,276,198622,5,2,0:2:0:0:
146,246,198708,1,2,0:2:0:0:
121,226,198794,1,2,3:2:0:0:
89,227,198881,1,0,0:0:0:0:
63,245,198967,1,8,0:0:0:0:
52,279,199053,1,0,0:0:0:0:
64,312,199139,1,2,0:2:0:0:
94,330,199225,1,2,0:2:0:0:
129,324,199312,5,2,0:2:0:0:
161,308,199398,1,2,0:2:0:0:
196,305,199484,1,2,3:2:0:0:
229,318,199570,1,2,0:2:0:0:
247,348,199656,1,10,0:2:0:0:
281,370,199743,1,2,0:2:0:0:
321,368,199829,1,2,3:2:0:0:
353,344,199915,1,2,0:2:0:0:
356,303,200001,6,0,P|370:238|428:128,1,175.499991966248,4|0,3:2|0:0,0:0:0:0:
463,115,200346,1,8,0:0:0:0:
332,17,200519,1,2,0:2:0:0:
313,33,200605,1,2,0:2:0:0:
307,57,200691,1,2,0:2:0:0:
312,82,200777,1,2,0:2:0:0:
328,99,200863,1,2,3:2:0:0:
355,144,201036,1,8,0:0:0:0:
269,186,201208,1,2,0:2:0:0:
387,260,201381,6,0,L|321:247,1,58.4999973220826,2|0,3:2|0:0,0:0:0:0:
276,258,201553,2,0,B|234:251|234:251|216:270|216:270|151:260,1,116.999994644165,2|8,0:2|0:0,0:0:0:0:
72,177,201898,1,2,0:0:0:0:
200,215,202070,1,2,0:0:0:0:
73,235,202243,1,2,3:2:0:0:
146,87,202415,1,10,0:2:0:0:
143,116,202501,1,2,0:2:0:0:
141,145,202587,1,2,0:2:0:0:
139,174,202673,1,2,0:2:0:0:
137,203,202760,6,0,B|150:147|150:147|183:130|183:130|205:38,1,175.499991966248,2|0,3:2|0:0,0:0:0:0:
213,2,203105,1,8,0:0:0:0:
290,133,203277,6,0,B|265:145|265:145|212:122,1,58.4999973220826,2|0,0:2|0:0,0:0:0:0:
325,33,203449,2,0,L|335:129,1,58.4999973220826,2|0,0:2|0:0,0:0:0:0:
337,171,203622,1,2,3:2:0:0:
422,101,203794,1,8,0:2:0:0:
452,211,203967,6,0,B|471:255|441:294|345:258|432:146,1,175.499991966248,2|0,0:2|0:0,0:0:0:0:
465,163,204312,2,0,P|492:180|502:221,1,58.4999973220826,2|0,3:2|0:0,0:0:0:0:
507,269,204484,2,0,B|467:277|467:277|457:311|457:311|387:326,1,116.999994644165,10|2,0:2|0:2,0:0:0:0:
291,365,204829,5,2,0:2:0:0:
281,347,204915,1,2,0:2:0:0:
262,331,205001,1,2,3:2:0:0:
233,325,205087,1,2,0:2:0:0:
205,304,205174,1,10,0:2:0:0:
200,265,205260,1,2,0:2:0:0:
221,233,205346,1,2,3:2:0:0:
229,190,205432,1,2,0:2:0:0:
194,158,205518,6,0,P|146:139|115:241,1,175.499991966248,0|0,3:2|0:0,0:0:0:0:
143,264,205863,1,8,0:0:0:0:
152,189,206036,2,0,P|133:161|83:153,1,58.4999973220826,2|2,0:2|0:2,0:0:0:0:
60,139,206208,1,2,0:2:0:0:
49,134,206294,1,2,0:2:0:0:
46,122,206381,1,2,3:2:0:0:
86,83,206553,1,8,0:0:0:0:
28,9,206725,6,0,L|91:22,1,58.4999973220826,2|0,0:2|0:0,0:0:0:0:
195,43,206898,2,0,L|137:31,1,58.4999973220826,2|0,3:2|0:0,0:0:0:0:
36,63,207070,2,0,B|77:60|77:60|93:33|93:33|145:30,1,116.999994644165,2|8,0:2|0:0,0:0:0:0:
236,4,207415,1,2,0:0:0:0:
251,28,207501,1,0,0:0:0:0:
252,57,207587,1,2,0:0:0:0:
238,82,207673,1,0,0:0:0:0:
213,98,207759,1,2,3:2:0:0:
261,234,207932,5,10,0:2:0:0:
288,225,208018,1,2,0:2:0:0:
316,216,208104,1,2,0:2:0:0:
306,190,208190,1,2,0:2:0:0:
294,163,208277,6,0,B|249:181|249:181|372:214,1,175.499991966248,2|0,3:2|0:0,0:0:0:0:
423,187,208622,1,8,0:0:0:0:
351,328,208794,1,2,0:2:0:0:
342,300,208880,1,2,0:2:0:0:
334,272,208966,1,2,0:2:0:0:
325,244,209052,1,2,0:2:0:0:
316,216,209138,1,2,3:2:0:0:
394,250,209312,1,8,0:2:0:0:
270,310,209484,5,2,0:2:0:0:
270,310,209570,1,0,0:0:0:0:
270,310,209656,1,0,0:0:0:0:
201,186,209829,1,2,3:2:0:0:
327,126,210001,1,10,0:2:0:0:
244,240,210174,1,2,0:2:0:0:
159,128,210346,5,2,0:2:0:0:
132,104,210432,1,2,0:2:0:0:
97,101,210518,1,2,3:2:0:0:
64,116,210605,1,2,0:2:0:0:
50,148,210691,1,10,0:2:0:0:
76,170,210777,1,2,0:2:0:0:
88,202,210863,1,2,3:2:0:0:
84,236,210949,1,2,0:2:0:0:
62,264,211036,6,0,B|38:226|72:171|161:201|161:286,1,175.499991966248,4|0,3:2|0:0,0:0:0:0:
151,311,211381,1,8,0:0:0:0:
256,359,211553,1,2,0:2:0:0:
256,359,211639,1,2,0:2:0:0:
256,359,211725,2,0,B|261:338|261:338|268:335|268:335|277:283,1,58.4999973220826,2|2,0:2|0:2,0:0:0:0:
288,255,211898,1,2,3:2:0:0:
323,340,212070,2,0,L|183:305,1,116.999994644165,8|2,0:0|0:2,0:0:0:0:
181,249,212329,1,0,0:0:0:0:
180,244,212415,6,0,P|178:221|231:206,1,58.4999973220826,2|0,3:2|0:0,0:0:0:0:
278,184,212587,2,0,P|280:207|227:222,1,58.4999973220826,2|0,0:2|0:0,0:0:0:0:
171,149,212760,2,0,B|186:139|208:139|208:139|219:111|219:111|251:123|286:84,1,116.999994644165,8|2,0:0|0:0,0:0:0:0:
230,6,213018,1,0,0:0:0:0:
229,12,213105,2,0,B|218:40|218:40|240:71,1,58.4999973220826,2|0,0:0|0:0,0:0:0:0:
316,123,213277,2,0,B|327:95|327:95|305:64,1,58.4999973220826,2|0,3:2|0:0,0:0:0:0:
164,24,213449,5,10,0:2:0:0:
135,18,213535,1,2,0:2:0:0:
106,13,213621,1,2,0:2:0:0:
99,40,213707,1,2,0:2:0:0:
92,69,213794,6,0,B|64:111|118:180|116:92|193:178|132:248,1,175.499991966248,6|0,3:2|0:0,0:0:0:0:
87,231,214139,2,0,B|46:242|46:242|121:172,1,116.999994644165,8|2,0:0|0:2,0:0:0:0:
153,152,214398,1,0,0:0:0:0:
153,152,214484,2,0,P|190:164|204:241,1,116.999994644165,2|2,0:2|3:2,0:0:0:0:
199,384,214829,6,0,L|189:310,1,58.4999973220826,8|0,0:2|0:0,0:0:0:0:
130,311,215001,2,0,L|281:292,1,116.999994644165,2|0,0:2|0:0,0:0:0:0:
415,308,215346,1,2,3:2:0:0:
415,308,215432,1,0,0:0:0:0:
415,308,215519,2,0,L|357:315,1,58.4999973220826,10|0,0:2|0:0,0:0:0:0:
264,244,215691,2,0,L|321:236,1,58.4999973220826,2|0,0:2|0:0,0:0:0:0:
443,168,215863,5,2,0:2:0:0:
452,177,215949,1,2,0:2:0:0:
457,195,216036,1,2,3:2:0:0:
445,212,216122,1,2,0:2:0:0:
420,214,216208,1,10,0:2:0:0:
395,198,216294,1,2,0:2:0:0:
389,166,216381,1,2,3:2:0:0:
396,130,216467,1,2,0:2:0:0:
430,108,216553,5,12,0:0:0:0:
485,117,216725,1,2,3:2:0:0:
341,86,216898,5,8,0:0:0:0:
286,77,217070,1,2,3:2:0:0:
433,55,217243,5,8,0:0:0:0:
483,31,217415,1,2,3:2:0:0:
430,108,217587,5,8,0:0:0:0:
382,7,217760,1,2,3:2:0:0:
282,80,217932,5,12,0:0:0:0:
323,177,218105,1,2,3:2:0:0:
379,64,218277,5,8,0:0:0:0:
282,80,218449,1,2,3:2:0:0:
186,98,218622,5,8,0:0:0:0:
327,115,218794,1,2,3:2:0:0:
165,47,218967,5,10,0:2:0:0:
142,64,219053,1,2,0:2:0:0:
131,91,219139,1,2,3:2:0:0:
135,120,219225,1,2,0:2:0:0:
153,142,219311,5,4,3:2:0:0:
65,288,219484,1,8,0:0:0:0:
65,288,219570,1,8,0:0:0:0:
65,288,219656,2,0,L|41:209,1,58.4999973220826,0|0,3:0|0:0,0:0:0:0:
197,185,219829,1,8,0:0:0:0:
197,185,219915,1,8,0:0:0:0:
197,185,220001,2,0,L|173:264,1,58.4999973220826,0|0,3:0|0:0,0:0:0:0:
330,292,220174,1,8,0:0:0:0:
330,292,220260,1,8,0:0:0:0:
330,292,220346,2,0,L|306:213,1,58.4999973220826,0|0,3:0|0:0,0:0:0:0:
448,166,220518,1,8,0:0:0:0:
448,166,220605,1,8,0:0:0:0:
448,166,220691,5,14,0:0:0:0:
476,120,220777,1,8,0:0:0:0:
471,70,220863,1,10,0:0:0:0:
437,40,220949,1,8,0:0:0:0:
396,36,221036,1,10,0:0:0:0:
364,52,221122,1,8,0:0:0:0:
349,80,221208,1,10,0:0:0:0:
353,106,221294,1,8,0:0:0:0:
371,119,221381,5,10,3:0:0:0:
356,86,221467,1,8,3:0:0:0:
325,66,221553,1,10,3:0:0:0:
289,70,221639,1,8,3:0:0:0:
261,92,221725,1,10,0:0:0:0:
239,121,221812,1,2,0:2:0:0:
204,131,221898,1,2,0:2:0:0:
168,124,221984,1,2,0:2:0:0:
145,95,222070,5,4,3:2:0:0:
82,190,232415,6,0,L|75:149,2,22.5000008583069,2|2|0,0:2|0:2|0:0,0:0:0:0:
137,187,232587,2,0,L|140:209,2,22.5000008583069,2|2|0,0:2|0:2|0:0,0:0:0:0:
182,145,232760,6,0,L|175:104,2,30,2|2|0,0:2|0:2|0:0,0:0:0:0:
247,163,232932,2,0,L|251:191,2,30,2|2|0,0:2|0:2|0:0,0:0:0:0:
293,70,233105,6,0,B|353:-13|512:8|576:125|402:326|364:267|385:132|324:165|269:157|216:207|193:303|242:373|375:387|395:306|395:306|369:311|334:302|326:260,1,809.999975280762,6|0,3:2|0:0,0:0:0:0:
379,258,235863,6,0,B|415:226|397:159|348:108|259:113|203:135|203:189|203:189|222:186|262:202|267:226|265:269|255:306|228:324|181:348|138:326|103:302|91:270|79:229|122:192|158:219|158:219|175:242|212:241,1,742.500028324128,2|0,0:2|0:0,0:0:0:0:
294,197,237932,5,2,0:2:0:0:
303,210,238018,1,2,0:2:0:0:
320,210,238105,1,2,0:2:0:0:
329,223,238191,1,2,0:2:0:0:
349,220,238277,2,0,L|355:199,3,22.5,2|2|2|2,0:2|0:2|0:2|0:2,0:0:0:0:
425,160,238622,6,0,B|488:120|488:120|486:110|488:101|488:101|435:27|435:27|424:24|417:14|417:14|369:99|369:99|355:101|345:105|345:105|325:82|289:89|289:89|246:102|206:80|209:32|194:7|271:-23|312:32|290:74|205:131|205:131|183:69|122:68|122:68|143:117|106:148,1,877.49995983124,2|0,0:2|0:0,0:0:0:0:
35,192,241381,6,0,B|-11:159|-1:76|136:48|168:187|168:187|77:194|59:278,1,432,2|0,0:2|0:0,0:0:0:0:
45,333,242587,2,0,B|19:321|-8:336|-8:336|58:245|58:245|78:251|96:243|96:243|87:305|140:330|170:317|170:317|179:251|247:227|343:270|284:368|220:313,1,576,2|0,0:2|0:0,0:0:0:0:
229,203,244139,6,0,B|229:67|229:67|230:45|243:30|266:20|289:34|289:34|384:98|384:98|388:105|389:117|381:128|381:128|311:192|311:192|299:195|292:188|288:174|288:174|288:133|288:133|286:126|279:118|273:118|273:118|169:128|169:128|104:136,1,720,2|2,0:2|0:0,0:0:0:0:
107,141,245949,1,2,0:2:0:0:
103,147,246036,1,2,0:2:0:0:
99,153,246122,1,2,0:2:0:0:
96,159,246208,2,0,L|80:103,3,36,2|2|2|2,0:2|0:2|0:2|0:2,0:0:0:0:
137,79,246553,2,0,L|146:113,3,26.9999991760254,2|2|2|2,0:2|0:2|0:2|0:2,0:0:0:0:
81,46,246898,6,0,B|196:66|196:66|200:43|200:43|196:66|196:66|312:88|312:88|308:109|308:109|312:88|312:88|518:131|518:131|513:130|513:130|455:144|455:144|379:174|423:220|358:243|315:227|310:194|310:194|304:146|260:134|212:165,1,890.999972808839,2|0,0:2|0:0,0:0:0:0:
156,177,248967,6,0,L|153:151,2,26.9999991760254,2|2|0,0:2|0:2|0:0,0:0:0:0:
204,209,249139,2,0,L|207:244,2,26.9999991760254,2|2|0,0:2|0:2|0:0,0:0:0:0:
149,271,249312,6,0,L|146:243,2,28.4999992389679,2|2|0,0:2|0:2|0:0,0:0:0:0:
205,324,249484,2,0,L|202:290,2,31.4999990386963,2|2|0,0:2|0:2|0:0,0:0:0:0:
151,374,249656,6,0,B|132:129|132:129|92:172|25:177|25:177|28:210|9:232|9:232|70:244|73:291|73:291|85:342|141:326,1,598.499984018326,2|0,0:2|0:0,0:0:0:0:
207,361,251036,6,0,B|277:250|277:250|298:223|313:237|342:245|316:286|316:286|298:313|313:348|335:362|361:365|378:354|378:354|487:293|487:293|494:278|484:264|484:264|366:223|366:223|354:214|353:199|353:199|451:130|451:130|461:126|470:135|470:135|512:221|512:221|438:197|438:197|426:169|426:169|326:138|326:138|325:124|313:117|313:117|248:150|248:150|228:120|186:113|186:113|236:108|250:61,1,1367.99996347046,2|2,0:2|0:2,0:0:0:0:
256,192,253967,12,0,255001,0:0:0:0:
293,245,255174,6,0,B|369:195|369:195|282:110,1,188.999994232178,6|0,3:2|0:0,0:0:0:0:
219,139,255691,2,0,B|142:188|142:188|229:273,1,188.999994232178,6|2,3:2|0:2,0:0:0:0:
265,300,256208,1,2,0:2:0:0:
256,192,256381,6,0,B|232:53|232:53|82:143|82:143|118:322,1,472.499985580445,2|0,0:2|0:0,0:0:0:0:
78,258,257415,1,2,0:0:0:0:
102,175,257587,1,2,0:0:0:0:
112,296,257760,1,2,0:0:0:0:
40,222,257932,6,0,B|-7:125|69:21|200:14|261:92|260:162|260:162|256:219|307:291|432:294|500:221|474:117,1,755.999976928712,2|0,0:0|0:0,0:0:0:0:
351,155,260691,6,0,P|316:221|287:357,1,188.999994232178,6|0,3:2|0:0,0:0:0:0:
161,229,261208,2,0,P|196:163|225:27,1,188.999994232178,6|0,3:2|0:0,0:0:0:0:
290,151,261725,1,2,0:0:0:0:
216,236,261898,6,0,B|222:105|133:40|32:49|32:49|149:103|117:197,1,472.499985580445,2|0,0:0|0:0,0:0:0:0:
68,261,262932,1,2,0:2:0:0:
164,226,263105,1,2,0:2:0:0:
64,251,263277,1,2,0:2:0:0:
222,233,263449,6,0,B|186:273|179:357|179:357|132:310|49:308|49:308|-29:308|-14:242|43:150|103:207|110:238|110:238|137:308|197:273|225:257|253:313|253:313|264:271|321:266,1,755.999976928712,2|0,0:2|0:0,0:0:0:0:
302,268,265518,6,0,L|309:226,2,31.4999990386963,2|2|0,0:2|0:2|0:0,0:0:0:0:
369,216,265691,2,0,L|363:247,2,31.4999990386963,2|2|0,0:2|0:2|0:0,0:0:0:0:
347,127,265864,6,0,L|354:169,2,31.4999990386963,2|2|0,0:2|0:2|0:0,0:0:0:0:
414,179,266036,2,0,L|408:147,2,31.4999990386963,2|2|0,0:2|0:2|0:0,0:0:0:0:
460,235,266208,6,0,L|476:59,1,170.999995433807,2|8,3:2|0:0,0:0:0:0:
460,235,267070,1,2,3:2:0:0:
489,287,267243,2,0,P|459:295|409:265,1,85.4999977169037,10|2,0:2|0:2,0:0:0:0:
341,181,267587,6,0,L|324:356,1,170.999995433807,2|8,3:2|0:0,0:0:0:0:
341,181,268449,1,2,3:2:0:0:
379,224,268622,2,0,B|345:244|345:244|268:218,1,85.4999977169037,10|2,0:2|0:2,0:0:0:0:
205,284,268967,6,0,L|192:182,1,85.4999977169037,2|0,3:2|0:0,0:0:0:0:
284,134,269312,2,0,L|267:309,1,170.999995433807,8|0,0:0|0:0,0:0:0:0:
138,265,269829,1,0,3:0:0:0:
221,113,270001,2,0,L|204:288,1,170.999995433807,8|0,0:0|0:0,0:0:0:0:
75,244,270518,1,0,3:0:0:0:
155,95,270691,2,0,L|138:270,1,170.999995433807,8|0,0:0|0:0,0:0:0:0:
16,230,271208,1,0,3:0:0:0:
127,182,271381,1,8,0:0:0:0:
76,300,271553,1,0,3:0:0:0:
50,135,271725,5,10,0:2:0:0:
81,239,271898,1,0,3:2:0:0:
194,109,272070,5,8,0:0:0:0:
197,217,272243,1,0,3:2:0:0:
331,109,272415,5,8,0:0:0:0:
328,217,272588,1,2,3:2:0:0:
462,135,272760,5,10,0:2:0:0:
431,239,272933,1,2,3:2:0:0:
321,165,273105,5,10,0:2:0:0:
417,102,273277,1,0,3:2:0:0:
249,205,273449,5,8,0:0:0:0:
345,268,273621,1,0,3:2:0:0:
150,174,273794,5,8,0:0:0:0:
246,111,273966,1,2,3:2:0:0:
78,214,274138,5,10,0:2:0:0:
174,277,274312,1,2,3:2:0:0:
211,162,274484,5,10,0:2:0:0:
239,136,274570,1,2,3:2:0:0:
248,98,274656,1,10,0:2:0:0:
241,59,274743,1,2,3:2:0:0:
207,39,274829,1,10,0:2:0:0:
169,45,274915,1,2,3:2:0:0:
145,75,275001,1,10,0:2:0:0:
158,111,275087,1,2,3:2:0:0:
196,113,275174,1,10,0:2:0:0:
217,81,275260,1,2,3:2:0:0:
250,61,275346,1,10,0:2:0:0:
288,63,275432,1,2,3:2:0:0:
318,86,275518,1,10,0:2:0:0:
350,107,275605,1,2,3:2:0:0:
388,104,275691,1,10,0:2:0:0:
415,76,275777,1,2,3:2:0:0:
416,48,275863,5,10,0:2:0:0:
404,15,275949,1,10,0:2:0:0:
378,0,276036,1,10,0:2:0:0:
354,8,276122,1,10,0:2:0:0:
341,24,276208,1,8,0:2:0:0:
342,40,276294,1,8,0:2:0:0:
349,50,276381,1,8,0:2:0:0:
357,51,276467,1,8,0:2:0:0:
362,49,276553,5,0,3:0:0:0:
332,44,276639,1,8,0:2:0:0:
302,40,276725,1,0,3:0:0:0:
144,11,276898,2,0,B|105:25|108:74|108:74|178:21|262:41,1,216,8|0,0:0|0:0,0:0:0:0:
344,103,277243,5,0,3:0:0:0:
344,103,277587,2,0,L|362:273,1,135.000005149842,12|2,0:0|0:0,0:0:0:0:
348,269,277846,1,2,0:0:0:0:
316,279,277932,1,2,0:0:0:0:
284,267,278018,1,2,0:0:0:0:
271,235,278105,1,2,3:2:0:0:
189,167,278277,1,8,0:0:0:0:
330,153,278449,1,2,0:0:0:0:
219,279,278622,6,0,P|190:299|101:234,1,135.000005149842,2|0,3:2|0:0,0:0:0:0:
244,127,278967,1,8,0:0:0:0:
168,233,279139,1,2,0:2:0:0:
175,200,279225,1,2,0:2:0:0:
182,167,279311,1,2,0:2:0:0:
190,134,279397,1,2,0:2:0:0:
197,101,279483,1,2,3:2:0:0:
112,181,279656,1,8,0:0:0:0:
253,123,279829,1,2,0:0:0:0:
121,2,280001,6,0,P|132:64|249:42,1,202.500007724762,2|0,3:2|0:0,0:0:0:0:
272,3,280346,1,8,0:0:0:0:
189,27,280518,1,2,0:2:0:0:
189,27,280605,1,2,0:2:0:0:
189,27,280691,1,2,0:2:0:0:
219,168,280863,1,2,3:2:0:0:
302,144,281036,2,0,P|351:140|369:221,1,135.000005149842,8|2,0:0|0:2,0:0:0:0:
221,173,281381,5,2,0:2:0:0:
331,187,281553,1,2,3:2:0:0:
210,267,281725,2,0,L|178:84,1,135.000005149842,8|2,0:0|0:2,0:0:0:0:
162,109,281984,1,2,0:2:0:0:
134,90,282070,1,2,0:2:0:0:
114,117,282156,1,2,0:2:0:0:
95,145,282243,1,2,3:2:0:0:
174,228,282415,1,8,0:0:0:0:
40,270,282587,1,0,3:0:0:0:
175,353,282760,6,0,P|178:317|295:305,1,135.000005149842,2|0,3:2|0:0,0:0:0:0:
388,237,283105,1,8,0:0:0:0:
367,370,283277,1,2,0:2:0:0:
334,362,283363,1,2,0:2:0:0:
301,354,283449,1,2,0:2:0:0:
268,346,283535,1,2,0:2:0:0:
236,339,283621,1,2,3:2:0:0:
174,221,283794,1,8,0:0:0:0:
258,277,283967,1,2,0:0:0:0:
112,315,284139,6,0,L|90:180,1,135.000005149842,0|0,3:0|0:0,0:0:0:0:
250,36,284484,2,0,L|272:171,1,135.000005149842,8|2,0:0|0:2,0:0:0:0:
239,157,284743,1,2,0:2:0:0:
207,145,284829,1,2,0:2:0:0:
175,134,284915,1,2,0:2:0:0:
143,123,285001,1,2,3:2:0:0:
250,36,285174,2,0,P|289:19|332:96,1,135.000005149842,8|2,0:0|0:0,0:0:0:0:
331,155,285432,1,2,0:0:0:0:
331,155,285518,6,0,P|352:95|432:46,1,135.000005149842,0|0,3:2|0:0,0:0:0:0:
507,38,285863,1,8,0:0:0:0:
452,230,286036,2,0,P|386:186|413:106,1,135.000005149842,2|2,0:2|0:2,0:0:0:0:
387,136,286294,1,2,0:2:0:0:
387,136,286381,1,2,3:2:0:0:
448,95,286553,1,8,0:0:0:0:
512,239,286725,2,0,P|419:258|373:286,1,135.000005149842,2|2,0:2|0:2,0:0:0:0:
229,210,287070,5,2,3:2:0:0:
253,147,287243,2,0,B|302:167|302:167|277:285,1,135.000005149842,8|2,0:0|0:2,0:0:0:0:
284,247,287501,1,2,0:2:0:0:
284,247,287587,1,2,0:2:0:0:
346,335,287760,1,2,3:2:0:0:
253,314,287932,1,8,0:0:0:0:
160,293,288105,1,0,3:0:0:0:
311,375,288277,6,0,L|350:190,1,135.000005149842,4|0,3:2|0:0,0:0:0:0:
446,191,288622,1,8,0:0:0:0:
335,63,288794,1,2,0:0:0:0:
317,91,288880,1,2,0:0:0:0:
323,123,288966,1,2,0:0:0:0:
348,144,289052,1,2,0:0:0:0:
381,144,289138,1,2,3:2:0:0:
481,97,289312,1,8,0:0:0:0:
372,19,289484,1,2,0:0:0:0:
372,19,289570,1,2,0:0:0:0:
372,19,289656,6,0,B|327:13|327:13|301:31|301:31|220:22,1,135.000005149842,2|0,3:2|0:0,0:0:0:0:
67,103,290001,1,8,0:0:0:0:
152,139,290174,1,2,0:2:0:0:
179,119,290260,1,2,0:2:0:0:
205,98,290346,1,2,0:2:0:0:
181,77,290432,1,2,0:2:0:0:
154,56,290518,1,2,3:2:0:0:
35,41,290691,2,0,L|54:177,1,135.000005149842,8|2,0:0|0:0,0:0:0:0:
64,235,290949,1,2,0:0:0:0:
67,242,291036,6,0,B|159:226|135:285|221:252,1,135.000005149842,2|0,3:2|0:0,0:0:0:0:
311,197,291381,1,8,0:0:0:0:
177,193,291553,1,2,0:2:0:0:
253,309,291725,1,2,0:2:0:0:
253,309,291812,1,2,0:2:0:0:
253,309,291898,1,2,3:2:0:0:
321,267,292070,5,8,0:0:0:0:
267,231,292243,2,0,L|114:249,1,135.000005149842,2|2,0:2|0:2,0:0:0:0:
54,313,292587,1,2,3:2:0:0:
192,358,292760,2,0,P|236:336|210:253,1,135.000005149842,8|2,0:0|0:2,0:0:0:0:
225,261,293018,1,2,0:2:0:0:
225,261,293105,1,2,0:2:0:0:
143,321,293277,1,2,3:2:0:0:
297,356,293449,1,8,0:0:0:0:
178,216,293622,1,0,3:0:0:0:
195,362,293794,6,0,P|240:256|304:152,1,202.500007724762,2|0,3:2|0:0,0:0:0:0:
338,169,294139,1,8,0:0:0:0:
348,58,294312,1,2,0:2:0:0:
380,53,294398,1,2,0:2:0:0:
410,67,294484,1,2,0:2:0:0:
427,96,294570,1,2,0:2:0:0:
425,129,294656,1,2,3:2:0:0:
467,237,294829,1,8,0:0:0:0:
372,213,295001,1,2,0:0:0:0:
352,317,295174,6,0,B|321:311|263:339|325:371|214:388,1,135.000005149842,0|0,3:0|0:0,0:0:0:0:
94,296,295518,1,8,0:0:0:0:
206,227,295691,1,2,0:2:0:0:
235,243,295777,1,2,0:2:0:0:
263,260,295863,1,2,0:2:0:0:
249,291,295949,1,2,0:2:0:0:
236,322,296035,1,2,3:2:0:0:
146,383,296208,1,8,0:0:0:0:
88,291,296381,1,2,0:0:0:0:
24,210,296553,5,0,3:2:0:0:
27,204,296639,1,0,0:0:0:0:
32,199,296725,1,0,0:0:0:0:
38,197,296812,1,0,0:0:0:0:
44,198,296898,1,8,0:0:0:0:
50,197,296984,1,0,0:0:0:0:
55,193,297070,1,2,0:2:0:0:
58,187,297156,1,2,0:2:0:0:
59,180,297243,5,2,0:2:0:0:
56,166,297329,1,2,0:2:0:0:
50,153,297415,1,2,3:2:0:0:
50,139,297501,1,0,0:0:0:0:
57,128,297587,1,8,0:0:0:0:
76,120,297674,1,0,0:0:0:0:
96,122,297760,1,2,0:2:0:0:
112,133,297846,1,2,0:2:0:0:
123,149,297932,5,2,0:2:0:0:
145,164,298018,1,2,0:2:0:0:
172,163,298105,1,2,3:2:0:0:
192,145,298191,1,0,0:0:0:0:
196,118,298277,1,8,0:0:0:0:
195,84,298363,1,0,0:0:0:0:
217,58,298449,1,2,0:2:0:0:
250,54,298536,1,2,0:2:0:0:
277,73,298622,5,2,0:2:0:0:
291,110,298708,1,2,0:2:0:0:
327,128,298794,1,2,3:2:0:0:
366,116,298881,1,2,0:2:0:0:
383,79,298967,1,10,0:2:0:0:
400,35,299053,1,2,0:2:0:0:
446,25,299139,1,2,3:2:0:0:
488,45,299225,1,2,0:2:0:0:
499,91,299312,6,0,P|499:175|384:236,1,202.500007724762,4|0,3:2|0:0,0:0:0:0:
357,220,299656,1,8,0:0:0:0:
276,330,299829,1,2,0:2:0:0:
270,296,299915,1,2,0:2:0:0:
265,263,300001,1,2,0:2:0:0:
260,229,300087,1,2,0:2:0:0:
255,196,300173,1,2,3:2:0:0:
311,139,300346,1,8,0:0:0:0:
186,217,300519,1,2,0:2:0:0:
342,301,300691,6,0,B|366:306|366:306|414:271,1,67.5000025749208,2|0,3:2|0:0,0:0:0:0:
453,268,300863,2,0,L|303:246,1,135.000005149842,2|8,0:2|0:0,0:0:0:0:
183,212,301208,1,2,0:0:0:0:
257,190,301381,1,2,0:0:0:0:
272,334,301553,1,2,3:2:0:0:
145,253,301726,1,10,0:2:0:0:
150,281,301812,1,2,0:2:0:0:
155,310,301898,1,2,0:2:0:0:
159,339,301984,1,2,0:2:0:0:
164,367,302070,6,0,B|186:325|162:265|110:244|110:244|103:300|39:314,1,202.500007724762,2|0,3:2|0:0,0:0:0:0:
42,306,302415,1,8,0:0:0:0:
9,156,302587,6,0,P|38:145|60:204,1,67.5000025749208,2|0,0:2|0:0,0:0:0:0:
107,239,302760,2,0,L|117:167,1,67.5000025749208,2|0,0:2|0:0,0:0:0:0:
124,109,302932,1,2,3:2:0:0:
244,225,303105,1,8,0:2:0:0:
237,43,303277,6,0,B|273:37|300:0|300:0|274:146,1,202.500007724762,2|0,0:2|0:0,0:0:0:0:
303,168,303622,2,0,P|251:167|225:133,1,67.5000025749208,2|0,3:2|0:0,0:0:0:0:
220,101,303794,2,0,L|384:74,1,135.000005149842,10|2,0:2|0:2,0:0:0:0:
438,40,304139,5,2,0:2:0:0:
457,18,304225,1,2,0:2:0:0:
486,22,304312,1,2,3:2:0:0:
496,46,304398,1,2,0:2:0:0:
483,77,304484,1,10,0:2:0:0:
450,100,304570,1,2,0:2:0:0:
403,107,304656,1,2,3:2:0:0:
357,76,304743,1,2,0:2:0:0:
362,22,304829,6,0,B|416:3|487:56|414:189|375:190,1,202.500007724762,0|0,3:2|0:0,0:0:0:0:
373,207,305174,1,8,0:0:0:0:
451,308,305346,1,2,0:2:0:0:
293,350,305518,1,2,0:2:0:0:
293,350,305605,1,2,0:2:0:0:
293,350,305691,1,2,3:2:0:0:
394,260,305863,1,8,0:0:0:0:
239,208,306036,6,0,L|141:187,1,67.5000025749208,2|0,0:2|0:0,0:0:0:0:
77,228,306208,2,0,L|146:242,1,67.5000025749208,2|0,3:2|0:0,0:0:0:0:
218,144,306381,2,0,L|182:318,1,135.000005149842,2|8,0:2|0:0,0:0:0:0:
56,323,306725,1,2,0:0:0:0:
25,310,306811,1,0,0:0:0:0:
5,283,306897,1,2,0:0:0:0:
4,250,306983,1,0,0:0:0:0:
20,221,307069,1,2,3:2:0:0:
121,105,307243,5,10,0:2:0:0:
126,138,307329,1,2,0:2:0:0:
132,171,307415,1,2,0:2:0:0:
137,204,307501,1,2,0:2:0:0:
143,238,307587,6,0,B|139:193|198:144|192:199|260:165|239:74,1,202.500007724762,2|0,3:2|0:0,0:0:0:0:
206,41,307932,1,8,0:0:0:0:
330,15,308105,1,2,0:2:0:0:
362,19,308191,1,0,0:0:0:0:
388,40,308277,1,2,0:2:0:0:
400,72,308363,1,0,0:0:0:0:
394,104,308449,1,2,3:2:0:0:
348,160,308622,1,8,0:2:0:0:
463,223,308794,5,2,0:2:0:0:
463,223,308881,1,2,0:2:0:0:
463,223,308967,1,2,0:2:0:0:
291,282,309139,1,2,3:2:0:0:
426,326,309312,1,10,0:2:0:0:
341,245,309484,1,2,0:2:0:0:
218,365,309656,5,2,0:2:0:0:
196,371,309743,1,2,0:2:0:0:
170,362,309829,1,2,3:2:0:0:
154,334,309915,1,2,0:2:0:0:
166,300,310001,1,10,0:2:0:0:
204,287,310087,1,2,0:2:0:0:
249,287,310174,1,2,3:2:0:0:
287,318,310260,1,2,0:2:0:0:
299,375,310346,6,0,B|217:338|273:273|148:220,1,202.500007724762,4|0,3:2|0:0,0:0:0:0:
156,167,310691,1,8,0:0:0:0:
120,249,310863,1,2,0:2:0:0:
120,249,310949,1,2,0:2:0:0:
120,249,311036,2,0,P|164:280|194:271,1,67.5000025749208,2|2,0:2|0:2,0:0:0:0:
247,248,311208,1,2,3:2:0:0:
104,198,311381,6,0,L|129:370,1,135.000005149842,8|2,0:0|0:2,0:0:0:0:
81,378,311639,1,2,0:0:0:0:
74,377,311725,2,0,P|52:350|68:312,1,67.5000025749208,2|0,3:2|0:0,0:0:0:0:
173,279,311898,2,0,P|195:306|179:344,1,67.5000025749208,2|0,0:2|0:0,0:0:0:0:
59,266,312070,6,0,L|39:132,1,135.000005149842,8|2,0:0|0:0,0:0:0:0:
84,76,312329,1,0,0:0:0:0:
85,82,312415,2,0,L|96:150,1,67.5000025749208,2|0,0:0|0:0,0:0:0:0:
150,179,312587,2,0,L|160:112,1,67.5000025749208,2|0,3:2|0:0,0:0:0:0:
272,79,312760,5,10,0:2:0:0:
305,80,312846,1,2,0:2:0:0:
332,99,312932,1,2,0:2:0:0:
344,130,313018,1,2,0:2:0:0:
337,163,313105,6,0,B|316:187|289:194|258:186|258:186|256:217|256:217|225:204|187:209|159:243,1,202.500007724762,6|0,3:2|0:0,0:0:0:0:
126,238,313449,2,0,L|110:88,1,135.000005149842,8|2,0:0|0:2,0:0:0:0:
193,55,313708,1,2,0:0:0:0:
193,55,313794,2,0,P|180:137|114:140,1,135.000005149842,2|2,0:2|3:2,0:0:0:0:
72,16,314139,6,0,L|159:40,1,67.5000025749208,8|0,0:2|0:0,0:0:0:0:
190,51,314312,2,0,B|248:65|248:65|300:75|260:105|346:129,1,135.000005149842,2|0,0:2|0:0,0:0:0:0:
203,208,314657,1,2,3:2:0:0:
203,208,314743,1,2,0:0:0:0:
203,208,314829,2,0,L|193:131,1,67.5000025749208,10|0,0:2|0:0,0:0:0:0:
185,53,315001,1,2,0:2:0:0:
328,224,315174,5,2,0:2:0:0:
334,223,315260,1,2,0:2:0:0:
345,231,315346,1,2,3:2:0:0:
351,249,315432,1,2,0:2:0:0:
335,270,315518,1,10,0:2:0:0:
301,275,315605,1,2,0:2:0:0:
274,244,315691,1,2,3:2:0:0:
283,197,315777,1,2,0:2:0:0:
332,174,315863,5,12,0:0:0:0:
497,223,316036,1,2,3:2:0:0:
387,189,316208,5,8,0:0:0:0:
442,208,316381,1,2,3:2:0:0:
371,139,316553,5,8,0:0:0:0:
460,259,316726,1,2,3:2:0:0:
435,126,316898,5,8,0:0:0:0:
395,271,317071,1,2,3:2:0:0:
483,169,317243,5,12,0:0:0:0:
347,228,317416,1,2,3:2:0:0:
413,355,317587,5,8,0:0:0:0:
396,218,317760,1,2,3:2:0:0:
482,321,317932,1,8,0:0:0:0:
343,276,318104,1,2,3:2:0:0:
258,187,318277,5,10,0:2:0:0:
282,164,318363,1,2,0:2:0:0:
287,131,318449,1,2,3:2:0:0:
273,101,318535,1,2,0:2:0:0:
244,86,318622,6,0,L|134:101,1,67.5000025749208,12|0,3:2|0:0,0:0:0:0:
185,223,318794,1,0,3:0:0:0:
185,223,318881,1,0,3:0:0:0:
185,223,318967,2,0,L|118:213,1,67.5000025749208,8|0,0:0|0:0,0:0:0:0:
86,74,319139,5,0,3:0:0:0:
86,74,319226,1,0,3:0:0:0:
86,74,319312,2,0,L|19:83,1,67.5000025749208,8|0,0:0|0:0,0:0:0:0:
6,243,319484,1,0,3:0:0:0:
6,243,319571,1,0,3:0:0:0:
6,243,319657,2,0,L|72:252,1,67.5000025749208,8|0,0:0|0:0,0:0:0:0:
202,271,319829,1,0,3:0:0:0:
224,256,319915,1,0,3:0:0:0:
250,258,320001,5,14,0:0:0:0:
285,289,320087,1,8,0:0:0:0:
332,295,320174,1,10,0:0:0:0:
370,267,320260,1,8,0:0:0:0:
381,221,320346,1,10,0:0:0:0:
363,177,320432,1,8,0:0:0:0:
370,130,320518,1,10,0:0:0:0:
412,107,320605,1,8,0:0:0:0:
455,124,320691,5,10,0:2:0:0:
311,180,320863,1,2,3:2:0:0:
472,228,321036,1,10,0:0:0:0:
369,79,321208,1,2,0:2:0:0:
369,79,321294,1,2,0:2:0:0:
369,79,321381,6,0,L|166:119,1,198.000006042481,4|8,3:2|0:0,0:0:0:0:
268,28,321898,1,2,0:2:0:0:
270,40,321984,1,2,0:2:0:0:
272,52,322070,1,2,0:2:0:0:
275,64,322156,1,2,0:2:0:0:
277,76,322242,1,2,3:2:0:0:
178,167,322415,2,0,P|140:137|155:75,1,99.0000030212403,8|2,0:0|0:2,0:0:0:0:
196,42,322674,1,2,0:2:0:0:
199,47,322760,6,0,L|186:257,1,198.000006042481,2|8,3:2|0:0,0:0:0:0:
176,368,323277,1,2,0:2:0:0:
176,355,323363,1,2,0:2:0:0:
177,343,323449,1,2,0:2:0:0:
178,330,323535,1,2,0:2:0:0:
179,318,323621,1,2,3:2:0:0:
280,238,323794,2,0,P|253:188|202:197,1,99.0000030212403,8|2,0:0|0:0,0:0:0:0:
122,218,324053,1,2,0:0:0:0:
128,223,324139,6,0,L|322:184,1,198.000006042481,2|8,3:2|0:0,0:0:0:0:
438,160,324656,1,2,0:2:0:0:
425,162,324742,1,2,0:2:0:0:
413,165,324828,1,2,0:2:0:0:
401,167,324914,1,2,0:2:0:0:
389,170,325000,1,2,3:2:0:0:
492,205,325174,2,0,L|396:228,1,99.0000030212403,8|2,0:0|0:2,0:0:0:0:
395,228,325432,1,2,0:2:0:0:
395,228,325518,5,2,0:0:0:0:
346,133,325691,1,2,3:2:0:0:
499,106,325863,2,0,L|491:204,1,99.0000030212403,8|2,0:0|0:2,0:0:0:0:
484,218,326122,1,2,0:2:0:0:
477,231,326208,1,2,0:2:0:0:
470,244,326294,1,2,0:2:0:0:
463,257,326381,1,2,3:2:0:0:
417,309,326553,1,8,0:0:0:0:
348,315,326725,1,2,3:2:0:0:
296,267,326898,6,0,P|206:259|181:363,1,198.000006042481,2|8,3:2|0:0,0:0:0:0:
250,317,327415,1,2,0:2:0:0:
250,317,327501,1,2,0:2:0:0:
250,317,327587,1,2,0:2:0:0:
200,243,327760,1,2,3:2:0:0:
126,270,327932,2,0,L|141:149,1,99.0000030212403,8|2,0:0|0:0,0:0:0:0:
83,114,328277,6,0,B|81:89|59:73|41:66|41:66|192:90,1,198.000006042481,2|8,3:2|0:0,0:0:0:0:
291,28,328794,1,2,0:2:0:0:
291,28,328881,1,2,0:2:0:0:
291,28,328967,1,2,0:2:0:0:
241,95,329139,1,2,3:2:0:0:
300,166,329312,2,0,P|360:144|358:94,1,99.0000030212403,8|2,0:0|0:0,0:0:0:0:
243,99,329656,6,0,B|254:168|254:168|286:190|286:190|299:288,1,198.000006042481,2|8,3:2|0:0,0:0:0:0:
248,347,330174,1,2,0:2:0:0:
248,347,330260,1,2,0:2:0:0:
248,347,330346,1,2,0:2:0:0:
325,361,330518,1,2,3:2:0:0:
402,374,330691,2,0,B|428:358|428:358|406:269,1,99.0000030212403,8|2,0:0|0:2,0:0:0:0:
411,291,330949,1,2,0:2:0:0:
411,291,331036,5,2,0:2:0:0:
347,207,331208,1,2,3:2:0:0:
363,277,331381,2,0,P|396:244|449:255,1,99.0000030212403,8|2,0:0|0:2,0:0:0:0:
444,251,331639,1,2,0:2:0:0:
444,251,331725,1,2,0:2:0:0:
326,316,331898,1,2,3:2:0:0:
236,249,332070,1,10,0:2:0:0:
239,273,332156,1,2,0:2:0:0:
242,298,332242,1,2,3:2:0:0:
245,322,332328,1,2,0:2:0:0:
248,347,332415,6,0,L|259:176,1,153.000002918243,4|8,3:2|0:0,0:0:0:0:
230,148,332932,1,2,0:0:0:0:
328,153,333105,2,0,P|356:121|405:135,1,76.5000014591217,2|2,0:0|3:2,0:0:0:0:
337,225,333449,2,0,P|309:257|260:243,1,76.5000014591217,8|2,0:0|0:2,0:0:0:0:
209,223,333708,1,2,0:2:0:0:
206,229,333794,6,0,B|159:236|159:236|146:278|146:278|74:291,1,153.000002918243,2|8,3:2|0:0,0:0:0:0:
37,324,334312,1,2,0:2:0:0:
129,362,334484,2,0,B|153:335|153:335|132:291,1,76.5000014591217,2|2,0:2|3:2,0:0:0:0:
80,170,334829,1,8,0:0:0:0:
105,229,335001,1,2,0:2:0:0:
105,229,335087,1,2,0:2:0:0:
105,229,335174,6,0,P|34:212|32:133,1,153.000002918243,2|8,3:2|0:0,0:0:0:0:
77,80,335691,1,2,0:2:0:0:
80,170,335863,1,2,0:2:0:0:
26,86,336036,1,2,3:2:0:0:
135,172,336208,2,0,B|182:136|128:82|89:116|77:182,1,153.000002918243,8|2,0:0|0:2,0:0:0:0:
26,141,336725,1,2,3:2:0:0:
160,227,336898,2,0,P|167:162|225:71,1,153.000002918243,8|2,0:0|0:2,0:0:0:0:
263,72,337415,1,2,3:2:0:0:
253,168,337587,2,0,P|209:193|170:160,1,76.5000014591217,8|2,0:0|3:2,0:0:0:0:
185,182,337932,6,0,P|250:189|326:254,1,153.000002918243,2|8,3:2|0:0,0:0:0:0:
327,333,338449,1,2,0:2:0:0:
356,291,338622,1,2,0:2:0:0:
318,242,338794,1,2,3:2:0:0:
295,289,338967,2,0,P|266:253|280:201,1,76.5000014591217,8|0,0:0|0:0,0:0:0:0:
316,184,339312,6,0,P|365:204|340:299,1,153.000002918243,2|8,3:2|0:0,0:0:0:0:
380,372,339829,1,2,0:2:0:0:
453,303,340001,1,2,0:2:0:0:
356,291,340174,1,2,3:2:0:0:
400,316,340346,2,0,P|362:317|314:344,1,76.5000014591217,8|0,0:0|0:0,0:0:0:0:
183,326,340691,5,2,3:2:0:0:
164,327,340777,1,0,0:0:0:0:
144,324,340863,1,0,0:0:0:0:
133,310,340949,1,0,0:0:0:0:
130,291,341036,1,8,0:0:0:0:
139,273,341122,1,0,0:0:0:0:
137,251,341208,1,2,0:2:0:0:
123,234,341294,1,0,0:0:0:0:
103,224,341381,5,0,0:0:0:0:
79,231,341467,1,0,0:0:0:0:
57,244,341553,1,0,3:2:0:0:
33,237,341639,1,0,0:0:0:0:
13,220,341725,1,10,0:2:0:0:
10,191,341812,1,0,0:0:0:0:
26,170,341898,1,0,0:0:0:0:
52,157,341984,1,0,0:0:0:0:
79,166,342070,5,0,0:0:0:0:
106,182,342156,1,0,0:0:0:0:
138,179,342243,1,2,3:2:0:0:
159,156,342329,1,0,0:0:0:0:
161,123,342415,1,8,0:0:0:0:
169,89,342501,1,0,0:0:0:0:
198,69,342587,1,0,0:0:0:0:
233,68,342674,1,0,0:0:0:0:
262,87,342760,5,2,3:2:0:0:
224,96,342846,1,0,3:2:0:0:
191,74,342932,1,0,3:2:0:0:
183,35,343018,1,0,3:0:0:0:
201,0,343105,1,8,0:0:0:0:
187,39,343191,1,2,0:2:0:0:
149,60,343277,1,2,3:2:0:0:
105,59,343363,1,2,0:2:0:0:
73,31,343449,5,4,3:2:0:0:
