osu file format v14

[General]
AudioFilename: audio.mp3
AudioLeadIn: 0
PreviewTime: 44133
Countdown: 0
SampleSet: None
StackLeniency: 0.7
Mode: 3
LetterboxInBreaks: 0
SpecialStyle: 0
WidescreenStoryboard: 1

[Editor]
DistanceSpacing: 0.5
BeatDivisor: 4
GridSize: 16
TimelineZoom: 2.2

[Metadata]
Title:Feelin Sky
TitleUnicode:Feelin Sky
Artist:Camellia & DJ Genki
ArtistUnicode:かめりあ & DJ Genki
Creator:Curiossity
Version:Chilly
Source:
Tags:starry orange drum and bass marathon comic market c86
BeatmapID:1486446
BeatmapSetID:524256

[Difficulty]
HPDrainRate:8.3
CircleSize:4
OverallDifficulty:8.7
ApproachRate:5
SliderMultiplier:1.4
SliderTickRate:1

[Events]
//Background and Video events
0,0,"sky.png",0,0
//Break Periods
//Storyboard Layer 0 (Background)
//Storyboard Layer 1 (Fail)
//Storyboard Layer 2 (Pass)
//Storyboard Layer 3 (Foreground)
//Storyboard Sound Samples

[TimingPoints]
1374.59276929422,344.827586206897,4,2,1,60,1,0
12236,-100,4,3,1,60,0,0
23443,-100,4,3,1,70,0,0
45512,-100,4,3,1,80,0,1
89650,-111.111111111111,4,2,1,50,0,0
100684,-100,4,3,1,60,0,0
128271,-100,4,3,1,70,0,0
133788,-100,4,3,1,80,0,1
155857,-100,4,3,1,70,0,0
177926,-100,4,3,1,80,0,1
222064,-111.111111111111,4,2,1,50,0,0
255167,-111.111111111111,4,2,1,60,0,0
266202,-100,4,3,1,60,0,0
271719,-100,4,3,1,70,0,0
277236,-333.333333333333,4,3,1,70,0,0
277279,-200,4,3,1,70,0,0
277322,-142.857142857143,4,3,1,70,0,0
277365,-111.111111111111,4,3,1,70,0,0
277409,-90.9090909090909,4,3,1,70,0,0
277452,-76.9230769230769,4,3,1,70,0,0
277495,-66.6666666666667,4,3,1,70,0,0
277538,-58.8235294117647,4,3,1,70,0,0
277581,-100,4,3,1,80,0,1
321374,-100,4,3,1,70,0,0

[HitObjects]
448,192,1374,5,0,0:0:0:0:
320,192,1547,1,0,0:0:0:0:
64,192,1719,1,0,0:0:0:0:
192,192,1805,1,0,0:0:0:0:
320,192,1978,1,0,0:0:0:0:
192,192,2064,1,0,0:0:0:0:
64,192,2150,1,0,0:0:0:0:
320,192,2322,1,0,0:0:0:0:
192,192,2409,1,0,0:0:0:0:
448,192,2581,1,0,0:0:0:0:
64,192,2753,1,0,0:0:0:0:
192,192,2926,1,0,0:0:0:0:
320,192,3098,1,0,0:0:0:0:
192,192,3184,1,0,0:0:0:0:
64,192,3357,1,0,0:0:0:0:
192,192,3443,1,0,0:0:0:0:
320,192,3529,1,0,0:0:0:0:
448,192,3702,1,0,0:0:0:0:
320,192,3788,1,0,0:0:0:0:
64,192,3960,1,0,0:0:0:0:
448,192,4133,1,0,0:0:0:0:
320,192,4305,1,0,0:0:0:0:
192,192,4478,1,0,0:0:0:0:
320,192,4564,1,0,0:0:0:0:
448,192,4736,1,0,0:0:0:0:
320,192,4822,1,0,0:0:0:0:
192,192,4909,1,0,0:0:0:0:
320,192,5081,1,0,0:0:0:0:
192,192,5167,1,0,0:0:0:0:
448,192,5340,1,0,0:0:0:0:
64,192,5512,1,0,0:0:0:0:
192,192,5684,1,0,0:0:0:0:
320,192,5857,1,0,0:0:0:0:
64,192,5943,1,0,0:0:0:0:
192,192,6115,1,0,0:0:0:0:
320,192,6202,1,0,0:0:0:0:
448,192,6288,1,0,0:0:0:0:
192,192,6460,1,0,0:0:0:0:
320,192,6547,1,0,0:0:0:0:
64,192,6719,1,0,0:0:0:0:
448,192,6891,1,0,0:0:0:0:
192,192,7064,1,0,0:0:0:0:
64,192,7236,1,0,0:0:0:0:
192,192,7322,1,0,0:0:0:0:
448,192,7495,1,0,0:0:0:0:
320,192,7581,1,0,0:0:0:0:
192,192,7667,1,0,0:0:0:0:
320,192,7840,1,0,0:0:0:0:
448,192,7926,1,0,0:0:0:0:
192,192,8098,1,0,0:0:0:0:
64,192,8271,1,0,0:0:0:0:
320,192,8443,1,0,0:0:0:0:
448,192,8615,1,0,0:0:0:0:
320,192,8702,1,0,0:0:0:0:
64,192,8874,1,0,0:0:0:0:
192,192,8960,1,0,0:0:0:0:
320,192,9047,1,0,0:0:0:0:
192,192,9219,1,0,0:0:0:0:
64,192,9305,1,0,0:0:0:0:
320,192,9478,1,0,0:0:0:0:
64,192,9650,1,0,0:0:0:0:
192,192,9822,1,0,0:0:0:0:
320,192,9995,1,0,0:0:0:0:
64,192,10081,1,0,0:0:0:0:
192,192,10253,1,0,0:0:0:0:
320,192,10340,1,0,0:0:0:0:
448,192,10426,1,0,0:0:0:0:
192,192,10598,1,0,0:0:0:0:
320,192,10684,1,0,0:0:0:0:
64,192,10857,1,0,0:0:0:0:
448,192,11029,1,0,0:0:0:0:
320,192,11202,1,0,0:0:0:0:
192,192,11374,1,0,0:0:0:0:
448,192,11460,1,0,0:0:0:0:
320,192,11633,1,0,0:0:0:0:
192,192,11719,1,0,0:0:0:0:
64,192,11805,1,0,0:0:0:0:
320,192,11978,1,0,0:0:0:0:
192,192,12064,1,0,0:0:0:0:
448,192,12236,1,2,0:0:0:0:
320,192,12236,1,0,0:0:0:0:
192,192,12409,1,2,0:0:0:0:
64,192,12409,1,0,0:0:0:0:
64,192,12753,1,0,0:0:0:0:
320,192,12753,1,8,0:0:0:0:
448,192,12926,1,0,0:0:0:0:
320,192,13012,1,0,0:0:0:0:
448,192,13098,1,0,0:0:0:0:
320,192,13184,1,0,0:0:0:0:
192,192,13271,1,2,0:0:0:0:
64,192,13271,1,0,0:0:0:0:
192,192,13443,1,0,0:0:0:0:
448,192,13443,1,8,0:0:0:0:
64,192,13615,1,0,0:0:0:0:
192,192,13702,1,0,0:0:0:0:
320,192,13788,1,2,0:0:0:0:
448,192,13788,1,0,0:0:0:0:
192,192,14133,1,0,0:0:0:0:
448,192,14133,1,8,0:0:0:0:
64,192,14305,1,0,0:0:0:0:
192,192,14391,1,0,0:0:0:0:
64,192,14478,1,0,0:0:0:0:
192,192,14564,1,0,0:0:0:0:
320,192,14650,1,2,0:0:0:0:
448,192,14650,1,0,0:0:0:0:
320,192,14822,1,8,0:0:0:0:
64,192,14822,1,0,0:0:0:0:
448,192,14995,1,0,0:0:0:0:
320,192,15081,1,0,0:0:0:0:
192,192,15167,1,2,0:0:0:0:
64,192,15167,1,0,0:0:0:0:
320,192,15512,1,8,0:0:0:0:
64,192,15512,1,0,0:0:0:0:
448,192,15684,1,0,0:0:0:0:
192,192,15771,1,0,0:0:0:0:
448,192,15857,1,0,0:0:0:0:
192,192,15943,1,0,0:0:0:0:
320,192,16029,1,2,0:0:0:0:
448,192,16029,1,0,0:0:0:0:
320,192,16202,1,8,0:0:0:0:
192,192,16202,1,0,0:0:0:0:
64,192,16374,1,0,0:0:0:0:
192,192,16460,1,0,0:0:0:0:
320,192,16547,1,2,0:0:0:0:
448,192,16547,1,0,0:0:0:0:
192,192,16891,1,8,0:0:0:0:
448,192,16891,1,0,0:0:0:0:
64,192,17064,1,0,0:0:0:0:
320,192,17150,1,0,0:0:0:0:
64,192,17236,1,0,0:0:0:0:
320,192,17322,1,0,0:0:0:0:
64,192,17409,1,0,0:0:0:0:
192,192,17409,1,2,0:0:0:0:
192,192,17581,1,8,0:0:0:0:
320,192,17581,1,0,0:0:0:0:
448,192,17753,1,0,0:0:0:0:
64,192,17753,1,2,0:0:0:0:
320,192,17840,1,0,0:0:0:0:
192,192,17926,1,0,0:0:0:0:
64,192,17926,1,2,0:0:0:0:
64,192,18271,1,0,0:0:0:0:
320,192,18271,1,8,0:0:0:0:
448,192,18443,1,0,0:0:0:0:
64,192,18529,1,0,0:0:0:0:
448,192,18615,1,0,0:0:0:0:
64,192,18702,1,0,0:0:0:0:
320,192,18788,1,2,0:0:0:0:
448,192,18788,1,0,0:0:0:0:
192,192,18960,1,8,0:0:0:0:
320,192,18960,1,0,0:0:0:0:
64,192,19133,1,0,0:0:0:0:
192,192,19219,1,0,0:0:0:0:
320,192,19305,1,2,0:0:0:0:
448,192,19305,1,0,0:0:0:0:
192,192,19650,5,8,0:0:0:0:
448,192,19650,1,0,0:0:0:0:
64,192,19822,1,0,0:0:0:0:
448,192,19909,1,0,0:0:0:0:
64,192,19995,1,0,0:0:0:0:
448,192,20081,1,0,0:0:0:0:
192,192,20167,1,2,0:0:0:0:
64,192,20167,1,0,0:0:0:0:
192,192,20340,1,8,0:0:0:0:
320,192,20340,1,0,0:0:0:0:
448,192,20512,1,0,0:0:0:0:
320,192,20598,1,0,0:0:0:0:
192,192,20684,5,0,0:0:0:0:
64,192,20684,1,2,0:0:0:0:
320,192,20771,1,0,0:0:0:0:
192,192,20857,1,0,0:0:0:0:
320,192,20943,1,0,0:0:0:0:
192,192,21029,1,0,0:0:0:0:
64,192,21029,1,8,0:0:0:0:
320,192,21115,1,0,0:0:0:0:
64,192,21202,1,0,0:0:0:0:
320,192,21288,1,0,0:0:0:0:
192,192,21374,1,0,0:0:0:0:
448,192,21460,1,0,0:0:0:0:
64,192,21547,1,2,0:0:0:0:
192,192,21547,1,0,0:0:0:0:
448,192,21633,1,0,0:0:0:0:
192,192,21719,1,0,0:0:0:0:
64,192,21719,1,8,0:0:0:0:
448,192,21805,1,0,0:0:0:0:
64,192,21891,1,0,0:0:0:0:
448,192,21978,1,0,0:0:0:0:
192,192,22064,1,2,0:0:0:0:
64,192,22064,1,0,0:0:0:0:
320,192,22150,1,2,0:0:0:0:
448,192,22150,1,0,0:0:0:0:
192,192,22236,1,2,0:0:0:0:
64,192,22236,1,0,0:0:0:0:
320,192,22322,1,2,0:0:0:0:
448,192,22322,1,0,0:0:0:0:
192,192,22409,1,2,0:0:0:0:
64,192,22409,1,0,0:0:0:0:
320,192,22495,1,2,0:0:0:0:
448,192,22495,1,0,0:0:0:0:
192,192,22581,1,2,0:0:0:0:
64,192,22581,1,0,0:0:0:0:
320,192,22667,1,2,0:0:0:0:
448,192,22667,1,0,0:0:0:0:
192,192,22753,1,2,0:0:0:0:
64,192,22753,1,0,0:0:0:0:
320,192,22840,1,2,0:0:0:0:
448,192,22840,1,0,0:0:0:0:
192,192,22926,1,2,0:0:0:0:
64,192,22926,1,0,0:0:0:0:
320,192,23012,1,2,0:0:0:0:
192,192,23098,1,0,0:0:0:0:
64,192,23098,1,0,0:0:0:0:
448,192,23098,1,8,0:0:0:0:
320,192,23443,1,2,0:0:0:0:
448,192,23443,1,4,0:0:0:0:
64,192,23443,1,0,0:0:0:0:
192,192,23529,1,0,0:0:0:0:
64,192,23615,1,0,0:0:0:0:
448,192,23702,1,0,0:0:0:0:
320,192,23788,1,0,0:0:0:0:
64,192,23788,1,8,0:0:0:0:
192,192,23874,1,0,0:0:0:0:
320,192,23960,1,0,0:0:0:0:
448,192,24047,1,0,0:0:0:0:
192,192,24133,1,0,0:0:0:0:
64,192,24219,1,0,0:0:0:0:
320,192,24305,1,2,0:0:0:0:
448,192,24305,1,0,0:0:0:0:
192,192,24391,1,0,0:0:0:0:
448,192,24478,1,8,0:0:0:0:
64,192,24478,1,0,0:0:0:0:
192,192,24564,1,0,0:0:0:0:
320,192,24650,1,0,0:0:0:0:
448,192,24736,1,0,0:0:0:0:
64,192,24822,1,0,0:0:0:0:
192,192,24822,1,2,0:0:0:0:
320,192,24909,1,0,0:0:0:0:
448,192,24995,1,0,0:0:0:0:
192,192,25081,1,0,0:0:0:0:
448,192,25167,1,8,0:0:0:0:
64,192,25167,1,0,0:0:0:0:
320,192,25253,1,0,0:0:0:0:
192,192,25340,1,0,0:0:0:0:
448,192,25426,1,0,0:0:0:0:
64,192,25512,1,0,0:0:0:0:
320,192,25598,1,0,0:0:0:0:
192,192,25684,1,0,0:0:0:0:
448,192,25684,1,2,0:0:0:0:
64,192,25771,1,0,0:0:0:0:
448,192,25857,1,0,0:0:0:0:
320,192,25857,1,8,0:0:0:0:
192,192,25943,1,0,0:0:0:0:
64,192,26029,1,0,0:0:0:0:
320,192,26115,1,0,0:0:0:0:
192,192,26202,1,2,0:0:0:0:
64,192,26202,1,0,0:0:0:0:
320,192,26288,1,0,0:0:0:0:
448,192,26374,1,0,0:0:0:0:
192,192,26460,1,0,0:0:0:0:
320,192,26547,1,8,0:0:0:0:
64,192,26547,1,0,0:0:0:0:
448,192,26633,1,0,0:0:0:0:
192,192,26719,1,0,0:0:0:0:
64,192,26805,1,0,0:0:0:0:
448,192,26891,1,0,0:0:0:0:
320,192,26978,1,0,0:0:0:0:
64,192,27064,1,0,0:0:0:0:
192,192,27064,1,2,0:0:0:0:
320,192,27150,1,0,0:0:0:0:
448,192,27236,1,0,0:0:0:0:
64,192,27236,1,8,0:0:0:0:
192,192,27322,1,0,0:0:0:0:
320,192,27409,1,0,0:0:0:0:
448,192,27495,1,0,0:0:0:0:
192,192,27581,1,0,0:0:0:0:
320,192,27667,1,0,0:0:0:0:
64,192,27753,1,0,0:0:0:0:
192,192,27753,1,2,0:0:0:0:
320,192,27840,1,0,0:0:0:0:
64,192,27926,1,0,0:0:0:0:
448,192,27926,1,8,0:0:0:0:
192,192,28012,1,0,0:0:0:0:
320,192,28098,1,0,0:0:0:0:
448,192,28184,1,0,0:0:0:0:
192,192,28271,1,0,0:0:0:0:
64,192,28357,1,0,0:0:0:0:
448,192,28443,1,0,0:0:0:0:
320,192,28443,1,2,0:0:0:0:
192,192,28529,1,0,0:0:0:0:
320,192,28615,1,8,0:0:0:0:
64,192,28615,1,0,0:0:0:0:
192,192,28702,1,0,0:0:0:0:
448,192,28788,1,0,0:0:0:0:
320,192,28788,1,2,0:0:0:0:
192,192,28874,1,0,0:0:0:0:
320,192,28960,1,2,0:0:0:0:
448,192,28960,1,0,0:0:0:0:
64,192,29047,1,0,0:0:0:0:
448,192,29133,1,0,0:0:0:0:
320,192,29219,1,0,0:0:0:0:
192,192,29305,1,8,0:0:0:0:
64,192,29305,1,0,0:0:0:0:
320,192,29391,1,0,0:0:0:0:
64,192,29478,1,0,0:0:0:0:
192,192,29564,1,0,0:0:0:0:
320,192,29650,1,0,0:0:0:0:
448,192,29736,1,0,0:0:0:0:
192,192,29822,1,2,0:0:0:0:
64,192,29822,1,0,0:0:0:0:
320,192,29909,1,0,0:0:0:0:
64,192,29995,1,0,0:0:0:0:
448,192,29995,1,8,0:0:0:0:
320,192,30081,1,0,0:0:0:0:
192,192,30167,1,0,0:0:0:0:
64,192,30253,1,0,0:0:0:0:
192,192,30340,1,2,0:0:0:0:
448,192,30340,1,0,0:0:0:0:
320,192,30426,1,0,0:0:0:0:
64,192,30512,1,0,0:0:0:0:
192,192,30598,1,0,0:0:0:0:
320,192,30684,1,8,0:0:0:0:
448,192,30684,1,0,0:0:0:0:
192,192,30771,1,0,0:0:0:0:
448,192,30857,1,0,0:0:0:0:
320,192,30943,1,0,0:0:0:0:
192,192,31029,1,0,0:0:0:0:
64,192,31115,1,0,0:0:0:0:
320,192,31202,1,2,0:0:0:0:
448,192,31202,1,0,0:0:0:0:
192,192,31288,1,0,0:0:0:0:
448,192,31374,1,8,0:0:0:0:
64,192,31374,1,0,0:0:0:0:
192,192,31460,1,0,0:0:0:0:
320,192,31547,1,0,0:0:0:0:
448,192,31633,1,0,0:0:0:0:
192,192,31719,1,2,0:0:0:0:
64,192,31719,1,0,0:0:0:0:
320,192,31805,1,0,0:0:0:0:
64,192,31891,1,0,0:0:0:0:
192,192,31978,1,0,0:0:0:0:
320,192,32064,1,8,0:0:0:0:
448,192,32064,1,0,0:0:0:0:
192,192,32150,1,0,0:0:0:0:
448,192,32236,1,0,0:0:0:0:
320,192,32322,1,0,0:0:0:0:
192,192,32409,1,0,0:0:0:0:
64,192,32495,1,0,0:0:0:0:
320,192,32581,1,2,0:0:0:0:
448,192,32581,1,0,0:0:0:0:
192,192,32667,1,0,0:0:0:0:
448,192,32753,1,8,0:0:0:0:
64,192,32753,1,0,0:0:0:0:
192,192,32840,1,0,0:0:0:0:
320,192,32926,1,0,0:0:0:0:
64,192,33012,1,0,0:0:0:0:
192,192,33098,1,0,0:0:0:0:
448,192,33184,1,0,0:0:0:0:
320,192,33271,1,2,0:0:0:0:
192,192,33271,1,0,0:0:0:0:
64,192,33357,1,0,0:0:0:0:
320,192,33443,1,8,0:0:0:0:
448,192,33443,1,0,0:0:0:0:
192,192,33529,1,0,0:0:0:0:
64,192,33615,1,0,0:0:0:0:
192,192,33702,1,0,0:0:0:0:
320,192,33788,1,0,0:0:0:0:
448,192,33874,1,0,0:0:0:0:
192,192,33960,1,2,0:0:0:0:
64,192,33960,1,0,0:0:0:0:
320,192,34047,1,0,0:0:0:0:
64,192,34133,1,0,0:0:0:0:
448,192,34133,1,8,0:0:0:0:
320,192,34219,1,0,0:0:0:0:
192,192,34305,1,2,0:0:0:0:
64,192,34305,1,0,0:0:0:0:
320,192,34391,1,0,0:0:0:0:
448,192,34478,1,4,0:0:0:0:
192,192,34478,1,2,0:0:0:0:
64,192,34478,1,0,0:0:0:0:
320,192,34564,1,0,0:0:0:0:
448,192,34650,1,0,0:0:0:0:
64,192,34736,1,0,0:0:0:0:
192,192,34822,1,8,0:0:0:0:
448,192,34822,1,0,0:0:0:0:
320,192,34909,1,0,0:0:0:0:
64,192,34995,1,0,0:0:0:0:
192,192,35081,1,0,0:0:0:0:
320,192,35167,1,2,0:0:0:0:
448,192,35167,1,0,0:0:0:0:
192,192,35253,1,0,0:0:0:0:
448,192,35340,1,0,0:0:0:0:
320,192,35426,1,0,0:0:0:0:
192,192,35512,1,8,0:0:0:0:
64,192,35512,1,0,0:0:0:0:
320,192,35598,1,0,0:0:0:0:
448,192,35684,1,0,0:0:0:0:
64,192,35771,1,0,0:0:0:0:
192,192,35857,1,0,0:0:0:0:
320,192,35857,1,2,0:0:0:0:
448,192,35943,1,0,0:0:0:0:
64,192,36029,1,0,0:0:0:0:
192,192,36115,1,0,0:0:0:0:
320,192,36202,1,8,0:0:0:0:
448,192,36202,1,0,0:0:0:0:
192,192,36288,1,0,0:0:0:0:
64,192,36374,1,0,0:0:0:0:
320,192,36460,1,0,0:0:0:0:
448,192,36547,1,0,0:0:0:0:
64,192,36547,1,2,0:0:0:0:
192,192,36633,1,0,0:0:0:0:
448,192,36719,1,0,0:0:0:0:
320,192,36805,1,0,0:0:0:0:
192,192,36891,1,8,0:0:0:0:
64,192,36891,1,0,0:0:0:0:
320,192,36978,1,0,0:0:0:0:
448,192,37064,1,0,0:0:0:0:
192,192,37150,1,0,0:0:0:0:
320,192,37236,1,2,0:0:0:0:
448,192,37236,1,0,0:0:0:0:
64,192,37322,1,0,0:0:0:0:
192,192,37409,1,0,0:0:0:0:
320,192,37495,1,0,0:0:0:0:
448,192,37581,1,8,0:0:0:0:
64,192,37581,1,0,0:0:0:0:
192,192,37667,1,0,0:0:0:0:
320,192,37753,1,0,0:0:0:0:
448,192,37840,1,0,0:0:0:0:
192,192,37926,1,2,0:0:0:0:
64,192,37926,1,0,0:0:0:0:
320,192,38012,1,0,0:0:0:0:
64,192,38098,1,0,0:0:0:0:
192,192,38184,1,0,0:0:0:0:
320,192,38271,1,8,0:0:0:0:
448,192,38271,1,0,0:0:0:0:
192,192,38357,1,0,0:0:0:0:
64,192,38443,1,0,0:0:0:0:
320,192,38529,1,0,0:0:0:0:
192,192,38615,1,2,0:0:0:0:
64,192,38615,1,0,0:0:0:0:
448,192,38702,1,0,0:0:0:0:
320,192,38788,1,0,0:0:0:0:
192,192,38874,5,0,0:0:0:0:
64,192,38960,1,0,0:0:0:0:
320,192,38960,1,8,0:0:0:0:
448,192,39047,1,0,0:0:0:0:
192,192,39133,1,0,0:0:0:0:
64,192,39219,1,0,0:0:0:0:
320,192,39305,1,2,0:0:0:0:
448,192,39305,1,0,0:0:0:0:
192,192,39391,1,0,0:0:0:0:
64,192,39478,1,0,0:0:0:0:
320,192,39564,1,0,0:0:0:0:
64,192,39650,1,8,0:0:0:0:
448,192,39650,1,0,0:0:0:0:
320,192,39736,1,0,0:0:0:0:
192,192,39822,1,0,0:0:0:0:
448,192,39909,1,0,0:0:0:0:
320,192,39995,5,0,0:0:0:0:
192,192,39995,1,8,0:0:0:0:
64,192,39995,1,0,0:0:0:0:
192,192,40167,1,2,0:0:0:0:
448,192,40167,1,0,0:0:0:0:
320,192,40340,1,8,0:0:0:0:
448,192,40340,1,0,0:0:0:0:
64,192,40340,1,0,0:0:0:0:
192,192,40512,1,2,0:0:0:0:
320,192,40512,1,0,0:0:0:0:
64,192,40684,1,0,0:0:0:0:
192,192,40684,1,8,0:0:0:0:
448,192,40684,1,0,0:0:0:0:
320,192,40857,1,0,0:0:0:0:
192,192,40857,1,2,0:0:0:0:
64,192,41029,1,0,0:0:0:0:
320,192,41029,1,8,0:0:0:0:
448,192,41029,1,0,0:0:0:0:
192,192,41202,1,2,0:0:0:0:
448,192,41202,1,0,0:0:0:0:
192,192,41374,1,8,0:0:0:0:
320,192,41374,1,0,0:0:0:0:
64,192,41374,1,0,0:0:0:0:
320,192,41547,1,2,0:0:0:0:
448,192,41547,1,0,0:0:0:0:
192,192,41719,1,8,0:0:0:0:
64,192,41719,1,0,0:0:0:0:
448,192,41719,1,0,0:0:0:0:
192,192,41891,1,2,0:0:0:0:
320,192,41891,1,0,0:0:0:0:
64,192,42064,1,0,0:0:0:0:
448,192,42064,1,0,0:0:0:0:
320,192,42064,1,8,0:0:0:0:
192,192,42236,1,2,0:0:0:0:
448,192,42236,1,0,0:0:0:0:
192,192,42409,1,0,0:0:0:0:
64,192,42409,1,0,0:0:0:0:
320,192,42409,1,8,0:0:0:0:
64,192,42581,1,2,0:0:0:0:
448,192,42581,1,0,0:0:0:0:
320,192,42753,1,0,0:0:0:0:
448,192,42753,1,2,0:0:0:0:
192,192,42840,1,0,0:0:0:0:
320,192,42926,1,0,0:0:0:0:
448,192,42926,1,2,0:0:0:0:
64,192,43012,1,0,0:0:0:0:
320,192,43098,1,0,0:0:0:0:
448,192,43098,1,2,0:0:0:0:
192,192,43184,1,0,0:0:0:0:
320,192,43271,1,0,0:0:0:0:
448,192,43271,1,2,0:0:0:0:
64,192,43357,1,0,0:0:0:0:
320,192,43443,1,0,0:0:0:0:
448,192,43443,1,2,0:0:0:0:
192,192,43529,1,0,0:0:0:0:
320,192,43615,1,0,0:0:0:0:
448,192,43615,1,2,0:0:0:0:
64,192,43702,1,0,0:0:0:0:
320,192,43788,1,0,0:0:0:0:
448,192,43788,1,2,0:0:0:0:
192,192,43874,1,2,0:0:0:0:
64,192,43874,1,0,0:0:0:0:
320,192,43960,1,0,0:0:0:0:
448,192,43960,1,2,0:0:0:0:
192,192,44047,1,2,0:0:0:0:
64,192,44047,1,0,0:0:0:0:
320,192,44133,1,0,0:0:0:0:
448,192,44133,1,2,0:0:0:0:
448,192,44822,1,2,0:0:0:0:
64,192,44909,1,2,0:0:0:0:
448,192,44995,1,2,0:0:0:0:
320,192,44995,1,0,0:0:0:0:
64,192,45081,1,2,0:0:0:0:
448,192,45167,1,8,0:0:0:0:
320,192,45167,1,2,0:0:0:0:
64,192,45253,1,2,0:0:0:0:
448,192,45340,1,2,0:0:0:0:
64,192,45426,1,2,0:0:0:0:
320,192,45512,1,2,0:0:0:0:
448,192,45512,128,0,46374:0:0:0:0:
192,192,45512,1,4,0:0:0:0:
64,192,45684,1,0,0:0:0:0:
192,192,45857,1,0,0:0:0:0:
320,192,45857,1,8,0:0:0:0:
64,192,46029,1,0,0:0:0:0:
320,192,46115,1,0,0:0:0:0:
64,192,46202,1,0,0:0:0:0:
320,192,46288,1,0,0:0:0:0:
192,192,46374,1,2,0:0:0:0:
64,192,46374,1,0,0:0:0:0:
320,192,46547,1,8,0:0:0:0:
448,192,46547,1,0,0:0:0:0:
64,192,46719,128,0,47753:0:0:0:0:
192,192,46805,1,0,0:0:0:0:
320,192,46891,1,2,0:0:0:0:
448,192,46891,1,0,0:0:0:0:
320,192,47064,1,0,0:0:0:0:
192,192,47236,1,0,0:0:0:0:
448,192,47236,1,8,0:0:0:0:
320,192,47409,1,0,0:0:0:0:
192,192,47495,1,0,0:0:0:0:
320,192,47581,1,0,0:0:0:0:
192,192,47667,1,0,0:0:0:0:
320,192,47753,1,2,0:0:0:0:
448,192,47753,1,0,0:0:0:0:
192,192,47926,1,8,0:0:0:0:
448,192,47926,1,0,0:0:0:0:
64,192,48098,1,0,0:0:0:0:
192,192,48184,1,0,0:0:0:0:
448,192,48271,128,0,49995:0:0:0:0:
320,192,48271,1,2,0:0:0:0:
192,192,48443,1,0,0:0:0:0:
64,192,48615,1,0,0:0:0:0:
320,192,48615,1,8,0:0:0:0:
192,192,48788,1,0,0:0:0:0:
320,192,48874,1,0,0:0:0:0:
192,192,48960,1,0,0:0:0:0:
320,192,49047,1,0,0:0:0:0:
192,192,49133,1,2,0:0:0:0:
64,192,49133,1,0,0:0:0:0:
64,192,49305,1,0,0:0:0:0:
320,192,49305,1,8,0:0:0:0:
192,192,49478,1,0,0:0:0:0:
320,192,49564,1,0,0:0:0:0:
64,192,49650,1,0,0:0:0:0:
192,192,49822,1,0,0:0:0:0:
320,192,49822,1,2,0:0:0:0:
192,192,49995,1,8,0:0:0:0:
64,192,49995,1,0,0:0:0:0:
320,192,50167,1,0,0:0:0:0:
448,192,50253,1,0,0:0:0:0:
320,192,50340,1,0,0:0:0:0:
448,192,50426,1,0,0:0:0:0:
64,192,50512,1,2,0:0:0:0:
320,192,50512,1,0,0:0:0:0:
192,192,50684,1,8,0:0:0:0:
448,192,50684,1,0,0:0:0:0:
64,192,50857,1,2,0:0:0:0:
448,192,50857,1,0,0:0:0:0:
320,192,50943,1,0,0:0:0:0:
64,192,51029,128,0,51891:0:0:0:0:
192,192,51029,1,2,0:0:0:0:
448,192,51202,1,0,0:0:0:0:
192,192,51374,1,0,0:0:0:0:
320,192,51374,1,8,0:0:0:0:
448,192,51547,1,0,0:0:0:0:
192,192,51633,1,0,0:0:0:0:
448,192,51719,1,0,0:0:0:0:
192,192,51805,1,0,0:0:0:0:
320,192,51891,1,2,0:0:0:0:
448,192,51891,1,0,0:0:0:0:
64,192,52064,1,0,0:0:0:0:
192,192,52064,1,8,0:0:0:0:
320,192,52236,128,0,53271:0:0:0:0:
192,192,52322,1,0,0:0:0:0:
64,192,52409,1,0,0:0:0:0:
448,192,52409,1,2,0:0:0:0:
192,192,52581,1,0,0:0:0:0:
64,192,52753,1,0,0:0:0:0:
448,192,52753,1,8,0:0:0:0:
192,192,52926,1,0,0:0:0:0:
448,192,53012,1,0,0:0:0:0:
192,192,53098,1,0,0:0:0:0:
448,192,53184,1,0,0:0:0:0:
192,192,53271,1,2,0:0:0:0:
64,192,53271,1,0,0:0:0:0:
64,192,53443,1,0,0:0:0:0:
320,192,53443,1,8,0:0:0:0:
448,192,53615,128,0,55512:0:0:0:0:
320,192,53702,1,0,0:0:0:0:
192,192,53788,1,2,0:0:0:0:
64,192,53788,1,0,0:0:0:0:
192,192,53960,1,0,0:0:0:0:
320,192,54133,1,0,0:0:0:0:
64,192,54133,1,8,0:0:0:0:
192,192,54305,1,0,0:0:0:0:
320,192,54391,1,0,0:0:0:0:
192,192,54478,1,0,0:0:0:0:
320,192,54564,1,0,0:0:0:0:
192,192,54650,1,2,0:0:0:0:
64,192,54650,1,0,0:0:0:0:
320,192,54822,1,8,0:0:0:0:
64,192,54822,1,0,0:0:0:0:
192,192,54995,1,0,0:0:0:0:
64,192,55081,1,0,0:0:0:0:
320,192,55167,1,0,0:0:0:0:
64,192,55340,1,0,0:0:0:0:
192,192,55340,1,2,0:0:0:0:
192,192,55512,1,0,0:0:0:0:
320,192,55512,1,8,0:0:0:0:
64,192,55684,1,0,0:0:0:0:
192,192,55771,1,0,0:0:0:0:
64,192,55857,1,0,0:0:0:0:
192,192,55943,1,0,0:0:0:0:
448,192,56029,1,2,0:0:0:0:
64,192,56029,1,0,0:0:0:0:
320,192,56202,1,8,0:0:0:0:
192,192,56202,1,0,0:0:0:0:
64,192,56374,1,0,0:0:0:0:
448,192,56374,1,2,0:0:0:0:
192,192,56460,1,0,0:0:0:0:
320,192,56547,1,2,0:0:0:0:
448,192,56547,128,0,57409:0:0:0:0:
64,192,56547,1,4,0:0:0:0:
192,192,56719,1,0,0:0:0:0:
64,192,56891,1,0,0:0:0:0:
192,192,56891,1,8,0:0:0:0:
320,192,57064,1,0,0:0:0:0:
64,192,57150,1,0,0:0:0:0:
320,192,57236,1,0,0:0:0:0:
64,192,57322,1,0,0:0:0:0:
192,192,57409,1,2,0:0:0:0:
320,192,57409,1,0,0:0:0:0:
192,192,57581,1,8,0:0:0:0:
448,192,57581,1,0,0:0:0:0:
64,192,57753,128,0,58788:0:0:0:0:
192,192,57840,1,0,0:0:0:0:
320,192,57926,1,2,0:0:0:0:
448,192,57926,1,0,0:0:0:0:
448,192,58098,1,0,0:0:0:0:
320,192,58271,1,8,0:0:0:0:
192,192,58271,1,0,0:0:0:0:
448,192,58443,1,0,0:0:0:0:
192,192,58529,1,0,0:0:0:0:
448,192,58615,1,0,0:0:0:0:
192,192,58702,1,0,0:0:0:0:
320,192,58788,1,2,0:0:0:0:
448,192,58788,1,0,0:0:0:0:
320,192,58960,1,8,0:0:0:0:
64,192,58960,1,0,0:0:0:0:
64,192,59133,1,0,0:0:0:0:
192,192,59219,1,0,0:0:0:0:
448,192,59305,128,0,61029:0:0:0:0:
320,192,59305,1,2,0:0:0:0:
64,192,59478,1,0,0:0:0:0:
192,192,59650,1,0,0:0:0:0:
320,192,59650,1,8,0:0:0:0:
64,192,59822,1,0,0:0:0:0:
320,192,59909,1,0,0:0:0:0:
64,192,59995,1,0,0:0:0:0:
320,192,60081,1,0,0:0:0:0:
192,192,60167,1,2,0:0:0:0:
64,192,60167,1,0,0:0:0:0:
192,192,60340,1,8,0:0:0:0:
320,192,60340,1,0,0:0:0:0:
64,192,60512,1,0,0:0:0:0:
192,192,60598,1,0,0:0:0:0:
320,192,60684,1,0,0:0:0:0:
64,192,60857,1,0,0:0:0:0:
320,192,60857,1,2,0:0:0:0:
192,192,61029,1,8,0:0:0:0:
64,192,61029,1,0,0:0:0:0:
320,192,61202,1,0,0:0:0:0:
448,192,61288,1,0,0:0:0:0:
320,192,61374,1,0,0:0:0:0:
448,192,61460,1,0,0:0:0:0:
320,192,61547,1,2,0:0:0:0:
64,192,61547,1,0,0:0:0:0:
192,192,61719,1,0,0:0:0:0:
448,192,61719,1,8,0:0:0:0:
448,192,61891,1,2,0:0:0:0:
64,192,61891,1,0,0:0:0:0:
320,192,61978,1,0,0:0:0:0:
64,192,62064,128,0,62926:0:0:0:0:
192,192,62064,1,2,0:0:0:0:
448,192,62236,1,0,0:0:0:0:
192,192,62409,1,0,0:0:0:0:
320,192,62409,1,8,0:0:0:0:
448,192,62581,1,0,0:0:0:0:
192,192,62667,1,0,0:0:0:0:
448,192,62753,1,0,0:0:0:0:
192,192,62840,1,0,0:0:0:0:
320,192,62926,1,2,0:0:0:0:
448,192,62926,1,0,0:0:0:0:
64,192,63098,1,0,0:0:0:0:
192,192,63098,1,8,0:0:0:0:
320,192,63271,128,0,64305:0:0:0:0:
192,192,63357,1,0,0:0:0:0:
64,192,63443,1,0,0:0:0:0:
448,192,63443,1,2,0:0:0:0:
64,192,63615,1,0,0:0:0:0:
192,192,63788,1,0,0:0:0:0:
448,192,63788,1,8,0:0:0:0:
64,192,63960,1,0,0:0:0:0:
448,192,64047,1,0,0:0:0:0:
64,192,64133,1,0,0:0:0:0:
448,192,64219,1,0,0:0:0:0:
192,192,64305,1,2,0:0:0:0:
64,192,64305,1,0,0:0:0:0:
192,192,64478,1,0,0:0:0:0:
320,192,64478,1,8,0:0:0:0:
448,192,64650,128,0,66547:0:0:0:0:
320,192,64736,1,0,0:0:0:0:
192,192,64822,1,2,0:0:0:0:
64,192,64822,1,0,0:0:0:0:
64,192,64995,1,0,0:0:0:0:
192,192,65167,1,8,0:0:0:0:
320,192,65167,1,0,0:0:0:0:
64,192,65340,1,0,0:0:0:0:
320,192,65426,1,0,0:0:0:0:
64,192,65512,1,0,0:0:0:0:
320,192,65598,1,0,0:0:0:0:
192,192,65684,1,2,0:0:0:0:
64,192,65684,1,0,0:0:0:0:
192,192,65857,5,8,0:0:0:0:
320,192,65857,1,0,0:0:0:0:
64,192,66029,1,0,0:0:0:0:
320,192,66115,1,0,0:0:0:0:
192,192,66202,1,0,0:0:0:0:
64,192,66374,1,0,0:0:0:0:
320,192,66374,1,2,0:0:0:0:
192,192,66547,1,8,0:0:0:0:
64,192,66547,1,0,0:0:0:0:
448,192,66719,1,0,0:0:0:0:
320,192,66805,1,0,0:0:0:0:
64,192,66891,5,0,0:0:0:0:
192,192,66949,1,0,0:0:0:0:
320,192,67006,1,0,0:0:0:0:
448,192,67064,1,0,0:0:0:0:
64,192,67121,1,0,0:0:0:0:
192,192,67179,1,0,0:0:0:0:
320,192,67236,1,0,0:0:0:0:
448,192,67294,1,0,0:0:0:0:
64,192,67351,1,0,0:0:0:0:
192,192,67409,1,0,0:0:0:0:
320,192,67466,1,0,0:0:0:0:
448,192,67524,1,0,0:0:0:0:
192,192,67581,1,2,0:0:0:0:
64,192,67581,128,0,68443:0:0:0:0:
320,192,67581,1,4,0:0:0:0:
448,192,67753,1,0,0:0:0:0:
320,192,67926,1,0,0:0:0:0:
192,192,67926,1,8,0:0:0:0:
448,192,68098,1,0,0:0:0:0:
192,192,68184,1,0,0:0:0:0:
448,192,68271,1,0,0:0:0:0:
192,192,68357,1,0,0:0:0:0:
320,192,68443,1,2,0:0:0:0:
448,192,68443,1,0,0:0:0:0:
320,192,68615,1,8,0:0:0:0:
64,192,68615,1,0,0:0:0:0:
448,192,68788,128,0,69822:0:0:0:0:
320,192,68874,1,0,0:0:0:0:
192,192,68960,1,2,0:0:0:0:
64,192,68960,1,0,0:0:0:0:
192,192,69133,1,0,0:0:0:0:
320,192,69305,1,8,0:0:0:0:
64,192,69305,1,0,0:0:0:0:
192,192,69478,1,0,0:0:0:0:
320,192,69564,1,0,0:0:0:0:
192,192,69650,1,0,0:0:0:0:
320,192,69736,1,0,0:0:0:0:
192,192,69822,1,2,0:0:0:0:
64,192,69822,1,0,0:0:0:0:
320,192,69995,1,8,0:0:0:0:
64,192,69995,1,0,0:0:0:0:
448,192,70167,1,0,0:0:0:0:
320,192,70253,1,0,0:0:0:0:
64,192,70340,128,0,72064:0:0:0:0:
192,192,70340,1,2,0:0:0:0:
320,192,70512,1,0,0:0:0:0:
448,192,70684,1,0,0:0:0:0:
192,192,70684,1,8,0:0:0:0:
320,192,70857,1,0,0:0:0:0:
192,192,70943,1,0,0:0:0:0:
320,192,71029,1,0,0:0:0:0:
192,192,71115,1,0,0:0:0:0:
320,192,71202,1,0,0:0:0:0:
448,192,71202,1,2,0:0:0:0:
448,192,71374,1,8,0:0:0:0:
192,192,71374,1,0,0:0:0:0:
320,192,71547,1,0,0:0:0:0:
192,192,71633,1,0,0:0:0:0:
448,192,71719,1,0,0:0:0:0:
320,192,71891,1,2,0:0:0:0:
192,192,71891,1,0,0:0:0:0:
448,192,72064,1,0,0:0:0:0:
320,192,72064,1,8,0:0:0:0:
192,192,72236,1,0,0:0:0:0:
64,192,72322,1,0,0:0:0:0:
192,192,72409,1,0,0:0:0:0:
64,192,72495,1,0,0:0:0:0:
192,192,72581,1,2,0:0:0:0:
448,192,72581,1,0,0:0:0:0:
320,192,72753,1,8,0:0:0:0:
64,192,72753,1,0,0:0:0:0:
448,192,72926,1,0,0:0:0:0:
64,192,72926,1,2,0:0:0:0:
192,192,73012,1,0,0:0:0:0:
448,192,73098,128,0,73960:0:0:0:0:
320,192,73098,1,2,0:0:0:0:
64,192,73271,1,0,0:0:0:0:
320,192,73443,1,8,0:0:0:0:
192,192,73443,1,0,0:0:0:0:
64,192,73615,1,0,0:0:0:0:
320,192,73702,1,0,0:0:0:0:
64,192,73788,1,0,0:0:0:0:
320,192,73874,1,0,0:0:0:0:
192,192,73960,1,2,0:0:0:0:
64,192,73960,1,0,0:0:0:0:
448,192,74133,1,0,0:0:0:0:
320,192,74133,1,8,0:0:0:0:
192,192,74305,128,0,75340:0:0:0:0:
320,192,74391,1,0,0:0:0:0:
448,192,74478,1,2,0:0:0:0:
64,192,74478,1,0,0:0:0:0:
320,192,74650,1,0,0:0:0:0:
448,192,74822,1,8,0:0:0:0:
64,192,74822,1,0,0:0:0:0:
320,192,74995,1,0,0:0:0:0:
64,192,75081,1,0,0:0:0:0:
320,192,75167,1,0,0:0:0:0:
64,192,75253,1,0,0:0:0:0:
320,192,75340,1,2,0:0:0:0:
448,192,75340,1,0,0:0:0:0:
448,192,75512,1,0,0:0:0:0:
192,192,75512,1,8,0:0:0:0:
64,192,75684,128,0,77581:0:0:0:0:
192,192,75771,1,0,0:0:0:0:
320,192,75857,1,2,0:0:0:0:
448,192,75857,1,0,0:0:0:0:
448,192,76029,1,0,0:0:0:0:
192,192,76202,1,0,0:0:0:0:
320,192,76202,1,8,0:0:0:0:
448,192,76374,1,0,0:0:0:0:
192,192,76460,1,0,0:0:0:0:
448,192,76547,1,0,0:0:0:0:
192,192,76633,1,0,0:0:0:0:
320,192,76719,1,2,0:0:0:0:
448,192,76719,1,0,0:0:0:0:
320,192,76891,1,8,0:0:0:0:
192,192,76891,1,0,0:0:0:0:
448,192,77064,1,0,0:0:0:0:
320,192,77150,1,0,0:0:0:0:
192,192,77236,1,0,0:0:0:0:
448,192,77409,1,0,0:0:0:0:
320,192,77409,1,2,0:0:0:0:
320,192,77581,1,8,0:0:0:0:
192,192,77581,1,0,0:0:0:0:
448,192,77753,1,0,0:0:0:0:
320,192,77840,1,0,0:0:0:0:
448,192,77926,1,0,0:0:0:0:
320,192,78012,1,0,0:0:0:0:
192,192,78098,1,2,0:0:0:0:
448,192,78098,1,0,0:0:0:0:
64,192,78271,1,8,0:0:0:0:
320,192,78271,1,0,0:0:0:0:
192,192,78443,1,0,0:0:0:0:
448,192,78443,1,2,0:0:0:0:
320,192,78529,1,0,0:0:0:0:
192,192,78615,1,2,0:0:0:0:
64,192,78615,128,0,79478:0:0:0:0:
448,192,78615,1,4,0:0:0:0:
320,192,78788,1,0,0:0:0:0:
448,192,78960,1,0,0:0:0:0:
320,192,78960,1,8,0:0:0:0:
192,192,79133,1,0,0:0:0:0:
448,192,79219,1,0,0:0:0:0:
192,192,79305,1,0,0:0:0:0:
448,192,79391,1,0,0:0:0:0:
320,192,79478,1,2,0:0:0:0:
192,192,79478,1,0,0:0:0:0:
320,192,79650,1,8,0:0:0:0:
64,192,79650,1,0,0:0:0:0:
448,192,79822,128,0,80857:0:0:0:0:
320,192,79909,1,0,0:0:0:0:
192,192,79995,1,2,0:0:0:0:
64,192,79995,1,0,0:0:0:0:
64,192,80167,1,0,0:0:0:0:
192,192,80340,1,8,0:0:0:0:
320,192,80340,1,0,0:0:0:0:
64,192,80512,1,0,0:0:0:0:
320,192,80598,1,0,0:0:0:0:
64,192,80684,1,0,0:0:0:0:
320,192,80771,1,0,0:0:0:0:
192,192,80857,1,2,0:0:0:0:
64,192,80857,1,0,0:0:0:0:
192,192,81029,1,8,0:0:0:0:
448,192,81029,1,0,0:0:0:0:
448,192,81202,1,0,0:0:0:0:
320,192,81288,1,0,0:0:0:0:
64,192,81374,128,0,83098:0:0:0:0:
192,192,81374,1,2,0:0:0:0:
320,192,81547,1,0,0:0:0:0:
448,192,81719,1,8,0:0:0:0:
192,192,81719,1,0,0:0:0:0:
320,192,81891,1,0,0:0:0:0:
192,192,81978,1,0,0:0:0:0:
320,192,82064,1,0,0:0:0:0:
192,192,82150,1,0,0:0:0:0:
320,192,82236,1,2,0:0:0:0:
448,192,82236,1,0,0:0:0:0:
448,192,82409,1,8,0:0:0:0:
192,192,82409,1,0,0:0:0:0:
320,192,82581,1,0,0:0:0:0:
448,192,82667,1,0,0:0:0:0:
192,192,82753,1,0,0:0:0:0:
320,192,82926,1,2,0:0:0:0:
448,192,82926,1,0,0:0:0:0:
320,192,83098,1,8,0:0:0:0:
192,192,83098,1,0,0:0:0:0:
448,192,83271,1,0,0:0:0:0:
320,192,83357,1,0,0:0:0:0:
448,192,83443,1,0,0:0:0:0:
320,192,83529,1,0,0:0:0:0:
192,192,83615,1,2,0:0:0:0:
448,192,83615,1,0,0:0:0:0:
320,192,83788,1,8,0:0:0:0:
64,192,83788,1,0,0:0:0:0:
64,192,83960,1,0,0:0:0:0:
448,192,83960,1,2,0:0:0:0:
192,192,84047,1,0,0:0:0:0:
448,192,84133,128,0,84995:0:0:0:0:
320,192,84133,1,2,0:0:0:0:
64,192,84305,1,0,0:0:0:0:
320,192,84478,1,0,0:0:0:0:
192,192,84478,1,8,0:0:0:0:
64,192,84650,1,0,0:0:0:0:
320,192,84736,1,0,0:0:0:0:
64,192,84822,1,0,0:0:0:0:
320,192,84909,1,0,0:0:0:0:
192,192,84995,1,2,0:0:0:0:
64,192,84995,1,0,0:0:0:0:
448,192,85167,1,0,0:0:0:0:
320,192,85167,1,8,0:0:0:0:
192,192,85340,128,0,86374:0:0:0:0:
320,192,85426,1,0,0:0:0:0:
448,192,85512,1,2,0:0:0:0:
64,192,85512,1,0,0:0:0:0:
448,192,85684,1,0,0:0:0:0:
320,192,85857,1,8,0:0:0:0:
64,192,85857,1,0,0:0:0:0:
448,192,86029,1,0,0:0:0:0:
64,192,86115,1,0,0:0:0:0:
448,192,86202,1,0,0:0:0:0:
64,192,86288,1,0,0:0:0:0:
320,192,86374,1,2,0:0:0:0:
448,192,86374,1,0,0:0:0:0:
320,192,86547,1,8,0:0:0:0:
192,192,86547,1,0,0:0:0:0:
64,192,86719,128,0,88271:0:0:0:0:
192,192,86805,1,0,0:0:0:0:
320,192,86891,1,2,0:0:0:0:
448,192,86891,1,0,0:0:0:0:
192,192,87064,1,0,0:0:0:0:
448,192,87236,1,0,0:0:0:0:
320,192,87236,1,8,0:0:0:0:
192,192,87409,1,0,0:0:0:0:
448,192,87495,1,0,0:0:0:0:
192,192,87581,1,0,0:0:0:0:
448,192,87667,1,0,0:0:0:0:
192,192,87753,1,0,0:0:0:0:
320,192,87753,1,2,0:0:0:0:
448,192,87926,1,0,0:0:0:0:
320,192,87926,1,8,0:0:0:0:
192,192,88012,1,0,0:0:0:0:
448,192,88098,1,0,0:0:0:0:
192,192,88184,1,0,0:0:0:0:
320,192,88271,1,0,0:0:0:0:
192,192,88357,1,0,0:0:0:0:
448,192,88443,1,2,0:0:0:0:
320,192,88443,1,0,0:0:0:0:
192,192,88529,1,0,0:0:0:0:
448,192,88615,1,8,0:0:0:0:
320,192,88615,1,0,0:0:0:0:
64,192,88702,1,0,0:0:0:0:
320,192,88788,1,0,0:0:0:0:
64,192,88874,1,0,0:0:0:0:
448,192,88960,1,2,0:0:0:0:
64,192,89047,1,2,0:0:0:0:
320,192,89133,1,2,0:0:0:0:
448,192,89133,1,0,0:0:0:0:
64,192,89219,1,2,0:0:0:0:
320,192,89305,1,8,0:0:0:0:
448,192,89305,1,2,0:0:0:0:
192,192,89391,1,2,0:0:0:0:
64,192,89391,1,0,0:0:0:0:
320,192,89478,1,2,0:0:0:0:
448,192,89478,1,0,0:0:0:0:
192,192,89564,1,2,0:0:0:0:
320,192,89650,1,4,3:0:0:0:
448,192,89650,1,2,3:0:0:0:
64,192,89650,128,0,91029:3:0:0:0:
192,192,89822,1,0,0:0:0:0:
448,192,89995,1,0,0:0:0:0:
320,192,90167,1,0,0:0:0:0:
448,192,90340,1,0,0:0:0:0:
192,192,90512,1,0,0:0:0:0:
448,192,90684,1,0,0:0:0:0:
320,192,90857,1,0,0:0:0:0:
448,192,91029,1,0,0:0:0:0:
192,192,91029,128,0,92409:0:0:0:0:
64,192,91202,1,0,0:0:0:0:
320,192,91374,1,0,0:0:0:0:
64,192,91547,1,0,0:0:0:0:
448,192,91719,1,0,0:0:0:0:
64,192,91891,1,0,0:0:0:0:
320,192,92064,1,0,0:0:0:0:
64,192,92236,1,0,0:0:0:0:
320,192,92409,128,0,95167:0:0:0:0:
448,192,92409,1,0,0:0:0:0:
192,192,92581,1,0,0:0:0:0:
448,192,92753,1,0,0:0:0:0:
64,192,92926,1,0,0:0:0:0:
448,192,93098,1,0,0:0:0:0:
192,192,93271,1,0,0:0:0:0:
448,192,93443,1,0,0:0:0:0:
64,192,93615,1,0,0:0:0:0:
192,192,93788,1,0,0:0:0:0:
448,192,93960,1,0,0:0:0:0:
192,192,94133,1,0,0:0:0:0:
64,192,94305,1,0,0:0:0:0:
192,192,94478,1,0,0:0:0:0:
448,192,94650,1,0,0:0:0:0:
192,192,94822,1,0,0:0:0:0:
64,192,94995,1,0,0:0:0:0:
192,192,95167,128,0,96547:0:0:0:0:
448,192,95167,1,0,0:0:0:0:
64,192,95340,1,0,0:0:0:0:
320,192,95512,1,0,0:0:0:0:
64,192,95684,1,0,0:0:0:0:
448,192,95857,1,0,0:0:0:0:
64,192,96029,1,0,0:0:0:0:
320,192,96202,1,0,0:0:0:0:
64,192,96374,1,0,0:0:0:0:
448,192,96547,1,0,0:0:0:0:
320,192,96547,128,0,97926:0:0:0:0:
192,192,96719,1,0,0:0:0:0:
448,192,96891,1,0,0:0:0:0:
64,192,97064,1,0,0:0:0:0:
448,192,97236,1,0,0:0:0:0:
192,192,97409,1,0,0:0:0:0:
448,192,97581,1,0,0:0:0:0:
64,192,97753,1,0,0:0:0:0:
448,192,97926,128,0,99995:0:0:0:0:
192,192,97926,1,0,0:0:0:0:
64,192,98098,1,0,0:0:0:0:
320,192,98271,1,0,0:0:0:0:
64,192,98443,1,0,0:0:0:0:
192,192,98615,1,0,0:0:0:0:
64,192,98788,1,0,0:0:0:0:
320,192,98960,1,0,0:0:0:0:
64,192,99133,1,0,0:0:0:0:
192,192,99305,1,0,0:0:0:0:
64,192,99478,1,0,0:0:0:0:
320,192,99650,1,0,0:0:0:0:
192,192,99822,1,0,0:0:0:0:
64,192,99995,1,0,0:0:0:0:
192,192,100052,1,0,0:0:0:0:
320,192,100110,1,0,0:0:0:0:
448,192,100167,1,0,0:0:0:0:
64,192,100225,1,0,0:0:0:0:
192,192,100282,1,0,0:0:0:0:
320,192,100340,1,0,0:0:0:0:
448,192,100397,1,0,0:0:0:0:
64,192,100455,1,0,0:0:0:0:
192,192,100512,1,0,0:0:0:0:
320,192,100569,1,0,0:0:0:0:
448,192,100627,1,0,0:0:0:0:
192,192,100684,5,2,0:0:0:0:
64,192,100684,1,0,0:0:0:0:
320,192,100857,1,0,0:0:0:0:
448,192,101029,1,8,0:0:0:0:
192,192,101029,1,0,0:0:0:0:
64,192,101202,1,0,0:0:0:0:
192,192,101374,1,0,0:0:0:0:
448,192,101547,1,0,0:0:0:0:
320,192,101547,1,2,0:0:0:0:
192,192,101719,1,8,0:0:0:0:
64,192,101719,1,0,0:0:0:0:
320,192,101891,1,0,0:0:0:0:
448,192,102064,1,2,0:0:0:0:
64,192,102064,1,0,0:0:0:0:
192,192,102236,1,0,0:0:0:0:
448,192,102409,1,0,0:0:0:0:
320,192,102409,1,8,0:0:0:0:
192,192,102581,1,0,0:0:0:0:
64,192,102753,1,0,0:0:0:0:
320,192,102926,1,2,0:0:0:0:
448,192,102926,1,0,0:0:0:0:
192,192,103098,1,8,0:0:0:0:
64,192,103098,1,0,0:0:0:0:
448,192,103271,1,0,0:0:0:0:
64,192,103443,1,0,0:0:0:0:
320,192,103443,1,2,0:0:0:0:
192,192,103615,1,0,0:0:0:0:
64,192,103788,1,0,0:0:0:0:
448,192,103788,1,8,0:0:0:0:
320,192,103960,1,0,0:0:0:0:
192,192,104133,1,0,0:0:0:0:
64,192,104305,1,0,0:0:0:0:
320,192,104305,1,2,0:0:0:0:
192,192,104478,1,0,0:0:0:0:
448,192,104478,1,8,0:0:0:0:
320,192,104650,1,0,0:0:0:0:
64,192,104822,1,0,0:0:0:0:
192,192,104995,1,0,0:0:0:0:
320,192,104995,1,2,0:0:0:0:
448,192,105167,1,8,0:0:0:0:
64,192,105167,1,0,0:0:0:0:
320,192,105340,1,0,0:0:0:0:
192,192,105512,1,0,0:0:0:0:
320,192,105684,1,2,0:0:0:0:
448,192,105684,1,0,0:0:0:0:
192,192,105857,1,8,0:0:0:0:
64,192,105857,1,0,0:0:0:0:
320,192,106029,1,2,0:0:0:0:
448,192,106029,1,0,0:0:0:0:
320,192,106202,1,2,0:0:0:0:
448,192,106202,1,0,0:0:0:0:
192,192,106374,1,0,0:0:0:0:
448,192,106547,1,8,0:0:0:0:
64,192,106547,1,0,0:0:0:0:
320,192,106719,1,0,0:0:0:0:
192,192,106891,1,0,0:0:0:0:
320,192,107064,1,0,0:0:0:0:
448,192,107064,1,2,0:0:0:0:
192,192,107236,1,8,0:0:0:0:
64,192,107236,1,0,0:0:0:0:
320,192,107409,1,0,0:0:0:0:
448,192,107581,1,2,0:0:0:0:
192,192,107581,1,0,0:0:0:0:
320,192,107753,1,0,0:0:0:0:
64,192,107926,1,0,0:0:0:0:
448,192,107926,1,8,0:0:0:0:
192,192,108098,1,0,0:0:0:0:
320,192,108271,1,0,0:0:0:0:
448,192,108443,1,2,0:0:0:0:
64,192,108443,1,0,0:0:0:0:
320,192,108615,1,8,0:0:0:0:
192,192,108615,1,0,0:0:0:0:
64,192,108788,1,0,0:0:0:0:
320,192,108960,1,0,0:0:0:0:
448,192,108960,1,2,0:0:0:0:
192,192,109133,1,0,0:0:0:0:
320,192,109305,1,8,0:0:0:0:
64,192,109305,1,0,0:0:0:0:
448,192,109478,1,0,0:0:0:0:
320,192,109650,1,0,0:0:0:0:
192,192,109822,1,2,0:0:0:0:
64,192,109822,1,0,0:0:0:0:
448,192,109995,1,0,0:0:0:0:
320,192,109995,1,8,0:0:0:0:
192,192,110167,1,0,0:0:0:0:
64,192,110340,1,0,0:0:0:0:
192,192,110512,1,0,0:0:0:0:
320,192,110512,1,2,0:0:0:0:
64,192,110684,1,0,0:0:0:0:
448,192,110684,1,8,0:0:0:0:
320,192,110857,1,0,0:0:0:0:
192,192,111029,1,0,0:0:0:0:
64,192,111202,1,0,0:0:0:0:
320,192,111202,1,2,0:0:0:0:
448,192,111374,1,8,0:0:0:0:
192,192,111374,1,0,0:0:0:0:
320,192,111547,1,2,0:0:0:0:
64,192,111547,1,0,0:0:0:0:
64,192,111719,5,4,0:0:0:0:
192,192,111719,1,2,0:0:0:0:
448,192,111719,128,0,112064:0:0:0:0:
192,192,112236,1,0,0:0:0:0:
448,192,112409,1,2,0:0:0:0:
64,192,112409,1,0,0:0:0:0:
320,192,112753,128,0,113098:0:0:0:0:
64,192,113098,1,0,0:0:0:0:
192,192,113098,1,2,0:0:0:0:
448,192,113098,128,0,113443:0:0:0:0:
320,192,113443,1,0,0:0:0:0:
192,192,113615,1,0,0:0:0:0:
448,192,113788,1,0,0:0:0:0:
64,192,113788,1,2,0:0:0:0:
448,192,114133,128,0,114478:0:0:0:0:
64,192,114478,1,0,0:0:0:0:
320,192,114478,1,2,0:0:0:0:
192,192,114478,128,0,114822:0:0:0:0:
320,192,114822,1,0,0:0:0:0:
64,192,114995,1,0,0:0:0:0:
448,192,115167,1,0,0:0:0:0:
320,192,115167,1,2,0:0:0:0:
448,192,115512,128,0,115857:0:0:0:0:
192,192,115857,1,2,0:0:0:0:
64,192,115857,1,0,0:0:0:0:
320,192,115857,128,0,116202:0:0:0:0:
448,192,116202,1,0,0:0:0:0:
64,192,116374,1,0,0:0:0:0:
448,192,116547,1,0,0:0:0:0:
320,192,116547,1,2,0:0:0:0:
192,192,116891,128,0,117236:0:0:0:0:
320,192,117236,1,2,0:0:0:0:
64,192,117236,1,0,0:0:0:0:
448,192,117236,128,0,117581:0:0:0:0:
192,192,117581,1,0,0:0:0:0:
320,192,117753,1,0,0:0:0:0:
448,192,117926,1,2,0:0:0:0:
64,192,117926,1,0,0:0:0:0:
192,192,118271,128,0,118615:0:0:0:0:
448,192,118615,1,0,0:0:0:0:
320,192,118615,1,2,0:0:0:0:
64,192,118615,128,0,118960:0:0:0:0:
448,192,118960,1,0,0:0:0:0:
320,192,119133,1,0,0:0:0:0:
192,192,119305,1,2,0:0:0:0:
64,192,119305,1,0,0:0:0:0:
64,192,119650,128,0,119995:0:0:0:0:
448,192,119995,1,0,0:0:0:0:
320,192,119995,1,2,0:0:0:0:
192,192,119995,128,0,120340:0:0:0:0:
320,192,120340,1,0,0:0:0:0:
448,192,120512,1,0,0:0:0:0:
64,192,120684,1,0,0:0:0:0:
192,192,120684,1,2,0:0:0:0:
64,192,121029,128,0,121374:0:0:0:0:
192,192,121374,1,2,0:0:0:0:
448,192,121374,1,0,0:0:0:0:
320,192,121374,128,0,121719:0:0:0:0:
192,192,121719,1,0,0:0:0:0:
448,192,121891,1,0,0:0:0:0:
320,192,122064,1,2,0:0:0:0:
64,192,122064,1,0,0:0:0:0:
192,192,122409,128,0,122753:0:0:0:0:
448,192,122753,1,2,0:0:0:0:
64,192,122753,1,0,0:0:0:0:
192,192,123098,1,0,0:0:0:0:
320,192,123098,1,8,0:0:0:0:
64,192,123098,1,0,0:0:0:0:
64,192,123443,1,0,0:0:0:0:
448,192,123443,1,2,0:0:0:0:
192,192,123788,1,0,0:0:0:0:
320,192,123788,1,8,0:0:0:0:
448,192,123788,1,0,0:0:0:0:
64,192,124133,1,0,0:0:0:0:
192,192,124133,1,2,0:0:0:0:
64,192,124478,1,0,0:0:0:0:
448,192,124478,1,0,0:0:0:0:
320,192,124478,1,8,0:0:0:0:
192,192,124822,1,0,0:0:0:0:
320,192,124822,1,2,0:0:0:0:
64,192,125167,1,0,0:0:0:0:
448,192,125167,1,8,0:0:0:0:
192,192,125167,1,0,0:0:0:0:
320,192,125512,1,2,0:0:0:0:
448,192,125512,1,0,0:0:0:0:
320,192,125857,1,8,0:0:0:0:
192,192,125857,1,0,0:0:0:0:
64,192,125857,1,0,0:0:0:0:
192,192,126202,1,2,0:0:0:0:
448,192,126202,1,0,0:0:0:0:
448,192,126547,1,0,0:0:0:0:
320,192,126547,1,8,0:0:0:0:
64,192,126547,1,0,0:0:0:0:
320,192,126891,1,2,0:0:0:0:
192,192,126891,1,0,0:0:0:0:
64,192,127236,1,0,0:0:0:0:
192,192,127236,1,0,0:0:0:0:
448,192,127236,1,8,0:0:0:0:
320,192,127581,1,2,0:0:0:0:
64,192,127581,1,0,0:0:0:0:
192,192,127926,1,0,0:0:0:0:
320,192,127926,1,0,0:0:0:0:
448,192,127926,1,8,0:0:0:0:
64,192,128271,1,0,0:0:0:0:
448,192,128271,1,0,0:0:0:0:
320,192,128271,1,8,0:0:0:0:
192,192,128443,1,0,0:0:0:0:
320,192,128443,1,2,0:0:0:0:
448,192,128615,1,8,0:0:0:0:
64,192,128615,1,0,0:0:0:0:
192,192,128615,1,0,0:0:0:0:
320,192,128788,1,0,0:0:0:0:
448,192,128788,1,2,0:0:0:0:
192,192,128960,1,0,0:0:0:0:
320,192,128960,1,8,0:0:0:0:
64,192,128960,1,0,0:0:0:0:
448,192,129133,1,2,0:0:0:0:
192,192,129133,1,0,0:0:0:0:
320,192,129305,1,0,0:0:0:0:
64,192,129305,1,0,0:0:0:0:
448,192,129305,1,8,0:0:0:0:
64,192,129478,1,0,0:0:0:0:
192,192,129478,1,2,0:0:0:0:
320,192,129650,1,8,0:0:0:0:
448,192,129650,1,0,0:0:0:0:
192,192,129650,1,0,0:0:0:0:
320,192,129822,1,2,0:0:0:0:
64,192,129822,1,0,0:0:0:0:
448,192,129995,1,8,0:0:0:0:
192,192,129995,1,0,0:0:0:0:
64,192,129995,1,0,0:0:0:0:
192,192,130167,1,0,0:0:0:0:
320,192,130167,1,2,0:0:0:0:
64,192,130340,1,0,0:0:0:0:
448,192,130340,1,0,0:0:0:0:
320,192,130340,1,8,0:0:0:0:
64,192,130512,1,0,0:0:0:0:
192,192,130512,1,2,0:0:0:0:
192,192,130684,1,0,0:0:0:0:
320,192,130684,1,8,0:0:0:0:
448,192,130684,1,0,0:0:0:0:
320,192,130857,1,2,0:0:0:0:
64,192,130857,1,0,0:0:0:0:
192,192,131029,1,2,0:0:0:0:
64,192,131029,1,0,0:0:0:0:
448,192,131115,1,2,0:0:0:0:
192,192,131202,1,2,0:0:0:0:
64,192,131202,1,0,0:0:0:0:
448,192,131288,1,2,0:0:0:0:
192,192,131374,1,2,0:0:0:0:
64,192,131374,1,0,0:0:0:0:
320,192,131460,1,2,0:0:0:0:
192,192,131547,1,2,0:0:0:0:
64,192,131547,1,0,0:0:0:0:
320,192,131633,1,2,0:0:0:0:
192,192,131719,1,2,0:0:0:0:
64,192,131719,1,0,0:0:0:0:
448,192,131805,1,2,0:0:0:0:
192,192,131891,1,2,0:0:0:0:
64,192,131891,1,0,0:0:0:0:
448,192,131978,1,2,0:0:0:0:
192,192,132064,1,2,0:0:0:0:
64,192,132064,1,0,0:0:0:0:
320,192,132150,1,2,0:0:0:0:
192,192,132236,1,2,0:0:0:0:
64,192,132236,1,0,0:0:0:0:
320,192,132322,1,2,0:0:0:0:
192,192,132409,1,2,0:0:0:0:
64,192,132409,1,0,0:0:0:0:
448,192,132495,1,0,0:0:0:0:
320,192,132581,1,0,0:0:0:0:
64,192,132667,1,0,0:0:0:0:
192,192,132753,1,0,0:0:0:0:
448,192,132840,1,0,0:0:0:0:
320,192,132926,1,0,0:0:0:0:
64,192,133012,1,0,0:0:0:0:
192,192,133098,1,0,0:0:0:0:
320,192,133184,1,0,0:0:0:0:
448,192,133271,1,2,0:0:0:0:
64,192,133271,1,0,0:0:0:0:
320,192,133443,1,8,0:0:0:0:
192,192,133443,1,0,0:0:0:0:
64,192,133788,1,2,0:0:0:0:
448,192,133788,128,0,133960:0:0:0:0:
320,192,133788,1,4,0:0:0:0:
192,192,133960,128,0,134133:0:0:0:0:
320,192,134133,128,0,134305:0:0:0:0:
448,192,134133,1,8,0:0:0:0:
64,192,134305,128,0,134478:0:0:0:0:
320,192,134478,1,0,0:0:0:0:
448,192,134478,1,0,0:0:0:0:
192,192,134650,1,2,0:0:0:0:
448,192,134650,1,0,0:0:0:0:
320,192,134650,1,0,0:0:0:0:
192,192,134822,1,8,0:0:0:0:
64,192,134822,1,0,0:0:0:0:
448,192,134822,1,0,0:0:0:0:
320,192,134909,1,0,0:0:0:0:
64,192,134995,1,0,0:0:0:0:
448,192,134995,1,0,0:0:0:0:
192,192,135167,1,2,0:0:0:0:
320,192,135167,1,0,0:0:0:0:
448,192,135167,1,0,0:0:0:0:
192,192,135340,1,0,0:0:0:0:
64,192,135340,1,0,0:0:0:0:
320,192,135426,1,0,0:0:0:0:
448,192,135512,1,0,0:0:0:0:
64,192,135512,1,0,0:0:0:0:
192,192,135512,1,8,0:0:0:0:
448,192,135684,1,0,0:0:0:0:
64,192,135684,1,0,0:0:0:0:
320,192,135857,1,0,0:0:0:0:
192,192,135857,1,0,0:0:0:0:
64,192,136029,1,0,0:0:0:0:
320,192,136029,1,2,0:0:0:0:
448,192,136029,1,0,0:0:0:0:
448,192,136202,1,8,0:0:0:0:
192,192,136202,1,0,0:0:0:0:
64,192,136202,1,0,0:0:0:0:
320,192,136374,1,0,0:0:0:0:
192,192,136374,1,0,0:0:0:0:
64,192,136547,1,0,0:0:0:0:
320,192,136547,1,2,0:0:0:0:
448,192,136547,128,0,136891:0:0:0:0:
320,192,136891,1,0,0:0:0:0:
192,192,136891,1,8,0:0:0:0:
64,192,136891,128,0,137236:0:0:0:0:
320,192,137236,128,0,137409:0:0:0:0:
448,192,137409,128,0,137581:0:0:0:0:
192,192,137409,128,2,137581:0:0:0:0:
320,192,137581,128,0,137926:0:0:0:0:
64,192,137581,128,8,137753:0:0:0:0:
192,192,137753,128,0,138098:0:0:0:0:
64,192,137926,128,0,138098:0:0:0:0:
448,192,138098,128,0,138271:0:0:0:0:
320,192,138098,128,2,138271:0:0:0:0:
192,192,138271,128,0,138615:0:0:0:0:
64,192,138271,128,8,138443:0:0:0:0:
320,192,138443,128,0,138788:0:0:0:0:
448,192,138615,128,0,138788:0:0:0:0:
64,192,138788,128,0,138960:0:0:0:0:
192,192,138788,128,2,138960:0:0:0:0:
320,192,138960,128,8,139133:0:0:0:0:
448,192,138960,128,0,139133:0:0:0:0:
192,192,139133,128,2,139305:0:0:0:0:
64,192,139133,128,0,139305:0:0:0:0:
448,192,139305,1,2,0:0:0:0:
320,192,139305,128,0,139478:0:0:0:0:
448,192,139478,128,0,139650:0:0:0:0:
64,192,139650,128,0,139822:0:0:0:0:
192,192,139650,1,8,0:0:0:0:
320,192,139822,128,0,139995:0:0:0:0:
64,192,139995,1,0,0:0:0:0:
192,192,139995,1,0,0:0:0:0:
64,192,140167,1,0,0:0:0:0:
192,192,140167,1,2,0:0:0:0:
448,192,140167,1,0,0:0:0:0:
320,192,140340,1,8,0:0:0:0:
448,192,140340,1,0,0:0:0:0:
64,192,140340,1,0,0:0:0:0:
192,192,140426,1,0,0:0:0:0:
320,192,140512,1,0,0:0:0:0:
448,192,140512,1,0,0:0:0:0:
64,192,140684,1,0,0:0:0:0:
192,192,140684,1,2,0:0:0:0:
320,192,140684,1,0,0:0:0:0:
64,192,140857,1,0,0:0:0:0:
448,192,140857,1,0,0:0:0:0:
192,192,140943,5,0,0:0:0:0:
320,192,141029,1,8,0:0:0:0:
448,192,141029,1,0,0:0:0:0:
64,192,141029,1,0,0:0:0:0:
192,192,141202,1,0,0:0:0:0:
320,192,141202,1,0,0:0:0:0:
448,192,141374,1,0,0:0:0:0:
64,192,141374,1,0,0:0:0:0:
320,192,141547,1,0,0:0:0:0:
192,192,141547,1,2,0:0:0:0:
64,192,141547,1,0,0:0:0:0:
192,192,141719,1,0,0:0:0:0:
320,192,141719,1,8,0:0:0:0:
448,192,141719,1,0,0:0:0:0:
448,192,141891,1,0,0:0:0:0:
64,192,141891,1,0,0:0:0:0:
320,192,142064,5,2,0:0:0:0:
448,192,142064,1,4,0:0:0:0:
64,192,142064,1,0,0:0:0:0:
192,192,142150,1,0,0:0:0:0:
320,192,142236,1,0,0:0:0:0:
448,192,142322,1,0,0:0:0:0:
192,192,142409,1,8,0:0:0:0:
64,192,142409,1,0,0:0:0:0:
320,192,142495,1,0,0:0:0:0:
192,192,142581,1,0,0:0:0:0:
64,192,142667,1,0,0:0:0:0:
320,192,142753,1,0,0:0:0:0:
192,192,142840,1,0,0:0:0:0:
320,192,142926,1,2,0:0:0:0:
64,192,142926,1,0,0:0:0:0:
448,192,143012,1,0,0:0:0:0:
192,192,143098,1,8,0:0:0:0:
64,192,143098,1,0,0:0:0:0:
320,192,143184,1,0,0:0:0:0:
448,192,143271,1,0,0:0:0:0:
64,192,143357,1,0,0:0:0:0:
192,192,143443,1,0,0:0:0:0:
320,192,143529,1,0,0:0:0:0:
448,192,143615,1,2,0:0:0:0:
64,192,143615,1,0,0:0:0:0:
192,192,143702,1,0,0:0:0:0:
320,192,143788,1,0,0:0:0:0:
64,192,143788,1,8,0:0:0:0:
448,192,143874,1,0,0:0:0:0:
192,192,143960,1,0,0:0:0:0:
320,192,144047,1,0,0:0:0:0:
64,192,144133,1,0,0:0:0:0:
192,192,144219,1,0,0:0:0:0:
320,192,144305,1,2,0:0:0:0:
448,192,144305,1,0,0:0:0:0:
192,192,144391,1,0,0:0:0:0:
64,192,144478,1,0,0:0:0:0:
448,192,144478,1,8,0:0:0:0:
320,192,144564,1,0,0:0:0:0:
192,192,144650,1,2,0:0:0:0:
64,192,144650,1,0,0:0:0:0:
320,192,144736,1,0,0:0:0:0:
448,192,144822,1,2,0:0:0:0:
64,192,144822,128,0,144995:0:0:0:0:
192,192,144822,1,4,0:0:0:0:
320,192,144995,128,0,145167:0:0:0:0:
448,192,145167,128,0,145340:0:0:0:0:
192,192,145167,1,8,0:0:0:0:
64,192,145340,128,0,145512:0:0:0:0:
320,192,145512,1,0,0:0:0:0:
448,192,145512,1,0,0:0:0:0:
192,192,145684,1,2,0:0:0:0:
320,192,145684,1,0,0:0:0:0:
448,192,145684,1,0,0:0:0:0:
64,192,145857,1,0,0:0:0:0:
192,192,145857,1,8,0:0:0:0:
448,192,145857,1,0,0:0:0:0:
320,192,145943,1,0,0:0:0:0:
64,192,146029,1,0,0:0:0:0:
192,192,146029,1,0,0:0:0:0:
320,192,146202,1,2,0:0:0:0:
448,192,146202,1,0,0:0:0:0:
64,192,146202,1,0,0:0:0:0:
192,192,146374,1,0,0:0:0:0:
448,192,146374,1,0,0:0:0:0:
320,192,146460,1,0,0:0:0:0:
192,192,146547,1,8,0:0:0:0:
64,192,146547,1,0,0:0:0:0:
448,192,146547,1,0,0:0:0:0:
448,192,146719,1,0,0:0:0:0:
64,192,146719,1,0,0:0:0:0:
192,192,146891,1,0,0:0:0:0:
320,192,146891,1,0,0:0:0:0:
64,192,147064,1,0,0:0:0:0:
192,192,147064,1,2,0:0:0:0:
448,192,147064,1,0,0:0:0:0:
448,192,147236,1,0,0:0:0:0:
320,192,147236,1,8,0:0:0:0:
64,192,147236,1,0,0:0:0:0:
192,192,147409,1,0,0:0:0:0:
320,192,147409,1,0,0:0:0:0:
448,192,147581,128,0,147926:0:0:0:0:
192,192,147581,1,2,0:0:0:0:
64,192,147581,1,0,0:0:0:0:
192,192,147926,1,8,0:0:0:0:
64,192,147926,128,0,148271:0:0:0:0:
320,192,147926,1,0,0:0:0:0:
320,192,148271,1,0,0:0:0:0:
192,192,148357,1,0,0:0:0:0:
320,192,148443,1,0,0:0:0:0:
448,192,148443,1,2,0:0:0:0:
192,192,148529,1,0,0:0:0:0:
320,192,148615,1,0,0:0:0:0:
448,192,148615,1,8,0:0:0:0:
192,192,148702,1,0,0:0:0:0:
320,192,148788,1,0,0:0:0:0:
192,192,148874,1,0,0:0:0:0:
448,192,148960,1,0,0:0:0:0:
64,192,149047,1,0,0:0:0:0:
448,192,149133,1,0,0:0:0:0:
320,192,149133,1,2,0:0:0:0:
64,192,149219,1,0,0:0:0:0:
448,192,149305,1,0,0:0:0:0:
320,192,149305,1,8,0:0:0:0:
64,192,149391,1,0,0:0:0:0:
448,192,149478,1,0,0:0:0:0:
64,192,149564,1,0,0:0:0:0:
448,192,149650,128,0,149995:0:0:0:0:
320,192,149650,128,0,149822:0:0:0:0:
64,192,149822,128,2,149995:0:0:0:0:
320,192,149995,128,8,150167:0:0:0:0:
192,192,149995,128,0,150340:0:0:0:0:
64,192,150167,128,2,150340:0:0:0:0:
320,192,150340,1,0,0:0:0:0:
448,192,150340,128,2,150512:0:0:0:0:
320,192,150512,128,0,150684:0:0:0:0:
64,192,150684,128,0,150857:0:0:0:0:
192,192,150684,1,8,0:0:0:0:
448,192,150857,128,0,151029:0:0:0:0:
192,192,151029,1,0,0:0:0:0:
64,192,151029,1,0,0:0:0:0:
64,192,151202,1,0,0:0:0:0:
192,192,151202,1,0,0:0:0:0:
320,192,151202,1,2,0:0:0:0:
64,192,151374,1,0,0:0:0:0:
448,192,151374,1,0,0:0:0:0:
320,192,151374,1,8,0:0:0:0:
192,192,151460,1,0,0:0:0:0:
320,192,151547,1,0,0:0:0:0:
448,192,151547,1,0,0:0:0:0:
448,192,151719,1,0,0:0:0:0:
192,192,151719,1,2,0:0:0:0:
64,192,151719,1,0,0:0:0:0:
64,192,151891,1,0,0:0:0:0:
192,192,151891,1,0,0:0:0:0:
320,192,151978,1,0,0:0:0:0:
448,192,152064,1,0,0:0:0:0:
192,192,152064,1,8,0:0:0:0:
64,192,152064,1,0,0:0:0:0:
320,192,152236,1,0,0:0:0:0:
448,192,152236,1,0,0:0:0:0:
64,192,152409,1,0,0:0:0:0:
320,192,152409,1,0,0:0:0:0:
64,192,152581,1,0,0:0:0:0:
192,192,152581,1,2,0:0:0:0:
448,192,152581,1,0,0:0:0:0:
64,192,152753,1,0,0:0:0:0:
320,192,152753,1,8,0:0:0:0:
448,192,152753,1,0,0:0:0:0:
192,192,152926,1,0,0:0:0:0:
320,192,152926,1,0,0:0:0:0:
64,192,153098,1,2,0:0:0:0:
192,192,153098,1,0,0:0:0:0:
448,192,153098,1,4,0:0:0:0:
320,192,153184,1,0,0:0:0:0:
448,192,153271,1,0,0:0:0:0:
64,192,153357,1,0,0:0:0:0:
192,192,153443,1,0,0:0:0:0:
448,192,153443,1,8,0:0:0:0:
320,192,153529,1,0,0:0:0:0:
192,192,153615,1,0,0:0:0:0:
64,192,153702,1,0,0:0:0:0:
448,192,153788,1,0,0:0:0:0:
320,192,153874,1,0,0:0:0:0:
192,192,153960,1,2,0:0:0:0:
64,192,153960,1,0,0:0:0:0:
320,192,154047,1,0,0:0:0:0:
448,192,154133,1,0,0:0:0:0:
64,192,154133,1,8,0:0:0:0:
192,192,154219,1,0,0:0:0:0:
448,192,154305,1,0,0:0:0:0:
320,192,154391,1,0,0:0:0:0:
192,192,154478,1,0,0:0:0:0:
64,192,154478,1,2,0:0:0:0:
320,192,154564,1,0,0:0:0:0:
448,192,154564,1,2,0:0:0:0:
192,192,154650,1,0,0:0:0:0:
64,192,154650,1,2,0:0:0:0:
320,192,154736,1,0,0:0:0:0:
448,192,154736,1,2,0:0:0:0:
192,192,154822,1,0,0:0:0:0:
64,192,154822,1,2,0:0:0:0:
320,192,154909,1,0,0:0:0:0:
64,192,154995,1,0,0:0:0:0:
320,192,155081,1,0,0:0:0:0:
64,192,155167,1,0,0:0:0:0:
448,192,155253,1,0,0:0:0:0:
64,192,155340,1,0,0:0:0:0:
448,192,155426,1,0,0:0:0:0:
192,192,155512,1,0,0:0:0:0:
448,192,155598,1,0,0:0:0:0:
192,192,155684,1,0,0:0:0:0:
64,192,155684,1,2,0:0:0:0:
320,192,155771,1,0,0:0:0:0:
448,192,155771,1,2,0:0:0:0:
64,192,155857,1,2,0:0:0:0:
192,192,155857,128,4,156029:0:0:0:0:
320,192,156029,128,0,156202:0:0:0:0:
448,192,156202,128,0,156374:0:0:0:0:
64,192,156374,128,0,156547:0:0:0:0:
192,192,156547,1,8,0:0:0:0:
448,192,156547,128,0,156719:0:0:0:0:
192,192,156805,1,0,0:0:0:0:
320,192,156891,128,0,157064:0:0:0:0:
64,192,157064,1,0,0:0:0:0:
192,192,157150,1,0,0:0:0:0:
448,192,157236,1,2,0:0:0:0:
320,192,157236,1,0,0:0:0:0:
64,192,157322,1,0,0:0:0:0:
448,192,157409,1,0,0:0:0:0:
64,192,157495,1,0,0:0:0:0:
320,192,157581,1,0,0:0:0:0:
192,192,157667,1,0,0:0:0:0:
320,192,157753,1,0,0:0:0:0:
192,192,157840,1,0,0:0:0:0:
320,192,157926,1,0,0:0:0:0:
448,192,157926,1,8,0:0:0:0:
192,192,158098,128,0,158615:0:0:0:0:
64,192,158271,128,0,158615:0:0:0:0:
320,192,158615,1,2,0:0:0:0:
448,192,158615,1,0,0:0:0:0:
192,192,158874,128,0,159133:0:0:0:0:
448,192,159133,1,0,0:0:0:0:
320,192,159219,1,0,0:0:0:0:
64,192,159305,128,0,159478:0:0:0:0:
192,192,159305,1,8,0:0:0:0:
192,192,159564,128,0,159736:0:0:0:0:
320,192,159822,128,0,159995:0:0:0:0:
192,192,159909,1,0,0:0:0:0:
448,192,159995,128,0,160167:0:0:0:0:
64,192,159995,1,2,0:0:0:0:
320,192,160253,128,0,160426:0:0:0:0:
192,192,160512,128,0,160684:0:0:0:0:
320,192,160598,1,0,0:0:0:0:
448,192,160684,1,8,0:0:0:0:
64,192,160684,1,0,0:0:0:0:
64,192,160857,1,2,0:0:0:0:
192,192,160943,1,2,0:0:0:0:
320,192,161029,1,0,0:0:0:0:
448,192,161029,1,8,0:0:0:0:
192,192,161115,1,0,0:0:0:0:
64,192,161115,1,8,0:0:0:0:
320,192,161202,1,0,0:0:0:0:
448,192,161202,1,8,0:0:0:0:
192,192,161288,1,8,0:0:0:0:
320,192,161374,1,2,0:0:0:0:
64,192,161374,1,4,0:0:0:0:
448,192,161374,128,0,161547:0:0:0:0:
192,192,161547,128,0,161719:0:0:0:0:
64,192,161719,128,0,161891:0:0:0:0:
320,192,161719,1,8,0:0:0:0:
448,192,161891,128,0,162064:0:0:0:0:
192,192,162064,128,0,162236:0:0:0:0:
64,192,162236,1,0,0:0:0:0:
320,192,162236,1,2,0:0:0:0:
320,192,162409,1,8,0:0:0:0:
448,192,162409,128,0,162581:0:0:0:0:
64,192,162581,1,0,0:0:0:0:
192,192,162667,1,0,0:0:0:0:
320,192,162753,1,0,0:0:0:0:
448,192,162753,1,2,0:0:0:0:
192,192,162840,1,0,0:0:0:0:
320,192,162926,1,0,0:0:0:0:
192,192,163012,1,0,0:0:0:0:
320,192,163098,1,0,0:0:0:0:
448,192,163098,1,8,0:0:0:0:
64,192,163184,1,0,0:0:0:0:
320,192,163271,1,0,0:0:0:0:
64,192,163357,1,0,0:0:0:0:
320,192,163443,1,0,0:0:0:0:
64,192,163529,1,0,0:0:0:0:
320,192,163615,128,0,163788:0:0:0:0:
448,192,163615,1,2,0:0:0:0:
64,192,163788,128,0,164133:0:0:0:0:
192,192,163788,1,8,0:0:0:0:
448,192,164133,128,0,164478:0:0:0:0:
192,192,164133,1,2,0:0:0:0:
64,192,164478,1,8,0:0:0:0:
320,192,164478,128,0,164822:0:0:0:0:
64,192,164822,1,0,0:0:0:0:
192,192,164909,1,0,0:0:0:0:
320,192,164995,1,0,0:0:0:0:
448,192,164995,1,2,0:0:0:0:
64,192,165167,1,8,0:0:0:0:
192,192,165167,128,0,165512:0:0:0:0:
448,192,165426,1,0,0:0:0:0:
320,192,165512,1,0,0:0:0:0:
64,192,165684,1,0,0:0:0:0:
448,192,165684,1,2,0:0:0:0:
320,192,165857,1,8,0:0:0:0:
192,192,165857,1,0,0:0:0:0:
64,192,166029,1,0,0:0:0:0:
448,192,166029,1,2,0:0:0:0:
448,192,166202,1,0,0:0:0:0:
320,192,166259,1,0,0:0:0:0:
192,192,166317,1,0,0:0:0:0:
64,192,166374,1,0,0:0:0:0:
448,192,166432,1,0,0:0:0:0:
320,192,166489,1,0,0:0:0:0:
192,192,166547,1,0,0:0:0:0:
64,192,166604,1,0,0:0:0:0:
448,192,166661,1,0,0:0:0:0:
320,192,166719,1,0,0:0:0:0:
192,192,166776,1,0,0:0:0:0:
64,192,166834,1,0,0:0:0:0:
448,192,166891,1,2,0:0:0:0:
320,192,166891,128,0,167064:0:0:0:0:
192,192,166891,1,4,0:0:0:0:
64,192,167064,128,0,167236:0:0:0:0:
448,192,167236,128,0,167409:0:0:0:0:
192,192,167409,128,0,167581:0:0:0:0:
320,192,167581,1,8,0:0:0:0:
448,192,167581,1,0,0:0:0:0:
64,192,167667,1,0,0:0:0:0:
192,192,167840,1,0,0:0:0:0:
448,192,167926,128,0,168271:0:0:0:0:
320,192,168098,1,0,0:0:0:0:
192,192,168184,1,0,0:0:0:0:
64,192,168271,1,2,0:0:0:0:
320,192,168357,1,0,0:0:0:0:
64,192,168443,1,0,0:0:0:0:
320,192,168529,1,0,0:0:0:0:
64,192,168615,1,0,0:0:0:0:
448,192,168702,1,0,0:0:0:0:
64,192,168788,1,0,0:0:0:0:
448,192,168874,1,0,0:0:0:0:
192,192,168960,1,0,0:0:0:0:
320,192,168960,1,8,0:0:0:0:
64,192,169133,1,2,0:0:0:0:
448,192,169133,1,0,0:0:0:0:
320,192,169305,1,8,0:0:0:0:
192,192,169305,1,0,0:0:0:0:
448,192,169478,1,8,0:0:0:0:
64,192,169478,1,0,0:0:0:0:
320,192,169564,1,8,0:0:0:0:
192,192,169564,1,0,0:0:0:0:
64,192,169650,1,0,0:0:0:0:
448,192,169650,1,6,0:0:0:0:
320,192,169822,1,0,0:0:0:0:
448,192,169995,1,0,0:0:0:0:
192,192,169995,1,8,0:0:0:0:
64,192,170167,1,0,0:0:0:0:
320,192,170253,1,0,0:0:0:0:
64,192,170340,1,0,0:0:0:0:
320,192,170426,1,0,0:0:0:0:
192,192,170512,1,0,0:0:0:0:
64,192,170512,1,2,0:0:0:0:
192,192,170684,1,8,0:0:0:0:
320,192,170684,1,0,0:0:0:0:
448,192,170857,1,0,0:0:0:0:
192,192,170943,1,0,0:0:0:0:
448,192,171029,1,0,0:0:0:0:
192,192,171115,1,0,0:0:0:0:
320,192,171202,1,2,0:0:0:0:
448,192,171202,1,0,0:0:0:0:
192,192,171374,5,0,0:0:0:0:
320,192,171374,1,8,0:0:0:0:
64,192,171547,1,0,0:0:0:0:
448,192,171633,1,0,0:0:0:0:
64,192,171719,1,0,0:0:0:0:
448,192,171805,1,0,0:0:0:0:
192,192,171891,1,2,0:0:0:0:
64,192,171891,1,0,0:0:0:0:
320,192,172064,1,8,0:0:0:0:
192,192,172064,1,0,0:0:0:0:
64,192,172236,1,0,0:0:0:0:
320,192,172236,1,2,0:0:0:0:
448,192,172409,5,8,0:0:0:0:
64,192,172409,1,0,0:0:0:0:
192,192,172409,1,4,0:0:0:0:
320,192,172581,1,2,0:0:0:0:
448,192,172581,1,0,0:0:0:0:
64,192,172753,1,0,0:0:0:0:
320,192,172753,1,8,0:0:0:0:
192,192,172753,1,0,0:0:0:0:
448,192,172926,1,2,0:0:0:0:
192,192,172926,1,0,0:0:0:0:
64,192,173098,1,0,0:0:0:0:
320,192,173098,1,8,0:0:0:0:
448,192,173098,1,0,0:0:0:0:
192,192,173271,1,2,0:0:0:0:
64,192,173271,1,0,0:0:0:0:
192,192,173443,1,0,0:0:0:0:
320,192,173443,1,8,0:0:0:0:
448,192,173443,1,0,0:0:0:0:
320,192,173615,1,2,0:0:0:0:
64,192,173615,1,0,0:0:0:0:
448,192,173788,1,8,0:0:0:0:
192,192,173788,1,0,0:0:0:0:
64,192,173788,1,0,0:0:0:0:
320,192,173960,1,2,0:0:0:0:
192,192,173960,1,0,0:0:0:0:
448,192,174133,5,0,0:0:0:0:
320,192,174133,1,8,0:0:0:0:
64,192,174133,1,0,0:0:0:0:
192,192,174305,1,0,0:0:0:0:
448,192,174305,1,2,0:0:0:0:
64,192,174478,1,0,0:0:0:0:
192,192,174478,1,0,0:0:0:0:
320,192,174478,1,8,0:0:0:0:
448,192,174650,1,2,0:0:0:0:
64,192,174650,1,0,0:0:0:0:
192,192,174822,1,0,0:0:0:0:
448,192,174822,1,0,0:0:0:0:
320,192,174822,1,8,0:0:0:0:
192,192,174995,1,2,0:0:0:0:
64,192,174995,1,0,0:0:0:0:
320,192,175167,5,4,0:0:0:0:
448,192,175167,1,2,0:0:0:0:
64,192,175167,1,0,0:0:0:0:
192,192,175253,1,2,0:0:0:0:
320,192,175340,1,0,0:0:0:0:
448,192,175340,1,2,0:0:0:0:
64,192,175426,1,2,0:0:0:0:
320,192,175512,1,0,0:0:0:0:
448,192,175512,1,2,0:0:0:0:
192,192,175598,1,2,0:0:0:0:
320,192,175684,1,0,0:0:0:0:
448,192,175684,1,2,0:0:0:0:
64,192,175771,1,2,0:0:0:0:
320,192,175857,1,0,0:0:0:0:
448,192,175857,1,2,0:0:0:0:
192,192,175943,5,2,0:0:0:0:
320,192,176029,1,0,0:0:0:0:
448,192,176029,1,2,0:0:0:0:
64,192,176115,1,2,0:0:0:0:
320,192,176202,1,0,0:0:0:0:
448,192,176202,1,2,0:0:0:0:
192,192,176288,1,2,0:0:0:0:
320,192,176374,1,0,0:0:0:0:
448,192,176374,1,2,0:0:0:0:
64,192,176460,1,2,0:0:0:0:
320,192,176547,1,0,0:0:0:0:
448,192,176547,1,2,0:0:0:0:
192,192,176633,1,0,0:0:0:0:
64,192,176719,1,0,0:0:0:0:
448,192,176805,1,0,0:0:0:0:
320,192,176891,1,0,0:0:0:0:
64,192,176978,1,0,0:0:0:0:
192,192,177064,1,0,0:0:0:0:
320,192,177150,1,0,0:0:0:0:
448,192,177236,5,2,0:0:0:0:
192,192,177322,1,2,0:0:0:0:
448,192,177409,1,2,0:0:0:0:
192,192,177495,1,2,0:0:0:0:
320,192,177581,1,2,0:0:0:0:
448,192,177581,1,8,0:0:0:0:
64,192,177667,1,2,0:0:0:0:
320,192,177753,1,2,0:0:0:0:
64,192,177840,1,2,0:0:0:0:
320,192,177926,1,2,0:0:0:0:
448,192,177926,128,0,178788:0:0:0:0:
192,192,177926,1,4,0:0:0:0:
192,192,178098,1,0,0:0:0:0:
64,192,178271,1,8,0:0:0:0:
320,192,178271,1,0,0:0:0:0:
192,192,178443,1,0,0:0:0:0:
320,192,178529,1,0,0:0:0:0:
192,192,178615,1,0,0:0:0:0:
320,192,178702,1,0,0:0:0:0:
192,192,178788,1,2,0:0:0:0:
64,192,178788,1,0,0:0:0:0:
64,192,178960,1,8,0:0:0:0:
448,192,178960,1,0,0:0:0:0:
320,192,179133,128,0,180167:0:0:0:0:
192,192,179219,1,0,0:0:0:0:
64,192,179305,1,2,0:0:0:0:
448,192,179305,1,0,0:0:0:0:
64,192,179478,1,0,0:0:0:0:
192,192,179650,1,0,0:0:0:0:
448,192,179650,1,8,0:0:0:0:
64,192,179822,1,0,0:0:0:0:
448,192,179909,1,0,0:0:0:0:
64,192,179995,1,0,0:0:0:0:
448,192,180081,1,0,0:0:0:0:
64,192,180167,1,0,0:0:0:0:
192,192,180167,1,2,0:0:0:0:
192,192,180340,1,0,0:0:0:0:
448,192,180340,1,8,0:0:0:0:
320,192,180512,1,0,0:0:0:0:
192,192,180598,1,0,0:0:0:0:
448,192,180684,128,0,182409:0:0:0:0:
64,192,180684,1,2,0:0:0:0:
192,192,180857,1,0,0:0:0:0:
64,192,181029,1,0,0:0:0:0:
320,192,181029,1,8,0:0:0:0:
192,192,181202,1,0,0:0:0:0:
320,192,181288,1,0,0:0:0:0:
192,192,181374,1,0,0:0:0:0:
320,192,181460,1,0,0:0:0:0:
192,192,181547,1,0,0:0:0:0:
64,192,181547,1,2,0:0:0:0:
64,192,181719,1,8,0:0:0:0:
320,192,181719,1,0,0:0:0:0:
192,192,181891,1,0,0:0:0:0:
320,192,181978,1,0,0:0:0:0:
64,192,182064,1,0,0:0:0:0:
192,192,182236,1,2,0:0:0:0:
320,192,182236,1,0,0:0:0:0:
192,192,182409,1,8,0:0:0:0:
64,192,182409,1,0,0:0:0:0:
320,192,182581,1,0,0:0:0:0:
448,192,182667,1,0,0:0:0:0:
320,192,182753,1,0,0:0:0:0:
448,192,182840,1,0,0:0:0:0:
320,192,182926,1,0,0:0:0:0:
64,192,182926,1,2,0:0:0:0:
192,192,183098,1,8,0:0:0:0:
448,192,183098,1,0,0:0:0:0:
64,192,183271,1,0,0:0:0:0:
448,192,183271,1,2,0:0:0:0:
320,192,183357,1,0,0:0:0:0:
64,192,183443,128,0,184305:0:0:0:0:
192,192,183443,1,2,0:0:0:0:
448,192,183615,1,0,0:0:0:0:
192,192,183788,1,0,0:0:0:0:
320,192,183788,1,8,0:0:0:0:
448,192,183960,1,0,0:0:0:0:
192,192,184047,1,0,0:0:0:0:
448,192,184133,1,0,0:0:0:0:
192,192,184219,1,0,0:0:0:0:
320,192,184305,1,2,0:0:0:0:
448,192,184305,1,0,0:0:0:0:
64,192,184478,1,0,0:0:0:0:
192,192,184478,1,8,0:0:0:0:
320,192,184650,128,0,185684:0:0:0:0:
192,192,184736,1,0,0:0:0:0:
64,192,184822,1,0,0:0:0:0:
448,192,184822,1,2,0:0:0:0:
192,192,184995,1,0,0:0:0:0:
64,192,185167,1,0,0:0:0:0:
448,192,185167,1,8,0:0:0:0:
192,192,185340,1,0,0:0:0:0:
448,192,185426,1,0,0:0:0:0:
192,192,185512,1,0,0:0:0:0:
448,192,185598,1,0,0:0:0:0:
192,192,185684,1,2,0:0:0:0:
64,192,185684,1,0,0:0:0:0:
64,192,185857,1,0,0:0:0:0:
320,192,185857,1,8,0:0:0:0:
448,192,186029,128,0,187926:0:0:0:0:
320,192,186115,1,0,0:0:0:0:
192,192,186202,1,2,0:0:0:0:
64,192,186202,1,0,0:0:0:0:
64,192,186374,1,0,0:0:0:0:
320,192,186547,1,0,0:0:0:0:
192,192,186547,1,8,0:0:0:0:
64,192,186719,1,0,0:0:0:0:
320,192,186805,1,0,0:0:0:0:
64,192,186891,1,0,0:0:0:0:
320,192,186978,1,0,0:0:0:0:
192,192,187064,1,2,0:0:0:0:
64,192,187064,1,0,0:0:0:0:
192,192,187236,1,8,0:0:0:0:
320,192,187236,1,0,0:0:0:0:
64,192,187409,1,0,0:0:0:0:
192,192,187495,1,0,0:0:0:0:
320,192,187581,1,0,0:0:0:0:
64,192,187753,1,0,0:0:0:0:
192,192,187753,1,2,0:0:0:0:
320,192,187926,1,8,0:0:0:0:
64,192,187926,1,0,0:0:0:0:
192,192,188098,1,0,0:0:0:0:
64,192,188184,1,0,0:0:0:0:
192,192,188271,1,0,0:0:0:0:
64,192,188357,1,0,0:0:0:0:
192,192,188443,1,0,0:0:0:0:
448,192,188443,1,2,0:0:0:0:
448,192,188615,1,8,0:0:0:0:
320,192,188615,1,0,0:0:0:0:
64,192,188788,1,0,0:0:0:0:
320,192,188788,1,2,0:0:0:0:
192,192,188874,1,0,0:0:0:0:
320,192,188960,1,2,0:0:0:0:
448,192,188960,128,0,189822:0:0:0:0:
64,192,188960,1,4,0:0:0:0:
192,192,189133,1,0,0:0:0:0:
64,192,189305,1,0,0:0:0:0:
192,192,189305,1,8,0:0:0:0:
320,192,189478,1,0,0:0:0:0:
192,192,189564,1,0,0:0:0:0:
320,192,189650,1,0,0:0:0:0:
192,192,189736,1,0,0:0:0:0:
64,192,189822,1,2,0:0:0:0:
320,192,189822,1,0,0:0:0:0:
64,192,189995,1,8,0:0:0:0:
448,192,189995,1,0,0:0:0:0:
192,192,190167,128,0,191202:0:0:0:0:
320,192,190253,1,0,0:0:0:0:
64,192,190340,1,2,0:0:0:0:
448,192,190340,1,0,0:0:0:0:
64,192,190512,1,0,0:0:0:0:
320,192,190684,1,8,0:0:0:0:
448,192,190684,1,0,0:0:0:0:
64,192,190857,1,0,0:0:0:0:
320,192,190943,1,0,0:0:0:0:
64,192,191029,1,0,0:0:0:0:
320,192,191115,1,0,0:0:0:0:
64,192,191202,1,2,0:0:0:0:
448,192,191202,1,0,0:0:0:0:
192,192,191374,1,8,0:0:0:0:
448,192,191374,1,0,0:0:0:0:
64,192,191547,1,0,0:0:0:0:
192,192,191633,1,0,0:0:0:0:
320,192,191719,128,0,193443:0:0:0:0:
448,192,191719,1,2,0:0:0:0:
64,192,191891,1,0,0:0:0:0:
192,192,192064,1,0,0:0:0:0:
448,192,192064,1,8,0:0:0:0:
64,192,192236,1,0,0:0:0:0:
448,192,192322,1,0,0:0:0:0:
64,192,192409,1,0,0:0:0:0:
448,192,192495,1,0,0:0:0:0:
192,192,192581,1,2,0:0:0:0:
64,192,192581,1,0,0:0:0:0:
192,192,192753,1,8,0:0:0:0:
448,192,192753,1,0,0:0:0:0:
64,192,192926,1,0,0:0:0:0:
192,192,193012,1,0,0:0:0:0:
448,192,193098,1,0,0:0:0:0:
192,192,193271,1,2,0:0:0:0:
64,192,193271,1,0,0:0:0:0:
192,192,193443,1,8,0:0:0:0:
448,192,193443,1,0,0:0:0:0:
64,192,193615,1,0,0:0:0:0:
192,192,193702,1,0,0:0:0:0:
64,192,193788,1,0,0:0:0:0:
192,192,193874,1,0,0:0:0:0:
320,192,193960,1,2,0:0:0:0:
64,192,193960,1,0,0:0:0:0:
192,192,194133,1,0,0:0:0:0:
448,192,194133,1,8,0:0:0:0:
448,192,194305,1,2,0:0:0:0:
64,192,194305,1,0,0:0:0:0:
320,192,194391,1,0,0:0:0:0:
64,192,194478,128,0,195340:0:0:0:0:
192,192,194478,1,2,0:0:0:0:
320,192,194650,1,0,0:0:0:0:
192,192,194822,1,0,0:0:0:0:
448,192,194822,1,8,0:0:0:0:
320,192,194995,1,0,0:0:0:0:
192,192,195081,1,0,0:0:0:0:
320,192,195167,1,0,0:0:0:0:
192,192,195253,1,0,0:0:0:0:
320,192,195340,1,2,0:0:0:0:
448,192,195340,1,0,0:0:0:0:
448,192,195512,1,0,0:0:0:0:
64,192,195512,1,8,0:0:0:0:
320,192,195684,128,0,196719:0:0:0:0:
192,192,195771,1,0,0:0:0:0:
64,192,195857,1,0,0:0:0:0:
448,192,195857,1,2,0:0:0:0:
448,192,196029,1,0,0:0:0:0:
192,192,196202,1,0,0:0:0:0:
64,192,196202,1,8,0:0:0:0:
448,192,196374,1,0,0:0:0:0:
192,192,196460,1,0,0:0:0:0:
448,192,196547,1,0,0:0:0:0:
192,192,196633,1,0,0:0:0:0:
448,192,196719,1,2,0:0:0:0:
64,192,196719,1,0,0:0:0:0:
64,192,196891,1,0,0:0:0:0:
320,192,196891,1,8,0:0:0:0:
192,192,197064,128,0,198615:0:0:0:0:
64,192,197150,1,0,0:0:0:0:
320,192,197236,1,2,0:0:0:0:
448,192,197236,1,0,0:0:0:0:
320,192,197409,1,0,0:0:0:0:
448,192,197581,1,8,0:0:0:0:
64,192,197581,1,0,0:0:0:0:
320,192,197753,1,0,0:0:0:0:
64,192,197840,1,0,0:0:0:0:
320,192,197926,1,0,0:0:0:0:
64,192,198012,1,0,0:0:0:0:
320,192,198098,1,2,0:0:0:0:
448,192,198098,1,0,0:0:0:0:
64,192,198271,5,8,0:0:0:0:
448,192,198271,1,0,0:0:0:0:
320,192,198357,1,0,0:0:0:0:
64,192,198443,1,0,0:0:0:0:
320,192,198529,1,0,0:0:0:0:
64,192,198615,1,0,0:0:0:0:
448,192,198702,1,0,0:0:0:0:
192,192,198788,1,0,0:0:0:0:
64,192,198788,1,2,0:0:0:0:
448,192,198874,1,0,0:0:0:0:
192,192,198960,1,0,0:0:0:0:
64,192,198960,1,8,0:0:0:0:
320,192,199047,1,0,0:0:0:0:
192,192,199133,1,0,0:0:0:0:
320,192,199219,1,0,0:0:0:0:
192,192,199305,1,0,0:0:0:0:
448,192,199391,1,0,0:0:0:0:
64,192,199478,1,0,0:0:0:0:
192,192,199478,1,2,0:0:0:0:
320,192,199564,1,0,0:0:0:0:
64,192,199650,1,0,0:0:0:0:
448,192,199650,1,8,0:0:0:0:
320,192,199736,1,0,0:0:0:0:
192,192,199822,1,2,0:0:0:0:
64,192,199822,1,0,0:0:0:0:
320,192,199909,1,0,0:0:0:0:
64,192,199995,1,4,0:0:0:0:
192,192,199995,128,2,200081:0:0:0:0:
448,192,199995,1,0,0:0:0:0:
320,192,200167,128,0,200253:0:0:0:0:
192,192,200340,1,8,0:0:0:0:
64,192,200340,128,0,200426:0:0:0:0:
448,192,200512,128,0,200598:0:0:0:0:
320,192,200598,1,0,0:0:0:0:
64,192,200684,128,0,200771:0:0:0:0:
192,192,200771,1,0,0:0:0:0:
448,192,200857,1,2,0:0:0:0:
320,192,200857,128,0,200943:0:0:0:0:
448,192,201029,1,8,0:0:0:0:
192,192,201029,128,0,201115:0:0:0:0:
64,192,201202,128,0,201288:0:0:0:0:
192,192,201288,1,0,0:0:0:0:
320,192,201374,1,2,0:0:0:0:
448,192,201374,128,0,201460:0:0:0:0:
192,192,201547,128,0,201633:0:0:0:0:
448,192,201719,1,8,0:0:0:0:
64,192,201719,128,0,201805:0:0:0:0:
320,192,201891,128,0,201978:0:0:0:0:
192,192,201978,1,0,0:0:0:0:
448,192,202064,128,0,202150:0:0:0:0:
320,192,202150,1,0,0:0:0:0:
192,192,202236,1,2,0:0:0:0:
64,192,202236,128,0,202322:0:0:0:0:
448,192,202409,1,8,0:0:0:0:
320,192,202409,128,0,202495:0:0:0:0:
192,192,202495,128,0,202581:0:0:0:0:
320,192,202581,128,0,202667:0:0:0:0:
192,192,202667,128,0,202753:0:0:0:0:
448,192,202753,1,2,0:0:0:0:
64,192,202753,128,0,202926:0:0:0:0:
320,192,202926,1,0,0:0:0:0:
192,192,203098,1,8,0:0:0:0:
64,192,203098,1,0,0:0:0:0:
320,192,203271,128,0,203357:0:0:0:0:
448,192,203357,1,0,0:0:0:0:
64,192,203443,128,0,203529:0:0:0:0:
192,192,203529,1,0,0:0:0:0:
320,192,203615,1,2,0:0:0:0:
448,192,203615,128,0,203702:0:0:0:0:
64,192,203788,1,8,0:0:0:0:
192,192,203788,128,0,203874:0:0:0:0:
448,192,203960,128,0,204047:0:0:0:0:
320,192,204047,1,0,0:0:0:0:
64,192,204133,128,0,204219:0:0:0:0:
192,192,204305,1,2,0:0:0:0:
448,192,204305,128,0,204391:0:0:0:0:
320,192,204478,1,8,0:0:0:0:
64,192,204478,128,0,204564:0:0:0:0:
192,192,204650,128,0,204736:0:0:0:0:
320,192,204736,1,0,0:0:0:0:
448,192,204822,128,0,204909:0:0:0:0:
320,192,204909,128,0,204995:0:0:0:0:
64,192,204995,1,2,0:0:0:0:
192,192,204995,128,0,205081:0:0:0:0:
448,192,205081,128,0,205167:0:0:0:0:
320,192,205167,1,8,0:0:0:0:
64,192,205167,128,0,205253:0:0:0:0:
192,192,205253,128,0,205340:0:0:0:0:
320,192,205340,1,2,0:0:0:0:
448,192,205340,128,0,205426:0:0:0:0:
192,192,205512,1,2,0:0:0:0:
64,192,205512,128,0,205598:0:0:0:0:
320,192,205684,128,0,205771:0:0:0:0:
448,192,205857,1,8,0:0:0:0:
64,192,205857,128,0,205943:0:0:0:0:
320,192,206029,128,0,206115:0:0:0:0:
448,192,206115,1,0,0:0:0:0:
192,192,206202,128,0,206288:0:0:0:0:
320,192,206288,1,0,0:0:0:0:
448,192,206374,1,2,0:0:0:0:
64,192,206374,128,0,206460:0:0:0:0:
320,192,206547,1,8,0:0:0:0:
192,192,206547,128,0,206633:0:0:0:0:
448,192,206719,128,0,206805:0:0:0:0:
320,192,206805,1,0,0:0:0:0:
192,192,206891,1,2,0:0:0:0:
64,192,206891,128,0,206978:0:0:0:0:
320,192,207064,128,0,207150:0:0:0:0:
448,192,207236,1,8,0:0:0:0:
64,192,207236,128,0,207322:0:0:0:0:
192,192,207409,128,0,207495:0:0:0:0:
320,192,207495,1,0,0:0:0:0:
448,192,207581,128,0,207667:0:0:0:0:
192,192,207667,1,0,0:0:0:0:
64,192,207753,1,2,0:0:0:0:
320,192,207753,128,0,207840:0:0:0:0:
448,192,207926,1,8,0:0:0:0:
192,192,207926,128,0,208012:0:0:0:0:
320,192,208012,128,0,208098:0:0:0:0:
192,192,208098,128,0,208184:0:0:0:0:
320,192,208184,128,0,208271:0:0:0:0:
64,192,208271,1,2,0:0:0:0:
448,192,208271,128,0,208443:0:0:0:0:
192,192,208443,1,0,0:0:0:0:
64,192,208615,1,0,0:0:0:0:
448,192,208615,1,8,0:0:0:0:
320,192,208788,128,0,208874:0:0:0:0:
192,192,208874,1,0,0:0:0:0:
64,192,208960,128,0,209047:0:0:0:0:
320,192,209047,1,0,0:0:0:0:
448,192,209133,1,2,0:0:0:0:
192,192,209133,128,0,209219:0:0:0:0:
64,192,209305,1,8,0:0:0:0:
320,192,209305,128,0,209391:0:0:0:0:
448,192,209478,128,0,209564:0:0:0:0:
192,192,209564,1,0,0:0:0:0:
64,192,209650,128,0,209736:0:0:0:0:
448,192,209822,1,2,0:0:0:0:
192,192,209822,128,0,209909:0:0:0:0:
320,192,209909,128,0,209995:0:0:0:0:
448,192,209995,1,8,0:0:0:0:
64,192,209995,128,0,210081:0:0:0:0:
192,192,210167,128,0,210253:0:0:0:0:
320,192,210253,128,0,210340:0:0:0:0:
448,192,210340,1,0,0:0:0:0:
64,192,210340,128,0,210426:0:0:0:0:
192,192,210426,1,0,0:0:0:0:
320,192,210512,1,2,0:0:0:0:
448,192,210512,128,0,210598:0:0:0:0:
64,192,210598,128,0,210684:0:0:0:0:
320,192,210684,1,8,0:0:0:0:
192,192,210684,128,0,210771:0:0:0:0:
448,192,210771,128,0,210857:0:0:0:0:
64,192,210857,1,2,0:0:0:0:
320,192,210857,128,0,210943:0:0:0:0:
192,192,210943,128,0,211029:0:0:0:0:
64,192,211029,1,2,0:0:0:0:
448,192,211029,128,4,211115:0:0:0:0:
320,192,211029,1,0,0:0:0:0:
192,192,211202,128,0,211288:0:0:0:0:
448,192,211374,1,8,0:0:0:0:
64,192,211374,128,0,211460:0:0:0:0:
320,192,211547,128,0,211633:0:0:0:0:
192,192,211633,1,0,0:0:0:0:
448,192,211719,128,0,211805:0:0:0:0:
320,192,211805,1,0,0:0:0:0:
192,192,211891,1,2,0:0:0:0:
64,192,211891,128,0,211978:0:0:0:0:
320,192,212064,1,8,0:0:0:0:
448,192,212064,128,0,212150:0:0:0:0:
192,192,212236,128,0,212322:0:0:0:0:
320,192,212322,1,0,0:0:0:0:
448,192,212409,1,2,0:0:0:0:
64,192,212409,128,0,212495:0:0:0:0:
192,192,212581,128,0,212667:0:0:0:0:
320,192,212753,1,8,0:0:0:0:
448,192,212753,128,0,212840:0:0:0:0:
64,192,212926,128,0,213012:0:0:0:0:
320,192,213012,1,0,0:0:0:0:
448,192,213098,128,0,213184:0:0:0:0:
192,192,213184,1,0,0:0:0:0:
64,192,213271,1,2,0:0:0:0:
320,192,213271,128,0,213357:0:0:0:0:
192,192,213443,1,8,0:0:0:0:
448,192,213443,128,0,213529:0:0:0:0:
64,192,213529,128,0,213615:0:0:0:0:
448,192,213615,128,0,213702:0:0:0:0:
64,192,213702,128,0,213788:0:0:0:0:
448,192,213788,1,2,0:0:0:0:
192,192,213788,128,4,213960:0:0:0:0:
320,192,213788,1,0,0:0:0:0:
64,192,213960,1,0,0:0:0:0:
320,192,214133,1,8,0:0:0:0:
448,192,214133,1,0,0:0:0:0:
192,192,214305,128,0,214391:0:0:0:0:
320,192,214391,1,0,0:0:0:0:
64,192,214478,128,0,214564:0:0:0:0:
192,192,214564,1,0,0:0:0:0:
320,192,214650,1,2,0:0:0:0:
448,192,214650,128,0,214736:0:0:0:0:
320,192,214822,1,8,0:0:0:0:
192,192,214822,128,0,214909:0:0:0:0:
448,192,214995,128,0,215081:0:0:0:0:
320,192,215081,1,0,0:0:0:0:
64,192,215167,128,0,215253:0:0:0:0:
320,192,215340,1,2,0:0:0:0:
192,192,215340,128,0,215426:0:0:0:0:
64,192,215512,1,8,0:0:0:0:
448,192,215512,128,0,215598:0:0:0:0:
192,192,215684,128,0,215771:0:0:0:0:
320,192,215771,1,0,0:0:0:0:
64,192,215857,128,0,215943:0:0:0:0:
192,192,215943,128,0,216029:0:0:0:0:
448,192,216029,1,2,0:0:0:0:
320,192,216029,128,0,216115:0:0:0:0:
64,192,216115,128,0,216202:0:0:0:0:
192,192,216202,1,8,0:0:0:0:
448,192,216202,128,0,216288:0:0:0:0:
320,192,216288,128,0,216374:0:0:0:0:
64,192,216374,1,2,0:0:0:0:
192,192,216374,128,0,216460:0:0:0:0:
64,192,216547,5,0,0:0:0:0:
448,192,216547,1,4,0:0:0:0:
320,192,216547,1,8,0:0:0:0:
192,192,216719,1,0,0:0:0:0:
320,192,216719,1,2,0:0:0:0:
64,192,216891,1,0,0:0:0:0:
448,192,216891,1,0,0:0:0:0:
192,192,216891,1,8,0:0:0:0:
320,192,217064,1,2,0:0:0:0:
64,192,217064,1,0,0:0:0:0:
192,192,217236,1,0,0:0:0:0:
320,192,217236,1,8,0:0:0:0:
448,192,217236,1,0,0:0:0:0:
64,192,217409,1,0,0:0:0:0:
192,192,217409,1,2,0:0:0:0:
320,192,217581,1,0,0:0:0:0:
64,192,217581,1,0,0:0:0:0:
448,192,217581,1,8,0:0:0:0:
192,192,217753,1,2,0:0:0:0:
320,192,217753,1,0,0:0:0:0:
448,192,217926,1,8,0:0:0:0:
192,192,217926,1,0,0:0:0:0:
64,192,217926,1,4,0:0:0:0:
320,192,218098,1,2,0:0:0:0:
448,192,218098,1,0,0:0:0:0:
192,192,218271,1,8,0:0:0:0:
320,192,218271,1,0,0:0:0:0:
64,192,218271,1,0,0:0:0:0:
448,192,218443,1,2,0:0:0:0:
64,192,218443,1,0,0:0:0:0:
192,192,218615,1,0,0:0:0:0:
448,192,218615,1,0,0:0:0:0:
320,192,218615,1,8,0:0:0:0:
64,192,218788,1,0,0:0:0:0:
320,192,218788,1,2,0:0:0:0:
448,192,218960,1,8,0:0:0:0:
192,192,218960,1,0,0:0:0:0:
64,192,218960,1,0,0:0:0:0:
448,192,219133,1,0,0:0:0:0:
320,192,219133,1,2,0:0:0:0:
192,192,219305,1,4,0:0:0:0:
64,192,219305,1,0,0:0:0:0:
320,192,219305,1,8,0:0:0:0:
192,192,219478,1,2,0:0:0:0:
448,192,219478,1,0,0:0:0:0:
64,192,219564,1,2,0:0:0:0:
320,192,219564,1,0,0:0:0:0:
192,192,219650,1,8,0:0:0:0:
448,192,219650,1,0,0:0:0:0:
448,192,219822,1,0,0:0:0:0:
64,192,219822,1,2,0:0:0:0:
192,192,219909,1,2,0:0:0:0:
320,192,219909,1,0,0:0:0:0:
448,192,219995,1,4,0:0:0:0:
64,192,219995,1,8,0:0:0:0:
64,192,220167,1,2,0:0:0:0:
320,192,220167,1,0,0:0:0:0:
448,192,220253,1,0,0:0:0:0:
192,192,220253,1,2,0:0:0:0:
320,192,220340,1,0,0:0:0:0:
64,192,220340,1,8,0:0:0:0:
448,192,220512,1,2,0:0:0:0:
320,192,220598,1,2,0:0:0:0:
192,192,220684,1,4,0:0:0:0:
64,192,220684,1,2,0:0:0:0:
320,192,220771,1,0,0:0:0:0:
448,192,220857,1,0,0:0:0:0:
64,192,220943,5,0,0:0:0:0:
192,192,221029,1,0,0:0:0:0:
320,192,221115,1,0,0:0:0:0:
448,192,221202,1,0,0:0:0:0:
64,192,221288,1,0,0:0:0:0:
320,192,221374,1,0,0:0:0:0:
448,192,221374,1,2,0:0:0:0:
64,192,221460,1,0,0:0:0:0:
320,192,221547,1,0,0:0:0:0:
448,192,221547,1,2,0:0:0:0:
192,192,221633,1,0,0:0:0:0:
320,192,221719,1,0,0:0:0:0:
448,192,221719,1,2,0:0:0:0:
192,192,221805,1,0,0:0:0:0:
64,192,221805,1,2,0:0:0:0:
320,192,221891,1,0,0:0:0:0:
448,192,221891,1,2,0:0:0:0:
192,192,221978,1,2,0:0:0:0:
64,192,222064,1,2,3:0:0:0:
320,192,222064,1,4,3:0:0:0:
448,192,222064,128,0,223443:3:0:0:0:
192,192,222236,1,0,0:0:0:0:
64,192,222409,1,0,0:0:0:0:
320,192,222581,1,0,0:0:0:0:
64,192,222753,1,0,0:0:0:0:
320,192,222926,1,0,0:0:0:0:
64,192,223098,1,0,0:0:0:0:
192,192,223271,1,0,0:0:0:0:
320,192,223443,128,0,224822:0:0:0:0:
64,192,223443,1,0,0:0:0:0:
448,192,223615,1,0,0:0:0:0:
192,192,223788,1,0,0:0:0:0:
448,192,223960,1,0,0:0:0:0:
64,192,224133,1,0,0:0:0:0:
448,192,224305,1,0,0:0:0:0:
192,192,224478,1,0,0:0:0:0:
448,192,224650,1,0,0:0:0:0:
192,192,224822,128,0,227581:0:0:0:0:
64,192,224822,1,0,0:0:0:0:
448,192,224995,1,0,0:0:0:0:
64,192,225167,1,0,0:0:0:0:
320,192,225340,1,0,0:0:0:0:
64,192,225512,1,0,0:0:0:0:
448,192,225684,1,0,0:0:0:0:
64,192,225857,1,0,0:0:0:0:
320,192,226029,1,0,0:0:0:0:
448,192,226202,1,0,0:0:0:0:
320,192,226374,1,0,0:0:0:0:
64,192,226547,1,0,0:0:0:0:
320,192,226719,1,0,0:0:0:0:
448,192,226891,1,0,0:0:0:0:
320,192,227064,1,0,0:0:0:0:
64,192,227236,1,0,0:0:0:0:
320,192,227409,1,0,0:0:0:0:
448,192,227581,128,0,228960:0:0:0:0:
64,192,227581,1,0,0:0:0:0:
320,192,227753,1,0,0:0:0:0:
64,192,227926,1,0,0:0:0:0:
192,192,228098,1,0,0:0:0:0:
64,192,228271,1,0,0:0:0:0:
320,192,228443,1,0,0:0:0:0:
64,192,228615,1,0,0:0:0:0:
192,192,228788,1,0,0:0:0:0:
320,192,228960,128,0,230340:0:0:0:0:
64,192,228960,1,0,0:0:0:0:
448,192,229133,1,0,0:0:0:0:
192,192,229305,1,0,0:0:0:0:
448,192,229478,1,0,0:0:0:0:
64,192,229650,1,0,0:0:0:0:
448,192,229822,1,0,0:0:0:0:
192,192,229995,1,0,0:0:0:0:
448,192,230167,1,0,0:0:0:0:
64,192,230340,128,0,232409:0:0:0:0:
192,192,230340,1,0,0:0:0:0:
320,192,230512,1,0,0:0:0:0:
192,192,230684,1,0,0:0:0:0:
448,192,230857,1,0,0:0:0:0:
192,192,231029,1,0,0:0:0:0:
320,192,231202,1,0,0:0:0:0:
192,192,231374,1,0,0:0:0:0:
448,192,231547,1,0,0:0:0:0:
192,192,231719,1,0,0:0:0:0:
320,192,231891,1,0,0:0:0:0:
448,192,232064,1,0,0:0:0:0:
320,192,232236,1,0,0:0:0:0:
448,192,232409,1,0,0:0:0:0:
320,192,232466,1,0,0:0:0:0:
192,192,232524,1,0,0:0:0:0:
64,192,232581,1,0,0:0:0:0:
448,192,232638,1,0,0:0:0:0:
320,192,232696,1,0,0:0:0:0:
192,192,232753,1,0,0:0:0:0:
64,192,232811,1,0,0:0:0:0:
448,192,232868,1,0,0:0:0:0:
320,192,232926,1,0,0:0:0:0:
192,192,232983,1,0,0:0:0:0:
64,192,233041,1,0,0:0:0:0:
320,192,233098,1,2,3:0:0:0:
448,192,233098,128,4,234478:3:0:0:0:
192,192,233098,1,0,0:0:0:0:
64,192,233271,1,0,0:0:0:0:
320,192,233443,1,0,0:0:0:0:
192,192,233615,1,0,0:0:0:0:
320,192,233788,1,0,0:0:0:0:
192,192,233960,1,0,0:0:0:0:
320,192,234133,1,0,0:0:0:0:
64,192,234305,1,0,0:0:0:0:
320,192,234478,128,0,235857:0:0:0:0:
192,192,234478,1,0,0:0:0:0:
64,192,234650,1,0,0:0:0:0:
448,192,234822,1,0,0:0:0:0:
64,192,234995,1,0,0:0:0:0:
192,192,235167,1,0,0:0:0:0:
64,192,235340,1,0,0:0:0:0:
448,192,235512,1,0,0:0:0:0:
64,192,235684,1,0,0:0:0:0:
192,192,235857,128,0,238615:0:0:0:0:
448,192,235857,1,0,0:0:0:0:
320,192,236029,1,0,0:0:0:0:
448,192,236202,1,0,0:0:0:0:
64,192,236374,1,0,0:0:0:0:
448,192,236547,1,0,0:0:0:0:
320,192,236719,1,0,0:0:0:0:
448,192,236891,1,0,0:0:0:0:
64,192,237064,1,0,0:0:0:0:
320,192,237236,1,0,0:0:0:0:
64,192,237409,1,0,0:0:0:0:
448,192,237581,1,0,0:0:0:0:
320,192,237753,1,0,0:0:0:0:
64,192,237926,128,0,238012:0:0:0:0:
320,192,238012,128,0,238098:0:0:0:0:
64,192,238098,128,0,238184:0:0:0:0:
320,192,238184,128,0,238271:0:0:0:0:
64,192,238271,1,0,0:0:0:0:
448,192,238357,1,0,0:0:0:0:
64,192,238443,1,0,0:0:0:0:
448,192,238529,1,0,0:0:0:0:
64,192,238615,128,0,239995:0:0:0:0:
320,192,238615,1,0,0:0:0:0:
448,192,238788,1,0,0:0:0:0:
320,192,238960,1,0,0:0:0:0:
192,192,239133,1,0,0:0:0:0:
320,192,239305,1,0,0:0:0:0:
448,192,239478,1,0,0:0:0:0:
320,192,239650,1,0,0:0:0:0:
192,192,239822,1,0,0:0:0:0:
320,192,239995,128,0,241374:0:0:0:0:
448,192,239995,1,0,0:0:0:0:
64,192,240167,1,0,0:0:0:0:
448,192,240340,1,0,0:0:0:0:
192,192,240512,1,0,0:0:0:0:
448,192,240684,1,0,0:0:0:0:
64,192,240857,1,0,0:0:0:0:
448,192,241029,1,0,0:0:0:0:
192,192,241202,1,0,0:0:0:0:
448,192,241374,128,0,244133:0:0:0:0:
64,192,241374,1,0,0:0:0:0:
320,192,241547,1,0,0:0:0:0:
64,192,241719,1,0,0:0:0:0:
192,192,241891,1,0,0:0:0:0:
64,192,242064,1,0,0:0:0:0:
320,192,242236,1,0,0:0:0:0:
64,192,242409,1,0,0:0:0:0:
192,192,242581,1,0,0:0:0:0:
64,192,242753,1,0,0:0:0:0:
320,192,242926,1,0,0:0:0:0:
192,192,243098,1,0,0:0:0:0:
320,192,243271,1,0,0:0:0:0:
64,192,243443,1,0,0:0:0:0:
320,192,243615,1,0,0:0:0:0:
192,192,243788,1,0,0:0:0:0:
320,192,243960,1,0,0:0:0:0:
192,192,244133,128,0,245512:0:0:0:0:
64,192,244133,1,0,0:0:0:0:
448,192,244305,1,0,0:0:0:0:
64,192,244478,1,0,0:0:0:0:
320,192,244650,1,0,0:0:0:0:
64,192,244822,1,0,0:0:0:0:
448,192,244995,1,0,0:0:0:0:
64,192,245167,1,0,0:0:0:0:
320,192,245340,1,0,0:0:0:0:
64,192,245512,128,0,245598:0:0:0:0:
448,192,245512,128,0,245857:0:0:0:0:
192,192,245684,128,0,245771:0:0:0:0:
64,192,245857,128,0,245943:0:0:0:0:
320,192,245943,128,0,246029:0:0:0:0:
64,192,246029,128,0,246115:0:0:0:0:
448,192,246115,128,0,246202:0:0:0:0:
64,192,246202,128,0,246288:0:0:0:0:
448,192,246288,128,0,246374:0:0:0:0:
192,192,246374,128,0,246460:0:0:0:0:
320,192,246460,128,0,246547:0:0:0:0:
192,192,246547,128,0,246633:0:0:0:0:
320,192,246633,128,0,246719:0:0:0:0:
192,192,246719,128,0,246805:0:0:0:0:
448,192,246805,128,0,246891:0:0:0:0:
64,192,246891,128,0,248960:0:0:0:0:
320,192,246891,128,0,246978:0:0:0:0:
448,192,247064,128,0,247150:0:0:0:0:
192,192,247236,128,0,247322:0:0:0:0:
448,192,247409,128,0,247495:0:0:0:0:
320,192,247581,128,0,247667:0:0:0:0:
448,192,247753,128,0,247840:0:0:0:0:
192,192,247926,128,0,248012:0:0:0:0:
448,192,248098,128,0,248184:0:0:0:0:
320,192,248271,128,0,248357:0:0:0:0:
192,192,248443,128,0,248529:0:0:0:0:
448,192,248615,128,0,248702:0:0:0:0:
192,192,248788,128,0,248874:0:0:0:0:
448,192,248960,5,0,0:0:0:0:
320,192,249018,1,0,0:0:0:0:
192,192,249075,1,0,0:0:0:0:
64,192,249133,1,0,0:0:0:0:
448,192,249190,1,0,0:0:0:0:
320,192,249248,1,0,0:0:0:0:
192,192,249305,1,0,0:0:0:0:
64,192,249363,1,0,0:0:0:0:
448,192,249420,1,0,0:0:0:0:
320,192,249478,1,0,0:0:0:0:
192,192,249535,1,0,0:0:0:0:
64,192,249592,1,0,0:0:0:0:
448,192,249650,128,0,249822:0:0:0:0:
320,192,249650,128,0,251029:0:0:0:0:
64,192,249822,128,0,249995:0:0:0:0:
448,192,249995,128,0,250167:0:0:0:0:
192,192,250167,128,0,250340:0:0:0:0:
448,192,250340,128,0,250512:0:0:0:0:
64,192,250512,128,0,250684:0:0:0:0:
448,192,250684,128,0,250857:0:0:0:0:
192,192,250857,128,0,251029:0:0:0:0:
64,192,251029,128,0,251202:0:0:0:0:
448,192,251029,128,0,252409:0:0:0:0:
192,192,251202,128,0,251374:0:0:0:0:
64,192,251374,128,0,251547:0:0:0:0:
320,192,251547,128,0,251719:0:0:0:0:
64,192,251719,128,0,251891:0:0:0:0:
192,192,251891,128,0,252064:0:0:0:0:
64,192,252064,128,0,252236:0:0:0:0:
320,192,252236,128,0,252409:0:0:0:0:
64,192,252409,128,0,254822:0:0:0:0:
192,192,252409,128,0,252581:0:0:0:0:
448,192,252581,128,0,252753:0:0:0:0:
192,192,252753,128,0,252926:0:0:0:0:
448,192,252926,128,0,253098:0:0:0:0:
320,192,253098,128,0,253271:0:0:0:0:
192,192,253271,128,0,253443:0:0:0:0:
320,192,253443,128,0,253615:0:0:0:0:
192,192,253615,128,0,253788:0:0:0:0:
448,192,253788,128,0,253960:0:0:0:0:
320,192,253960,128,0,254133:0:0:0:0:
448,192,254133,128,0,254305:0:0:0:0:
192,192,254305,128,0,254478:0:0:0:0:
448,192,254478,128,0,254650:0:0:0:0:
192,192,254650,128,0,254822:0:0:0:0:
320,192,254822,128,0,255167:3:0:0:0:
64,192,255167,128,0,255512:3:0:0:0:
448,192,255167,128,2,255512:3:0:0:0:
192,192,255167,128,4,256029:3:0:0:0:
64,192,255684,128,0,256029:3:0:0:0:
448,192,255684,128,2,256029:3:0:0:0:
320,192,256029,128,0,256202:0:0:0:0:
448,192,256202,128,0,256374:0:0:0:0:
64,192,256374,128,0,257409:0:0:0:0:
192,192,256374,1,0,0:0:0:0:
320,192,256547,1,0,0:0:0:0:
448,192,256719,1,0,0:0:0:0:
192,192,256891,1,0,0:0:0:0:
448,192,257064,1,0,0:0:0:0:
320,192,257236,1,0,0:0:0:0:
192,192,257409,128,0,257581:0:0:0:0:
448,192,257409,1,0,0:0:0:0:
320,192,257581,128,0,257753:0:0:0:0:
448,192,257753,128,0,259305:0:0:0:0:
64,192,257753,1,0,0:0:0:0:
192,192,257926,1,0,0:0:0:0:
64,192,258098,1,0,0:0:0:0:
320,192,258271,1,0,0:0:0:0:
192,192,258443,1,0,0:0:0:0:
320,192,258615,1,0,0:0:0:0:
64,192,258788,1,0,0:0:0:0:
192,192,258960,1,0,0:0:0:0:
320,192,259133,1,0,0:0:0:0:
64,192,259305,1,0,0:0:0:0:
320,192,259478,1,0,0:0:0:0:
448,192,259650,1,0,0:0:0:0:
192,192,259822,1,0,0:0:0:0:
320,192,259995,1,0,0:0:0:0:
64,192,260167,1,0,0:0:0:0:
448,192,260340,1,0,0:0:0:0:
192,192,260512,1,0,0:0:0:0:
64,192,260684,128,2,261029:3:0:0:0:
448,192,260684,128,0,261029:3:0:0:0:
320,192,260684,128,4,261547:3:0:0:0:
64,192,261202,128,2,261547:3:0:0:0:
448,192,261202,128,0,261547:3:0:0:0:
192,192,261547,128,0,261719:0:0:0:0:
320,192,261719,128,0,261891:0:0:0:0:
64,192,261891,128,0,262926:0:0:0:0:
448,192,261891,1,0,0:0:0:0:
192,192,262064,1,0,0:0:0:0:
320,192,262236,1,0,0:0:0:0:
448,192,262409,1,0,0:0:0:0:
192,192,262581,1,0,0:0:0:0:
448,192,262753,1,0,0:0:0:0:
192,192,262926,128,0,263098:0:0:0:0:
320,192,262926,1,0,0:0:0:0:
448,192,263098,128,0,263271:0:0:0:0:
320,192,263271,128,0,264822:0:0:0:0:
64,192,263271,1,0,0:0:0:0:
192,192,263443,1,0,0:0:0:0:
448,192,263615,1,0,0:0:0:0:
64,192,263788,1,0,0:0:0:0:
448,192,263960,1,0,0:0:0:0:
192,192,264133,1,0,0:0:0:0:
64,192,264305,1,0,0:0:0:0:
448,192,264478,1,0,0:0:0:0:
192,192,264650,1,0,0:0:0:0:
64,192,264822,1,0,0:0:0:0:
192,192,264995,1,0,0:0:0:0:
320,192,265167,1,0,0:0:0:0:
448,192,265340,1,0,0:0:0:0:
64,192,265512,1,0,0:0:0:0:
192,192,265569,1,0,0:0:0:0:
320,192,265627,1,0,0:0:0:0:
448,192,265684,1,0,0:0:0:0:
64,192,265742,1,0,0:0:0:0:
192,192,265799,1,0,0:0:0:0:
320,192,265857,1,0,0:0:0:0:
448,192,265914,1,0,0:0:0:0:
64,192,265972,1,0,0:0:0:0:
192,192,266029,1,0,0:0:0:0:
320,192,266087,1,0,0:0:0:0:
448,192,266144,1,0,0:0:0:0:
192,192,266202,1,2,0:0:0:0:
64,192,266202,1,0,0:0:0:0:
320,192,266374,1,0,0:0:0:0:
448,192,266547,1,8,0:0:0:0:
64,192,266547,1,0,0:0:0:0:
192,192,266719,1,0,0:0:0:0:
448,192,266891,1,0,0:0:0:0:
192,192,267064,1,0,0:0:0:0:
320,192,267064,1,2,0:0:0:0:
64,192,267236,1,8,0:0:0:0:
448,192,267236,1,0,0:0:0:0:
192,192,267409,1,0,0:0:0:0:
320,192,267581,1,2,0:0:0:0:
448,192,267581,1,0,0:0:0:0:
192,192,267753,1,0,0:0:0:0:
64,192,267926,1,0,0:0:0:0:
448,192,267926,1,8,0:0:0:0:
320,192,268098,1,0,0:0:0:0:
192,192,268271,1,0,0:0:0:0:
64,192,268443,1,0,0:0:0:0:
320,192,268443,1,2,0:0:0:0:
192,192,268615,1,0,0:0:0:0:
448,192,268615,1,8,0:0:0:0:
320,192,268788,1,0,0:0:0:0:
448,192,268960,1,0,0:0:0:0:
64,192,268960,1,2,0:0:0:0:
192,192,269133,1,0,0:0:0:0:
320,192,269305,1,8,0:0:0:0:
448,192,269305,1,0,0:0:0:0:
192,192,269478,1,0,0:0:0:0:
64,192,269650,1,0,0:0:0:0:
320,192,269822,1,2,0:0:0:0:
448,192,269822,1,0,0:0:0:0:
192,192,269995,1,8,0:0:0:0:
64,192,269995,1,0,0:0:0:0:
448,192,270167,1,0,0:0:0:0:
320,192,270340,1,0,0:0:0:0:
192,192,270512,1,2,0:0:0:0:
64,192,270512,1,0,0:0:0:0:
320,192,270684,1,8,0:0:0:0:
448,192,270684,1,0,0:0:0:0:
192,192,270857,1,0,0:0:0:0:
64,192,271029,1,0,0:0:0:0:
320,192,271202,1,2,0:0:0:0:
448,192,271202,1,0,0:0:0:0:
192,192,271374,1,8,0:0:0:0:
64,192,271374,1,0,0:0:0:0:
320,192,271547,1,2,0:0:0:0:
448,192,271547,1,0,0:0:0:0:
192,192,271719,1,8,0:0:0:0:
64,192,271719,1,0,0:0:0:0:
448,192,271719,1,0,0:0:0:0:
320,192,271891,1,2,0:0:0:0:
192,192,271891,1,0,0:0:0:0:
64,192,272064,1,0,0:0:0:0:
320,192,272064,1,8,0:0:0:0:
448,192,272064,1,0,0:0:0:0:
64,192,272236,1,0,0:0:0:0:
192,192,272236,1,2,0:0:0:0:
320,192,272409,1,8,0:0:0:0:
448,192,272409,1,0,0:0:0:0:
192,192,272409,1,0,0:0:0:0:
64,192,272581,1,0,0:0:0:0:
320,192,272581,1,2,0:0:0:0:
64,192,272753,1,0,0:0:0:0:
448,192,272753,1,0,0:0:0:0:
192,192,272753,1,8,0:0:0:0:
320,192,272926,1,2,0:0:0:0:
448,192,272926,1,0,0:0:0:0:
64,192,273098,1,0,0:0:0:0:
320,192,273098,1,8,0:0:0:0:
192,192,273098,1,0,0:0:0:0:
192,192,273271,1,2,0:0:0:0:
448,192,273271,1,0,0:0:0:0:
64,192,273443,1,0,0:0:0:0:
448,192,273443,1,0,0:0:0:0:
320,192,273443,1,8,0:0:0:0:
320,192,273615,1,2,0:0:0:0:
192,192,273615,1,0,0:0:0:0:
192,192,273788,1,8,0:0:0:0:
448,192,273788,1,0,0:0:0:0:
64,192,273788,1,0,0:0:0:0:
320,192,273960,1,2,0:0:0:0:
64,192,273960,1,0,0:0:0:0:
192,192,274133,1,0,0:0:0:0:
448,192,274133,1,0,0:0:0:0:
320,192,274133,1,8,0:0:0:0:
448,192,274305,1,2,0:0:0:0:
64,192,274305,1,0,0:0:0:0:
192,192,274478,1,0,0:0:0:0:
64,192,274478,1,2,0:0:0:0:
320,192,274564,1,2,0:0:0:0:
192,192,274650,1,0,0:0:0:0:
64,192,274650,1,2,0:0:0:0:
448,192,274736,1,2,0:0:0:0:
192,192,274822,1,0,0:0:0:0:
64,192,274822,1,2,0:0:0:0:
320,192,274909,1,2,0:0:0:0:
192,192,274995,1,0,0:0:0:0:
64,192,274995,1,2,0:0:0:0:
448,192,275081,1,2,0:0:0:0:
192,192,275167,1,0,0:0:0:0:
64,192,275167,1,2,0:0:0:0:
320,192,275253,1,2,0:0:0:0:
192,192,275340,1,0,0:0:0:0:
64,192,275340,1,2,0:0:0:0:
448,192,275426,1,2,0:0:0:0:
192,192,275512,1,0,0:0:0:0:
64,192,275512,1,2,0:0:0:0:
320,192,275598,1,2,0:0:0:0:
192,192,275684,1,0,0:0:0:0:
64,192,275684,1,2,0:0:0:0:
448,192,275771,1,2,0:0:0:0:
192,192,275857,1,0,0:0:0:0:
64,192,275857,1,2,0:0:0:0:
320,192,275943,1,0,0:0:0:0:
448,192,276029,1,0,0:0:0:0:
64,192,276115,5,0,0:0:0:0:
192,192,276202,1,0,0:0:0:0:
320,192,276288,1,0,0:0:0:0:
448,192,276374,1,0,0:0:0:0:
64,192,276460,1,0,0:0:0:0:
192,192,276547,1,2,0:0:0:0:
320,192,276633,1,2,0:0:0:0:
192,192,276719,1,2,0:0:0:0:
64,192,276719,1,0,0:0:0:0:
320,192,276805,1,2,0:0:0:0:
192,192,276891,1,8,0:0:0:0:
64,192,276891,1,2,0:0:0:0:
448,192,276978,1,2,0:0:0:0:
64,192,277064,1,2,0:0:0:0:
448,192,277150,1,2,0:0:0:0:
192,192,277236,1,2,0:0:0:0:
64,192,277236,1,0,0:0:0:0:
64,192,277581,128,0,278098:0:0:0:0:
320,192,277581,1,8,0:0:0:0:
448,192,277581,1,4,0:0:0:0:
192,192,277753,1,0,0:0:0:0:
448,192,277840,1,0,0:0:0:0:
192,192,277926,1,0,0:0:0:0:
448,192,278012,1,0,0:0:0:0:
320,192,278098,1,2,0:0:0:0:
192,192,278098,1,0,0:0:0:0:
320,192,278271,1,8,0:0:0:0:
64,192,278271,1,0,0:0:0:0:
448,192,278443,128,0,279478:0:0:0:0:
320,192,278529,1,0,0:0:0:0:
192,192,278615,1,2,0:0:0:0:
64,192,278615,1,0,0:0:0:0:
192,192,278788,1,0,0:0:0:0:
320,192,278960,1,8,0:0:0:0:
64,192,278960,1,0,0:0:0:0:
192,192,279133,1,0,0:0:0:0:
320,192,279219,1,0,0:0:0:0:
192,192,279305,1,0,0:0:0:0:
320,192,279391,1,0,0:0:0:0:
192,192,279478,1,0,0:0:0:0:
64,192,279478,1,2,0:0:0:0:
320,192,279650,1,0,0:0:0:0:
64,192,279650,1,8,0:0:0:0:
448,192,279822,1,0,0:0:0:0:
320,192,279909,1,0,0:0:0:0:
192,192,279995,128,0,281719:0:0:0:0:
64,192,279995,1,2,0:0:0:0:
320,192,280167,1,0,0:0:0:0:
448,192,280340,1,8,0:0:0:0:
64,192,280340,1,0,0:0:0:0:
320,192,280512,1,0,0:0:0:0:
64,192,280598,1,0,0:0:0:0:
320,192,280684,1,0,0:0:0:0:
64,192,280771,1,0,0:0:0:0:
320,192,280857,1,0,0:0:0:0:
448,192,280857,1,2,0:0:0:0:
448,192,281029,1,8,0:0:0:0:
64,192,281029,1,0,0:0:0:0:
320,192,281202,1,0,0:0:0:0:
64,192,281288,1,0,0:0:0:0:
448,192,281374,1,0,0:0:0:0:
320,192,281547,1,2,0:0:0:0:
64,192,281547,1,0,0:0:0:0:
448,192,281719,1,0,0:0:0:0:
320,192,281719,1,8,0:0:0:0:
64,192,281891,1,0,0:0:0:0:
192,192,281978,1,0,0:0:0:0:
64,192,282064,1,0,0:0:0:0:
192,192,282150,1,0,0:0:0:0:
64,192,282236,1,2,0:0:0:0:
320,192,282236,1,0,0:0:0:0:
448,192,282409,1,8,0:0:0:0:
192,192,282409,1,0,0:0:0:0:
192,192,282581,1,2,0:0:0:0:
64,192,282581,1,0,0:0:0:0:
320,192,282667,1,0,0:0:0:0:
448,192,282753,128,0,283615:0:0:0:0:
64,192,282753,1,2,0:0:0:0:
192,192,282926,1,0,0:0:0:0:
320,192,283098,1,8,0:0:0:0:
64,192,283098,1,0,0:0:0:0:
192,192,283271,1,0,0:0:0:0:
320,192,283357,1,0,0:0:0:0:
192,192,283443,1,0,0:0:0:0:
320,192,283529,1,0,0:0:0:0:
192,192,283615,1,2,0:0:0:0:
64,192,283615,1,0,0:0:0:0:
448,192,283788,1,0,0:0:0:0:
64,192,283788,1,8,0:0:0:0:
192,192,283960,128,0,284995:0:0:0:0:
320,192,284047,1,0,0:0:0:0:
448,192,284133,1,2,0:0:0:0:
64,192,284133,1,0,0:0:0:0:
320,192,284305,1,0,0:0:0:0:
448,192,284478,1,8,0:0:0:0:
64,192,284478,1,0,0:0:0:0:
320,192,284650,1,0,0:0:0:0:
64,192,284736,1,0,0:0:0:0:
320,192,284822,1,0,0:0:0:0:
64,192,284909,1,0,0:0:0:0:
320,192,284995,1,0,0:0:0:0:
448,192,284995,1,2,0:0:0:0:
448,192,285167,1,8,0:0:0:0:
192,192,285167,1,0,0:0:0:0:
64,192,285340,128,0,287236:0:0:0:0:
192,192,285426,1,0,0:0:0:0:
320,192,285512,1,2,0:0:0:0:
448,192,285512,1,0,0:0:0:0:
320,192,285684,1,0,0:0:0:0:
192,192,285857,1,0,0:0:0:0:
448,192,285857,1,8,0:0:0:0:
320,192,286029,1,0,0:0:0:0:
192,192,286115,1,0,0:0:0:0:
320,192,286202,1,0,0:0:0:0:
192,192,286288,1,0,0:0:0:0:
320,192,286374,1,2,0:0:0:0:
448,192,286374,1,0,0:0:0:0:
448,192,286547,1,8,0:0:0:0:
192,192,286547,1,0,0:0:0:0:
320,192,286719,1,0,0:0:0:0:
448,192,286805,1,0,0:0:0:0:
192,192,286891,1,0,0:0:0:0:
448,192,287064,1,0,0:0:0:0:
320,192,287064,1,2,0:0:0:0:
192,192,287236,1,8,0:0:0:0:
448,192,287236,1,0,0:0:0:0:
320,192,287409,1,0,0:0:0:0:
448,192,287495,1,0,0:0:0:0:
320,192,287581,1,0,0:0:0:0:
448,192,287667,1,0,0:0:0:0:
64,192,287753,1,0,0:0:0:0:
320,192,287753,1,2,0:0:0:0:
448,192,287926,1,0,0:0:0:0:
192,192,287926,1,8,0:0:0:0:
448,192,288098,1,2,0:0:0:0:
320,192,288098,1,0,0:0:0:0:
192,192,288184,1,0,0:0:0:0:
320,192,288271,1,4,0:0:0:0:
64,192,288271,128,2,289133:0:0:0:0:
448,192,288271,1,0,0:0:0:0:
192,192,288443,1,0,0:0:0:0:
448,192,288615,1,8,0:0:0:0:
320,192,288615,1,0,0:0:0:0:
192,192,288788,1,0,0:0:0:0:
448,192,288874,1,0,0:0:0:0:
192,192,288960,1,0,0:0:0:0:
448,192,289047,1,0,0:0:0:0:
320,192,289133,1,2,0:0:0:0:
192,192,289133,1,0,0:0:0:0:
320,192,289305,1,8,0:0:0:0:
64,192,289305,1,0,0:0:0:0:
448,192,289478,128,0,290512:0:0:0:0:
320,192,289564,1,0,0:0:0:0:
192,192,289650,1,2,0:0:0:0:
64,192,289650,1,0,0:0:0:0:
64,192,289822,1,0,0:0:0:0:
192,192,289995,1,0,0:0:0:0:
320,192,289995,1,8,0:0:0:0:
64,192,290167,1,0,0:0:0:0:
320,192,290253,1,0,0:0:0:0:
64,192,290340,1,0,0:0:0:0:
320,192,290426,1,0,0:0:0:0:
192,192,290512,1,2,0:0:0:0:
64,192,290512,1,0,0:0:0:0:
192,192,290684,1,0,0:0:0:0:
448,192,290684,1,8,0:0:0:0:
64,192,290857,1,0,0:0:0:0:
192,192,290943,1,0,0:0:0:0:
320,192,291029,128,0,292753:0:0:0:0:
448,192,291029,1,2,0:0:0:0:
192,192,291202,1,0,0:0:0:0:
64,192,291374,1,8,0:0:0:0:
448,192,291374,1,0,0:0:0:0:
192,192,291547,1,0,0:0:0:0:
448,192,291633,1,0,0:0:0:0:
192,192,291719,1,0,0:0:0:0:
448,192,291805,1,0,0:0:0:0:
192,192,291891,1,2,0:0:0:0:
64,192,291891,1,0,0:0:0:0:
64,192,292064,1,8,0:0:0:0:
448,192,292064,1,0,0:0:0:0:
192,192,292236,1,0,0:0:0:0:
64,192,292322,1,0,0:0:0:0:
448,192,292409,1,0,0:0:0:0:
448,192,292581,1,2,0:0:0:0:
64,192,292581,1,0,0:0:0:0:
64,192,292753,1,8,0:0:0:0:
192,192,292753,1,0,0:0:0:0:
448,192,292926,1,0,0:0:0:0:
320,192,293012,1,0,0:0:0:0:
448,192,293098,1,0,0:0:0:0:
320,192,293184,1,0,0:0:0:0:
448,192,293271,1,0,0:0:0:0:
192,192,293271,1,2,0:0:0:0:
64,192,293443,1,0,0:0:0:0:
320,192,293443,1,8,0:0:0:0:
64,192,293615,1,0,0:0:0:0:
448,192,293615,1,2,0:0:0:0:
192,192,293702,1,0,0:0:0:0:
448,192,293788,128,0,294650:0:0:0:0:
320,192,293788,1,2,0:0:0:0:
64,192,293960,1,0,0:0:0:0:
320,192,294133,1,0,0:0:0:0:
192,192,294133,1,8,0:0:0:0:
64,192,294305,1,0,0:0:0:0:
320,192,294391,1,0,0:0:0:0:
64,192,294478,1,0,0:0:0:0:
320,192,294564,1,0,0:0:0:0:
192,192,294650,1,2,0:0:0:0:
64,192,294650,1,0,0:0:0:0:
448,192,294822,1,0,0:0:0:0:
320,192,294822,1,8,0:0:0:0:
192,192,294995,128,0,296029:0:0:0:0:
320,192,295081,1,0,0:0:0:0:
448,192,295167,1,2,0:0:0:0:
64,192,295167,1,0,0:0:0:0:
64,192,295340,1,0,0:0:0:0:
320,192,295512,1,8,0:0:0:0:
448,192,295512,1,0,0:0:0:0:
64,192,295684,1,0,0:0:0:0:
320,192,295771,1,0,0:0:0:0:
64,192,295857,1,0,0:0:0:0:
320,192,295943,1,0,0:0:0:0:
64,192,296029,1,2,0:0:0:0:
448,192,296029,1,0,0:0:0:0:
448,192,296202,1,8,0:0:0:0:
192,192,296202,1,0,0:0:0:0:
320,192,296374,128,0,297926:0:0:0:0:
192,192,296460,1,0,0:0:0:0:
64,192,296547,1,2,0:0:0:0:
448,192,296547,1,0,0:0:0:0:
448,192,296719,1,0,0:0:0:0:
64,192,296891,1,8,0:0:0:0:
192,192,296891,1,0,0:0:0:0:
448,192,297064,1,0,0:0:0:0:
192,192,297150,1,0,0:0:0:0:
448,192,297236,1,0,0:0:0:0:
192,192,297322,1,0,0:0:0:0:
64,192,297409,1,2,0:0:0:0:
448,192,297409,1,0,0:0:0:0:
64,192,297581,5,8,0:0:0:0:
192,192,297581,1,0,0:0:0:0:
448,192,297667,1,0,0:0:0:0:
192,192,297753,1,0,0:0:0:0:
448,192,297840,1,0,0:0:0:0:
64,192,297926,1,0,0:0:0:0:
448,192,298012,1,0,0:0:0:0:
192,192,298098,1,0,0:0:0:0:
64,192,298098,1,2,0:0:0:0:
320,192,298184,1,0,0:0:0:0:
192,192,298271,1,0,0:0:0:0:
64,192,298271,1,8,0:0:0:0:
448,192,298357,1,0,0:0:0:0:
64,192,298443,1,0,0:0:0:0:
448,192,298529,1,0,0:0:0:0:
192,192,298615,1,0,0:0:0:0:
320,192,298702,1,0,0:0:0:0:
64,192,298788,1,2,0:0:0:0:
192,192,298788,1,0,0:0:0:0:
320,192,298874,1,0,0:0:0:0:
448,192,298960,1,8,0:0:0:0:
192,192,298960,1,0,0:0:0:0:
320,192,299047,1,0,0:0:0:0:
192,192,299133,1,0,0:0:0:0:
64,192,299133,1,2,0:0:0:0:
320,192,299219,1,0,0:0:0:0:
64,192,299305,1,2,0:0:0:0:
448,192,299305,1,4,0:0:0:0:
192,192,299305,128,0,299391:0:0:0:0:
320,192,299478,128,0,299564:0:0:0:0:
192,192,299650,1,8,0:0:0:0:
448,192,299650,128,0,299736:0:0:0:0:
64,192,299822,128,0,299909:0:0:0:0:
320,192,299909,1,0,0:0:0:0:
448,192,299995,128,0,300081:0:0:0:0:
192,192,300081,1,0,0:0:0:0:
320,192,300167,1,2,0:0:0:0:
64,192,300167,128,0,300253:0:0:0:0:
320,192,300340,1,8,0:0:0:0:
192,192,300340,128,0,300426:0:0:0:0:
448,192,300512,128,0,300598:0:0:0:0:
320,192,300598,1,0,0:0:0:0:
192,192,300684,1,2,0:0:0:0:
64,192,300684,128,0,300771:0:0:0:0:
320,192,300857,128,0,300943:0:0:0:0:
448,192,301029,1,8,0:0:0:0:
64,192,301029,128,0,301115:0:0:0:0:
320,192,301202,128,0,301288:0:0:0:0:
192,192,301288,1,0,0:0:0:0:
448,192,301374,128,0,301460:0:0:0:0:
320,192,301460,1,0,0:0:0:0:
64,192,301547,1,2,0:0:0:0:
192,192,301547,128,0,301633:0:0:0:0:
448,192,301719,1,8,0:0:0:0:
320,192,301719,128,0,301805:0:0:0:0:
192,192,301805,128,0,301891:0:0:0:0:
320,192,301891,128,0,301978:0:0:0:0:
192,192,301978,128,0,302064:0:0:0:0:
448,192,302064,1,2,0:0:0:0:
64,192,302064,128,0,302236:0:0:0:0:
320,192,302236,1,0,0:0:0:0:
192,192,302409,1,8,0:0:0:0:
448,192,302409,1,0,0:0:0:0:
64,192,302581,128,0,302667:0:0:0:0:
192,192,302667,1,0,0:0:0:0:
320,192,302753,128,0,302840:0:0:0:0:
448,192,302840,1,0,0:0:0:0:
192,192,302926,1,2,0:0:0:0:
64,192,302926,128,0,303012:0:0:0:0:
192,192,303098,1,8,0:0:0:0:
448,192,303098,128,0,303184:0:0:0:0:
64,192,303271,128,0,303357:0:0:0:0:
320,192,303357,1,0,0:0:0:0:
448,192,303443,128,0,303529:0:0:0:0:
64,192,303615,1,2,0:0:0:0:
192,192,303615,128,0,303702:0:0:0:0:
64,192,303788,1,8,0:0:0:0:
320,192,303788,128,0,303874:0:0:0:0:
448,192,303960,128,0,304047:0:0:0:0:
192,192,304047,128,0,304133:0:0:0:0:
320,192,304133,128,0,304219:0:0:0:0:
64,192,304219,128,0,304305:0:0:0:0:
448,192,304305,1,2,0:0:0:0:
192,192,304305,128,0,304391:0:0:0:0:
320,192,304391,128,0,304478:0:0:0:0:
64,192,304478,1,8,0:0:0:0:
448,192,304478,128,0,304564:0:0:0:0:
192,192,304564,128,0,304650:0:0:0:0:
320,192,304650,1,2,0:0:0:0:
64,192,304650,128,0,304736:0:0:0:0:
448,192,304822,1,2,0:0:0:0:
192,192,304822,128,0,304909:0:0:0:0:
320,192,304995,128,0,305081:0:0:0:0:
192,192,305167,1,8,0:0:0:0:
448,192,305167,128,0,305253:0:0:0:0:
320,192,305340,128,0,305426:0:0:0:0:
192,192,305426,1,0,0:0:0:0:
64,192,305512,128,0,305598:0:0:0:0:
320,192,305598,1,0,0:0:0:0:
192,192,305684,1,2,0:0:0:0:
448,192,305684,128,0,305771:0:0:0:0:
192,192,305857,1,8,0:0:0:0:
320,192,305857,128,0,305943:0:0:0:0:
64,192,306029,128,0,306115:0:0:0:0:
192,192,306115,1,0,0:0:0:0:
320,192,306202,1,2,0:0:0:0:
448,192,306202,128,0,306288:0:0:0:0:
192,192,306374,128,0,306460:0:0:0:0:
64,192,306547,1,8,0:0:0:0:
320,192,306547,128,0,306633:0:0:0:0:
448,192,306719,128,0,306805:0:0:0:0:
192,192,306805,1,0,0:0:0:0:
64,192,306891,128,0,306978:0:0:0:0:
320,192,306978,1,0,0:0:0:0:
448,192,307064,1,2,0:0:0:0:
192,192,307064,128,0,307150:0:0:0:0:
320,192,307236,1,8,0:0:0:0:
64,192,307236,128,0,307322:0:0:0:0:
448,192,307322,128,0,307409:0:0:0:0:
64,192,307409,128,0,307495:0:0:0:0:
448,192,307495,128,0,307581:0:0:0:0:
192,192,307581,1,2,0:0:0:0:
64,192,307581,128,0,307753:0:0:0:0:
320,192,307753,1,0,0:0:0:0:
448,192,307926,1,8,0:0:0:0:
64,192,307926,1,0,0:0:0:0:
192,192,308098,128,0,308184:0:0:0:0:
320,192,308184,1,0,0:0:0:0:
64,192,308271,128,0,308357:0:0:0:0:
192,192,308357,1,0,0:0:0:0:
320,192,308443,1,2,0:0:0:0:
448,192,308443,128,0,308529:0:0:0:0:
320,192,308615,1,8,0:0:0:0:
192,192,308615,128,0,308702:0:0:0:0:
64,192,308788,128,0,308874:0:0:0:0:
192,192,308874,1,0,0:0:0:0:
448,192,308960,128,0,309047:0:0:0:0:
320,192,309133,1,2,0:0:0:0:
64,192,309133,128,0,309219:0:0:0:0:
192,192,309219,128,0,309305:0:0:0:0:
320,192,309305,1,8,0:0:0:0:
448,192,309305,128,0,309391:0:0:0:0:
320,192,309478,128,0,309564:0:0:0:0:
192,192,309564,128,0,309650:0:0:0:0:
448,192,309650,128,0,309736:0:0:0:0:
320,192,309736,1,0,0:0:0:0:
64,192,309822,1,2,0:0:0:0:
192,192,309822,128,0,309909:0:0:0:0:
448,192,309909,128,0,309995:0:0:0:0:
320,192,309995,1,8,0:0:0:0:
64,192,309995,128,0,310081:0:0:0:0:
192,192,310081,128,0,310167:0:0:0:0:
448,192,310167,1,2,0:0:0:0:
320,192,310167,128,0,310253:0:0:0:0:
64,192,310253,128,0,310340:0:0:0:0:
320,192,310340,1,2,0:0:0:0:
192,192,310340,1,4,0:0:0:0:
448,192,310340,128,0,310426:0:0:0:0:
192,192,310512,128,0,310598:0:0:0:0:
448,192,310684,1,8,0:0:0:0:
64,192,310684,128,0,310771:0:0:0:0:
320,192,310857,128,0,310943:0:0:0:0:
448,192,310943,1,0,0:0:0:0:
192,192,311029,128,0,311115:0:0:0:0:
64,192,311115,1,0,0:0:0:0:
320,192,311202,1,2,0:0:0:0:
448,192,311202,128,0,311288:0:0:0:0:
192,192,311374,1,8,0:0:0:0:
320,192,311374,128,0,311460:0:0:0:0:
64,192,311547,128,0,311633:0:0:0:0:
192,192,311633,1,0,0:0:0:0:
320,192,311719,1,2,0:0:0:0:
448,192,311719,128,0,311805:0:0:0:0:
192,192,311891,128,0,311978:0:0:0:0:
320,192,312064,1,8,0:0:0:0:
64,192,312064,128,0,312150:0:0:0:0:
448,192,312236,128,0,312322:0:0:0:0:
192,192,312322,1,0,0:0:0:0:
320,192,312409,128,0,312495:0:0:0:0:
448,192,312495,1,0,0:0:0:0:
64,192,312581,1,2,0:0:0:0:
192,192,312581,128,0,312667:0:0:0:0:
320,192,312753,1,8,0:0:0:0:
448,192,312753,128,0,312840:0:0:0:0:
64,192,312840,128,0,312926:0:0:0:0:
448,192,312926,128,0,313012:0:0:0:0:
64,192,313012,128,0,313098:0:0:0:0:
448,192,313098,1,2,0:0:0:0:
320,192,313098,128,0,313271:0:0:0:0:
192,192,313271,1,0,0:0:0:0:
320,192,313443,1,8,0:0:0:0:
64,192,313443,1,0,0:0:0:0:
192,192,313615,128,0,313702:0:0:0:0:
320,192,313702,1,0,0:0:0:0:
64,192,313788,128,0,313874:0:0:0:0:
192,192,313874,1,0,0:0:0:0:
320,192,313960,1,2,0:0:0:0:
448,192,313960,128,0,314047:0:0:0:0:
320,192,314133,1,8,0:0:0:0:
192,192,314133,128,0,314219:0:0:0:0:
448,192,314305,128,0,314391:0:0:0:0:
320,192,314391,1,0,0:0:0:0:
64,192,314478,128,0,314564:0:0:0:0:
192,192,314650,1,2,0:0:0:0:
448,192,314650,128,0,314736:0:0:0:0:
64,192,314822,1,8,0:0:0:0:
320,192,314822,128,0,314909:0:0:0:0:
192,192,314995,128,0,315081:0:0:0:0:
320,192,315081,1,0,0:0:0:0:
64,192,315167,128,0,315253:0:0:0:0:
192,192,315253,128,0,315340:0:0:0:0:
320,192,315340,1,2,0:0:0:0:
448,192,315340,128,0,315426:0:0:0:0:
64,192,315426,128,0,315512:0:0:0:0:
320,192,315512,1,8,0:0:0:0:
192,192,315512,128,0,315598:0:0:0:0:
448,192,315598,128,0,315684:0:0:0:0:
64,192,315684,1,2,0:0:0:0:
320,192,315684,128,0,315771:0:0:0:0:
192,192,315771,128,0,315857:0:0:0:0:
448,192,315857,1,4,0:0:0:0:
64,192,315857,1,8,0:0:0:0:
320,192,315857,1,0,0:0:0:0:
320,192,316029,1,0,0:0:0:0:
192,192,316029,1,2,0:0:0:0:
448,192,316202,1,0,0:0:0:0:
64,192,316202,1,0,0:0:0:0:
192,192,316202,1,8,0:0:0:0:
320,192,316374,1,0,0:0:0:0:
448,192,316374,1,2,0:0:0:0:
192,192,316547,1,0,0:0:0:0:
320,192,316547,1,8,0:0:0:0:
64,192,316547,1,0,0:0:0:0:
64,192,316719,1,0,0:0:0:0:
448,192,316719,1,2,0:0:0:0:
320,192,316891,1,8,0:0:0:0:
448,192,316891,1,0,0:0:0:0:
192,192,316891,1,0,0:0:0:0:
320,192,317064,1,2,0:0:0:0:
64,192,317064,1,0,0:0:0:0:
192,192,317236,1,8,0:0:0:0:
64,192,317236,1,0,0:0:0:0:
448,192,317236,1,0,0:0:0:0:
448,192,317409,1,0,0:0:0:0:
320,192,317409,1,2,0:0:0:0:
192,192,317581,1,0,0:0:0:0:
64,192,317581,1,0,0:0:0:0:
320,192,317581,1,8,0:0:0:0:
448,192,317753,1,2,0:0:0:0:
64,192,317753,1,0,0:0:0:0:
448,192,317926,1,0,0:0:0:0:
320,192,317926,1,8,0:0:0:0:
192,192,317926,1,0,0:0:0:0:
64,192,318098,1,2,0:0:0:0:
320,192,318098,1,0,0:0:0:0:
192,192,318271,1,8,0:0:0:0:
64,192,318271,1,0,0:0:0:0:
448,192,318271,1,0,0:0:0:0:
192,192,318443,1,0,0:0:0:0:
320,192,318443,1,2,0:0:0:0:
448,192,318615,1,4,0:0:0:0:
64,192,318615,1,8,0:0:0:0:
320,192,318615,1,0,0:0:0:0:
192,192,318788,5,2,0:0:0:0:
320,192,318874,1,2,0:0:0:0:
64,192,318960,1,0,0:0:0:0:
448,192,318960,1,8,0:0:0:0:
320,192,319133,1,2,0:0:0:0:
192,192,319219,1,2,0:0:0:0:
448,192,319305,1,0,0:0:0:0:
64,192,319305,1,8,0:0:0:0:
448,192,319478,1,2,0:0:0:0:
320,192,319564,1,2,0:0:0:0:
192,192,319650,1,8,0:0:0:0:
64,192,319650,1,0,0:0:0:0:
64,192,319822,5,2,0:0:0:0:
192,192,319909,1,2,0:0:0:0:
320,192,319995,1,0,0:0:0:0:
448,192,319995,1,2,0:0:0:0:
64,192,320081,1,2,0:0:0:0:
192,192,320081,1,0,0:0:0:0:
320,192,320167,1,0,0:0:0:0:
448,192,320167,1,2,0:0:0:0:
192,192,320253,1,0,0:0:0:0:
64,192,320253,1,2,0:0:0:0:
320,192,320340,1,0,0:0:0:0:
448,192,320340,1,2,0:0:0:0:
192,192,320426,1,0,0:0:0:0:
64,192,320426,1,2,0:0:0:0:
320,192,320512,1,0,0:0:0:0:
448,192,320512,1,2,0:0:0:0:
192,192,320598,1,2,0:0:0:0:
64,192,320684,1,0,0:0:0:0:
320,192,320684,1,0,0:0:0:0:
448,192,320684,1,8,0:0:0:0:
192,192,320857,1,2,0:0:0:0:
448,192,320857,1,0,0:0:0:0:
320,192,321029,1,8,0:0:0:0:
64,192,321029,1,0,0:0:0:0:
448,192,321202,1,0,0:0:0:0:
320,192,321288,1,0,0:0:0:0:
64,192,321374,1,0,0:0:0:0:
448,192,321374,1,2,0:0:0:0:
192,192,321374,1,4,0:0:0:0:
320,192,321460,1,0,0:0:0:0:
192,192,321547,1,0,0:0:0:0:
64,192,321633,1,0,0:0:0:0:
320,192,321719,1,0,0:0:0:0:
448,192,321719,1,8,0:0:0:0:
192,192,321805,1,0,0:0:0:0:
448,192,321891,1,0,0:0:0:0:
320,192,321978,1,0,0:0:0:0:
192,192,322064,1,0,0:0:0:0:
448,192,322150,1,0,0:0:0:0:
320,192,322236,1,2,0:0:0:0:
64,192,322236,1,0,0:0:0:0:
192,192,322322,1,0,0:0:0:0:
320,192,322409,1,8,0:0:0:0:
448,192,322409,1,0,0:0:0:0:
192,192,322495,1,0,0:0:0:0:
64,192,322581,1,0,0:0:0:0:
320,192,322667,1,0,0:0:0:0:
192,192,322753,1,2,0:0:0:0:
64,192,322753,1,0,0:0:0:0:
320,192,322840,1,0,0:0:0:0:
448,192,322926,1,0,0:0:0:0:
64,192,323012,1,0,0:0:0:0:
192,192,323098,1,8,0:0:0:0:
448,192,323098,1,0,0:0:0:0:
320,192,323184,1,0,0:0:0:0:
192,192,323271,1,0,0:0:0:0:
64,192,323357,1,0,0:0:0:0:
448,192,323443,1,0,0:0:0:0:
320,192,323529,1,0,0:0:0:0:
64,192,323615,1,0,0:0:0:0:
192,192,323615,1,2,0:0:0:0:
320,192,323702,1,0,0:0:0:0:
448,192,323788,1,0,0:0:0:0:
64,192,323788,1,8,0:0:0:0:
192,192,323874,1,0,0:0:0:0:
320,192,323960,1,0,0:0:0:0:
192,192,324047,1,0,0:0:0:0:
64,192,324133,1,0,0:0:0:0:
320,192,324133,1,2,0:0:0:0:
448,192,324219,1,0,0:0:0:0:
192,192,324305,1,0,0:0:0:0:
320,192,324391,1,0,0:0:0:0:
448,192,324478,1,8,0:0:0:0:
64,192,324478,1,0,0:0:0:0:
192,192,324564,1,0,0:0:0:0:
448,192,324650,1,0,0:0:0:0:
320,192,324736,1,0,0:0:0:0:
192,192,324822,1,0,0:0:0:0:
64,192,324909,1,0,0:0:0:0:
448,192,324995,1,0,0:0:0:0:
320,192,324995,1,2,0:0:0:0:
192,192,325081,1,0,0:0:0:0:
64,192,325167,1,0,0:0:0:0:
448,192,325167,1,8,0:0:0:0:
192,192,325253,1,0,0:0:0:0:
320,192,325340,1,0,0:0:0:0:
448,192,325426,1,0,0:0:0:0:
64,192,325512,1,0,0:0:0:0:
192,192,325598,1,0,0:0:0:0:
448,192,325684,1,0,0:0:0:0:
320,192,325684,1,2,0:0:0:0:
192,192,325771,1,0,0:0:0:0:
64,192,325857,1,8,0:0:0:0:
448,192,325857,1,0,0:0:0:0:
320,192,325943,1,0,0:0:0:0:
192,192,326029,1,0,0:0:0:0:
64,192,326115,1,0,0:0:0:0:
320,192,326202,1,0,0:0:0:0:
192,192,326288,1,0,0:0:0:0:
64,192,326374,1,0,0:0:0:0:
448,192,326374,1,2,0:0:0:0:
320,192,326460,1,0,0:0:0:0:
192,192,326547,1,8,0:0:0:0:
64,192,326547,1,0,0:0:0:0:
320,192,326633,1,0,0:0:0:0:
448,192,326719,1,2,0:0:0:0:
64,192,326719,1,0,0:0:0:0:
192,192,326805,1,0,0:0:0:0:
320,192,326891,1,0,0:0:0:0:
448,192,326891,1,2,0:0:0:0:
64,192,326978,1,0,0:0:0:0:
192,192,327064,1,0,0:0:0:0:
320,192,327150,1,0,0:0:0:0:
448,192,327236,1,8,0:0:0:0:
64,192,327236,1,0,0:0:0:0:
192,192,327322,1,0,0:0:0:0:
320,192,327409,1,0,0:0:0:0:
192,192,327495,1,0,0:0:0:0:
448,192,327581,1,0,0:0:0:0:
320,192,327667,1,0,0:0:0:0:
192,192,327753,1,2,0:0:0:0:
64,192,327753,1,0,0:0:0:0:
320,192,327840,1,0,0:0:0:0:
448,192,327926,1,0,0:0:0:0:
192,192,327926,1,8,0:0:0:0:
64,192,328012,1,0,0:0:0:0:
320,192,328098,1,0,0:0:0:0:
192,192,328184,1,0,0:0:0:0:
64,192,328271,1,0,0:0:0:0:
448,192,328271,1,2,0:0:0:0:
320,192,328357,1,0,0:0:0:0:
192,192,328443,1,0,0:0:0:0:
320,192,328529,1,0,0:0:0:0:
192,192,328615,1,8,0:0:0:0:
64,192,328615,1,0,0:0:0:0:
448,192,328702,1,0,0:0:0:0:
320,192,328788,1,0,0:0:0:0:
192,192,328874,1,0,0:0:0:0:
64,192,328960,1,0,0:0:0:0:
320,192,329047,1,0,0:0:0:0:
192,192,329133,1,2,0:0:0:0:
64,192,329133,1,0,0:0:0:0:
320,192,329219,1,0,0:0:0:0:
448,192,329305,1,8,0:0:0:0:
64,192,329305,1,0,0:0:0:0:
192,192,329391,1,0,0:0:0:0:
320,192,329478,1,0,0:0:0:0:
448,192,329564,1,0,0:0:0:0:
192,192,329650,1,2,0:0:0:0:
64,192,329650,1,0,0:0:0:0:
320,192,329736,1,0,0:0:0:0:
64,192,329822,1,0,0:0:0:0:
192,192,329909,1,0,0:0:0:0:
320,192,329995,1,8,0:0:0:0:
448,192,329995,1,0,0:0:0:0:
192,192,330081,1,0,0:0:0:0:
64,192,330167,1,0,0:0:0:0:
320,192,330253,1,0,0:0:0:0:
192,192,330340,1,0,0:0:0:0:
64,192,330426,1,0,0:0:0:0:
320,192,330512,1,2,0:0:0:0:
448,192,330512,1,0,0:0:0:0:
192,192,330598,1,0,0:0:0:0:
64,192,330684,1,0,0:0:0:0:
448,192,330684,1,8,0:0:0:0:
320,192,330771,1,0,0:0:0:0:
192,192,330857,1,0,0:0:0:0:
320,192,330943,1,0,0:0:0:0:
448,192,331029,1,0,0:0:0:0:
64,192,331115,1,0,0:0:0:0:
192,192,331202,1,2,0:0:0:0:
320,192,331202,1,0,0:0:0:0:
448,192,331288,1,0,0:0:0:0:
320,192,331374,1,8,0:0:0:0:
64,192,331374,1,0,0:0:0:0:
192,192,331460,1,0,0:0:0:0:
320,192,331547,1,0,0:0:0:0:
64,192,331633,1,0,0:0:0:0:
192,192,331719,1,0,0:0:0:0:
448,192,331805,1,0,0:0:0:0:
320,192,331891,1,0,0:0:0:0:
192,192,331891,1,2,0:0:0:0:
64,192,331978,1,0,0:0:0:0:
320,192,332064,1,0,0:0:0:0:
448,192,332064,1,8,0:0:0:0:
192,192,332150,1,0,0:0:0:0:
448,192,332236,1,0,0:0:0:0:
64,192,332236,1,2,0:0:0:0:
192,192,332322,1,0,0:0:0:0:
320,192,332409,1,4,0:0:0:0:
448,192,332409,1,2,0:0:0:0:
64,192,332409,1,0,0:0:0:0:
192,192,332495,1,0,0:0:0:0:
320,192,332581,1,0,0:0:0:0:
64,192,332667,1,0,0:0:0:0:
448,192,332753,1,8,0:0:0:0:
192,192,332753,1,0,0:0:0:0:
320,192,332840,1,0,0:0:0:0:
192,192,332926,1,0,0:0:0:0:
64,192,333012,1,0,0:0:0:0:
320,192,333098,1,0,0:0:0:0:
192,192,333184,1,0,0:0:0:0:
64,192,333271,1,2,0:0:0:0:
320,192,333271,1,0,0:0:0:0:
448,192,333357,1,0,0:0:0:0:
192,192,333443,1,0,0:0:0:0:
64,192,333443,1,8,0:0:0:0:
320,192,333529,1,0,0:0:0:0:
448,192,333615,1,0,0:0:0:0:
192,192,333702,1,0,0:0:0:0:
320,192,333788,1,2,0:0:0:0:
448,192,333788,1,0,0:0:0:0:
192,192,333874,1,0,0:0:0:0:
64,192,333960,1,0,0:0:0:0:
320,192,334047,1,0,0:0:0:0:
64,192,334133,1,0,0:0:0:0:
192,192,334133,1,8,0:0:0:0:
320,192,334219,1,0,0:0:0:0:
448,192,334305,1,0,0:0:0:0:
192,192,334391,1,0,0:0:0:0:
320,192,334478,1,0,0:0:0:0:
64,192,334564,1,0,0:0:0:0:
192,192,334650,1,2,0:0:0:0:
448,192,334650,1,0,0:0:0:0:
320,192,334736,1,0,0:0:0:0:
192,192,334822,1,8,0:0:0:0:
64,192,334822,1,0,0:0:0:0:
320,192,334909,1,0,0:0:0:0:
448,192,334995,1,0,0:0:0:0:
192,192,335081,1,0,0:0:0:0:
320,192,335167,1,2,0:0:0:0:
448,192,335167,1,0,0:0:0:0:
192,192,335253,1,0,0:0:0:0:
64,192,335340,1,0,0:0:0:0:
448,192,335426,1,0,0:0:0:0:
320,192,335512,1,8,0:0:0:0:
64,192,335512,1,0,0:0:0:0:
192,192,335598,1,0,0:0:0:0:
320,192,335684,1,0,0:0:0:0:
448,192,335771,1,0,0:0:0:0:
64,192,335857,1,0,0:0:0:0:
192,192,335943,1,0,0:0:0:0:
320,192,336029,1,2,0:0:0:0:
448,192,336029,1,0,0:0:0:0:
192,192,336115,1,0,0:0:0:0:
64,192,336202,1,0,0:0:0:0:
448,192,336202,1,8,0:0:0:0:
320,192,336288,1,0,0:0:0:0:
192,192,336374,1,0,0:0:0:0:
448,192,336460,1,0,0:0:0:0:
320,192,336547,1,0,0:0:0:0:
192,192,336633,1,0,0:0:0:0:
64,192,336719,1,2,0:0:0:0:
448,192,336719,1,0,0:0:0:0:
320,192,336805,1,0,0:0:0:0:
192,192,336891,1,8,0:0:0:0:
64,192,336891,1,0,0:0:0:0:
320,192,336978,1,0,0:0:0:0:
448,192,337064,1,0,0:0:0:0:
64,192,337150,1,0,0:0:0:0:
192,192,337236,1,0,0:0:0:0:
320,192,337322,1,0,0:0:0:0:
448,192,337409,1,0,0:0:0:0:
64,192,337409,1,2,0:0:0:0:
320,192,337495,1,0,0:0:0:0:
192,192,337581,1,0,0:0:0:0:
64,192,337581,1,8,0:0:0:0:
320,192,337667,1,0,0:0:0:0:
448,192,337753,1,0,0:0:0:0:
64,192,337753,1,2,0:0:0:0:
192,192,337840,1,0,0:0:0:0:
320,192,337926,1,2,0:0:0:0:
448,192,337926,1,0,0:0:0:0:
192,192,338012,1,0,0:0:0:0:
448,192,338098,1,0,0:0:0:0:
320,192,338184,1,0,0:0:0:0:
192,192,338271,1,8,0:0:0:0:
64,192,338271,1,0,0:0:0:0:
320,192,338357,1,0,0:0:0:0:
64,192,338443,1,0,0:0:0:0:
192,192,338529,1,0,0:0:0:0:
320,192,338615,1,0,0:0:0:0:
448,192,338702,1,0,0:0:0:0:
192,192,338788,1,2,0:0:0:0:
64,192,338788,1,0,0:0:0:0:
320,192,338874,1,0,0:0:0:0:
448,192,338960,1,0,0:0:0:0:
64,192,338960,1,8,0:0:0:0:
320,192,339047,1,0,0:0:0:0:
192,192,339133,1,0,0:0:0:0:
64,192,339219,1,0,0:0:0:0:
448,192,339305,1,0,0:0:0:0:
192,192,339305,1,2,0:0:0:0:
320,192,339391,1,0,0:0:0:0:
64,192,339478,1,0,0:0:0:0:
192,192,339564,1,0,0:0:0:0:
320,192,339650,1,8,0:0:0:0:
448,192,339650,1,0,0:0:0:0:
192,192,339736,1,0,0:0:0:0:
448,192,339822,1,0,0:0:0:0:
320,192,339909,1,0,0:0:0:0:
192,192,339995,1,0,0:0:0:0:
64,192,340081,1,0,0:0:0:0:
448,192,340167,1,0,0:0:0:0:
320,192,340167,1,2,0:0:0:0:
192,192,340253,1,0,0:0:0:0:
448,192,340340,1,8,0:0:0:0:
64,192,340340,1,0,0:0:0:0:
320,192,340426,1,0,0:0:0:0:
64,192,340512,1,0,0:0:0:0:
192,192,340598,1,0,0:0:0:0:
320,192,340684,1,2,0:0:0:0:
448,192,340684,1,0,0:0:0:0:
64,192,340771,1,0,0:0:0:0:
448,192,340857,1,0,0:0:0:0:
64,192,340943,1,0,0:0:0:0:
320,192,341029,1,8,0:0:0:0:
448,192,341029,1,0,0:0:0:0:
64,192,341115,1,0,0:0:0:0:
320,192,341202,1,0,0:0:0:0:
64,192,341288,1,0,0:0:0:0:
448,192,341374,1,0,0:0:0:0:
192,192,341460,1,0,0:0:0:0:
448,192,341547,1,0,0:0:0:0:
320,192,341547,1,2,0:0:0:0:
192,192,341633,5,0,0:0:0:0:
320,192,341719,1,0,0:0:0:0:
448,192,341719,1,8,0:0:0:0:
192,192,341805,1,0,0:0:0:0:
320,192,341891,1,0,0:0:0:0:
192,192,341978,1,0,0:0:0:0:
448,192,342064,1,0,0:0:0:0:
64,192,342150,1,0,0:0:0:0:
448,192,342236,1,0,0:0:0:0:
320,192,342236,1,2,0:0:0:0:
64,192,342322,1,0,0:0:0:0:
320,192,342409,1,0,0:0:0:0:
448,192,342409,1,8,0:0:0:0:
192,192,342495,1,0,0:0:0:0:
320,192,342581,1,0,0:0:0:0:
192,192,342667,1,0,0:0:0:0:
320,192,342753,1,2,0:0:0:0:
64,192,342840,1,2,0:0:0:0:
448,192,342926,1,0,0:0:0:0:
320,192,342926,1,2,0:0:0:0:
64,192,343012,1,2,0:0:0:0:
448,192,343098,1,2,0:0:0:0:
320,192,343098,1,8,0:0:0:0:
192,192,343184,1,2,0:0:0:0:
448,192,343271,1,0,0:0:0:0:
320,192,343271,1,2,0:0:0:0:
192,192,343357,1,2,0:0:0:0:
320,192,343443,1,2,0:0:0:0:
448,192,343443,1,4,1:0:0:0:
64,192,343443,1,4,0:0:0:0:
