osu file format v14

[General]
AudioFilename: audio.mp3
AudioLeadIn: 0
PreviewTime: 176553
Countdown: 0
SampleSet: Normal
StackLeniency: 0.7
Mode: 1
LetterboxInBreaks: 0
WidescreenStoryboard: 0

[Editor]
Bookmarks: 133794,177932,232674,343449
DistanceSpacing: 0.5
BeatDivisor: 12
GridSize: 32
TimelineZoom: 3.099998

[Metadata]
Title:Feelin Sky
TitleUnicode:Feelin Sky
Artist:Camellia & DJ Genki
ArtistUnicode:かめりあ & DJ Genki
Creator:Capu
Version:Karman Line
Source:
Tags:electronic instrumental osu! fa featured artist dnb drum and & bass cametek kamelcamellia starry orange hardcore
BeatmapID:3085980
BeatmapSetID:1506616

[Difficulty]
HPDrainRate:5
CircleSize:2
OverallDifficulty:6.5
ApproachRate:9
SliderMultiplier:1.4
SliderTickRate:1

[Events]
//Background and Video events
0,0,"86992800_p0_master1200.jpg",0,-60
//Break Periods
2,89864,99409
2,227795,231823
2,255899,260099
2,261416,264926
//Storyboard Layer 0 (Background)
//Storyboard Layer 1 (Fail)
//Storyboard Layer 2 (Pass)
//Storyboard Layer 3 (Foreground)
//Storyboard Layer 4 (Overlay)
//Storyboard Sound Samples

[TimingPoints]
10,344.827586206897,4,1,0,22,1,0
10,-166.666666666667,4,1,0,22,0,0
1389,344.827586206897,4,1,0,22,1,0
1389,-166.666666666667,4,1,0,22,0,0
1544,-165.517150059503,4,1,0,22,0,0
1716,-164.383651717069,4,1,0,23,0,0
1803,-163.822436137919,4,1,0,23,0,0
1975,-162.71195265733,4,1,0,23,0,0
2147,-161.616161616162,4,1,0,24,0,0
2234,-161.073911985993,4,1,0,24,0,0
2406,-160,4,1,0,24,0,0
2578,-158.940313144205,4,1,0,25,0,0
2751,-157.894819944642,4,1,0,25,0,0
2923,-156.862745098039,4,1,0,25,0,0
3096,-155.844074886195,4,1,0,26,0,0
3182,-155.339805825243,4,1,0,26,0,0
3354,-154.340756609257,4,1,0,26,0,0
3527,-153.354710980044,4,1,0,27,0,0
3613,-152.86616414463,4,1,0,27,0,0
3785,-151.898811088006,4,1,0,27,0,0
3958,-150.943396226415,4,1,0,28,0,0
4130,-149.999925000038,4,1,0,28,0,0
4303,-149.06839705262,4,1,0,28,0,0
4475,-148.148148148148,4,1,0,28,0,0
4561,-147.692380402403,4,1,0,29,0,0
4734,-146.788990825688,4,1,0,29,0,0
4906,-145.896585582208,4,1,0,29,0,0
4992,-145.454545454545,4,1,0,30,0,0
5165,-144.57824357675,4,1,0,30,0,0
5337,-143.71264369468,4,1,0,30,0,0
5509,-142.857142857143,4,1,0,31,0,0
5682,-142.011767095021,4,1,0,31,0,0
5854,-141.176537024253,4,1,0,31,0,0
5940,-140.762397296236,4,1,0,32,0,0
6113,-139.941756241052,4,1,0,32,0,0
6285,-139.130434782609,4,1,0,32,0,0
6372,-138.728387851278,4,1,0,33,0,0
6544,-137.931034482759,4,1,0,33,0,0
6716,-137.142794449008,4,1,0,33,0,0
6889,-136.363698347136,4,1,0,34,0,0
7061,-135.593220338983,4,1,0,34,0,0
7234,-134.831400075775,4,1,0,34,0,0
7320,-134.453781512605,4,1,0,35,0,0
7492,-133.704675786217,4,1,0,35,0,0
7665,-132.964047851102,4,1,0,35,0,0
7751,-132.596626476629,4,1,0,36,0,0
7923,-131.868189832171,4,1,0,36,0,0
8096,-131.147540983607,4,1,0,36,0,0
8268,-130.434725897945,4,1,0,37,0,0
8440,-129.729785829097,4,1,0,37,0,0
8613,-129.032258064516,4,1,0,37,0,0
8699,-128.686382278341,4,1,0,38,0,0
8872,-128,4,1,0,38,0,0
9044,-127.320900871766,4,1,0,38,0,0
9130,-126.984126984127,4,1,0,39,0,0
9303,-126.315736288111,4,1,0,39,0,0
9475,-125.654502891938,4,1,0,39,0,0
9647,-125,4,1,0,40,0,0
9820,-124.352280061231,4,1,0,40,0,0
9992,-123.711391221192,4,1,0,40,0,0
10078,-123.393265442359,4,1,0,40,0,0
10251,-122.762198572767,4,1,0,41,0,0
10423,-122.137404580153,4,1,0,41,0,0
10509,-121.827460640593,4,1,0,41,0,0
10682,-121.212121212121,4,1,0,42,0,0
10854,-120.602966591772,4,1,0,42,0,0
11027,-120.000048000019,4,1,0,42,0,0
11199,-119.402985074627,4,1,0,43,0,0
11372,-118.811834133927,4,1,0,43,0,0
11458,-118.518518518519,4,1,0,43,0,0
11630,-117.936071573043,4,1,0,44,0,0
11803,-117.359459113725,4,1,0,44,0,0
11889,-117.073125044634,4,1,0,44,0,0
12061,-116.504899613553,4,1,0,45,0,0
12234,-115.942028985507,4,1,0,45,0,0
12406,-115.384571005934,4,1,0,45,0,0
12578,-114.832579840222,4,1,0,46,0,0
12751,-114.285714285714,4,1,0,46,0,0
12837,-114.014295112321,4,1,0,46,0,0
13009,-113.475177304965,4,1,0,47,0,0
13182,-112.941133951573,4,1,0,47,0,0
13268,-112.676056338028,4,1,0,47,0,0
13354,-112.412220107623,4,1,0,48,0,0
13440,-112.149490785237,4,1,0,48,0,0
13613,-111.627948512725,4,1,0,48,0,0
13699,-111.36886816933,4,1,0,49,0,0
13785,-111.111111111111,4,1,0,49,0,0
13958,-110.599037567175,4,1,0,49,0,0
14130,-110.091783519921,4,1,0,50,0,0
14216,-109.839776717702,4,1,0,50,0,0
14389,-109.339447595243,4,1,0,50,0,0
14561,-108.843537414966,4,1,0,51,0,0
14647,-108.597324379122,4,1,0,51,0,0
14734,-108.352105335583,4,1,0,51,0,0
14820,-108.108108108108,4,1,0,52,0,0
14992,-107.623279776402,4,1,0,52,0,0
15165,-107.142895408177,4,1,0,52,0,0
15337,-106.666666666667,4,1,0,52,0,0
15509,-106.194652674459,4,1,0,53,0,0
15596,-105.960264900662,4,1,0,53,0,0
15768,-105.49446839755,4,1,0,53,0,0
15940,-105.032859530104,4,1,0,54,0,0
16027,-104.80345683722,4,1,0,54,0,0
16113,-104.575163398693,4,1,0,54,0,0
16199,-104.347862381865,4,1,0,55,0,0
16372,-103.896103896104,4,1,0,55,0,0
16458,-103.671742089587,4,1,0,55,0,0
16544,-103.448240190262,4,1,0,56,0,0
16716,-103.004327211786,4,1,0,56,0,0
16889,-102.564102564103,4,1,0,56,0,0
16975,-102.345450693544,4,1,0,57,0,0
17147,-101.910828025478,4,1,0,57,0,0
17320,-101.479881106171,4,1,0,57,0,0
17406,-101.26582278481,4,1,0,58,0,0
17492,-101.05266561774,4,1,0,58,0,0
17578,-100.840302238554,4,1,0,58,0,0
17751,-100.418443654709,4,1,0,59,0,0
17923,-100,4,1,0,59,0,0
18096,-99.5850291833928,4,1,0,59,0,0
18268,-99.173586503665,4,1,0,60,0,0
18354,-98.9690395153684,4,1,0,60,0,0
18527,-98.5626607187386,4,1,0,60,0,0
18613,-98.3606234883202,4,1,0,61,0,0
18699,-98.159509202454,4,1,0,61,0,0
18785,-97.959215660152,4,1,0,61,0,0
18958,-97.5609756097561,4,1,0,62,0,0
19130,-97.1659604320776,4,1,0,62,0,0
19216,-96.969696969697,4,1,0,62,0,0
19303,-96.774224765879,4,1,0,63,0,0
19475,-96.3855421686747,4,1,0,63,0,0
19647,-95.9999692800098,4,1,0,63,0,0
19820,-95.6175603561945,4,1,0,64,0,0
19906,-95.4274050330322,4,1,0,64,0,0
19992,-95.2380952380952,4,1,0,64,0,0
20078,-95.0495350651992,4,1,0,64,0,0
20165,-94.861630083279,4,1,0,65,0,0
20337,-94.4882187364469,4,1,0,65,0,0
20509,-94.1176470588235,4,1,0,65,0,0
20682,-93.7499707031342,4,1,0,66,0,0
20854,-93.3852430771185,4,1,0,66,0,0
20940,-93.2038545386083,4,1,0,66,0,0
21027,-93.0232558139535,4,1,0,67,0,0
21199,-92.6640640419879,4,1,0,67,0,0
21372,-92.3077207100679,4,1,0,67,0,0
21458,-92.1304899407324,4,1,0,68,0,0
21544,-91.9540229885058,4,1,0,68,0,0
21630,-91.7782307543345,4,1,0,68,0,0
21716,-91.6030254647251,4,1,0,69,0,0
21803,-91.4285714285714,4,1,0,69,0,0
21889,-91.2547806098192,4,1,0,69,0,0
22061,-90.9090909090909,4,1,0,70,0,0
23354,-100,4,1,0,70,0,0
39992,-100,4,1,0,70,0,0
40165,-99.1749634788197,4,1,0,70,0,0
40337,-98.3634292639071,4,1,0,70,0,0
40509,-97.565068583365,4,1,0,70,0,0
40682,-96.779563253187,4,1,0,70,0,0
40854,-96.0066974272125,4,1,0,70,0,0
41027,-95.2459870484507,4,1,0,70,0,0
41199,-94.497236900793,4,1,0,70,0,0
41372,-93.7601671181219,4,1,0,70,0,0
41544,-93.0345064984603,4,1,0,70,0,0
41716,-92.3199921712647,4,1,0,70,0,0
41889,-91.616369279932,4,1,0,70,0,0
42061,-90.9233906787158,4,1,0,70,0,0
42234,-90.2408166432943,4,1,0,70,0,0
42406,-89.5684948193583,4,1,0,70,0,0
42578,-88.9060378757502,4,1,0,70,0,0
42751,-88.2533081752569,4,1,0,70,0,0
42837,-87.9304856752446,4,1,0,70,0,0
42923,-87.6100930331578,4,1,0,70,0,0
43009,-87.2919505473642,4,1,0,70,0,0
43096,-86.976185920295,4,1,0,70,0,0
43182,-86.6626975151205,4,1,0,70,0,0
43268,-86.351386241979,4,1,0,70,0,0
43354,-86.0423775918115,4,1,0,70,0,0
43440,-85.7354991263553,4,1,0,70,0,0
43527,-85.4308748890466,4,1,0,70,0,0
43613,-85.1283352217636,4,1,0,70,0,0
43699,-84.8280027416411,4,1,0,70,0,0
43785,-84.5297105026475,4,1,0,70,0,0
43872,-84.233579716554,4,1,0,70,0,0
43958,-83.9395165419605,4,1,0,70,0,0
44044,-83.6474294308462,4,1,0,70,0,0
44130,-83.3574375256845,4,1,0,70,0,0
44389,-90.9377776444024,4,1,0,70,0,0
44734,-90.9377776444024,4,1,0,70,0,0
44820,-100,4,1,0,70,0,0
44906,-98.7654320987654,4,1,0,70,0,0
44992,-97.5609756097561,4,1,0,70,0,0
45078,-96.3855421686747,4,1,0,70,0,0
45165,-95.2380952380952,4,1,0,70,0,0
45251,-94.1176470588235,4,1,0,70,0,0
45337,-93.0232558139535,4,1,0,70,0,0
45423,-91.9540229885058,4,1,0,70,0,0
45526,-90.9090909090909,4,1,0,90,0,1
66727,-90.9090909090909,4,1,0,90,0,1
66813,-90.0900900900901,4,1,0,90,0,1
66899,-89.2857142857143,4,1,0,90,0,1
66985,-88.495575221239,4,1,0,90,0,1
67071,-87.719298245614,4,1,0,90,0,1
67158,-86.9565217391304,4,1,0,90,0,1
67251,-86.2068965517241,4,1,0,90,0,0
67330,-85.4700854700855,4,1,0,90,0,0
67416,-84.7457627118644,4,1,0,90,0,0
67503,-84.0336134453782,4,1,0,90,0,0
67595,-83.3333333333333,4,1,0,90,0,1
67675,-90.9090909090909,4,1,0,90,0,1
86724,-90.9090909090909,4,1,0,90,0,1
86811,-90.4255607741151,4,1,0,90,0,1
86897,-89.9470661515698,4,1,0,90,0,1
86983,-89.4736889196678,4,1,0,90,0,1
87069,-89.005268221826,4,1,0,90,0,1
87155,-88.5416482204899,4,1,0,90,0,1
87242,-88.0829106821669,4,1,0,90,0,1
87328,-87.6289021150112,4,1,0,90,0,1
87414,-87.1794737672604,4,1,0,90,0,1
87500,-86.7347071532715,4,1,0,90,0,1
87586,-86.2943812002513,4,1,0,90,0,1
87673,-85.8585771860023,4,1,0,90,0,1
87759,-85.427152849679,4,1,0,90,0,1
87845,-84.9999702500104,4,1,0,90,0,1
87931,-84.5771102200443,4,1,0,90,0,1
88017,-84.1584366728804,4,1,0,90,0,1
88104,-83.7438176126647,4,1,0,90,0,1
88190,-83.3333333333333,4,1,0,90,0,1
88276,-82.9268535395669,4,1,0,90,0,1
88362,-82.524251814502,4,1,0,90,0,1
88448,-82.125607832155,4,1,0,90,0,1
88535,-81.7307967363258,4,1,0,90,0,1
88621,-81.3396973512541,4,1,0,90,0,1
88707,-80.9523886621323,4,1,0,90,0,1
88793,-80.5687509265406,4,1,0,90,0,1
88880,-80.18866789783,4,1,0,90,0,1
88966,-79.8122178139274,4,1,0,90,0,1
89052,-79.4392226395429,4,1,0,90,0,1
89138,-79.0697600865339,4,1,0,90,0,1
89224,-78.7037182784663,4,1,0,90,0,1
89311,-78.3409885535982,4,1,0,90,0,1
89397,-77.981647799007,4,1,0,90,0,1
89483,-77.6255884989928,4,1,0,90,0,1
89569,-77.2727061983529,4,1,0,90,0,1
89664,-76.9230769230769,4,1,0,80,0,0
90940,-83.3333333333333,4,1,0,40,0,0
92320,-90.9090909090909,4,1,0,40,0,0
93699,-99.9999999999999,4,1,0,40,0,0
95078,-111.111111111111,4,1,0,40,0,0
96458,-125,4,1,0,40,0,0
97837,-142.857142857143,4,1,0,40,0,0
99216,-166.666666666667,4,1,0,40,0,0
99832,-125,4,1,0,60,0,0
100000,-125,4,1,0,60,0,0
100086,-123.076923076923,4,1,0,60,0,0
100172,-121.212121212121,4,1,0,60,0,0
100258,-119.402985074627,4,1,0,60,0,0
100344,-117.647058823529,4,1,0,60,0,0
100431,-115.942028985507,4,1,0,60,0,0
100517,-114.285714285714,4,1,0,60,0,0
100603,-112.676056338028,4,1,0,60,0,0
100689,-111.111111111111,4,1,0,60,0,0
100940,-143.279202450649,4,1,0,40,0,0
101027,-142.857142857143,4,1,0,40,0,0
101544,-140.909174173603,4,1,0,41,0,0
101716,-140.271537642568,4,1,0,42,0,0
102061,-139.01342174587,4,1,0,43,0,0
102406,-137.777863506226,4,1,0,44,0,0
102923,-135.964888427213,4,1,0,45,0,0
103096,-135.371119925275,4,1,0,45,0,0
103440,-134.199186484532,4,1,0,46,0,0
103785,-133.047193169889,4,1,0,47,0,0
104303,-131.355987862707,4,1,0,48,0,0
104475,-130.801709839951,4,1,0,49,0,0
104992,-129.166591319488,4,1,0,50,0,0
105165,-128.630764105328,4,1,0,51,0,0
105682,-127.049143879344,4,1,0,52,0,0
105854,-126.530545106241,4,1,0,53,0,0
106027,-126.016321633978,4,1,0,54,0,0
106199,-125.506103361806,4,1,0,55,0,0
106544,-124.497961968363,4,1,0,55,0,0
107061,-123.015907186958,4,1,0,56,0,0
107234,-122.529649111844,4,1,0,57,0,0
107578,-121.568575009634,4,1,0,58,0,0
107923,-120.622605641278,4,1,0,59,0,0
108440,-119.230723372799,4,1,0,60,0,0
108613,-118.774014621081,4,1,0,61,0,0
108958,-117.870735878791,4,1,0,62,0,0
109303,-116.981092346044,4,1,0,63,0,0
109820,-115.671659055472,4,1,0,64,0,0
109992,-115.241627119582,4,1,0,65,0,0
110509,-113.970634326359,4,1,0,65,0,0
110682,-113.553134350391,4,1,0,66,0,0
111199,-112.318787675933,4,1,0,67,0,0
111372,-111.913405883064,4,1,0,68,0,0
111544,-111.510815433989,4,1,0,69,0,0
111716,-100,4,1,0,70,0,0
111889,-100.628525771972,4,1,0,70,0,0
112234,-101.909581742695,4,1,0,70,0,0
112406,-102.562419488501,4,1,0,70,0,0
112751,-103.893513304603,4,1,0,70,0,0
112923,-104.572101418207,4,1,0,70,0,0
113096,-105.259501512053,4,1,0,70,0,0
113268,-105.95611085976,4,1,0,70,0,0
113613,-107.377361630847,4,1,0,70,0,0
113785,-108.102381603569,4,1,0,70,0,0
114130,-109.582195961458,4,1,0,70,0,0
114303,-110.337400737716,4,1,0,70,0,0
114475,-111.103086999272,4,1,0,70,0,0
114647,-111.879474479732,4,1,0,70,0,0
114992,-113.465263177005,4,1,0,70,0,0
115165,-114.275135673155,4,1,0,70,0,0
115509,-115.930066346777,4,1,0,70,0,0
115682,-116.775501434003,4,1,0,70,0,0
115854,-117.633496373359,4,1,0,70,0,0
116027,-118.504192678337,4,1,0,70,0,0
116372,-120.284834488068,4,1,0,70,0,0
116544,-121.195374214957,4,1,0,70,0,0
116889,-123.058445378048,4,1,0,70,0,0
117061,-124.011627330178,4,1,0,70,0,0
117234,-124.979690800245,4,1,0,70,0,0
117406,-125.962987035889,4,1,0,70,0,0
117751,-127.976738947929,4,1,0,70,0,0
117923,-129.007954630483,4,1,0,70,0,0
118268,-131.120886901679,4,1,0,70,0,0
118440,-132.203609422944,4,1,0,70,0,0
118613,-133.304361852024,4,1,0,70,0,0
118785,-134.423598331534,4,1,0,70,0,0
119130,-136.719417575281,4,1,0,70,0,0
119303,-137.896988191881,4,1,0,70,0,0
119647,-140.314050908744,4,1,0,70,0,0
119820,-141.554637966936,4,1,0,70,0,0
119992,-142.817358021694,4,1,0,70,0,0
120165,-144.102808707845,4,1,0,70,0,0
120509,-146.744402067922,4,1,0,70,0,0
120682,-148.101852606074,4,1,0,70,0,0
121027,-150.893288266538,4,1,0,70,0,0
121199,-152.32895743015,4,1,0,70,0,0
121372,-153.79220827156,4,1,0,70,0,0
121544,-155.283843337236,4,1,0,70,0,0
121889,-158.355635085275,4,1,0,70,0,0
122061,-159.937560376429,4,1,0,70,0,0
122406,-163.198161735906,4,1,0,70,0,0
122578,-164.878830547431,4,1,0,70,0,0
122751,-142.857142857143,4,1,0,70,0,0
123096,-140.350877192982,4,1,0,70,0,0
123440,-137.931034482759,4,1,0,70,0,0
123785,-135.593220338983,4,1,0,70,0,0
124130,-133.333333333333,4,1,0,70,0,0
124475,-131.147540983607,4,1,0,70,0,0
124820,-129.032258064516,4,1,0,70,0,0
125165,-126.984126984127,4,1,0,70,0,0
125509,-125,4,1,0,70,0,0
125682,-124.031007751938,4,1,0,70,0,0
125854,-123.076923076923,4,1,0,70,0,0
126027,-122.137404580153,4,1,0,70,0,0
126199,-121.212121212121,4,1,0,70,0,0
126372,-120.300751879699,4,1,0,70,0,0
126544,-119.402985074627,4,1,0,70,0,0
126889,-117.647058823529,4,1,0,70,0,0
127061,-116.788321167883,4,1,0,70,0,0
127234,-115.942028985507,4,1,0,70,0,0
127406,-115.107913669065,4,1,0,70,0,0
127578,-114.285714285714,4,1,0,70,0,0
127751,-113.475177304965,4,1,0,70,0,0
127923,-112.676056338028,4,1,0,70,0,0
128275,-100,4,1,0,70,0,0
128447,-100.943926658181,4,1,0,70,0,0
128620,-101.905739229328,4,1,0,70,0,0
128792,-102.886162634215,4,1,0,70,0,0
128965,-103.885634382821,4,1,0,70,0,0
129137,-104.904604997446,4,1,0,70,0,0
129310,-105.943875172689,4,1,0,70,0,0
129482,-107.003943095303,4,1,0,70,0,0
129654,-108.085322553624,4,1,0,70,0,0
129827,-109.188901166574,4,1,0,70,0,0
129999,-110.315126189473,4,1,0,70,0,0
130172,-111.46495040367,4,1,0,70,0,0
130344,-112.638996521708,4,1,0,70,0,0
130516,-113.837908478875,4,1,0,70,0,0
130689,-115.062749470424,4,1,0,70,0,0
130861,-116.314234536023,4,1,0,70,0,0
131034,-117.593104340361,4,1,0,70,0,0
131120,-115.523465703971,4,1,0,70,0,0
131206,-113.475177304965,4,1,0,70,0,0
131292,-111.498257839721,4,1,0,70,0,0
131379,-109.58904109589,4,1,0,70,0,0
131465,-107.744107744108,4,1,0,70,0,0
131551,-105.960264900662,4,1,0,70,0,0
131637,-104.234527687296,4,1,0,70,0,0
131723,-102.564102564103,4,1,0,70,0,0
131810,-100.946372239748,4,1,0,70,0,0
131896,-99.3788819875776,4,1,0,70,0,0
131982,-97.8593272171254,4,1,0,70,0,0
132068,-96.3855421686747,4,1,0,70,0,0
132154,-94.9554896142433,4,1,0,70,0,0
132241,-93.5672514619883,4,1,0,70,0,0
132327,-92.2190201729107,4,1,0,70,0,0
132413,-90.9090909090909,4,1,0,70,0,0
132499,-91.743119266055,4,1,0,70,0,0
132585,-92.5925925925926,4,1,0,70,0,0
132672,-93.4579439252336,4,1,0,70,0,0
132758,-94.3396226415094,4,1,0,70,0,0
132844,-95.2380952380952,4,1,0,70,0,0
132930,-96.1538461538461,4,1,0,70,0,0
133016,-97.0873786407767,4,1,0,70,0,0
133103,-98.0392156862745,4,1,0,70,0,0
133275,-100,4,1,0,70,0,0
133448,-102.040816326531,4,1,0,70,0,0
133534,-104.166666666667,4,1,0,70,0,0
133620,-106.382978723404,4,1,0,70,0,0
133740,-90.9090909090909,4,1,0,100,0,0
133802,-90.9090909090909,4,1,0,100,0,1
142078,-90.9090909090909,4,1,0,100,0,0
142234,-91.4634425193422,4,1,0,80,0,0
142406,-92.0245116489228,4,1,0,80,0,0
142578,-92.5925925925926,4,1,0,80,0,0
142665,-92.8792282107653,4,1,0,80,0,0
142751,-93.1677307974319,4,1,0,80,0,0
142837,-93.4579439252336,4,1,0,80,0,0
142923,-93.7499707031342,4,1,0,80,0,0
143096,-94.3396226415094,4,1,0,80,0,0
143268,-94.9367389040313,4,1,0,80,0,0
143354,-95.2380952380952,4,1,0,80,0,0
143440,-95.5413708466972,4,1,0,80,0,0
143527,-95.8466759893533,4,1,0,80,0,0
143613,-96.1538461538461,4,1,0,80,0,0
143699,-96.4629914909995,4,1,0,80,0,0
143785,-96.774224765879,4,1,0,80,0,0
143958,-97.4025657783877,4,1,0,80,0,0
144044,-97.7199015374272,4,1,0,80,0,0
144130,-98.0392156862745,4,1,0,80,0,0
144216,-98.3606234883202,4,1,0,80,0,0
144303,-98.6842429882378,4,1,0,80,0,0
144389,-99.009900990099,4,1,0,80,0,0
144475,-99.3377154510876,4,1,0,80,0,0
144561,-99.667807198607,4,1,0,80,0,0
144647,-100,4,1,0,80,0,0
144775,-90.9090909090909,4,1,0,100,0,0
144837,-90.9090909090909,4,1,0,100,0,1
151027,-90.9090909090909,4,1,0,100,0,1
151113,-90.5672407422167,4,1,0,100,0,1
151199,-90.2279518976743,4,1,0,100,0,1
151285,-89.8911148925307,4,1,0,100,0,1
151372,-89.5568636828111,4,1,0,100,0,1
151458,-89.2250890243326,4,1,0,100,0,1
151544,-88.8957634945991,4,1,0,100,0,1
151630,-88.5687816301262,4,1,0,100,0,1
151716,-88.244274270264,4,1,0,100,0,1
151803,-87.92213615622,4,1,0,100,0,1
151889,-87.6023414353819,4,1,0,100,0,1
151975,-87.284788443494,4,1,0,100,0,1
152061,-86.9696049927511,4,1,0,100,0,1
152147,-86.6566895931382,4,1,0,100,0,1
152234,-86.3460178511757,4,1,0,100,0,1
152320,-86.037491697382,4,1,0,100,0,1
152406,-85.7312360043757,4,1,0,100,0,1
152492,-85.427152849679,4,1,0,100,0,1
152578,-85.1252191974394,4,1,0,100,0,1
152665,-84.8253403828846,4,1,0,100,0,1
152751,-84.5276384245739,4,1,0,100,0,1
152837,-84.2320187803709,4,1,0,100,0,1
152923,-83.9384596789018,4,1,0,100,0,1
153009,-83.6468696831958,4,1,0,100,0,1
153113,-83.3333333333333,4,1,0,100,0,0
153182,-83.7696335078534,4,1,0,99,0,0
153268,-84.2105263157895,4,1,0,98,0,0
153354,-84.6560846560847,4,1,0,97,0,0
153440,-85.1063829787234,4,1,0,96,0,0
153527,-85.5614973262032,4,1,0,95,0,0
153613,-86.0215053763441,4,1,0,94,0,0
153699,-86.4864864864865,4,1,0,93,0,0
153785,-86.9565217391304,4,1,0,92,0,0
153872,-87.431693989071,4,1,0,92,0,0
153958,-87.9120879120879,4,1,0,91,0,0
154044,-88.3977900552486,4,1,0,90,0,0
154130,-88.8888888888889,4,1,0,90,0,0
154216,-89.3854748603352,4,1,0,90,0,0
154303,-89.8876404494382,4,1,0,90,0,0
154389,-90.3954802259887,4,1,0,90,0,0
154475,-90.9090909090909,4,1,0,90,0,0
154561,-91.4285714285714,4,1,0,90,0,0
154647,-91.9540229885058,4,1,0,90,0,0
154734,-92.485549132948,4,1,0,90,0,0
154820,-93.0232558139535,4,1,0,90,0,0
154906,-93.5672514619883,4,1,0,90,0,0
154992,-94.1176470588235,4,1,0,90,0,0
155078,-94.6745562130178,4,1,0,90,0,0
155165,-95.2380952380952,4,1,0,90,0,0
155251,-95.8083832335329,4,1,0,90,0,0
155337,-96.3855421686747,4,1,0,90,0,0
155423,-96.969696969697,4,1,0,90,0,0
155509,-97.5609756097561,4,1,0,90,0,0
155596,-98.159509202454,4,1,0,90,0,0
155682,-98.7654320987654,4,1,0,90,0,0
155768,-99.3788819875776,4,1,0,90,0,0
155854,-100,4,1,0,90,0,0
158625,-100,4,1,0,90,0,0
158798,-101.626016260163,4,1,0,90,0,0
158855,-102.179801709877,4,1,0,90,0,0
158913,-102.739761212247,4,1,0,90,0,0
158970,-103.305785123967,4,1,0,90,0,0
159056,-104.166666666667,4,1,0,90,0,0
159142,-105.042016806723,4,1,0,90,0,0
159229,-105.932203389831,4,1,0,90,0,0
159315,-106.837606837607,4,1,0,90,0,0
159401,-107.758620689655,4,1,0,90,0,0
159487,-108.695652173913,4,1,0,90,0,0
159573,-109.649122807018,4,1,0,90,0,0
159660,-110.619469026549,4,1,0,90,0,0
159832,-112.612612612613,4,1,0,90,0,0
159918,-113.636363636364,4,1,0,90,0,0
160005,-114.678899082569,4,1,0,90,0,0
160091,-115.740740740741,4,1,0,90,0,0
160177,-116.822429906542,4,1,0,90,0,0
160263,-117.924528301887,4,1,0,90,0,0
160349,-119.047619047619,4,1,0,90,0,0
160509,-117.647058823529,4,1,0,90,0,0
160596,-115.623511347291,4,1,0,90,0,0
160682,-113.668397457465,4,1,0,90,0,0
160768,-111.7783033842,4,1,0,90,0,0
160854,-109.950038702414,4,1,0,90,0,0
160940,-108.180618360415,4,1,0,90,0,0
161027,-106.467246416312,4,1,0,90,0,0
161113,-104.807301295837,4,1,0,90,0,0
161199,-103.198322408071,4,1,0,90,0,0
161285,-101.637997975371,4,1,0,90,0,0
161372,-100.124153950899,4,1,0,90,0,0
164137,-100,4,1,0,90,0,0
164310,-99.0735631113458,4,1,0,90,0,0
164396,-98.6168007526434,4,1,0,90,0,0
164482,-98.1642307212813,4,1,0,90,0,0
164654,-97.271344251069,4,1,0,90,0,0
164741,-96.8310114870629,4,1,0,90,0,0
164827,-96.3945544788284,4,1,0,90,0,0
164913,-95.9621064833918,4,1,0,90,0,0
164999,-95.5335212796142,4,1,0,90,0,0
165172,-94.6876443986577,4,1,0,90,0,0
165344,-93.8566152488843,4,1,0,90,0,0
165430,-93.4465906011419,4,1,0,90,0,0
165516,-93.0401328613097,4,1,0,90,0,0
165689,-92.2376484564952,4,1,0,90,0,0
165861,-91.4489723878973,4,1,0,90,0,0
166034,-90.6735868748169,4,1,0,90,0,0
166206,-89.9112396242429,4,1,0,90,0,0
166292,-89.5348930908609,4,1,0,90,0,0
166465,-88.7914944851603,4,1,0,90,0,0
166551,-88.4244444071097,4,1,0,90,0,0
166723,-87.6992966516409,4,1,0,90,0,0
166810,-87.3412027757034,4,1,0,90,0,0
166896,-86.9860213463696,4,1,0,90,0,0
167061,-93.0232558139535,4,1,0,90,0,0
167246,-100,4,1,0,90,0,0
169827,-100,4,1,0,90,0,0
169999,-101.010101010101,4,1,0,90,0,0
170085,-101.522842639594,4,1,0,90,0,0
170172,-102.040816326531,4,1,0,90,0,0
170258,-102.564102564103,4,1,0,90,0,0
170430,-103.626943005181,4,1,0,90,0,0
170516,-104.166666666667,4,1,0,90,0,0
170689,-105.263157894737,4,1,0,90,0,0
170861,-106.382978723404,4,1,0,90,0,0
170947,-106.951871657754,4,1,0,90,0,0
171034,-107.52688172043,4,1,0,90,0,0
171206,-108.695652173913,4,1,0,90,0,0
171379,-109.89010989011,4,1,0,90,0,0
171465,-110.497237569061,4,1,0,90,0,0
171551,-111.111111111111,4,1,0,90,0,0
171637,-111.731843575419,4,1,0,90,0,0
171810,-112.994350282486,4,1,0,90,0,0
171896,-113.636363636364,4,1,0,90,0,0
171982,-114.285714285714,4,1,0,90,0,0
172068,-114.942528735632,4,1,0,90,0,0
172241,-116.279069767442,4,1,0,90,0,0
172413,-111.111111111111,4,1,0,90,0,0
172585,-110.093480374186,4,1,0,90,0,0
172758,-109.094320767849,4,1,0,90,0,0
172930,-108.113133907847,4,1,0,90,0,0
173103,-107.149439179835,4,1,0,90,0,0
173189,-106.674062735016,4,1,0,90,0,0
173275,-106.202885744811,4,1,0,90,0,0
173447,-105.272798666825,4,1,0,90,0,0
173620,-104.358860902161,4,1,0,90,0,0
173792,-103.460655464637,4,1,0,90,0,0
173965,-102.577779601383,4,1,0,90,0,0
174137,-101.70984419069,4,1,0,90,0,0
174310,-100.856473170161,4,1,0,90,0,0
174482,-100.017302993418,4,1,0,90,0,0
174568,-99.6029825117083,4,1,0,90,0,0
174654,-99.1919821137018,4,1,0,90,0,0
174827,-98.3802672795101,4,1,0,90,0,0
174999,-97.5816343557612,4,1,0,90,0,0
175172,-96.7958633319846,4,1,0,90,0,0
175258,-96.4076578530786,4,1,0,90,0,0
175344,-96.0226459808281,4,1,0,90,0,0
175430,-95.6406055580581,4,1,0,90,0,0
175516,-95.2616838455237,4,1,0,90,0,0
175603,-94.8857528093299,4,1,0,90,0,0
175689,-94.5126878557812,4,1,0,90,0,0
175775,-94.142633621347,4,1,0,90,0,0
175861,-93.7753779616609,4,1,0,90,0,0
175947,-93.4110637932178,4,1,0,90,0,0
176034,-93.0494827844499,4,1,0,90,0,0
176120,-92.6907761554832,4,1,0,90,0,0
176206,-92.3347392836302,4,1,0,90,0,0
176292,-91.9815117161451,4,1,0,90,0,0
176379,-91.6309764013583,4,1,0,90,0,0
176465,-91.2830193501744,4,1,0,90,0,0
176551,-90.9377776444024,4,1,0,90,0,0
176716,-92.5925925925926,4,1,0,90,0,0
176803,-94.3396226415094,4,1,0,90,0,0
176889,-96.1538461538461,4,1,0,90,0,0
177061,-98.0392156862745,4,1,0,90,0,0
177234,-100,4,1,0,90,0,0
177320,-98.7654320987654,4,1,0,90,0,0
177406,-97.5609756097561,4,1,0,90,0,0
177492,-96.3855421686747,4,1,0,90,0,0
177578,-95.2380952380952,4,1,0,90,0,0
177665,-94.1176470588235,4,1,0,90,0,0
177751,-93.0232558139535,4,1,0,90,0,0
177837,-91.9540229885058,4,1,0,90,0,0
177940,-90.9090909090909,4,1,0,90,0,1
199140,-90.9090909090909,4,1,0,90,0,1
199227,-90.0968270600414,4,1,0,90,0,1
199313,-89.2988699228011,4,1,0,90,0,1
199399,-88.515001522458,4,1,0,90,0,1
199485,-87.7447750180096,4,1,0,90,0,1
199571,-86.9877616918076,4,1,0,90,0,1
199664,-86.243773199575,4,1,0,90,0,0
199744,-85.5124031465144,4,1,0,90,0,0
199830,-84.7932613099372,4,1,0,90,0,0
199916,-84.0861849761531,4,1,0,90,0,0
200009,-83.3907339552058,4,1,0,90,0,1
200089,-90.9774066708274,4,1,0,90,0,1
219311,-90.9090909090909,4,1,0,90,0,1
219483,-89.9470661515698,4,1,0,90,0,1
219569,-89.4736889196678,4,1,0,90,0,1
219655,-89.005268221826,4,1,0,90,0,1
219828,-88.0829106821669,4,1,0,90,0,1
219914,-87.6289021150112,4,1,0,90,0,1
220000,-87.1794737672604,4,1,0,90,0,1
220173,-86.2943812002513,4,1,0,90,0,1
220259,-85.8585771860023,4,1,0,90,0,1
220345,-85.427152849679,4,1,0,90,0,1
220517,-84.5771102200443,4,1,0,90,0,1
220604,-84.1584366728804,4,1,0,90,0,1
220690,-83.7438176126647,4,1,0,90,0,1
220776,-83.3333333333333,4,1,0,90,0,1
220862,-82.9268535395669,4,1,0,90,0,1
220948,-82.524251814502,4,1,0,90,0,1
221035,-82.125607832155,4,1,0,90,0,1
221121,-81.7307967363258,4,1,0,90,0,1
221207,-81.3396973512541,4,1,0,90,0,1
221293,-80.9523886621323,4,1,0,90,0,1
221380,-80.5687509265406,4,1,0,90,0,1
221466,-80.18866789783,4,1,0,90,0,1
221552,-79.8122178139274,4,1,0,90,0,1
221638,-79.4392226395429,4,1,0,90,0,1
221724,-79.0697600865339,4,1,0,90,0,1
221811,-78.7037182784663,4,1,0,90,0,1
221897,-78.3409885535982,4,1,0,90,0,1
221983,-77.981647799007,4,1,0,90,0,1
222078,-77.6255884989928,4,1,0,90,0,0
222242,-76.9230769230769,4,1,0,80,0,0
223353,-90.9090909090909,4,1,0,70,0,0
224733,-100,4,1,0,60,0,0
226112,-111.111111111111,4,1,0,50,0,0
227491,-125,4,1,0,40,0,0
228871,-142.857142857143,4,1,0,40,0,0
230250,-166.666666666667,4,1,0,40,0,0
232234,-111.111111111111,4,1,0,40,0,0
232413,-125,4,1,0,60,0,0
232500,-123.0964670083,4,1,0,60,0,0
232586,-121.250039406263,4,1,0,60,0,0
232672,-119.458185454055,4,1,0,60,0,0
232758,-117.71838231399,4,1,0,60,0,0
232844,-116.028663721086,4,1,0,60,0,0
232931,-114.38676682372,4,1,0,60,0,0
233017,-112.790689805301,4,1,0,60,0,0
233103,-111.238541039791,4,1,0,60,0,0
233613,-142.857142857143,4,1,0,40,0,0
245768,-125,4,1,0,40,0,0
246716,-142.857142857143,4,1,0,40,0,0
246889,-140.845070422535,4,1,0,40,0,0
247234,-138.888888888889,4,1,0,40,0,0
247406,-136.986301369863,4,1,0,40,0,0
247751,-135.135135135135,4,1,0,40,0,0
248096,-133.333333333333,4,1,0,40,0,0
248268,-131.578947368421,4,1,0,40,0,0
248872,-111.111111111111,4,1,0,60,0,0
248965,-125,4,1,0,60,0,0
249051,-123.0964670083,4,1,0,60,0,0
249137,-121.250039406263,4,1,0,60,0,0
249224,-119.458185454055,4,1,0,60,0,0
249310,-117.71838231399,4,1,0,60,0,0
249396,-116.028663721086,4,1,0,60,0,0
249482,-114.38676682372,4,1,0,60,0,0
249568,-112.790689805301,4,1,0,60,0,0
249655,-111.238541039791,4,1,0,60,0,0
250251,-129.87012987013,4,1,0,40,0,0
250509,-128.205128205128,4,1,0,42,0,0
250854,-126.582278481013,4,1,0,45,0,0
251027,-125,4,1,0,47,0,0
252406,-123.456790123457,4,1,0,49,0,0
252751,-121.951219512195,4,1,0,52,0,0
252923,-120.481927710843,4,1,0,54,0,0
253096,-119.047619047619,4,1,0,56,0,0
253268,-117.647058823529,4,1,0,58,0,0
253613,-116.279069767442,4,1,0,61,0,0
254044,-114.942528735632,4,1,0,63,0,0
254475,-111.111111111111,4,1,0,65,0,0
254820,-105.263157894737,4,1,0,68,0,0
255165,-90.9090909090909,4,1,0,70,0,0
256458,-111.111111111111,4,1,0,70,0,0
260596,-90.9090909090908,4,1,0,70,0,0
261975,-111.111111111111,4,1,0,70,0,0
265423,-111.111111111111,4,1,0,60,0,0
265522,-125,4,1,0,60,0,0
265608,-123.076923076923,4,1,0,60,0,0
265694,-121.212121212121,4,1,0,60,0,0
265780,-119.402985074627,4,1,0,60,0,0
265867,-117.647058823529,4,1,0,60,0,0
265953,-115.942028985507,4,1,0,60,0,0
266039,-114.285714285714,4,1,0,60,0,0
266125,-112.676056338028,4,1,0,60,0,0
266211,-111.111111111111,4,1,0,45,0,0
266544,-142.857142857143,4,1,0,25,0,0
267061,-139.015934006356,4,1,0,26,0,0
267234,-137.781090647557,4,1,0,28,0,0
267578,-135.375884681406,4,1,0,29,0,0
267923,-133.053389002871,4,1,0,31,0,0
268440,-129.715145540393,4,1,0,32,0,0
268613,-128.639368535068,4,1,0,33,0,0
268958,-126.540311947177,4,1,0,35,0,0
269303,-124.508812733765,4,1,0,36,0,0
269820,-121.58084274977,4,1,0,38,0,0
269992,-120.63511977861,4,1,0,39,0,0
270509,-117.884631026999,4,1,0,40,0,0
270682,-116.995326036725,4,1,0,42,0,0
271199,-114.406396690452,4,1,0,43,0,0
271372,-113.568738614734,4,1,0,45,0,0
271544,-112.743257671333,4,1,0,46,0,0
271724,-111.111111111111,4,1,0,48,0,0
271897,-109.591683306337,4,1,0,49,0,0
272069,-108.113133907847,4,1,0,50,0,0
272242,-106.674062735016,4,1,0,52,0,0
272414,-105.272798666825,4,1,0,53,0,0
272586,-103.907763156801,4,1,0,55,0,0
272759,-102.577779601383,4,1,0,56,0,0
272931,-101.281412430065,4,1,0,57,0,0
273104,-100.017302993418,4,1,0,59,0,0
273276,-98.7844572534957,4,1,0,60,0,0
273448,-97.5816343557612,4,1,0,62,0,0
273621,-96.4076578530786,4,1,0,63,0,0
273793,-95.2616838455237,4,1,0,64,0,0
273966,-94.142633621347,4,1,0,66,0,0
274138,-93.0494827844499,4,1,0,67,0,0
274311,-91.9815117161451,4,1,0,69,0,0
274483,-90.9377776444024,4,1,0,80,0,0
274569,-90.4246613370371,4,1,0,80,0,0
274655,-89.9173839076657,4,1,0,80,0,0
274742,-89.4157663244129,4,1,0,80,0,0
274828,-88.9197143898774,4,1,0,80,0,0
274914,-88.429135985441,4,1,0,80,0,0
275000,-87.9439410142399,4,1,0,80,0,0
275086,-87.4639648464833,4,1,0,80,0,0
275173,-86.9892750922739,4,1,0,80,0,0
275259,-86.5197100551477,4,1,0,80,0,0
275345,-86.0551871915459,4,1,0,80,0,0
275431,-85.5956257211431,4,1,0,80,0,0
275517,-85.1409465800159,4,1,0,80,0,0
275604,-84.69100064958,4,1,0,80,0,0
275690,-84.2458563675546,4,1,0,80,0,0
275776,-83.8053670633175,4,1,0,80,0,0
275862,-83.3333333333333,4,1,0,80,0,0
275948,-83.989501312336,4,1,0,80,0,0
276034,-84.6560846560847,4,1,0,80,0,0
276120,-85.3333333333333,4,1,0,80,0,0
276206,-86.0215053763441,4,1,0,80,0,0
276293,-86.7208672086721,4,1,0,80,0,0
276379,-87.431693989071,4,1,0,80,0,0
276465,-88.1542699724518,4,1,0,80,0,0
276551,-88.8888888888889,4,1,0,80,0,0
276637,-89.6358543417367,4,1,0,80,0,0
276724,-90.3954802259887,4,1,0,80,0,0
276810,-91.1680911680912,4,1,0,80,0,0
276896,-91.9540229885058,4,1,0,80,0,0
276982,-92.7536231884058,4,1,0,80,0,0
277068,-93.5672514619883,4,1,0,80,0,0
277155,-94.3952802359882,4,1,0,80,0,0
277203,-95.2380952380952,4,1,0,45,0,0
277595,-90.9090909090909,4,1,0,90,0,1
298106,-90.9090909090909,4,1,0,90,0,1
298192,-90.3259955505415,4,1,0,90,0,1
298278,-89.7504130762762,4,1,0,90,0,1
298365,-89.1820401640236,4,1,0,90,0,1
298451,-88.6208992894376,4,1,0,90,0,1
298537,-88.0666981945446,4,1,0,90,0,1
298623,-87.519385543898,4,1,0,90,0,1
298709,-86.9789093540598,4,1,0,90,0,1
298796,-86.4449928898993,4,1,0,90,0,1
298882,-85.9176651015332,4,1,0,90,0,1
298975,-85.3966589411156,4,1,0,90,0,0
299056,-84.8819334746335,4,1,0,90,0,0
299142,-84.3734470012411,4,1,0,90,0,0
299229,-83.8709460978204,4,1,0,90,0,0
299320,-83.3744647359364,4,1,0,90,0,1
299399,-90.9580428739831,4,1,0,90,0,1
318625,-90.9090909090909,4,1,0,90,0,1
318798,-89.8902260559405,4,1,0,90,0,1
318884,-89.3893900157415,4,1,0,90,0,1
318970,-88.8940249881104,4,1,0,90,0,1
319142,-87.9195852305647,4,1,0,90,0,1
319229,-87.4404093610205,4,1,0,90,0,1
319315,-86.9663527181334,4,1,0,90,0,1
319487,-86.0334945601021,4,1,0,90,0,1
319573,-85.5746035114683,4,1,0,90,0,1
319660,-85.120509361128,4,1,0,90,0,1
319832,-84.2266269004685,4,1,0,90,0,1
319918,-83.7867593459941,4,1,0,90,0,1
320005,-83.3513928017737,4,1,0,90,0,1
320091,-82.9205273082172,4,1,0,90,0,1
320177,-82.4940934229109,4,1,0,90,0,1
320263,-82.0720231246132,4,1,0,90,0,1
320349,-81.6543164513034,4,1,0,90,0,1
320436,-81.2407740945919,4,1,0,90,0,1
320522,-80.8313994421017,4,1,0,90,0,1
320608,-80.426129806165,4,1,0,90,0,1
320694,-80.0249677899505,4,1,0,90,0,1
320867,-79.2344054804854,4,1,0,90,0,1
321039,-78.4593717758102,4,1,0,90,0,1
321125,-78.0774825321152,4,1,0,90,0,1
321211,-77.6992928587357,4,1,0,90,0,1
321298,-77.3247492551694,4,1,0,90,0,1
321389,-76.9537992475457,4,1,0,90,0,0
321729,-83.3333333333333,4,1,0,80,0,0
321901,-84.3373697198481,4,1,0,80,0,0
321987,-84.8485157024906,4,1,0,80,0,0
322073,-85.3658224271381,4,1,0,80,0,0
322246,-86.4197424173157,4,1,0,80,0,0
322418,-87.5000109375014,4,1,0,80,0,0
322591,-88.6076285851754,4,1,0,80,0,0
322677,-89.1719404438444,4,1,0,80,0,0
322763,-89.7435667324188,4,1,0,80,0,0
322936,-90.9090909090909,4,1,0,80,0,0
323108,-92.1052873961283,4,1,0,80,0,0
323280,-93.3332960000149,4,1,0,80,0,0
323367,-93.9597063195419,4,1,0,80,0,0
323453,-94.594581811543,4,1,0,80,0,0
323625,-95.8904240945786,4,1,0,80,0,0
323798,-97.2222627314984,4,1,0,80,0,0
323970,-98.5915215235151,4,1,0,80,0,0
324142,-100,4,1,0,80,0,0
332665,-111.111111111111,4,1,0,80,0,0
340682,-111.111111111111,4,1,0,80,0,0
340854,-109.58904109589,4,1,0,80,0,0
340940,-108.843537414966,4,1,0,80,0,0
341027,-108.108108108108,4,1,0,80,0,0
341199,-106.666666666667,4,1,0,80,0,0
341372,-105.263157894737,4,1,0,80,0,0
341458,-104.575163398693,4,1,0,80,0,0
341544,-103.896103896104,4,1,0,80,0,0
341630,-103.225806451613,4,1,0,80,0,0
341716,-102.564102564103,4,1,0,80,0,0
341889,-101.26582278481,4,1,0,80,0,0
342061,-100,4,1,0,80,0,0
342147,-99.3788819875776,4,1,0,80,0,0
342234,-98.7654320987654,4,1,0,80,0,0
342320,-98.159509202454,4,1,0,80,0,0
342406,-97.5609756097561,4,1,0,80,0,0
342492,-96.969696969697,4,1,0,80,0,0
342578,-96.3855421686747,4,1,0,80,0,0
342665,-95.8083832335329,4,1,0,80,0,0
342751,-95.2380952380952,4,1,0,80,0,0
342837,-94.6745562130178,4,1,0,80,0,0
342923,-94.1176470588235,4,1,0,80,0,0
343009,-93.5672514619883,4,1,0,80,0,0
343096,-93.0232558139535,4,1,0,80,0,0
343182,-92.485549132948,4,1,0,80,0,0
343268,-91.9540229885058,4,1,0,80,0,0
343354,-91.4285714285714,4,1,0,80,0,0
343440,-90.9090909090909,4,1,0,80,0,0
344647,-100,4,1,0,80,0,0
346113,-111.111111111111,4,1,0,80,0,0

[HitObjects]
256,192,1389,5,8,0:0:0:0:
256,192,1561,1,0,0:0:0:0:
256,192,1733,1,8,0:0:0:0:
256,192,1820,1,0,0:0:0:0:
256,192,1992,1,8,0:0:0:0:
256,192,2164,1,8,0:0:0:0:
256,192,2251,1,0,0:0:0:0:
256,192,2423,1,8,0:0:0:0:
256,192,2595,1,8,0:0:0:0:
256,192,2768,1,0,0:0:0:0:
256,192,2940,1,0,0:0:0:0:
256,192,3113,1,8,0:0:0:0:
256,192,3199,1,0,0:0:0:0:
256,192,3371,1,0,0:0:0:0:
256,192,3544,1,8,0:0:0:0:
256,192,3630,1,0,0:0:0:0:
256,192,3802,1,8,0:0:0:0:
256,192,3975,1,0,0:0:0:0:
256,192,4147,1,8,0:0:0:0:
256,192,4320,1,0,0:0:0:0:
256,192,4492,1,8,0:0:0:0:
256,192,4578,1,0,0:0:0:0:
256,192,4751,1,8,0:0:0:0:
256,192,4923,1,8,0:0:0:0:
256,192,5009,1,0,0:0:0:0:
256,192,5182,1,8,0:0:0:0:
256,192,5354,1,8,0:0:0:0:
256,192,5526,1,0,0:0:0:0:
256,192,5699,1,0,0:0:0:0:
256,192,5871,1,8,0:0:0:0:
256,192,5957,1,0,0:0:0:0:
256,192,6130,1,0,0:0:0:0:
256,192,6302,1,8,0:0:0:0:
256,192,6389,1,0,0:0:0:0:
256,192,6561,1,8,0:0:0:0:
256,192,6733,1,0,0:0:0:0:
256,192,6906,1,8,0:0:0:0:
256,192,7078,1,0,0:0:0:0:
256,192,7251,1,8,0:0:0:0:
256,192,7337,1,0,0:0:0:0:
256,192,7509,1,8,0:0:0:0:
256,192,7682,1,8,0:0:0:0:
256,192,7768,1,0,0:0:0:0:
256,192,7940,1,8,0:0:0:0:
256,192,8113,1,8,0:0:0:0:
256,192,8285,1,0,0:0:0:0:
256,192,8457,1,0,0:0:0:0:
256,192,8630,1,8,0:0:0:0:
256,192,8716,1,0,0:0:0:0:
256,192,8889,1,0,0:0:0:0:
256,192,9061,1,8,0:0:0:0:
256,192,9147,1,0,0:0:0:0:
256,192,9320,1,8,0:0:0:0:
256,192,9492,1,0,0:0:0:0:
256,192,9664,1,8,0:0:0:0:
256,192,9837,1,0,0:0:0:0:
256,192,10009,1,8,0:0:0:0:
256,192,10095,1,0,0:0:0:0:
256,192,10268,1,8,0:0:0:0:
256,192,10440,1,8,0:0:0:0:
256,192,10526,1,0,0:0:0:0:
256,192,10699,1,8,0:0:0:0:
256,192,10871,1,8,0:0:0:0:
256,192,11044,1,0,0:0:0:0:
256,192,11216,1,0,0:0:0:0:
256,192,11389,1,8,0:0:0:0:
256,192,11475,1,0,0:0:0:0:
256,192,11647,1,0,0:0:0:0:
256,192,11820,1,8,0:0:0:0:
256,192,11906,1,0,0:0:0:0:
256,192,12078,1,0,0:0:0:0:
256,192,12251,1,0,0:0:0:0:
256,192,12423,1,8,0:0:0:0:
256,192,12595,1,0,0:0:0:0:
256,192,12768,1,8,0:0:0:0:
256,192,12854,1,0,0:0:0:0:
256,192,13026,1,0,0:0:0:0:
256,192,13113,1,8,0:0:0:0:
256,192,13199,1,8,0:0:0:0:
256,192,13285,1,0,0:0:0:0:
256,192,13457,1,8,0:0:0:0:
256,192,13630,1,8,0:0:0:0:
256,192,13716,1,0,0:0:0:0:
256,192,13802,1,8,0:0:0:0:
256,192,13975,1,0,0:0:0:0:
256,192,14147,1,8,0:0:0:0:
256,192,14233,1,0,0:0:0:0:
256,192,14406,1,0,0:0:0:0:
256,192,14578,1,8,0:0:0:0:
256,192,14664,1,0,0:0:0:0:
256,192,14751,1,0,0:0:0:0:
256,192,14837,1,8,0:0:0:0:
256,192,15009,1,8,0:0:0:0:
256,192,15182,1,0,0:0:0:0:
256,192,15354,1,8,0:0:0:0:
256,192,15526,1,8,0:0:0:0:
256,192,15613,1,0,0:0:0:0:
256,192,15785,1,0,0:0:0:0:
256,192,15957,1,0,0:0:0:0:
256,192,16044,1,8,0:0:0:0:
256,192,16130,1,8,0:0:0:0:
256,192,16216,1,0,0:0:0:0:
256,192,16389,1,0,0:0:0:0:
256,192,16475,1,8,0:0:0:0:
256,192,16561,1,0,0:0:0:0:
256,192,16733,1,0,0:0:0:0:
256,192,16906,1,8,0:0:0:0:
256,192,16992,1,0,0:0:0:0:
256,192,17164,1,0,0:0:0:0:
256,192,17337,1,8,0:0:0:0:
256,192,17423,1,0,0:0:0:0:
256,192,17509,1,0,0:0:0:0:
256,192,17595,1,8,0:0:0:0:
256,192,17768,1,0,0:0:0:0:
256,192,17940,1,8,0:0:0:0:
256,192,18113,1,0,0:0:0:0:
256,192,18285,1,8,0:0:0:0:
256,192,18371,1,0,0:0:0:0:
256,192,18544,1,0,0:0:0:0:
256,192,18630,1,8,0:0:0:0:
256,192,18716,1,8,0:0:0:0:
256,192,18802,1,0,0:0:0:0:
256,192,18975,1,8,0:0:0:0:
256,192,19147,1,8,0:0:0:0:
256,192,19233,1,0,0:0:0:0:
256,192,19320,1,8,0:0:0:0:
256,192,19492,1,0,0:0:0:0:
256,192,19664,1,8,0:0:0:0:
256,192,19837,1,0,0:0:0:0:
256,192,19923,1,8,0:0:0:0:
256,192,20009,1,0,0:0:0:0:
256,192,20095,1,8,0:0:0:0:
256,192,20182,1,0,0:0:0:0:
256,192,20354,1,8,0:0:0:0:
256,192,20526,1,8,0:0:0:0:
256,192,20699,1,0,0:0:0:0:
256,192,20871,1,0,0:0:0:0:
256,192,20957,1,0,0:0:0:0:
256,192,21044,1,8,0:0:0:0:
256,192,21216,1,0,0:0:0:0:
256,192,21389,1,8,0:0:0:0:
256,192,21475,1,0,0:0:0:0:
256,192,21561,1,8,0:0:0:0:
256,192,21647,1,8,0:0:0:0:
256,192,21733,1,0,0:0:0:0:
256,192,21820,1,0,0:0:0:0:
256,192,21906,1,8,0:0:0:0:
256,192,22078,1,8,0:0:0:0:
256,192,22164,1,0,0:0:0:0:
256,192,22251,1,8,0:0:0:0:
256,192,22337,1,0,0:0:0:0:
256,192,22423,1,8,0:0:0:0:
256,192,22509,1,8,0:0:0:0:
256,192,22595,1,0,0:0:0:0:
256,192,22682,1,8,0:0:0:0:
256,192,22768,1,0,0:0:0:0:
256,192,22854,1,8,0:0:0:0:
256,192,22940,1,0,0:0:0:0:
256,192,23026,1,0,0:0:0:0:
256,192,23113,1,12,0:0:0:0:
256,192,23457,1,4,0:0:0:0:
256,192,23630,1,0,0:0:0:0:
256,192,23802,1,8,0:0:0:0:
256,192,23889,1,0,0:0:0:0:
256,192,24061,1,8,0:0:0:0:
256,192,24147,1,0,0:0:0:0:
256,192,24233,1,8,0:0:0:0:
256,192,24320,1,0,0:0:0:0:
256,192,24492,1,8,0:0:0:0:
256,192,24664,1,0,0:0:0:0:
256,192,24751,1,8,0:0:0:0:
256,192,24837,1,0,0:0:0:0:
256,192,25009,1,0,0:0:0:0:
256,192,25182,1,8,0:0:0:0:
256,192,25268,1,0,0:0:0:0:
256,192,25440,1,0,0:0:0:0:
256,192,25526,1,8,0:0:0:0:
256,192,25613,1,8,0:0:0:0:
256,192,25699,1,0,0:0:0:0:
256,192,25871,1,8,0:0:0:0:
256,192,26044,1,0,0:0:0:0:
256,192,26130,1,8,0:0:0:0:
256,192,26216,1,0,0:0:0:0:
256,192,26389,1,0,0:0:0:0:
256,192,26561,1,8,0:0:0:0:
256,192,26647,1,0,0:0:0:0:
256,192,26820,1,8,0:0:0:0:
256,192,26906,1,8,0:0:0:0:
256,192,26992,1,0,0:0:0:0:
256,192,27078,1,8,0:0:0:0:
256,192,27251,1,8,0:0:0:0:
256,192,27509,1,8,0:0:0:0:
256,192,27595,1,8,0:0:0:0:
256,192,27768,1,0,0:0:0:0:
256,192,27940,1,8,0:0:0:0:
256,192,28199,1,8,0:0:0:0:
256,192,28285,1,8,0:0:0:0:
256,192,28371,1,0,0:0:0:0:
256,192,28457,1,8,0:0:0:0:
256,192,28630,1,8,0:0:0:0:
256,192,28802,1,0,0:0:0:0:
256,192,28889,1,8,0:0:0:0:
256,192,28975,1,0,0:0:0:0:
256,192,29147,1,0,0:0:0:0:
256,192,29320,1,8,0:0:0:0:
256,192,29406,1,0,0:0:0:0:
256,192,29578,1,8,0:0:0:0:
256,192,29664,1,0,0:0:0:0:
256,192,29751,1,8,0:0:0:0:
256,192,29837,1,0,0:0:0:0:
256,192,30009,1,8,0:0:0:0:
256,192,30182,1,0,0:0:0:0:
256,192,30268,1,8,0:0:0:0:
256,192,30354,1,0,0:0:0:0:
256,192,30526,1,0,0:0:0:0:
256,192,30699,1,8,0:0:0:0:
256,192,30785,1,0,0:0:0:0:
256,192,30957,1,0,0:0:0:0:
256,192,31044,1,8,0:0:0:0:
256,192,31130,1,8,0:0:0:0:
256,192,31216,1,0,0:0:0:0:
256,192,31389,1,8,0:0:0:0:
256,192,31561,1,0,0:0:0:0:
256,192,31647,1,8,0:0:0:0:
256,192,31733,1,0,0:0:0:0:
256,192,31906,1,0,0:0:0:0:
256,192,32078,1,8,0:0:0:0:
256,192,32164,1,0,0:0:0:0:
256,192,32337,1,8,0:0:0:0:
256,192,32423,1,8,0:0:0:0:
256,192,32509,1,0,0:0:0:0:
256,192,32595,1,8,0:0:0:0:
256,192,32768,1,8,0:0:0:0:
256,192,33026,1,8,0:0:0:0:
256,192,33113,1,8,0:0:0:0:
256,192,33285,1,0,0:0:0:0:
256,192,33457,1,8,0:0:0:0:
256,192,33716,1,8,0:0:0:0:
256,192,33802,1,8,0:0:0:0:
256,192,33889,1,0,0:0:0:0:
256,192,33975,1,8,0:0:0:0:
256,192,34147,1,8,0:0:0:0:
256,192,34320,1,0,0:0:0:0:
256,192,34492,1,4,0:0:0:0:
256,192,34837,1,8,0:0:0:0:
256,192,35009,1,8,0:0:0:0:
256,192,35095,1,8,0:0:0:0:
256,192,35182,1,0,0:0:0:0:
256,192,35268,1,0,0:0:0:0:
256,192,35354,1,8,0:0:0:0:
256,192,35526,1,8,0:0:0:0:
256,192,35871,1,0,0:0:0:0:
256,192,36044,1,8,0:0:0:0:
256,192,36216,1,8,0:0:0:0:
256,192,36389,1,0,0:0:0:0:
256,192,36475,1,0,0:0:0:0:
256,192,36561,1,8,0:0:0:0:
256,192,36733,1,0,0:0:0:0:
256,192,36906,1,8,0:0:0:0:
256,192,37251,1,0,0:0:0:0:
256,192,37423,1,0,0:0:0:0:
256,192,37595,1,8,0:0:0:0:
256,192,37768,1,8,0:0:0:0:
256,192,37940,1,0,0:0:0:0:
256,192,38026,1,0,0:0:0:0:
256,192,38113,1,0,0:0:0:0:
256,192,38285,1,8,0:0:0:0:
256,192,38630,1,0,0:0:0:0:
256,192,38802,1,0,0:0:0:0:
256,192,38975,1,8,0:0:0:0:
256,192,39147,1,8,0:0:0:0:
256,192,39320,1,0,0:0:0:0:
256,192,39492,1,0,0:0:0:0:
256,192,39664,1,8,0:0:0:0:
256,192,40009,5,8,0:0:0:0:
256,192,40182,1,0,0:0:0:0:
256,192,40354,1,8,0:0:0:0:
256,192,40526,1,0,0:0:0:0:
256,192,40699,1,8,0:0:0:0:
256,192,40871,1,0,0:0:0:0:
256,192,41044,1,8,0:0:0:0:
256,192,41216,1,0,0:0:0:0:
256,192,41389,1,8,0:0:0:0:
256,192,41561,1,0,0:0:0:0:
256,192,41733,1,8,0:0:0:0:
256,192,41906,1,0,0:0:0:0:
256,192,42078,1,8,0:0:0:0:
256,192,42251,1,0,0:0:0:0:
256,192,42423,1,8,0:0:0:0:
256,192,42595,1,0,0:0:0:0:
256,192,42768,1,8,0:0:0:0:
256,192,42854,1,8,0:0:0:0:
256,192,42940,1,0,0:0:0:0:
256,192,43026,1,0,0:0:0:0:
256,192,43113,1,8,0:0:0:0:
256,192,43199,1,8,0:0:0:0:
256,192,43285,1,0,0:0:0:0:
256,192,43371,1,0,0:0:0:0:
256,192,43457,1,8,0:0:0:0:
256,192,43544,1,0,0:0:0:0:
256,192,43630,1,8,0:0:0:0:
256,192,43716,1,0,0:0:0:0:
256,192,43802,1,8,0:0:0:0:
256,192,43889,1,8,0:0:0:0:
256,192,43975,1,8,0:0:0:0:
256,192,44061,1,8,0:0:0:0:
256,192,44147,1,0,0:0:0:0:
256,192,44492,1,0,0:0:0:0:
256,192,44837,5,8,0:0:0:0:
256,192,44923,1,0,0:0:0:0:
256,192,45009,1,8,0:0:0:0:
256,192,45095,1,8,0:0:0:0:
256,192,45182,1,0,0:0:0:0:
256,192,45268,1,8,0:0:0:0:
256,192,45354,1,0,0:0:0:0:
256,192,45440,1,0,0:0:0:0:
256,192,45526,1,12,0:0:0:0:
256,192,45699,1,0,0:0:0:0:
256,192,45871,1,8,0:0:0:0:
256,192,46044,1,0,0:0:0:0:
256,192,46130,1,0,0:0:0:0:
256,192,46216,1,8,0:0:0:0:
256,192,46302,1,8,0:0:0:0:
256,192,46389,1,0,0:0:0:0:
256,192,46561,1,8,0:0:0:0:
256,192,46733,1,0,0:0:0:0:
256,192,46820,1,8,0:0:0:0:
256,192,46906,1,0,0:0:0:0:
256,192,47078,1,0,0:0:0:0:
256,192,47251,1,8,0:0:0:0:
256,192,47423,1,8,0:0:0:0:
256,192,47509,1,0,0:0:0:0:
256,192,47595,1,8,0:0:0:0:
256,192,47682,1,8,0:0:0:0:
256,192,47768,1,0,0:0:0:0:
256,192,47854,1,0,0:0:0:0:
256,192,47940,1,8,0:0:0:0:
256,192,48113,1,0,0:0:0:0:
256,192,48199,1,0,0:0:0:0:
256,192,48285,1,8,0:0:0:0:
256,192,48457,1,0,0:0:0:0:
256,192,48630,1,8,0:0:0:0:
256,192,48802,1,8,0:0:0:0:
256,192,48889,1,0,0:0:0:0:
256,192,48975,1,0,0:0:0:0:
256,192,49061,1,8,0:0:0:0:
256,192,49147,1,0,0:0:0:0:
256,192,49320,1,8,0:0:0:0:
256,192,49492,1,0,0:0:0:0:
256,192,49578,1,0,0:0:0:0:
256,192,49664,1,8,0:0:0:0:
256,192,49837,1,0,0:0:0:0:
256,192,49923,1,8,0:0:0:0:
256,192,50009,1,0,0:0:0:0:
256,192,50182,1,8,0:0:0:0:
256,192,50268,1,0,0:0:0:0:
256,192,50354,1,0,0:0:0:0:
256,192,50440,1,8,0:0:0:0:
256,192,50526,1,0,0:0:0:0:
256,192,50699,1,8,0:0:0:0:
256,192,50871,1,0,0:0:0:0:
256,192,50957,1,0,0:0:0:0:
256,192,51044,1,12,0:0:0:0:
256,192,51216,1,0,0:0:0:0:
256,192,51389,1,8,0:0:0:0:
256,192,51561,1,8,0:0:0:0:
256,192,51647,1,8,0:0:0:0:
256,192,51733,1,0,0:0:0:0:
256,192,51820,1,8,0:0:0:0:
256,192,51906,1,0,0:0:0:0:
256,192,52078,1,8,0:0:0:0:
256,192,52251,1,0,0:0:0:0:
256,192,52337,1,0,0:0:0:0:
256,192,52423,1,8,0:0:0:0:
256,192,52595,1,0,0:0:0:0:
256,192,52768,1,8,0:0:0:0:
256,192,52940,1,0,0:0:0:0:
256,192,53026,1,8,0:0:0:0:
256,192,53113,1,8,0:0:0:0:
256,192,53199,1,0,0:0:0:0:
256,192,53285,1,8,0:0:0:0:
256,192,53371,1,0,0:0:0:0:
256,192,53457,1,8,0:0:0:0:
256,192,53630,1,0,0:0:0:0:
256,192,53716,1,0,0:0:0:0:
256,192,53802,1,8,0:0:0:0:
256,192,53975,1,0,0:0:0:0:
256,192,54147,1,8,0:0:0:0:
256,192,54320,1,0,0:0:0:0:
256,192,54406,1,8,0:0:0:0:
256,192,54492,1,8,0:0:0:0:
256,192,54578,1,0,0:0:0:0:
256,192,54664,1,8,0:0:0:0:
256,192,54837,1,8,0:0:0:0:
256,192,55009,1,0,0:0:0:0:
256,192,55095,1,8,0:0:0:0:
256,192,55182,1,0,0:0:0:0:
256,192,55354,1,8,0:0:0:0:
256,192,55526,1,8,0:0:0:0:
256,192,55699,1,0,0:0:0:0:
256,192,55785,1,8,0:0:0:0:
256,192,55871,1,8,0:0:0:0:
256,192,55957,1,0,0:0:0:0:
256,192,56044,1,8,0:0:0:0:
256,192,56216,1,8,0:0:0:0:
256,192,56389,1,0,0:0:0:0:
256,192,56475,1,0,0:0:0:0:
256,192,56561,1,12,0:0:0:0:
256,192,56733,1,0,0:0:0:0:
256,192,56906,1,8,0:0:0:0:
256,192,57078,1,0,0:0:0:0:
256,192,57164,1,8,0:0:0:0:
256,192,57251,1,8,0:0:0:0:
256,192,57337,1,8,0:0:0:0:
256,192,57423,1,0,0:0:0:0:
256,192,57595,1,8,0:0:0:0:
256,192,57768,1,0,0:0:0:0:
256,192,57854,1,8,0:0:0:0:
256,192,57940,1,0,0:0:0:0:
256,192,58113,1,0,0:0:0:0:
256,192,58285,1,8,0:0:0:0:
256,192,58457,1,0,0:0:0:0:
256,192,58544,1,8,0:0:0:0:
256,192,58630,1,8,0:0:0:0:
256,192,58716,1,8,0:0:0:0:
256,192,58802,1,0,0:0:0:0:
256,192,58889,1,0,0:0:0:0:
256,192,58975,1,8,0:0:0:0:
256,192,59147,1,0,0:0:0:0:
256,192,59233,1,0,0:0:0:0:
256,192,59320,1,8,0:0:0:0:
256,192,59492,1,0,0:0:0:0:
256,192,59664,1,8,0:0:0:0:
256,192,59837,1,8,0:0:0:0:
256,192,59923,1,0,0:0:0:0:
256,192,60009,1,0,0:0:0:0:
256,192,60095,1,0,0:0:0:0:
256,192,60182,1,8,0:0:0:0:
256,192,60354,1,8,0:0:0:0:
256,192,60526,1,0,0:0:0:0:
256,192,60613,1,8,0:0:0:0:
256,192,60699,1,0,0:0:0:0:
256,192,60871,1,0,0:0:0:0:
256,192,61044,1,8,0:0:0:0:
256,192,61216,1,8,0:0:0:0:
256,192,61302,1,0,0:0:0:0:
256,192,61389,1,0,0:0:0:0:
256,192,61475,1,0,0:0:0:0:
256,192,61561,1,8,0:0:0:0:
256,192,61733,1,8,0:0:0:0:
256,192,61906,1,0,0:0:0:0:
256,192,61992,1,0,0:0:0:0:
256,192,62078,1,12,0:0:0:0:
256,192,62251,1,0,0:0:0:0:
256,192,62423,1,8,0:0:0:0:
256,192,62595,1,0,0:0:0:0:
256,192,62682,1,0,0:0:0:0:
256,192,62768,1,0,0:0:0:0:
256,192,62854,1,0,0:0:0:0:
256,192,62940,1,8,0:0:0:0:
256,192,63113,1,8,0:0:0:0:
256,192,63285,1,8,0:0:0:0:
256,192,63371,1,0,0:0:0:0:
256,192,63457,1,8,0:0:0:0:
256,192,63630,1,0,0:0:0:0:
256,192,63802,1,8,0:0:0:0:
256,192,63975,1,0,0:0:0:0:
256,192,64061,1,0,0:0:0:0:
256,192,64147,1,0,0:0:0:0:
256,192,64233,1,0,0:0:0:0:
256,192,64320,1,8,0:0:0:0:
256,192,64406,1,0,0:0:0:0:
256,192,64492,1,8,0:0:0:0:
256,192,64578,1,0,0:0:0:0:
256,192,64664,1,8,0:0:0:0:
256,192,64751,1,8,0:0:0:0:
256,192,64837,1,0,0:0:0:0:
256,192,65009,1,0,0:0:0:0:
256,192,65182,1,8,0:0:0:0:
256,192,65354,1,0,0:0:0:0:
256,192,65440,1,8,0:0:0:0:
256,192,65526,1,0,0:0:0:0:
256,192,65613,1,8,0:0:0:0:
256,192,65699,1,0,0:0:0:0:
256,192,65871,1,8,0:0:0:0:
256,192,66044,1,0,0:0:0:0:
256,192,66130,1,0,0:0:0:0:
256,192,66216,1,8,0:0:0:0:
256,192,66389,1,0,0:0:0:0:
256,192,66561,1,8,0:0:0:0:
256,192,66733,5,0,0:0:0:0:
256,192,66820,1,8,0:0:0:0:
256,192,66906,1,0,0:0:0:0:
256,192,66992,1,0,0:0:0:0:
256,192,67078,1,8,0:0:0:0:
256,192,67164,1,0,0:0:0:0:
256,192,67251,1,8,0:0:0:0:
256,192,67337,1,8,0:0:0:0:
256,192,67423,1,0,0:0:0:0:
256,192,67509,1,0,0:0:0:0:
256,192,67595,1,12,0:0:0:0:
256,192,67768,1,0,0:0:0:0:
256,192,67940,1,8,0:0:0:0:
256,192,68113,1,0,0:0:0:0:
256,192,68199,1,0,0:0:0:0:
256,192,68285,1,8,0:0:0:0:
256,192,68371,1,8,0:0:0:0:
256,192,68457,1,0,0:0:0:0:
256,192,68630,1,8,0:0:0:0:
256,192,68802,1,0,0:0:0:0:
256,192,68889,1,8,0:0:0:0:
256,192,68975,1,0,0:0:0:0:
256,192,69147,1,0,0:0:0:0:
256,192,69320,1,8,0:0:0:0:
256,192,69492,1,8,0:0:0:0:
256,192,69578,1,0,0:0:0:0:
256,192,69664,1,8,0:0:0:0:
256,192,69751,1,8,0:0:0:0:
256,192,69837,1,0,0:0:0:0:
256,192,69923,1,0,0:0:0:0:
256,192,70009,1,8,0:0:0:0:
256,192,70182,1,0,0:0:0:0:
256,192,70268,1,0,0:0:0:0:
256,192,70354,1,8,0:0:0:0:
256,192,70526,1,0,0:0:0:0:
256,192,70699,1,8,0:0:0:0:
256,192,70871,1,8,0:0:0:0:
256,192,70957,1,0,0:0:0:0:
256,192,71044,1,0,0:0:0:0:
256,192,71130,1,8,0:0:0:0:
256,192,71216,1,0,0:0:0:0:
256,192,71389,1,8,0:0:0:0:
256,192,71561,1,0,0:0:0:0:
256,192,71647,1,0,0:0:0:0:
256,192,71733,1,8,0:0:0:0:
256,192,71906,1,0,0:0:0:0:
256,192,71992,1,8,0:0:0:0:
256,192,72078,1,0,0:0:0:0:
256,192,72251,1,8,0:0:0:0:
256,192,72337,1,0,0:0:0:0:
256,192,72423,1,0,0:0:0:0:
256,192,72509,1,8,0:0:0:0:
256,192,72595,1,0,0:0:0:0:
256,192,72768,1,8,0:0:0:0:
256,192,72940,1,0,0:0:0:0:
256,192,73026,1,0,0:0:0:0:
256,192,73113,1,12,0:0:0:0:
256,192,73285,1,0,0:0:0:0:
256,192,73457,1,8,0:0:0:0:
256,192,73630,1,8,0:0:0:0:
256,192,73716,1,8,0:0:0:0:
256,192,73802,1,0,0:0:0:0:
256,192,73889,1,8,0:0:0:0:
256,192,73975,1,0,0:0:0:0:
256,192,74147,1,8,0:0:0:0:
256,192,74320,1,0,0:0:0:0:
256,192,74406,1,0,0:0:0:0:
256,192,74492,1,8,0:0:0:0:
256,192,74664,1,0,0:0:0:0:
256,192,74837,1,8,0:0:0:0:
256,192,75009,1,0,0:0:0:0:
256,192,75095,1,8,0:0:0:0:
256,192,75182,1,8,0:0:0:0:
256,192,75268,1,0,0:0:0:0:
256,192,75354,1,8,0:0:0:0:
256,192,75440,1,0,0:0:0:0:
256,192,75526,1,8,0:0:0:0:
256,192,75699,1,0,0:0:0:0:
256,192,75785,1,0,0:0:0:0:
256,192,75871,1,8,0:0:0:0:
256,192,76044,1,0,0:0:0:0:
256,192,76216,1,8,0:0:0:0:
256,192,76389,1,0,0:0:0:0:
256,192,76475,1,8,0:0:0:0:
256,192,76561,1,8,0:0:0:0:
256,192,76647,1,0,0:0:0:0:
256,192,76733,1,8,0:0:0:0:
256,192,76906,1,8,0:0:0:0:
256,192,77078,1,0,0:0:0:0:
256,192,77164,1,8,0:0:0:0:
256,192,77251,1,0,0:0:0:0:
256,192,77423,1,8,0:0:0:0:
256,192,77595,1,8,0:0:0:0:
256,192,77768,1,0,0:0:0:0:
256,192,77854,1,8,0:0:0:0:
256,192,77940,1,8,0:0:0:0:
256,192,78026,1,0,0:0:0:0:
256,192,78113,1,8,0:0:0:0:
256,192,78285,1,8,0:0:0:0:
256,192,78457,1,0,0:0:0:0:
256,192,78544,1,0,0:0:0:0:
256,192,78630,1,12,0:0:0:0:
256,192,78802,1,0,0:0:0:0:
256,192,78975,1,8,0:0:0:0:
256,192,79147,1,0,0:0:0:0:
256,192,79233,1,8,0:0:0:0:
256,192,79320,1,8,0:0:0:0:
256,192,79406,1,8,0:0:0:0:
256,192,79492,1,0,0:0:0:0:
256,192,79664,1,8,0:0:0:0:
256,192,79837,1,0,0:0:0:0:
256,192,79923,1,8,0:0:0:0:
256,192,80009,1,0,0:0:0:0:
256,192,80182,1,0,0:0:0:0:
256,192,80354,1,8,0:0:0:0:
256,192,80526,1,0,0:0:0:0:
256,192,80613,1,8,0:0:0:0:
256,192,80699,1,8,0:0:0:0:
256,192,80785,1,8,0:0:0:0:
256,192,80871,1,0,0:0:0:0:
256,192,80957,1,0,0:0:0:0:
256,192,81044,1,8,0:0:0:0:
256,192,81216,1,0,0:0:0:0:
256,192,81302,1,0,0:0:0:0:
256,192,81389,1,8,0:0:0:0:
256,192,81561,1,0,0:0:0:0:
256,192,81733,1,8,0:0:0:0:
256,192,81906,1,8,0:0:0:0:
256,192,81992,1,0,0:0:0:0:
256,192,82078,1,0,0:0:0:0:
256,192,82164,1,0,0:0:0:0:
256,192,82251,1,8,0:0:0:0:
256,192,82423,1,8,0:0:0:0:
256,192,82595,1,0,0:0:0:0:
256,192,82682,1,8,0:0:0:0:
256,192,82768,1,0,0:0:0:0:
256,192,82940,1,0,0:0:0:0:
256,192,83113,1,8,0:0:0:0:
256,192,83285,1,8,0:0:0:0:
256,192,83371,1,0,0:0:0:0:
256,192,83457,1,0,0:0:0:0:
256,192,83544,1,0,0:0:0:0:
256,192,83630,1,8,0:0:0:0:
256,192,83802,1,8,0:0:0:0:
256,192,83975,1,0,0:0:0:0:
256,192,84061,1,0,0:0:0:0:
256,192,84147,1,8,0:0:0:0:
256,192,84320,1,0,0:0:0:0:
256,192,84492,1,8,0:0:0:0:
256,192,84664,1,0,0:0:0:0:
256,192,84751,1,0,0:0:0:0:
256,192,84837,1,0,0:0:0:0:
256,192,84923,1,0,0:0:0:0:
256,192,85009,1,8,0:0:0:0:
256,192,85182,1,8,0:0:0:0:
256,192,85354,1,8,0:0:0:0:
256,192,85440,1,0,0:0:0:0:
256,192,85526,1,8,0:0:0:0:
256,192,85699,1,0,0:0:0:0:
256,192,85871,1,8,0:0:0:0:
256,192,86044,1,0,0:0:0:0:
256,192,86130,1,0,0:0:0:0:
256,192,86216,1,0,0:0:0:0:
256,192,86302,1,0,0:0:0:0:
256,192,86389,1,8,0:0:0:0:
256,192,86475,1,0,0:0:0:0:
256,192,86561,1,8,0:0:0:0:
256,192,86733,5,8,0:0:0:0:
256,192,86820,1,0,0:0:0:0:
256,192,86906,1,8,0:0:0:0:
256,192,86992,1,8,0:0:0:0:
256,192,87078,1,0,0:0:0:0:
256,192,87164,1,0,0:0:0:0:
256,192,87251,1,8,0:0:0:0:
256,192,87337,1,0,0:0:0:0:
256,192,87423,1,0,0:0:0:0:
256,192,87509,1,8,0:0:0:0:
256,192,87595,1,0,0:0:0:0:
256,192,87682,1,8,0:0:0:0:
256,192,87768,1,8,0:0:0:0:
256,192,87854,1,0,0:0:0:0:
256,192,87940,1,8,0:0:0:0:
256,192,88026,1,0,0:0:0:0:
256,192,88113,1,8,0:0:0:0:
256,192,88199,1,8,0:0:0:0:
256,192,88285,1,0,0:0:0:0:
256,192,88371,1,8,0:0:0:0:
256,192,88457,1,8,0:0:0:0:
256,192,88544,1,0,0:0:0:0:
256,192,88630,1,8,0:0:0:0:
256,192,88716,1,0,0:0:0:0:
256,192,88802,1,8,0:0:0:0:
256,192,88889,1,0,0:0:0:0:
256,192,88975,1,8,0:0:0:0:
256,192,89061,1,0,0:0:0:0:
256,192,89147,1,0,0:0:0:0:
256,192,89233,1,0,0:0:0:0:
256,192,89320,1,8,0:0:0:0:
256,192,89406,1,8,0:0:0:0:
256,192,89492,1,8,0:0:0:0:
256,192,89578,1,8,0:0:0:0:
256,192,89664,1,4,0:0:0:0:
256,192,100009,5,0,0:0:0:0:
256,192,100095,1,0,0:0:0:0:
256,192,100182,1,0,0:0:0:0:
256,192,100268,1,0,0:0:0:0:
256,192,100354,1,8,0:0:0:0:
256,192,100440,1,8,0:0:0:0:
256,192,100526,1,8,0:0:0:0:
256,192,100613,1,8,0:0:0:0:
256,192,100699,1,0,0:0:0:0:
256,192,101044,5,8,0:0:0:0:
256,192,101561,1,0,0:0:0:0:
256,192,101733,1,8,0:0:0:0:
256,192,102078,1,0,0:0:0:0:
256,192,102423,1,8,0:0:0:0:
256,192,102940,1,0,0:0:0:0:
256,192,103113,1,8,0:0:0:0:
256,192,103457,1,0,0:0:0:0:
256,192,103802,1,8,0:0:0:0:
256,192,104320,1,0,0:0:0:0:
256,192,104492,1,8,0:0:0:0:
256,192,105009,1,0,0:0:0:0:
256,192,105182,1,8,0:0:0:0:
256,192,105699,1,0,0:0:0:0:
256,192,105871,1,8,0:0:0:0:
256,192,106044,1,8,0:0:0:0:
256,192,106216,1,0,0:0:0:0:
256,192,106561,1,8,0:0:0:0:
256,192,107078,1,0,0:0:0:0:
256,192,107251,1,8,0:0:0:0:
256,192,107595,1,0,0:0:0:0:
256,192,107940,1,8,0:0:0:0:
256,192,108457,1,0,0:0:0:0:
256,192,108630,1,8,0:0:0:0:
256,192,108975,1,0,0:0:0:0:
256,192,109320,1,8,0:0:0:0:
256,192,109837,1,0,0:0:0:0:
256,192,110009,1,8,0:0:0:0:
256,192,110526,1,0,0:0:0:0:
256,192,110699,1,8,0:0:0:0:
256,192,111216,1,0,0:0:0:0:
256,192,111389,1,8,0:0:0:0:
256,192,111561,1,0,0:0:0:0:
256,192,111733,5,12,0:0:0:0:
256,192,111906,1,8,0:0:0:0:
256,192,112251,1,8,0:0:0:0:
256,192,112423,1,8,0:0:0:0:
256,192,112768,1,0,0:0:0:0:
256,192,112940,1,0,0:0:0:0:
256,192,113113,1,8,0:0:0:0:
256,192,113285,1,0,0:0:0:0:
256,192,113630,1,8,0:0:0:0:
256,192,113802,1,0,0:0:0:0:
256,192,114147,1,0,0:0:0:0:
256,192,114320,1,0,0:0:0:0:
256,192,114492,1,8,0:0:0:0:
256,192,114664,1,8,0:0:0:0:
256,192,115009,1,8,0:0:0:0:
256,192,115182,1,8,0:0:0:0:
256,192,115526,1,0,0:0:0:0:
256,192,115699,1,8,0:0:0:0:
256,192,115871,1,0,0:0:0:0:
256,192,116044,1,0,0:0:0:0:
256,192,116389,1,0,0:0:0:0:
256,192,116561,1,0,0:0:0:0:
256,192,116906,1,0,0:0:0:0:
256,192,117078,1,0,0:0:0:0:
256,192,117251,1,8,0:0:0:0:
256,192,117423,1,8,0:0:0:0:
256,192,117768,1,8,0:0:0:0:
256,192,117940,1,8,0:0:0:0:
256,192,118285,1,0,0:0:0:0:
256,192,118457,1,8,0:0:0:0:
256,192,118630,1,0,0:0:0:0:
256,192,118802,1,8,0:0:0:0:
256,192,119147,1,0,0:0:0:0:
256,192,119320,1,8,0:0:0:0:
256,192,119664,1,0,0:0:0:0:
256,192,119837,1,0,0:0:0:0:
256,192,120009,1,8,0:0:0:0:
256,192,120182,1,8,0:0:0:0:
256,192,120526,1,8,0:0:0:0:
256,192,120699,1,8,0:0:0:0:
256,192,121044,1,0,0:0:0:0:
256,192,121216,1,8,0:0:0:0:
256,192,121389,1,8,0:0:0:0:
256,192,121561,1,0,0:0:0:0:
256,192,121906,1,8,0:0:0:0:
256,192,122078,1,0,0:0:0:0:
256,192,122423,1,0,0:0:0:0:
256,192,122595,1,8,0:0:0:0:
256,192,122768,5,0,0:0:0:0:
256,192,123113,1,8,0:0:0:0:
256,192,123457,1,0,0:0:0:0:
256,192,123802,1,8,0:0:0:0:
256,192,124147,1,0,0:0:0:0:
256,192,124492,1,8,0:0:0:0:
256,192,124837,1,0,0:0:0:0:
256,192,125182,1,8,0:0:0:0:
256,192,125526,1,0,0:0:0:0:
256,192,125699,1,0,0:0:0:0:
256,192,125871,1,8,0:0:0:0:
256,192,126044,1,8,0:0:0:0:
256,192,126216,1,0,0:0:0:0:
256,192,126389,1,0,0:0:0:0:
256,192,126561,1,8,0:0:0:0:
256,192,126906,1,0,0:0:0:0:
256,192,127078,1,0,0:0:0:0:
256,192,127251,1,8,0:0:0:0:
256,192,127423,1,8,0:0:0:0:
256,192,127595,1,0,0:0:0:0:
256,192,127768,1,0,0:0:0:0:
256,192,127940,1,8,0:0:0:0:
256,192,128285,5,8,0:0:0:0:
256,192,128457,1,0,0:0:0:0:
256,192,128630,1,8,0:0:0:0:
256,192,128802,1,0,0:0:0:0:
256,192,128975,1,8,0:0:0:0:
256,192,129147,1,0,0:0:0:0:
256,192,129320,1,8,0:0:0:0:
256,192,129492,1,0,0:0:0:0:
256,192,129664,1,8,0:0:0:0:
256,192,129837,1,0,0:0:0:0:
256,192,130009,1,8,0:0:0:0:
256,192,130182,1,0,0:0:0:0:
256,192,130354,1,8,0:0:0:0:
256,192,130526,1,0,0:0:0:0:
256,192,130699,1,8,0:0:0:0:
256,192,130871,1,0,0:0:0:0:
256,192,131044,5,8,0:0:0:0:
256,192,131130,1,8,0:0:0:0:
256,192,131216,1,0,0:0:0:0:
256,192,131302,1,0,0:0:0:0:
256,192,131389,1,8,0:0:0:0:
256,192,131475,1,8,0:0:0:0:
256,192,131561,1,0,0:0:0:0:
256,192,131647,1,0,0:0:0:0:
256,192,131733,1,8,0:0:0:0:
256,192,131820,1,0,0:0:0:0:
256,192,131906,1,8,0:0:0:0:
256,192,131992,1,0,0:0:0:0:
256,192,132078,1,8,0:0:0:0:
256,192,132164,1,8,0:0:0:0:
256,192,132251,1,8,0:0:0:0:
256,192,132337,1,8,0:0:0:0:
256,192,132423,5,0,0:0:0:0:
256,192,132509,1,0,0:0:0:0:
256,192,132595,1,0,0:0:0:0:
256,192,132682,1,0,0:0:0:0:
256,192,132768,1,8,0:0:0:0:
256,192,132854,1,8,0:0:0:0:
256,192,132940,1,0,0:0:0:0:
256,192,133026,1,0,0:0:0:0:
256,192,133113,1,8,0:0:0:0:
256,192,133285,1,0,0:0:0:0:
256,192,133457,1,8,0:0:0:0:
256,192,133544,1,0,0:0:0:0:
256,192,133630,1,0,0:0:0:0:
256,192,133802,1,12,0:0:0:0:
256,192,133975,1,0,0:0:0:0:
256,192,134147,1,0,0:0:0:0:
256,192,134205,1,0,0:0:0:0:
256,192,134262,1,0,0:0:0:0:
256,192,134320,1,8,0:0:0:0:
256,192,134406,1,0,0:0:0:0:
256,192,134492,1,8,0:0:0:0:
256,192,134578,1,0,0:0:0:0:
256,192,134664,1,8,0:0:0:0:
256,192,134751,1,0,0:0:0:0:
256,192,134837,1,8,0:0:0:0:
256,192,134923,1,8,0:0:0:0:
256,192,135009,1,8,0:0:0:0:
256,192,135095,1,0,0:0:0:0:
256,192,135182,1,8,0:0:0:0:
256,192,135268,1,0,0:0:0:0:
256,192,135354,1,8,0:0:0:0:
256,192,135440,1,8,0:0:0:0:
256,192,135526,1,8,0:0:0:0:
256,192,135613,1,0,0:0:0:0:
256,192,135699,1,8,0:0:0:0:
256,192,135785,1,0,0:0:0:0:
256,192,135871,1,8,0:0:0:0:
256,192,135957,1,8,0:0:0:0:
256,192,136044,1,0,0:0:0:0:
256,192,136130,1,0,0:0:0:0:
256,192,136216,1,8,0:0:0:0:
256,192,136302,1,0,0:0:0:0:
256,192,136389,1,8,0:0:0:0:
256,192,136475,1,0,0:0:0:0:
256,192,136561,1,8,0:0:0:0:
256,192,136618,1,0,0:0:0:0:
256,192,136676,1,0,0:0:0:0:
256,192,136733,1,8,0:0:0:0:
256,192,136906,1,8,0:0:0:0:
256,192,136963,1,8,0:0:0:0:
256,192,137021,1,8,0:0:0:0:
256,192,137078,1,0,0:0:0:0:
256,192,137164,1,8,0:0:0:0:
256,192,137251,1,0,0:0:0:0:
256,192,137337,1,0,0:0:0:0:
256,192,137423,1,8,0:0:0:0:
256,192,137480,1,0,0:0:0:0:
256,192,137538,1,0,0:0:0:0:
256,192,137595,1,8,0:0:0:0:
256,192,137682,1,0,0:0:0:0:
256,192,137768,1,8,0:0:0:0:
256,192,137854,1,8,0:0:0:0:
256,192,137940,1,0,0:0:0:0:
256,192,137998,1,0,0:0:0:0:
256,192,138055,1,0,0:0:0:0:
256,192,138113,1,8,0:0:0:0:
256,192,138199,1,0,0:0:0:0:
256,192,138285,1,8,0:0:0:0:
256,192,138343,1,8,0:0:0:0:
256,192,138400,1,8,0:0:0:0:
256,192,138457,1,0,0:0:0:0:
256,192,138544,1,0,0:0:0:0:
256,192,138630,1,8,0:0:0:0:
256,192,138716,1,0,0:0:0:0:
256,192,138802,1,8,0:0:0:0:
256,192,138889,1,0,0:0:0:0:
256,192,138975,1,8,0:0:0:0:
256,192,139061,1,8,0:0:0:0:
256,192,139147,1,0,0:0:0:0:
256,192,139233,1,0,0:0:0:0:
256,192,139320,1,8,0:0:0:0:
256,192,139492,1,0,0:0:0:0:
256,192,139578,1,0,0:0:0:0:
256,192,139664,1,8,0:0:0:0:
256,192,139837,1,0,0:0:0:0:
256,192,139923,1,8,0:0:0:0:
256,192,140009,1,8,0:0:0:0:
256,192,140095,1,0,0:0:0:0:
256,192,140182,1,8,0:0:0:0:
256,192,140268,1,0,0:0:0:0:
256,192,140354,1,8,0:0:0:0:
256,192,140440,1,8,0:0:0:0:
256,192,140526,1,8,0:0:0:0:
256,192,140613,1,0,0:0:0:0:
256,192,140699,1,8,0:0:0:0:
256,192,140785,1,0,0:0:0:0:
256,192,140871,1,8,0:0:0:0:
256,192,140957,1,8,0:0:0:0:
256,192,141044,1,8,0:0:0:0:
256,192,141130,1,0,0:0:0:0:
256,192,141216,1,8,0:0:0:0:
256,192,141302,1,0,0:0:0:0:
256,192,141389,1,8,0:0:0:0:
256,192,141475,1,0,0:0:0:0:
256,192,141561,1,8,0:0:0:0:
256,192,141647,1,0,0:0:0:0:
256,192,141733,1,8,0:0:0:0:
256,192,141820,1,8,0:0:0:0:
256,192,141906,1,0,0:0:0:0:
256,192,141992,1,0,0:0:0:0:
256,192,142078,5,12,0:0:0:0:
256,192,142251,1,0,0:0:0:0:
256,192,142423,1,8,0:0:0:0:
256,192,142595,1,8,0:0:0:0:
256,192,142682,1,8,0:0:0:0:
256,192,142768,1,0,0:0:0:0:
256,192,142854,1,0,0:0:0:0:
256,192,142940,1,8,0:0:0:0:
256,192,143113,1,8,0:0:0:0:
256,192,143285,1,0,0:0:0:0:
256,192,143371,1,0,0:0:0:0:
256,192,143457,1,8,0:0:0:0:
256,192,143544,1,8,0:0:0:0:
256,192,143630,1,0,0:0:0:0:
256,192,143716,1,0,0:0:0:0:
256,192,143802,1,8,0:0:0:0:
256,192,143975,1,8,0:0:0:0:
256,192,144061,1,8,0:0:0:0:
256,192,144147,1,0,0:0:0:0:
256,192,144233,1,0,0:0:0:0:
256,192,144320,1,8,0:0:0:0:
256,192,144406,1,0,0:0:0:0:
256,192,144492,1,8,0:0:0:0:
256,192,144578,1,8,0:0:0:0:
256,192,144664,1,0,0:0:0:0:
256,192,144837,1,12,0:0:0:0:
256,192,145009,1,0,0:0:0:0:
256,192,145182,1,8,0:0:0:0:
256,192,145239,1,8,0:0:0:0:
256,192,145297,1,8,0:0:0:0:
256,192,145354,1,0,0:0:0:0:
256,192,145440,1,0,0:0:0:0:
256,192,145526,1,8,0:0:0:0:
256,192,145613,1,8,0:0:0:0:
256,192,145699,1,0,0:0:0:0:
256,192,145785,1,0,0:0:0:0:
256,192,145871,1,8,0:0:0:0:
256,192,145957,1,0,0:0:0:0:
256,192,146044,1,8,0:0:0:0:
256,192,146130,1,8,0:0:0:0:
256,192,146216,1,0,0:0:0:0:
256,192,146302,1,0,0:0:0:0:
256,192,146389,1,8,0:0:0:0:
256,192,146475,1,0,0:0:0:0:
256,192,146561,1,8,0:0:0:0:
256,192,146647,1,0,0:0:0:0:
256,192,146733,1,0,0:0:0:0:
256,192,146820,1,0,0:0:0:0:
256,192,146906,1,8,0:0:0:0:
256,192,146992,1,0,0:0:0:0:
256,192,147078,1,8,0:0:0:0:
256,192,147164,1,0,0:0:0:0:
256,192,147251,1,8,0:0:0:0:
256,192,147337,1,8,0:0:0:0:
256,192,147423,1,0,0:0:0:0:
256,192,147509,1,0,0:0:0:0:
256,192,147595,1,8,0:0:0:0:
256,192,147653,1,8,0:0:0:0:
256,192,147710,1,8,0:0:0:0:
256,192,147768,1,0,0:0:0:0:
256,192,147854,1,8,0:0:0:0:
256,192,147940,1,0,0:0:0:0:
256,192,147998,1,0,0:0:0:0:
256,192,148055,1,0,0:0:0:0:
256,192,148113,1,8,0:0:0:0:
256,192,148199,1,8,0:0:0:0:
256,192,148285,1,0,0:0:0:0:
256,192,148371,1,0,0:0:0:0:
256,192,148457,1,8,0:0:0:0:
256,192,148544,1,0,0:0:0:0:
256,192,148630,1,8,0:0:0:0:
256,192,148716,1,8,0:0:0:0:
256,192,148802,1,0,0:0:0:0:
256,192,148889,1,8,0:0:0:0:
256,192,148975,1,0,0:0:0:0:
256,192,149061,1,0,0:0:0:0:
256,192,149147,1,8,0:0:0:0:
256,192,149233,1,0,0:0:0:0:
256,192,149320,1,8,0:0:0:0:
256,192,149406,1,8,0:0:0:0:
256,192,149492,1,0,0:0:0:0:
256,192,149578,1,0,0:0:0:0:
256,192,149664,1,8,0:0:0:0:
256,192,149837,1,8,0:0:0:0:
256,192,149923,1,0,0:0:0:0:
256,192,150009,1,8,0:0:0:0:
256,192,150182,1,0,0:0:0:0:
256,192,150354,1,8,0:0:0:0:
256,192,150526,1,0,0:0:0:0:
256,192,150613,1,0,0:0:0:0:
256,192,150699,1,8,0:0:0:0:
256,192,150871,1,0,0:0:0:0:
256,192,151044,5,8,0:0:0:0:
256,192,151130,1,0,0:0:0:0:
256,192,151216,1,8,0:0:0:0:
256,192,151302,1,0,0:0:0:0:
256,192,151389,1,8,0:0:0:0:
256,192,151475,1,8,0:0:0:0:
256,192,151561,1,0,0:0:0:0:
256,192,151647,1,0,0:0:0:0:
256,192,151733,1,8,0:0:0:0:
256,192,151820,1,0,0:0:0:0:
256,192,151906,1,8,0:0:0:0:
256,192,151992,1,8,0:0:0:0:
256,192,152078,1,8,0:0:0:0:
256,192,152164,1,0,0:0:0:0:
256,192,152251,1,8,0:0:0:0:
256,192,152337,1,0,0:0:0:0:
256,192,152423,1,8,0:0:0:0:
256,192,152509,1,8,0:0:0:0:
256,192,152595,1,0,0:0:0:0:
256,192,152682,1,0,0:0:0:0:
256,192,152768,1,8,0:0:0:0:
256,192,152854,1,0,0:0:0:0:
256,192,152940,1,8,0:0:0:0:
256,192,153026,1,0,0:0:0:0:
256,192,153113,5,8,0:0:0:0:
256,192,153199,1,0,0:0:0:0:
256,192,153285,1,0,0:0:0:0:
256,192,153371,1,0,0:0:0:0:
256,192,153457,1,8,0:0:0:0:
256,192,153544,1,0,0:0:0:0:
256,192,153630,1,8,0:0:0:0:
256,192,153716,1,8,0:0:0:0:
256,192,153802,1,0,0:0:0:0:
256,192,153889,1,0,0:0:0:0:
256,192,153975,1,8,0:0:0:0:
256,192,154061,1,0,0:0:0:0:
256,192,154147,1,8,0:0:0:0:
256,192,154233,1,8,0:0:0:0:
256,192,154320,1,0,0:0:0:0:
256,192,154406,1,0,0:0:0:0:
256,192,154492,1,8,0:0:0:0:
256,192,154578,1,0,0:0:0:0:
256,192,154664,1,8,0:0:0:0:
256,192,154751,1,0,0:0:0:0:
256,192,154837,1,8,0:0:0:0:
256,192,154923,1,0,0:0:0:0:
256,192,155009,1,8,0:0:0:0:
256,192,155095,1,0,0:0:0:0:
256,192,155182,1,8,0:0:0:0:
256,192,155268,1,8,0:0:0:0:
256,192,155354,1,0,0:0:0:0:
256,192,155440,1,0,0:0:0:0:
256,192,155526,1,8,0:0:0:0:
256,192,155613,1,8,0:0:0:0:
256,192,155699,1,8,0:0:0:0:
256,192,155785,1,8,0:0:0:0:
256,192,155871,1,4,0:0:0:0:
256,192,156044,1,0,0:0:0:0:
256,192,156216,1,8,0:0:0:0:
256,192,156274,1,0,0:0:0:0:
256,192,156331,1,0,0:0:0:0:
256,192,156389,1,8,0:0:0:0:
256,192,156475,1,8,0:0:0:0:
256,192,156561,1,0,0:0:0:0:
256,192,156647,1,0,0:0:0:0:
256,192,156733,1,8,0:0:0:0:
256,192,156820,1,0,0:0:0:0:
256,192,156906,1,8,0:0:0:0:
256,192,157078,1,8,0:0:0:0:
256,192,157164,1,8,0:0:0:0:
256,192,157251,1,0,0:0:0:0:
256,192,157337,1,8,0:0:0:0:
256,192,157423,1,0,0:0:0:0:
256,192,157480,1,0,0:0:0:0:
256,192,157538,1,0,0:0:0:0:
256,192,157595,1,8,0:0:0:0:
256,192,157682,1,0,0:0:0:0:
256,192,157768,1,8,0:0:0:0:
256,192,157854,1,0,0:0:0:0:
256,192,157940,1,8,0:0:0:0:
256,192,158026,1,8,0:0:0:0:
256,192,158113,1,0,0:0:0:0:
256,192,158199,1,0,0:0:0:0:
256,192,158285,1,8,0:0:0:0:
256,192,158343,1,0,0:0:0:0:
256,192,158400,1,0,0:0:0:0:
256,192,158457,1,8,0:0:0:0:
256,192,158544,1,8,0:0:0:0:
256,192,158630,5,0,0:0:0:0:
256,192,158802,1,8,0:0:0:0:
256,192,158860,1,8,0:0:0:0:
256,192,158917,1,8,0:0:0:0:
256,192,158975,1,0,0:0:0:0:
256,192,159061,1,0,0:0:0:0:
256,192,159147,1,8,0:0:0:0:
256,192,159233,1,0,0:0:0:0:
256,192,159320,1,8,0:0:0:0:
256,192,159406,1,8,0:0:0:0:
256,192,159492,1,0,0:0:0:0:
256,192,159578,1,0,0:0:0:0:
256,192,159664,1,8,0:0:0:0:
256,192,159837,1,8,0:0:0:0:
256,192,159923,1,0,0:0:0:0:
256,192,160009,1,8,0:0:0:0:
256,192,160095,1,0,0:0:0:0:
256,192,160182,1,0,0:0:0:0:
256,192,160268,1,0,0:0:0:0:
256,192,160354,1,8,0:0:0:0:
256,192,160526,5,0,0:0:0:0:
256,192,160613,1,0,0:0:0:0:
256,192,160699,1,8,0:0:0:0:
256,192,160785,1,0,0:0:0:0:
256,192,160871,1,8,0:0:0:0:
256,192,160957,1,0,0:0:0:0:
256,192,161044,1,8,0:0:0:0:
256,192,161130,1,8,0:0:0:0:
256,192,161216,1,0,0:0:0:0:
256,192,161302,1,0,0:0:0:0:
256,192,161389,1,12,0:0:0:0:
256,192,161561,1,0,0:0:0:0:
256,192,161733,1,8,0:0:0:0:
256,192,161791,1,8,0:0:0:0:
256,192,161848,1,8,0:0:0:0:
256,192,161906,1,0,0:0:0:0:
256,192,161992,1,8,0:0:0:0:
256,192,162078,1,0,0:0:0:0:
256,192,162164,1,0,0:0:0:0:
256,192,162251,1,8,0:0:0:0:
256,192,162337,1,0,0:0:0:0:
256,192,162423,1,8,0:0:0:0:
256,192,162509,1,8,0:0:0:0:
256,192,162595,1,0,0:0:0:0:
256,192,162682,1,0,0:0:0:0:
256,192,162768,1,8,0:0:0:0:
256,192,162854,1,0,0:0:0:0:
256,192,162940,1,8,0:0:0:0:
256,192,162998,1,0,0:0:0:0:
256,192,163055,1,0,0:0:0:0:
256,192,163113,1,8,0:0:0:0:
256,192,163199,1,0,0:0:0:0:
256,192,163285,1,8,0:0:0:0:
256,192,163371,1,0,0:0:0:0:
256,192,163457,1,8,0:0:0:0:
256,192,163544,1,8,0:0:0:0:
256,192,163630,1,0,0:0:0:0:
256,192,163716,1,0,0:0:0:0:
256,192,163802,1,8,0:0:0:0:
256,192,163860,1,8,0:0:0:0:
256,192,163917,1,8,0:0:0:0:
256,192,163975,1,0,0:0:0:0:
256,192,164061,1,0,0:0:0:0:
256,192,164147,5,8,0:0:0:0:
256,192,164320,1,0,0:0:0:0:
256,192,164406,1,8,0:0:0:0:
256,192,164492,1,0,0:0:0:0:
256,192,164664,1,8,0:0:0:0:
256,192,164751,1,0,0:0:0:0:
256,192,164837,1,8,0:0:0:0:
256,192,164923,1,8,0:0:0:0:
256,192,165009,1,0,0:0:0:0:
256,192,165182,1,8,0:0:0:0:
256,192,165354,1,0,0:0:0:0:
256,192,165440,1,0,0:0:0:0:
256,192,165526,1,8,0:0:0:0:
256,192,165699,1,8,0:0:0:0:
256,192,165871,1,0,0:0:0:0:
256,192,166044,1,8,0:0:0:0:
256,192,166216,1,8,0:0:0:0:
256,192,166302,1,0,0:0:0:0:
256,192,166475,1,8,0:0:0:0:
256,192,166561,1,8,0:0:0:0:
256,192,166733,1,0,0:0:0:0:
256,192,166820,1,0,0:0:0:0:
256,192,166906,1,12,0:0:0:0:
256,192,167078,1,8,0:0:0:0:
256,192,167251,1,0,0:0:0:0:
256,192,167308,1,0,0:0:0:0:
256,192,167366,1,0,0:0:0:0:
256,192,167423,1,8,0:0:0:0:
256,192,167509,1,0,0:0:0:0:
256,192,167595,1,8,0:0:0:0:
256,192,167682,1,8,0:0:0:0:
256,192,167854,1,0,0:0:0:0:
256,192,167940,1,8,0:0:0:0:
256,192,167998,1,0,0:0:0:0:
256,192,168055,1,0,0:0:0:0:
256,192,168113,1,8,0:0:0:0:
256,192,168199,1,0,0:0:0:0:
256,192,168285,1,8,0:0:0:0:
256,192,168457,1,0,0:0:0:0:
256,192,168515,1,0,0:0:0:0:
256,192,168572,1,0,0:0:0:0:
256,192,168630,1,8,0:0:0:0:
256,192,168716,1,0,0:0:0:0:
256,192,168802,1,8,0:0:0:0:
256,192,168889,1,0,0:0:0:0:
256,192,168975,1,8,0:0:0:0:
256,192,169061,1,8,0:0:0:0:
256,192,169147,1,0,0:0:0:0:
256,192,169320,1,8,0:0:0:0:
256,192,169377,1,8,0:0:0:0:
256,192,169434,1,8,0:0:0:0:
256,192,169492,1,0,0:0:0:0:
256,192,169578,1,0,0:0:0:0:
256,192,169664,5,12,0:0:0:0:
256,192,169837,1,0,0:0:0:0:
256,192,170009,1,8,0:0:0:0:
256,192,170095,1,0,0:0:0:0:
256,192,170182,1,0,0:0:0:0:
256,192,170268,1,8,0:0:0:0:
256,192,170440,1,8,0:0:0:0:
256,192,170526,1,0,0:0:0:0:
256,192,170699,1,8,0:0:0:0:
256,192,170871,1,8,0:0:0:0:
256,192,170957,1,8,0:0:0:0:
256,192,171044,1,0,0:0:0:0:
256,192,171216,1,8,0:0:0:0:
256,192,171389,1,0,0:0:0:0:
256,192,171475,1,8,0:0:0:0:
256,192,171561,1,8,0:0:0:0:
256,192,171647,1,0,0:0:0:0:
256,192,171820,1,8,0:0:0:0:
256,192,171906,1,0,0:0:0:0:
256,192,171992,1,0,0:0:0:0:
256,192,172078,1,8,0:0:0:0:
256,192,172251,1,0,0:0:0:0:
256,192,172423,5,12,0:0:0:0:
256,192,172595,1,0,0:0:0:0:
256,192,172768,1,8,0:0:0:0:
256,192,172940,1,0,0:0:0:0:
256,192,173113,1,8,0:0:0:0:
256,192,173199,1,8,0:0:0:0:
256,192,173285,1,0,0:0:0:0:
256,192,173457,1,8,0:0:0:0:
256,192,173630,1,0,0:0:0:0:
256,192,173802,1,8,0:0:0:0:
256,192,173975,1,0,0:0:0:0:
256,192,174147,1,8,0:0:0:0:
256,192,174320,1,0,0:0:0:0:
256,192,174492,1,8,0:0:0:0:
256,192,174578,1,8,0:0:0:0:
256,192,174664,1,0,0:0:0:0:
256,192,174837,1,8,0:0:0:0:
256,192,175009,1,0,0:0:0:0:
256,192,175182,1,8,0:0:0:0:
256,192,175268,1,0,0:0:0:0:
256,192,175354,1,0,0:0:0:0:
256,192,175440,1,0,0:0:0:0:
256,192,175526,1,8,0:0:0:0:
256,192,175613,1,0,0:0:0:0:
256,192,175699,1,0,0:0:0:0:
256,192,175785,1,0,0:0:0:0:
256,192,175871,1,8,0:0:0:0:
256,192,175957,1,8,0:0:0:0:
256,192,176044,1,0,0:0:0:0:
256,192,176130,1,0,0:0:0:0:
256,192,176216,1,8,0:0:0:0:
256,192,176302,1,8,0:0:0:0:
256,192,176389,1,0,0:0:0:0:
256,192,176475,1,0,0:0:0:0:
256,192,176561,1,8,0:0:0:0:
256,192,176733,1,0,0:0:0:0:
256,192,176820,1,0,0:0:0:0:
256,192,176906,1,0,0:0:0:0:
256,192,177078,1,0,0:0:0:0:
256,192,177251,5,8,0:0:0:0:
256,192,177337,1,0,0:0:0:0:
256,192,177423,1,8,0:0:0:0:
256,192,177509,1,0,0:0:0:0:
256,192,177595,1,8,0:0:0:0:
256,192,177682,1,8,0:0:0:0:
256,192,177768,1,0,0:0:0:0:
256,192,177854,1,0,0:0:0:0:
256,192,177940,1,12,0:0:0:0:
256,192,178113,1,0,0:0:0:0:
256,192,178199,1,0,0:0:0:0:
256,192,178285,1,8,0:0:0:0:
256,192,178457,1,8,0:0:0:0:
256,192,178544,1,0,0:0:0:0:
256,192,178630,1,8,0:0:0:0:
256,192,178716,1,8,0:0:0:0:
256,192,178802,1,0,0:0:0:0:
256,192,178889,1,0,0:0:0:0:
256,192,178975,1,8,0:0:0:0:
256,192,179147,1,0,0:0:0:0:
256,192,179233,1,0,0:0:0:0:
256,192,179320,1,8,0:0:0:0:
256,192,179492,1,0,0:0:0:0:
256,192,179664,1,8,0:0:0:0:
256,192,179837,1,0,0:0:0:0:
256,192,179923,1,8,0:0:0:0:
256,192,180009,1,0,0:0:0:0:
256,192,180095,1,8,0:0:0:0:
256,192,180182,1,8,0:0:0:0:
256,192,180268,1,0,0:0:0:0:
256,192,180354,1,8,0:0:0:0:
256,192,180526,1,0,0:0:0:0:
256,192,180699,1,8,0:0:0:0:
256,192,180871,1,0,0:0:0:0:
256,192,180957,1,0,0:0:0:0:
256,192,181044,1,8,0:0:0:0:
256,192,181216,1,0,0:0:0:0:
256,192,181302,1,8,0:0:0:0:
256,192,181389,1,0,0:0:0:0:
256,192,181475,1,0,0:0:0:0:
256,192,181561,1,8,0:0:0:0:
256,192,181647,1,0,0:0:0:0:
256,192,181733,1,8,0:0:0:0:
256,192,181906,1,0,0:0:0:0:
256,192,181992,1,0,0:0:0:0:
256,192,182078,1,8,0:0:0:0:
256,192,182251,1,0,0:0:0:0:
256,192,182423,1,8,0:0:0:0:
256,192,182595,1,0,0:0:0:0:
256,192,182682,1,8,0:0:0:0:
256,192,182768,1,0,0:0:0:0:
256,192,182854,1,0,0:0:0:0:
256,192,182940,1,8,0:0:0:0:
256,192,183026,1,0,0:0:0:0:
256,192,183113,1,8,0:0:0:0:
256,192,183285,1,0,0:0:0:0:
256,192,183457,1,8,0:0:0:0:
256,192,183630,1,0,0:0:0:0:
256,192,183802,1,8,0:0:0:0:
256,192,183889,1,8,0:0:0:0:
256,192,183975,1,0,0:0:0:0:
256,192,184061,1,0,0:0:0:0:
256,192,184147,1,8,0:0:0:0:
256,192,184233,1,0,0:0:0:0:
256,192,184320,1,8,0:0:0:0:
256,192,184492,1,8,0:0:0:0:
256,192,184578,1,0,0:0:0:0:
256,192,184664,1,8,0:0:0:0:
256,192,184751,1,8,0:0:0:0:
256,192,184837,1,0,0:0:0:0:
256,192,185009,1,0,0:0:0:0:
256,192,185182,1,8,0:0:0:0:
256,192,185354,1,0,0:0:0:0:
256,192,185440,1,8,0:0:0:0:
256,192,185526,1,0,0:0:0:0:
256,192,185613,1,8,0:0:0:0:
256,192,185699,1,0,0:0:0:0:
256,192,185871,1,8,0:0:0:0:
256,192,186044,1,0,0:0:0:0:
256,192,186130,1,0,0:0:0:0:
256,192,186216,1,8,0:0:0:0:
256,192,186389,1,0,0:0:0:0:
256,192,186561,1,8,0:0:0:0:
256,192,186733,1,8,0:0:0:0:
256,192,186820,1,0,0:0:0:0:
256,192,186906,1,8,0:0:0:0:
256,192,186992,1,8,0:0:0:0:
256,192,187078,1,0,0:0:0:0:
256,192,187164,1,0,0:0:0:0:
256,192,187251,1,8,0:0:0:0:
256,192,187423,1,0,0:0:0:0:
256,192,187509,1,8,0:0:0:0:
256,192,187595,1,0,0:0:0:0:
256,192,187768,1,0,0:0:0:0:
256,192,187940,1,8,0:0:0:0:
256,192,188113,1,8,0:0:0:0:
256,192,188199,1,0,0:0:0:0:
256,192,188285,1,8,0:0:0:0:
256,192,188371,1,8,0:0:0:0:
256,192,188457,1,0,0:0:0:0:
256,192,188544,1,0,0:0:0:0:
256,192,188630,1,8,0:0:0:0:
256,192,188802,1,0,0:0:0:0:
256,192,188975,1,12,0:0:0:0:
256,192,189320,1,8,0:0:0:0:
256,192,189492,1,0,0:0:0:0:
256,192,189578,1,0,0:0:0:0:
256,192,189664,1,8,0:0:0:0:
256,192,189751,1,8,0:0:0:0:
256,192,189837,1,0,0:0:0:0:
256,192,190009,1,8,0:0:0:0:
256,192,190182,1,0,0:0:0:0:
256,192,190268,1,0,0:0:0:0:
256,192,190354,1,8,0:0:0:0:
256,192,190526,1,0,0:0:0:0:
256,192,190699,1,8,0:0:0:0:
256,192,190871,1,8,0:0:0:0:
256,192,190957,1,8,0:0:0:0:
256,192,191044,1,0,0:0:0:0:
256,192,191130,1,0,0:0:0:0:
256,192,191216,1,8,0:0:0:0:
256,192,191302,1,0,0:0:0:0:
256,192,191389,1,8,0:0:0:0:
256,192,191561,1,0,0:0:0:0:
256,192,191733,1,8,0:0:0:0:
256,192,191820,1,0,0:0:0:0:
256,192,191906,1,8,0:0:0:0:
256,192,191992,1,8,0:0:0:0:
256,192,192078,1,0,0:0:0:0:
256,192,192164,1,0,0:0:0:0:
256,192,192251,1,8,0:0:0:0:
256,192,192337,1,8,0:0:0:0:
256,192,192423,1,0,0:0:0:0:
256,192,192595,1,8,0:0:0:0:
256,192,192682,1,0,0:0:0:0:
256,192,192768,1,8,0:0:0:0:
256,192,192854,1,8,0:0:0:0:
256,192,192940,1,0,0:0:0:0:
256,192,193113,1,8,0:0:0:0:
256,192,193199,1,0,0:0:0:0:
256,192,193285,1,8,0:0:0:0:
256,192,193371,1,8,0:0:0:0:
256,192,193457,1,0,0:0:0:0:
256,192,193544,1,0,0:0:0:0:
256,192,193630,1,8,0:0:0:0:
256,192,193716,1,8,0:0:0:0:
256,192,193802,1,0,0:0:0:0:
256,192,193889,1,0,0:0:0:0:
256,192,193975,1,8,0:0:0:0:
256,192,194061,1,0,0:0:0:0:
256,192,194147,1,8,0:0:0:0:
256,192,194320,1,0,0:0:0:0:
256,192,194492,1,12,0:0:0:0:
256,192,194664,1,0,0:0:0:0:
256,192,194837,1,8,0:0:0:0:
256,192,195009,1,0,0:0:0:0:
256,192,195095,1,0,0:0:0:0:
256,192,195182,1,8,0:0:0:0:
256,192,195268,1,8,0:0:0:0:
256,192,195354,1,0,0:0:0:0:
256,192,195440,1,0,0:0:0:0:
256,192,195526,1,8,0:0:0:0:
256,192,195699,1,0,0:0:0:0:
256,192,195871,1,8,0:0:0:0:
256,192,196044,1,8,0:0:0:0:
256,192,196130,1,0,0:0:0:0:
256,192,196216,1,8,0:0:0:0:
256,192,196302,1,8,0:0:0:0:
256,192,196389,1,0,0:0:0:0:
256,192,196475,1,0,0:0:0:0:
256,192,196561,1,8,0:0:0:0:
256,192,196647,1,8,0:0:0:0:
256,192,196733,1,0,0:0:0:0:
256,192,196906,1,8,0:0:0:0:
256,192,197078,1,0,0:0:0:0:
256,192,197251,1,8,0:0:0:0:
256,192,197337,1,0,0:0:0:0:
256,192,197423,1,0,0:0:0:0:
256,192,197509,1,0,0:0:0:0:
256,192,197595,1,8,0:0:0:0:
256,192,197682,1,8,0:0:0:0:
256,192,197768,1,0,0:0:0:0:
256,192,197854,1,0,0:0:0:0:
256,192,197940,1,8,0:0:0:0:
256,192,198026,1,0,0:0:0:0:
256,192,198113,1,0,0:0:0:0:
256,192,198199,1,0,0:0:0:0:
256,192,198285,1,8,0:0:0:0:
256,192,198457,5,0,0:0:0:0:
256,192,198544,1,0,0:0:0:0:
256,192,198630,1,8,0:0:0:0:
256,192,198716,1,8,0:0:0:0:
256,192,198802,1,0,0:0:0:0:
256,192,198889,1,0,0:0:0:0:
256,192,198975,1,8,0:0:0:0:
256,192,199147,5,8,0:0:0:0:
256,192,199233,1,0,0:0:0:0:
256,192,199320,1,8,0:0:0:0:
256,192,199406,1,8,0:0:0:0:
256,192,199492,1,0,0:0:0:0:
256,192,199578,1,0,0:0:0:0:
256,192,199664,1,8,0:0:0:0:
256,192,199751,1,8,0:0:0:0:
256,192,199837,1,8,0:0:0:0:
256,192,199923,1,8,0:0:0:0:
256,192,200009,1,4,0:0:0:0:
256,192,200182,1,0,0:0:0:0:
256,192,200354,1,8,0:0:0:0:
256,192,200526,1,8,0:0:0:0:
256,192,200613,1,8,0:0:0:0:
256,192,200699,1,0,0:0:0:0:
256,192,200785,1,0,0:0:0:0:
256,192,200871,1,8,0:0:0:0:
256,192,201044,1,0,0:0:0:0:
256,192,201216,1,8,0:0:0:0:
256,192,201302,1,8,0:0:0:0:
256,192,201389,1,0,0:0:0:0:
256,192,201561,1,8,0:0:0:0:
256,192,201733,1,8,0:0:0:0:
256,192,201906,1,0,0:0:0:0:
256,192,201992,1,0,0:0:0:0:
256,192,202078,1,8,0:0:0:0:
256,192,202164,1,0,0:0:0:0:
256,192,202251,1,8,0:0:0:0:
256,192,202423,1,8,0:0:0:0:
256,192,202509,1,0,0:0:0:0:
256,192,202595,1,0,0:0:0:0:
256,192,202682,1,0,0:0:0:0:
256,192,202768,1,8,0:0:0:0:
256,192,202940,1,0,0:0:0:0:
256,192,203113,1,8,0:0:0:0:
256,192,203285,1,8,0:0:0:0:
256,192,203371,1,8,0:0:0:0:
256,192,203457,1,0,0:0:0:0:
256,192,203544,1,0,0:0:0:0:
256,192,203630,1,8,0:0:0:0:
256,192,203802,1,8,0:0:0:0:
256,192,203975,1,0,0:0:0:0:
256,192,204061,1,8,0:0:0:0:
256,192,204147,1,0,0:0:0:0:
256,192,204320,1,0,0:0:0:0:
256,192,204492,1,8,0:0:0:0:
256,192,204664,1,0,0:0:0:0:
256,192,204751,1,0,0:0:0:0:
256,192,204837,1,8,0:0:0:0:
256,192,204923,1,8,0:0:0:0:
256,192,205009,1,0,0:0:0:0:
256,192,205095,1,0,0:0:0:0:
256,192,205182,1,8,0:0:0:0:
256,192,205268,1,0,0:0:0:0:
256,192,205354,1,8,0:0:0:0:
256,192,205440,1,8,0:0:0:0:
256,192,205526,1,0,0:0:0:0:
256,192,205699,1,0,0:0:0:0:
256,192,205871,1,8,0:0:0:0:
256,192,206044,1,8,0:0:0:0:
256,192,206130,1,8,0:0:0:0:
256,192,206216,1,0,0:0:0:0:
256,192,206302,1,0,0:0:0:0:
256,192,206389,1,8,0:0:0:0:
256,192,206561,1,0,0:0:0:0:
256,192,206733,1,8,0:0:0:0:
256,192,206820,1,0,0:0:0:0:
256,192,206906,1,8,0:0:0:0:
256,192,207078,1,0,0:0:0:0:
256,192,207251,1,0,0:0:0:0:
256,192,207423,1,8,0:0:0:0:
256,192,207509,1,0,0:0:0:0:
256,192,207595,1,8,0:0:0:0:
256,192,207682,1,8,0:0:0:0:
256,192,207768,1,0,0:0:0:0:
256,192,207940,1,8,0:0:0:0:
256,192,208026,1,0,0:0:0:0:
256,192,208113,1,0,0:0:0:0:
256,192,208199,1,0,0:0:0:0:
256,192,208285,1,8,0:0:0:0:
256,192,208457,1,0,0:0:0:0:
256,192,208630,1,8,0:0:0:0:
256,192,208802,1,8,0:0:0:0:
256,192,208889,1,8,0:0:0:0:
256,192,208975,1,0,0:0:0:0:
256,192,209061,1,0,0:0:0:0:
256,192,209147,1,8,0:0:0:0:
256,192,209320,1,8,0:0:0:0:
256,192,209492,1,0,0:0:0:0:
256,192,209578,1,0,0:0:0:0:
256,192,209664,1,8,0:0:0:0:
256,192,209837,1,0,0:0:0:0:
256,192,209923,1,8,0:0:0:0:
256,192,210009,1,0,0:0:0:0:
256,192,210182,1,8,0:0:0:0:
256,192,210268,1,0,0:0:0:0:
256,192,210354,1,8,0:0:0:0:
256,192,210526,1,0,0:0:0:0:
256,192,210613,1,0,0:0:0:0:
256,192,210699,1,8,0:0:0:0:
256,192,210785,1,8,0:0:0:0:
256,192,210871,1,0,0:0:0:0:
256,192,210957,1,0,0:0:0:0:
256,192,211044,1,12,0:0:0:0:
256,192,211216,1,0,0:0:0:0:
256,192,211389,1,8,0:0:0:0:
256,192,211561,1,8,0:0:0:0:
256,192,211647,1,8,0:0:0:0:
256,192,211733,1,0,0:0:0:0:
256,192,211820,1,0,0:0:0:0:
256,192,211906,1,8,0:0:0:0:
256,192,212078,1,0,0:0:0:0:
256,192,212251,1,8,0:0:0:0:
256,192,212337,1,8,0:0:0:0:
256,192,212423,1,0,0:0:0:0:
256,192,212595,1,8,0:0:0:0:
256,192,212768,1,8,0:0:0:0:
256,192,212940,1,0,0:0:0:0:
256,192,213026,1,0,0:0:0:0:
256,192,213113,1,8,0:0:0:0:
256,192,213199,1,0,0:0:0:0:
256,192,213285,1,8,0:0:0:0:
256,192,213457,1,8,0:0:0:0:
256,192,213544,1,0,0:0:0:0:
256,192,213630,1,0,0:0:0:0:
256,192,213716,1,0,0:0:0:0:
256,192,213802,1,12,0:0:0:0:
256,192,213975,1,0,0:0:0:0:
256,192,214147,1,8,0:0:0:0:
256,192,214320,1,8,0:0:0:0:
256,192,214406,1,8,0:0:0:0:
256,192,214492,1,0,0:0:0:0:
256,192,214578,1,0,0:0:0:0:
256,192,214664,1,8,0:0:0:0:
256,192,214837,1,8,0:0:0:0:
256,192,215009,1,0,0:0:0:0:
256,192,215095,1,8,0:0:0:0:
256,192,215182,1,0,0:0:0:0:
256,192,215354,1,0,0:0:0:0:
256,192,215526,1,8,0:0:0:0:
256,192,215699,1,0,0:0:0:0:
256,192,215785,1,0,0:0:0:0:
256,192,215871,1,8,0:0:0:0:
256,192,215957,1,8,0:0:0:0:
256,192,216044,1,0,0:0:0:0:
256,192,216130,1,0,0:0:0:0:
256,192,216216,1,8,0:0:0:0:
256,192,216302,1,0,0:0:0:0:
256,192,216389,1,8,0:0:0:0:
256,192,216475,1,0,0:0:0:0:
256,192,216561,1,12,0:0:0:0:
256,192,216733,1,0,0:0:0:0:
256,192,216906,1,8,0:0:0:0:
256,192,217078,1,0,0:0:0:0:
256,192,217164,1,0,0:0:0:0:
256,192,217251,1,8,0:0:0:0:
256,192,217337,1,8,0:0:0:0:
256,192,217423,1,0,0:0:0:0:
256,192,217595,1,8,0:0:0:0:
256,192,217768,1,0,0:0:0:0:
256,192,217854,1,0,0:0:0:0:
256,192,217940,1,12,0:0:0:0:
256,192,218113,1,0,0:0:0:0:
256,192,218285,1,8,0:0:0:0:
256,192,218457,1,0,0:0:0:0:
256,192,218544,1,0,0:0:0:0:
256,192,218630,1,8,0:0:0:0:
256,192,218716,1,0,0:0:0:0:
256,192,218802,1,8,0:0:0:0:
256,192,218975,1,8,0:0:0:0:
256,192,219147,1,0,0:0:0:0:
256,192,219320,5,12,0:0:0:0:
256,192,219492,1,0,0:0:0:0:
256,192,219578,1,0,0:0:0:0:
256,192,219664,1,8,0:0:0:0:
256,192,219837,1,0,0:0:0:0:
256,192,219923,1,0,0:0:0:0:
256,192,220009,1,8,0:0:0:0:
256,192,220182,1,0,0:0:0:0:
256,192,220268,1,0,0:0:0:0:
256,192,220354,1,8,0:0:0:0:
256,192,220526,1,0,0:0:0:0:
256,192,220613,1,0,0:0:0:0:
256,192,220699,1,8,0:0:0:0:
256,192,220785,1,0,0:0:0:0:
256,192,220871,1,0,0:0:0:0:
256,192,220957,1,0,0:0:0:0:
256,192,221044,1,8,0:0:0:0:
256,192,221130,1,0,0:0:0:0:
256,192,221216,1,8,0:0:0:0:
256,192,221302,1,0,0:0:0:0:
256,192,221389,1,8,0:0:0:0:
256,192,221475,1,8,0:0:0:0:
256,192,221561,1,0,0:0:0:0:
256,192,221647,1,0,0:0:0:0:
256,192,221733,1,8,0:0:0:0:
256,192,221820,1,0,0:0:0:0:
256,192,221906,1,0,0:0:0:0:
256,192,221992,1,0,0:0:0:0:
256,192,222078,1,12,0:0:0:0:
256,192,222251,12,0,227595,0:0:0:0:
256,192,232423,5,0,0:0:0:0:
256,192,232509,1,0,0:0:0:0:
256,192,232595,1,0,0:0:0:0:
256,192,232682,1,0,0:0:0:0:
256,192,232768,1,8,0:0:0:0:
256,192,232854,1,8,0:0:0:0:
256,192,232940,1,8,0:0:0:0:
256,192,233026,1,8,0:0:0:0:
256,192,233113,1,4,0:0:0:0:
256,192,233802,1,8,0:0:0:0:
256,192,233975,1,8,0:0:0:0:
256,192,234320,1,8,0:0:0:0:
256,192,235699,1,0,0:0:0:0:
256,192,235871,1,0,0:0:0:0:
256,192,236216,1,0,0:0:0:0:
256,192,236389,1,8,0:0:0:0:
256,192,236733,1,8,0:0:0:0:
256,192,237078,1,0,0:0:0:0:
256,192,238630,1,0,0:0:0:0:
256,192,239147,1,0,0:0:0:0:
256,192,239320,1,8,0:0:0:0:
256,192,239492,1,8,0:0:0:0:
256,192,239837,1,8,0:0:0:0:
256,192,241389,1,8,0:0:0:0:
256,192,241647,1,0,0:0:0:0:
256,192,241906,1,8,0:0:0:0:
256,192,242251,1,8,0:0:0:0:
256,192,242595,1,0,0:0:0:0:
256,192,244147,1,0,0:0:0:0:
256,192,244837,1,8,0:0:0:0:
256,192,245009,1,0,0:0:0:0:
256,192,245354,1,0,0:0:0:0:
256,192,245871,5,0,0:0:0:0:
256,192,245957,1,0,0:0:0:0:
256,192,246044,1,0,0:0:0:0:
256,192,246216,1,0,0:0:0:0:
256,192,246389,1,0,0:0:0:0:
256,192,246475,1,0,0:0:0:0:
256,192,246561,1,0,0:0:0:0:
256,192,246906,5,8,0:0:0:0:
256,192,247251,1,0,0:0:0:0:
256,192,247423,1,8,0:0:0:0:
256,192,247768,1,8,0:0:0:0:
256,192,248113,1,0,0:0:0:0:
256,192,248285,1,8,0:0:0:0:
256,192,248975,5,0,0:0:0:0:
256,192,249061,1,0,0:0:0:0:
256,192,249147,1,0,0:0:0:0:
256,192,249233,1,0,0:0:0:0:
256,192,249320,1,8,0:0:0:0:
256,192,249406,1,8,0:0:0:0:
256,192,249492,1,8,0:0:0:0:
256,192,249578,1,8,0:0:0:0:
256,192,249664,1,0,0:0:0:0:
256,192,250354,5,8,0:0:0:0:
256,192,250526,1,0,0:0:0:0:
256,192,250871,1,8,0:0:0:0:
256,192,252768,1,0,0:0:0:0:
256,192,252940,1,0,0:0:0:0:
256,192,253113,1,8,0:0:0:0:
256,192,253285,1,8,0:0:0:0:
256,192,253630,1,8,0:0:0:0:
256,192,254147,1,0,0:0:0:0:
256,192,254492,1,8,0:0:0:0:
256,192,254837,1,0,0:0:0:0:
256,192,255182,1,12,0:0:0:0:
256,192,255699,1,12,0:0:0:0:
256,192,260699,5,12,0:0:0:0:
256,192,261216,1,12,0:0:0:0:
256,192,265526,5,0,0:0:0:0:
256,192,265613,1,0,0:0:0:0:
256,192,265699,1,0,0:0:0:0:
256,192,265785,1,0,0:0:0:0:
256,192,265871,1,8,0:0:0:0:
256,192,265957,1,8,0:0:0:0:
256,192,266044,1,8,0:0:0:0:
256,192,266130,1,8,0:0:0:0:
256,192,266216,1,0,0:0:0:0:
256,192,266561,5,8,0:0:0:0:
256,192,267078,1,0,0:0:0:0:
256,192,267251,1,8,0:0:0:0:
256,192,267595,1,0,0:0:0:0:
256,192,267940,1,8,0:0:0:0:
256,192,268457,1,0,0:0:0:0:
256,192,268630,1,8,0:0:0:0:
256,192,268975,1,0,0:0:0:0:
256,192,269320,1,8,0:0:0:0:
256,192,269837,1,0,0:0:0:0:
256,192,270009,1,8,0:0:0:0:
256,192,270526,1,0,0:0:0:0:
256,192,270699,1,8,0:0:0:0:
256,192,271216,1,0,0:0:0:0:
256,192,271389,1,8,0:0:0:0:
256,192,271561,1,8,0:0:0:0:
256,192,271733,1,0,0:0:0:0:
256,192,271906,1,0,0:0:0:0:
256,192,272078,1,8,0:0:0:0:
256,192,272251,1,8,0:0:0:0:
256,192,272423,1,0,0:0:0:0:
256,192,272595,1,0,0:0:0:0:
256,192,272768,1,8,0:0:0:0:
256,192,272940,1,8,0:0:0:0:
256,192,273113,1,0,0:0:0:0:
256,192,273285,1,8,0:0:0:0:
256,192,273457,1,0,0:0:0:0:
256,192,273630,1,8,0:0:0:0:
256,192,273802,1,0,0:0:0:0:
256,192,273975,1,8,0:0:0:0:
256,192,274147,1,0,0:0:0:0:
256,192,274320,1,0,0:0:0:0:
256,192,274492,1,8,0:0:0:0:
256,192,274578,1,8,0:0:0:0:
256,192,274664,1,0,0:0:0:0:
256,192,274751,1,0,0:0:0:0:
256,192,274837,1,8,0:0:0:0:
256,192,274923,1,0,0:0:0:0:
256,192,275009,1,0,0:0:0:0:
256,192,275095,1,0,0:0:0:0:
256,192,275182,1,8,0:0:0:0:
256,192,275268,1,8,0:0:0:0:
256,192,275354,1,0,0:0:0:0:
256,192,275440,1,0,0:0:0:0:
256,192,275526,1,8,0:0:0:0:
256,192,275613,1,0,0:0:0:0:
256,192,275699,1,8,0:0:0:0:
256,192,275785,1,0,0:0:0:0:
256,192,275871,5,8,0:0:0:0:
256,192,275957,1,8,0:0:0:0:
256,192,276044,1,0,0:0:0:0:
256,192,276130,1,0,0:0:0:0:
256,192,276216,1,8,0:0:0:0:
256,192,276302,1,0,0:0:0:0:
256,192,276389,1,0,0:0:0:0:
256,192,276475,1,0,0:0:0:0:
256,192,276561,1,8,0:0:0:0:
256,192,276647,1,0,0:0:0:0:
256,192,276733,1,8,0:0:0:0:
256,192,276820,1,0,0:0:0:0:
256,192,276906,1,8,0:0:0:0:
256,192,276992,1,0,0:0:0:0:
256,192,277078,1,0,0:0:0:0:
256,192,277164,1,0,0:0:0:0:
256,192,277251,1,0,0:0:0:0:
256,192,277595,1,12,0:0:0:0:
256,192,277768,1,0,0:0:0:0:
256,192,277854,1,0,0:0:0:0:
256,192,277940,1,8,0:0:0:0:
256,192,278026,1,0,0:0:0:0:
256,192,278113,1,8,0:0:0:0:
256,192,278199,1,8,0:0:0:0:
256,192,278285,1,0,0:0:0:0:
256,192,278457,1,0,0:0:0:0:
256,192,278544,1,0,0:0:0:0:
256,192,278630,1,8,0:0:0:0:
256,192,278802,1,0,0:0:0:0:
256,192,278975,1,8,0:0:0:0:
256,192,279147,1,8,0:0:0:0:
256,192,279233,1,0,0:0:0:0:
256,192,279320,1,0,0:0:0:0:
256,192,279406,1,0,0:0:0:0:
256,192,279492,1,8,0:0:0:0:
256,192,279664,1,8,0:0:0:0:
256,192,279837,1,0,0:0:0:0:
256,192,279923,1,0,0:0:0:0:
256,192,280009,1,8,0:0:0:0:
256,192,280095,1,8,0:0:0:0:
256,192,280182,1,0,0:0:0:0:
256,192,280354,1,8,0:0:0:0:
256,192,280526,1,8,0:0:0:0:
256,192,280613,1,8,0:0:0:0:
256,192,280699,1,0,0:0:0:0:
256,192,280785,1,0,0:0:0:0:
256,192,280871,1,8,0:0:0:0:
256,192,280957,1,0,0:0:0:0:
256,192,281044,1,8,0:0:0:0:
256,192,281216,1,0,0:0:0:0:
256,192,281302,1,0,0:0:0:0:
256,192,281389,1,8,0:0:0:0:
256,192,281475,1,8,0:0:0:0:
256,192,281561,1,0,0:0:0:0:
256,192,281733,1,8,0:0:0:0:
256,192,281906,1,8,0:0:0:0:
256,192,281992,1,8,0:0:0:0:
256,192,282078,1,0,0:0:0:0:
256,192,282164,1,0,0:0:0:0:
256,192,282251,1,8,0:0:0:0:
256,192,282337,1,0,0:0:0:0:
256,192,282423,1,8,0:0:0:0:
256,192,282595,1,0,0:0:0:0:
256,192,282682,1,0,0:0:0:0:
256,192,282768,1,8,0:0:0:0:
256,192,282940,1,0,0:0:0:0:
256,192,283113,1,8,0:0:0:0:
256,192,283199,1,8,0:0:0:0:
256,192,283285,1,0,0:0:0:0:
256,192,283371,1,8,0:0:0:0:
256,192,283457,1,0,0:0:0:0:
256,192,283544,1,0,0:0:0:0:
256,192,283630,1,8,0:0:0:0:
256,192,283802,1,8,0:0:0:0:
256,192,283975,1,0,0:0:0:0:
256,192,284061,1,0,0:0:0:0:
256,192,284147,1,8,0:0:0:0:
256,192,284320,1,0,0:0:0:0:
256,192,284492,1,8,0:0:0:0:
256,192,284578,1,8,0:0:0:0:
256,192,284664,1,0,0:0:0:0:
256,192,284751,1,8,0:0:0:0:
256,192,284837,1,0,0:0:0:0:
256,192,284923,1,0,0:0:0:0:
256,192,285009,1,8,0:0:0:0:
256,192,285182,1,8,0:0:0:0:
256,192,285354,1,0,0:0:0:0:
256,192,285440,1,0,0:0:0:0:
256,192,285526,1,8,0:0:0:0:
256,192,285699,1,0,0:0:0:0:
256,192,285871,1,8,0:0:0:0:
256,192,285957,1,0,0:0:0:0:
256,192,286044,1,8,0:0:0:0:
256,192,286130,1,0,0:0:0:0:
256,192,286216,1,8,0:0:0:0:
256,192,286302,1,8,0:0:0:0:
256,192,286389,1,0,0:0:0:0:
256,192,286475,1,0,0:0:0:0:
256,192,286561,1,8,0:0:0:0:
256,192,286733,1,0,0:0:0:0:
256,192,286820,1,0,0:0:0:0:
256,192,286906,1,8,0:0:0:0:
256,192,286992,1,8,0:0:0:0:
256,192,287078,1,0,0:0:0:0:
256,192,287251,1,8,0:0:0:0:
256,192,287337,1,0,0:0:0:0:
256,192,287423,1,8,0:0:0:0:
256,192,287509,1,0,0:0:0:0:
256,192,287595,1,8,0:0:0:0:
256,192,287682,1,8,0:0:0:0:
256,192,287768,1,0,0:0:0:0:
256,192,287854,1,0,0:0:0:0:
256,192,287940,1,8,0:0:0:0:
256,192,288113,1,0,0:0:0:0:
256,192,288285,1,12,0:0:0:0:
256,192,288457,1,0,0:0:0:0:
256,192,288630,1,8,0:0:0:0:
256,192,288802,1,0,0:0:0:0:
256,192,288889,1,0,0:0:0:0:
256,192,288975,1,8,0:0:0:0:
256,192,289061,1,8,0:0:0:0:
256,192,289147,1,0,0:0:0:0:
256,192,289320,1,8,0:0:0:0:
256,192,289492,1,0,0:0:0:0:
256,192,289578,1,8,0:0:0:0:
256,192,289664,1,0,0:0:0:0:
256,192,289837,1,0,0:0:0:0:
256,192,290009,1,8,0:0:0:0:
256,192,290182,1,8,0:0:0:0:
256,192,290268,1,0,0:0:0:0:
256,192,290354,1,8,0:0:0:0:
256,192,290440,1,8,0:0:0:0:
256,192,290526,1,0,0:0:0:0:
256,192,290613,1,0,0:0:0:0:
256,192,290699,1,8,0:0:0:0:
256,192,290871,1,0,0:0:0:0:
256,192,290957,1,0,0:0:0:0:
256,192,291044,1,8,0:0:0:0:
256,192,291216,1,0,0:0:0:0:
256,192,291389,1,8,0:0:0:0:
256,192,291561,1,8,0:0:0:0:
256,192,291647,1,0,0:0:0:0:
256,192,291733,1,0,0:0:0:0:
256,192,291820,1,8,0:0:0:0:
256,192,291906,1,0,0:0:0:0:
256,192,292078,1,8,0:0:0:0:
256,192,292251,1,0,0:0:0:0:
256,192,292337,1,0,0:0:0:0:
256,192,292423,1,8,0:0:0:0:
256,192,292595,1,0,0:0:0:0:
256,192,292682,1,8,0:0:0:0:
256,192,292768,1,0,0:0:0:0:
256,192,292940,1,8,0:0:0:0:
256,192,293026,1,0,0:0:0:0:
256,192,293113,1,0,0:0:0:0:
256,192,293199,1,8,0:0:0:0:
256,192,293285,1,0,0:0:0:0:
256,192,293457,1,8,0:0:0:0:
256,192,293630,1,0,0:0:0:0:
256,192,293716,1,0,0:0:0:0:
256,192,293802,1,8,0:0:0:0:
256,192,293975,1,0,0:0:0:0:
256,192,294147,1,8,0:0:0:0:
256,192,294320,1,8,0:0:0:0:
256,192,294406,1,8,0:0:0:0:
256,192,294492,1,0,0:0:0:0:
256,192,294578,1,8,0:0:0:0:
256,192,294664,1,0,0:0:0:0:
256,192,294837,1,8,0:0:0:0:
256,192,295009,1,0,0:0:0:0:
256,192,295095,1,0,0:0:0:0:
256,192,295182,1,8,0:0:0:0:
256,192,295354,1,0,0:0:0:0:
256,192,295526,1,8,0:0:0:0:
256,192,295699,1,0,0:0:0:0:
256,192,295785,1,8,0:0:0:0:
256,192,295871,1,8,0:0:0:0:
256,192,295957,1,0,0:0:0:0:
256,192,296044,1,8,0:0:0:0:
256,192,296130,1,0,0:0:0:0:
256,192,296216,1,8,0:0:0:0:
256,192,296389,1,0,0:0:0:0:
256,192,296475,1,0,0:0:0:0:
256,192,296561,1,8,0:0:0:0:
256,192,296647,1,0,0:0:0:0:
256,192,296733,1,8,0:0:0:0:
256,192,296820,1,0,0:0:0:0:
256,192,296906,1,8,0:0:0:0:
256,192,296992,1,0,0:0:0:0:
256,192,297078,1,8,0:0:0:0:
256,192,297164,1,0,0:0:0:0:
256,192,297251,1,8,0:0:0:0:
256,192,297337,1,8,0:0:0:0:
256,192,297423,1,0,0:0:0:0:
256,192,297509,1,0,0:0:0:0:
256,192,297595,1,8,0:0:0:0:
256,192,297682,1,8,0:0:0:0:
256,192,297768,1,0,0:0:0:0:
256,192,297854,1,0,0:0:0:0:
256,192,297940,1,8,0:0:0:0:
256,192,298113,5,0,0:0:0:0:
256,192,298199,1,0,0:0:0:0:
256,192,298285,1,8,0:0:0:0:
256,192,298371,1,0,0:0:0:0:
256,192,298457,1,8,0:0:0:0:
256,192,298544,1,0,0:0:0:0:
256,192,298630,1,8,0:0:0:0:
256,192,298716,1,8,0:0:0:0:
256,192,298802,1,0,0:0:0:0:
256,192,298889,1,0,0:0:0:0:
256,192,298975,1,8,0:0:0:0:
256,192,299061,1,8,0:0:0:0:
256,192,299147,1,0,0:0:0:0:
256,192,299233,1,0,0:0:0:0:
256,192,299320,1,12,0:0:0:0:
256,192,299492,1,0,0:0:0:0:
256,192,299664,1,8,0:0:0:0:
256,192,299751,1,0,0:0:0:0:
256,192,299837,1,8,0:0:0:0:
256,192,299923,1,8,0:0:0:0:
256,192,300009,1,0,0:0:0:0:
256,192,300182,1,8,0:0:0:0:
256,192,300354,1,0,0:0:0:0:
256,192,300526,1,8,0:0:0:0:
256,192,300613,1,8,0:0:0:0:
256,192,300699,1,0,0:0:0:0:
256,192,300871,1,8,0:0:0:0:
256,192,301044,1,8,0:0:0:0:
256,192,301216,1,0,0:0:0:0:
256,192,301302,1,0,0:0:0:0:
256,192,301389,1,8,0:0:0:0:
256,192,301475,1,0,0:0:0:0:
256,192,301561,1,8,0:0:0:0:
256,192,301733,1,8,0:0:0:0:
256,192,301820,1,8,0:0:0:0:
256,192,301906,1,0,0:0:0:0:
256,192,301992,1,0,0:0:0:0:
256,192,302078,1,8,0:0:0:0:
256,192,302251,1,0,0:0:0:0:
256,192,302423,1,0,0:0:0:0:
256,192,302595,1,8,0:0:0:0:
256,192,302682,1,0,0:0:0:0:
256,192,302768,1,8,0:0:0:0:
256,192,302854,1,0,0:0:0:0:
256,192,302940,1,8,0:0:0:0:
256,192,303113,1,0,0:0:0:0:
256,192,303285,1,0,0:0:0:0:
256,192,303371,1,0,0:0:0:0:
256,192,303457,1,8,0:0:0:0:
256,192,303630,1,0,0:0:0:0:
256,192,303802,1,8,0:0:0:0:
256,192,303975,1,8,0:0:0:0:
256,192,304061,1,0,0:0:0:0:
256,192,304147,1,8,0:0:0:0:
256,192,304233,1,8,0:0:0:0:
256,192,304320,1,0,0:0:0:0:
256,192,304406,1,0,0:0:0:0:
256,192,304492,1,8,0:0:0:0:
256,192,304578,1,0,0:0:0:0:
256,192,304664,1,8,0:0:0:0:
256,192,304837,1,8,0:0:0:0:
256,192,305009,1,0,0:0:0:0:
256,192,305182,1,8,0:0:0:0:
256,192,305268,1,0,0:0:0:0:
256,192,305354,1,8,0:0:0:0:
256,192,305440,1,8,0:0:0:0:
256,192,305526,1,0,0:0:0:0:
256,192,305613,1,0,0:0:0:0:
256,192,305699,1,8,0:0:0:0:
256,192,305871,1,8,0:0:0:0:
256,192,306044,1,0,0:0:0:0:
256,192,306130,1,0,0:0:0:0:
256,192,306216,1,8,0:0:0:0:
256,192,306389,1,8,0:0:0:0:
256,192,306561,1,0,0:0:0:0:
256,192,306733,1,0,0:0:0:0:
256,192,306820,1,8,0:0:0:0:
256,192,306906,1,0,0:0:0:0:
256,192,306992,1,0,0:0:0:0:
256,192,307078,1,8,0:0:0:0:
256,192,307251,1,8,0:0:0:0:
256,192,307337,1,8,0:0:0:0:
256,192,307423,1,8,0:0:0:0:
256,192,307509,1,8,0:0:0:0:
256,192,307595,1,0,0:0:0:0:
256,192,307768,1,0,0:0:0:0:
256,192,307940,1,8,0:0:0:0:
256,192,308113,1,0,0:0:0:0:
256,192,308199,1,0,0:0:0:0:
256,192,308285,1,8,0:0:0:0:
256,192,308371,1,8,0:0:0:0:
256,192,308457,1,0,0:0:0:0:
256,192,308630,1,8,0:0:0:0:
256,192,308802,1,0,0:0:0:0:
256,192,308975,1,8,0:0:0:0:
256,192,309147,1,8,0:0:0:0:
256,192,309233,1,0,0:0:0:0:
256,192,309320,1,8,0:0:0:0:
256,192,309492,1,0,0:0:0:0:
256,192,309578,1,0,0:0:0:0:
256,192,309664,1,8,0:0:0:0:
256,192,309751,1,0,0:0:0:0:
256,192,309837,1,8,0:0:0:0:
256,192,309923,1,0,0:0:0:0:
256,192,310009,1,8,0:0:0:0:
256,192,310095,1,8,0:0:0:0:
256,192,310182,1,0,0:0:0:0:
256,192,310268,1,0,0:0:0:0:
256,192,310354,1,12,0:0:0:0:
256,192,310526,1,0,0:0:0:0:
256,192,310699,1,8,0:0:0:0:
256,192,310785,1,0,0:0:0:0:
256,192,310871,1,8,0:0:0:0:
256,192,310957,1,8,0:0:0:0:
256,192,311044,1,0,0:0:0:0:
256,192,311216,1,8,0:0:0:0:
256,192,311389,1,0,0:0:0:0:
256,192,311561,1,8,0:0:0:0:
256,192,311647,1,8,0:0:0:0:
256,192,311733,1,0,0:0:0:0:
256,192,311906,1,8,0:0:0:0:
256,192,312078,1,8,0:0:0:0:
256,192,312251,1,0,0:0:0:0:
256,192,312337,1,0,0:0:0:0:
256,192,312423,1,8,0:0:0:0:
256,192,312509,1,0,0:0:0:0:
256,192,312595,1,8,0:0:0:0:
256,192,312768,1,8,0:0:0:0:
256,192,312854,1,8,0:0:0:0:
256,192,312940,1,0,0:0:0:0:
256,192,313026,1,0,0:0:0:0:
256,192,313113,1,8,0:0:0:0:
256,192,313285,1,0,0:0:0:0:
256,192,313457,1,0,0:0:0:0:
256,192,313630,1,8,0:0:0:0:
256,192,313716,1,0,0:0:0:0:
256,192,313802,1,8,0:0:0:0:
256,192,313889,1,0,0:0:0:0:
256,192,313975,1,8,0:0:0:0:
256,192,314147,1,0,0:0:0:0:
256,192,314320,1,0,0:0:0:0:
256,192,314406,1,0,0:0:0:0:
256,192,314492,1,8,0:0:0:0:
256,192,314664,1,0,0:0:0:0:
256,192,314837,1,8,0:0:0:0:
256,192,315009,1,8,0:0:0:0:
256,192,315095,1,0,0:0:0:0:
256,192,315182,1,8,0:0:0:0:
256,192,315268,1,8,0:0:0:0:
256,192,315354,1,0,0:0:0:0:
256,192,315440,1,0,0:0:0:0:
256,192,315526,1,8,0:0:0:0:
256,192,315613,1,0,0:0:0:0:
256,192,315699,1,8,0:0:0:0:
256,192,315871,1,12,0:0:0:0:
256,192,316044,1,0,0:0:0:0:
256,192,316216,1,8,0:0:0:0:
256,192,316389,1,0,0:0:0:0:
256,192,316475,1,0,0:0:0:0:
256,192,316561,1,8,0:0:0:0:
256,192,316733,1,0,0:0:0:0:
256,192,316906,1,8,0:0:0:0:
256,192,317078,1,0,0:0:0:0:
256,192,317164,1,0,0:0:0:0:
256,192,317251,1,8,0:0:0:0:
256,192,317423,1,0,0:0:0:0:
256,192,317595,1,8,0:0:0:0:
256,192,317768,1,0,0:0:0:0:
256,192,317854,1,0,0:0:0:0:
256,192,317940,1,8,0:0:0:0:
256,192,318113,1,0,0:0:0:0:
256,192,318285,1,8,0:0:0:0:
256,192,318371,1,8,0:0:0:0:
256,192,318457,1,0,0:0:0:0:
256,192,318544,1,0,0:0:0:0:
256,192,318630,5,12,0:0:0:0:
256,192,318802,1,0,0:0:0:0:
256,192,318889,1,0,0:0:0:0:
256,192,318975,1,8,0:0:0:0:
256,192,319147,1,0,0:0:0:0:
256,192,319233,1,0,0:0:0:0:
256,192,319320,1,8,0:0:0:0:
256,192,319492,1,0,0:0:0:0:
256,192,319578,1,0,0:0:0:0:
256,192,319664,1,8,0:0:0:0:
256,192,319837,1,0,0:0:0:0:
256,192,319923,1,0,0:0:0:0:
256,192,320009,1,8,0:0:0:0:
256,192,320095,1,0,0:0:0:0:
256,192,320182,1,8,0:0:0:0:
256,192,320268,1,0,0:0:0:0:
256,192,320354,1,8,0:0:0:0:
256,192,320440,1,8,0:0:0:0:
256,192,320526,1,0,0:0:0:0:
256,192,320613,1,0,0:0:0:0:
256,192,320699,1,8,0:0:0:0:
256,192,320871,1,0,0:0:0:0:
256,192,321044,1,8,0:0:0:0:
256,192,321130,1,8,0:0:0:0:
256,192,321216,1,0,0:0:0:0:
256,192,321302,1,0,0:0:0:0:
256,192,321389,1,12,0:0:0:0:
256,192,321733,5,8,0:0:0:0:
256,192,321906,1,0,0:0:0:0:
256,192,321992,1,0,0:0:0:0:
256,192,322078,1,8,0:0:0:0:
256,192,322251,1,0,0:0:0:0:
256,192,322423,1,8,0:0:0:0:
256,192,322595,1,8,0:0:0:0:
256,192,322682,1,0,0:0:0:0:
256,192,322768,1,8,0:0:0:0:
256,192,322940,1,8,0:0:0:0:
256,192,323113,1,0,0:0:0:0:
256,192,323285,1,0,0:0:0:0:
256,192,323371,1,0,0:0:0:0:
256,192,323457,1,8,0:0:0:0:
256,192,323630,1,0,0:0:0:0:
256,192,323802,1,8,0:0:0:0:
256,192,323975,1,8,0:0:0:0:
256,192,324147,1,0,0:0:0:0:
256,192,324492,1,8,0:0:0:0:
256,192,324664,1,0,0:0:0:0:
256,192,324751,1,0,0:0:0:0:
256,192,324837,1,8,0:0:0:0:
256,192,325009,1,8,0:0:0:0:
256,192,325182,1,0,0:0:0:0:
256,192,325354,1,0,0:0:0:0:
256,192,325440,1,0,0:0:0:0:
256,192,325526,1,8,0:0:0:0:
256,192,325699,1,8,0:0:0:0:
256,192,325871,1,0,0:0:0:0:
256,192,326044,1,0,0:0:0:0:
256,192,326130,1,0,0:0:0:0:
256,192,326216,1,8,0:0:0:0:
256,192,326389,1,8,0:0:0:0:
256,192,326561,1,0,0:0:0:0:
256,192,326733,1,8,0:0:0:0:
256,192,326906,1,0,0:0:0:0:
256,192,327251,1,8,0:0:0:0:
256,192,327423,1,0,0:0:0:0:
256,192,327509,1,0,0:0:0:0:
256,192,327595,1,0,0:0:0:0:
256,192,327768,1,0,0:0:0:0:
256,192,327940,1,8,0:0:0:0:
256,192,328113,1,0,0:0:0:0:
256,192,328285,1,8,0:0:0:0:
256,192,328457,1,8,0:0:0:0:
256,192,328630,1,0,0:0:0:0:
256,192,328802,1,8,0:0:0:0:
256,192,328889,1,8,0:0:0:0:
256,192,328975,1,0,0:0:0:0:
256,192,329147,1,0,0:0:0:0:
256,192,329320,1,8,0:0:0:0:
256,192,329492,1,8,0:0:0:0:
256,192,329664,1,0,0:0:0:0:
256,192,330009,1,8,0:0:0:0:
256,192,330182,1,0,0:0:0:0:
256,192,330354,1,8,0:0:0:0:
256,192,330440,1,0,0:0:0:0:
256,192,330526,1,8,0:0:0:0:
256,192,330699,1,8,0:0:0:0:
256,192,330871,1,0,0:0:0:0:
256,192,331044,1,8,0:0:0:0:
256,192,331130,1,0,0:0:0:0:
256,192,331216,1,8,0:0:0:0:
256,192,331389,1,8,0:0:0:0:
256,192,331561,1,0,0:0:0:0:
256,192,331733,1,8,0:0:0:0:
256,192,331820,1,0,0:0:0:0:
256,192,331906,1,8,0:0:0:0:
256,192,332078,1,8,0:0:0:0:
256,192,332164,1,0,0:0:0:0:
256,192,332251,1,0,0:0:0:0:
256,192,332337,1,0,0:0:0:0:
256,192,332423,1,12,0:0:0:0:
256,192,332768,1,8,0:0:0:0:
256,192,332940,1,0,0:0:0:0:
256,192,333285,1,0,0:0:0:0:
256,192,333457,1,8,0:0:0:0:
256,192,333630,1,8,0:0:0:0:
256,192,333802,1,0,0:0:0:0:
256,192,334147,1,8,0:0:0:0:
256,192,334320,1,0,0:0:0:0:
256,192,334664,1,0,0:0:0:0:
256,192,334837,1,8,0:0:0:0:
256,192,335009,1,0,0:0:0:0:
256,192,335182,1,8,0:0:0:0:
256,192,335526,1,8,0:0:0:0:
256,192,335699,1,0,0:0:0:0:
256,192,336044,1,0,0:0:0:0:
256,192,336216,1,8,0:0:0:0:
256,192,336389,1,8,0:0:0:0:
256,192,336561,1,0,0:0:0:0:
256,192,336733,1,0,0:0:0:0:
256,192,336906,1,8,0:0:0:0:
256,192,337078,1,0,0:0:0:0:
256,192,337251,1,8,0:0:0:0:
256,192,337423,1,0,0:0:0:0:
256,192,337595,1,8,0:0:0:0:
256,192,337768,1,0,0:0:0:0:
256,192,337940,1,0,0:0:0:0:
256,192,338285,1,8,0:0:0:0:
256,192,338457,1,0,0:0:0:0:
256,192,338802,1,0,0:0:0:0:
256,192,338975,1,8,0:0:0:0:
256,192,339147,1,8,0:0:0:0:
256,192,339320,1,0,0:0:0:0:
256,192,339664,1,8,0:0:0:0:
256,192,339837,1,0,0:0:0:0:
256,192,340182,1,0,0:0:0:0:
256,192,340354,1,8,0:0:0:0:
256,192,340526,1,0,0:0:0:0:
256,192,340699,5,8,0:0:0:0:
256,192,340871,1,0,0:0:0:0:
256,192,340957,1,0,0:0:0:0:
256,192,341044,1,8,0:0:0:0:
256,192,341216,1,0,0:0:0:0:
256,192,341389,1,8,0:0:0:0:
256,192,341475,1,8,0:0:0:0:
256,192,341561,1,0,0:0:0:0:
256,192,341647,1,0,0:0:0:0:
256,192,341733,1,8,0:0:0:0:
256,192,341906,1,0,0:0:0:0:
256,192,342078,1,8,0:0:0:0:
256,192,342164,1,0,0:0:0:0:
256,192,342251,1,8,0:0:0:0:
256,192,342337,1,0,0:0:0:0:
256,192,342423,1,8,0:0:0:0:
256,192,342509,1,8,0:0:0:0:
256,192,342595,1,0,0:0:0:0:
256,192,342682,1,0,0:0:0:0:
256,192,342768,1,8,0:0:0:0:
256,192,342854,1,0,0:0:0:0:
256,192,342940,1,0,0:0:0:0:
256,192,343026,1,0,0:0:0:0:
256,192,343113,1,8,0:0:0:0:
256,192,343199,1,8,0:0:0:0:
256,192,343285,1,0,0:0:0:0:
256,192,343371,1,0,0:0:0:0:
256,192,343457,1,12,0:0:0:0:
