osu file format v14

[General]
AudioFilename: audio.mp3
AudioLeadIn: 0
PreviewTime: -1
Countdown: 1
SampleSet: Normal
StackLeniency: 0.2
Mode: 0
LetterboxInBreaks: 0
WidescreenStoryboard: 0

[Editor]
Bookmarks: 50,10550,12050,24050,33050,36050,58550,60050,69050,72050,78050,81050,84050,93050,96050,102050,105050,108050,114050,117050,120050,129050,132050,144050,153050
DistanceSpacing: 0.22
BeatDivisor: 6
GridSize: 4
TimelineZoom: 1.8

[Metadata]
Title:Be Wild
TitleUnicode:Be Wild
Artist:Camellia / Yukacco
ArtistUnicode:かめりあ / Yukacco
Creator:Akeruyri
Version:Organized Chaos
Source:
Tags:
BeatmapID:1978474
BeatmapSetID:947265

[Difficulty]
HPDrainRate:6
CircleSize:4
OverallDifficulty:7
ApproachRate:9.6
SliderMultiplier:2
SliderTickRate:1

[Events]
//Background and Video events
0,0,"Be Wild Bg B.jpg",0,0
//Break Periods
//Storyboard Layer 0 (Background)
//Storyboard Layer 1 (Fail)
//Storyboard Layer 2 (Pass)
//Storyboard Layer 3 (Foreground)
//Storyboard Sound Samples

[TimingPoints]
50,375,4,1,0,60,1,0
78050,-83.3333333333333,4,1,0,60,0,0
83487,-50,4,1,0,60,0,0
84425,-33.3333333333333,4,1,0,60,0,0
86675,-66.6666666666667,4,1,0,60,0,0
87050,-50,4,1,0,60,0,0
87425,-33.3333333333333,4,1,0,60,0,0
89300,-66.6666666666667,4,1,0,60,0,0
89675,-33.3333333333333,4,1,0,60,0,0
90050,-50,4,1,0,60,0,0
90425,-33.3333333333333,4,1,0,60,0,0
93050,-66.6666666666667,4,1,0,60,0,0
96050,-50,4,1,0,60,0,0
96425,-33.3333333333333,4,1,0,60,0,0
98675,-66.6666666666667,4,1,0,60,0,0
99050,-50,4,1,0,60,0,0
99425,-33.3333333333333,4,1,0,60,0,0
101300,-66.6666666666667,4,1,0,60,0,0
101675,-33.3333333333333,4,1,0,60,0,0
102050,-50,4,1,0,60,0,0
102425,-33.3333333333333,4,1,0,60,0,0
105050,-66.6666666666667,4,1,0,60,0,0
118737,-100,4,1,0,60,0,0
120050,-33.3333333333333,4,1,0,60,0,0
122487,-66.6666666666667,4,1,0,60,0,0
122675,-25,4,1,0,60,0,0
122862,-66.6666666666667,4,1,0,60,0,0
123050,-37.5000009375,4,1,0,60,0,0
123425,-33.3333333333333,4,1,0,60,0,0
125112,-66.6666666666667,4,1,0,60,0,0

[Colours]
Combo1 : 0,128,0
Combo2 : 255,0,0
Combo3 : 0,0,255
Combo4 : 0,255,0
Combo5 : 255,128,128
Combo6 : 0,128,128

[HitObjects]
36,148,78050,5,0,0:0:0:0:
253,187,78237,1,0,0:0:0:0:
123,55,78425,2,0,L|108:138,1,59.9999981689454
95,209,78612,2,0,L|83:267,1,59.9999981689454
264,137,78800,5,0,0:0:0:0:
471,122,78987,1,0,0:0:0:0:
398,20,79175,2,0,L|403:104,1,59.9999981689454
410,175,79362,2,0,L|413:234,1,59.9999981689454
203,239,79550,5,0,0:0:0:0:
421,311,79737,1,0,0:0:0:0:
235,364,79925,2,0,L|253:307,1,59.9999981689454
292,215,80112,2,0,L|310:158,1,59.9999981689454
483,244,80300,5,0,0:0:0:0:
187,267,80487,1,0,0:0:0:0:
426,355,80675,2,0,L|418:278,1,59.9999981689454
410,204,80862,2,0,L|403:144,1,59.9999981689454
278,344,81050,5,0,0:0:0:0:
353,337,81143,1,0,0:0:0:0:
347,263,81237,1,0,0:0:0:0:
272,268,81331,1,0,0:0:0:0:
275,347,81425,5,0,0:0:0:0:
359,341,81518,1,0,0:0:0:0:
352,257,81612,1,0,0:0:0:0:
269,264,81706,1,0,0:0:0:0:
183,270,81800,5,0,0:0:0:0:
100,276,81893,1,0,0:0:0:0:
94,192,81987,1,0,0:0:0:0:
178,186,82081,1,0,0:0:0:0:
190,274,82175,5,0,0:0:0:0:
96,281,82268,1,0,0:0:0:0:
90,187,82362,1,0,0:0:0:0:
184,179,82456,1,0,0:0:0:0:
192,281,82550,6,0,L|196:355,3,59.9999981689454
184,179,82925,5,0,0:0:0:0:
180,104,83018,1,0,0:0:0:0:
177,30,83112,2,0,L|91:35,1,59.9999981689454
184,179,83300,2,0,L|246:175,1,59.9999981689454
178,121,83487,5,0,0:0:0:0:
179,158,83581,1,0,0:0:0:0:
181,195,83675,1,0,0:0:0:0:
183,233,83768,1,0,0:0:0:0:
185,270,83862,1,0,0:0:0:0:
326,114,84050,6,0,B|460:180|460:180|334:261,1,300
178,121,84425,6,0,L|185:270,1,150.000005722046
29,130,84800,6,0,L|197:121,1,150.000005722046
36,279,84987,2,0,L|204:270,1,150.000005722046
338,338,85175,6,0,L|169:346,1,150.000005722046
331,189,85362,2,0,L|162:197,1,150.000005722046
29,130,85550,5,0,0:0:0:0:
33,205,85643,1,0,0:0:0:0:
35,278,85737,2,0,L|184:270,1,150.000005722046
100,48,85925,2,0,L|107:197,1,150.000005722046
326,114,86112,2,0,L|176:121,1,150.000005722046
263,342,86300,2,0,L|255:192,1,150.000005722046
177,121,86487,5,0,0:0:0:0:
181,196,86581,1,0,0:0:0:0:
185,271,86675,2,0,L|177:108,1,150.000005722046
15,354,87050,2,0,B|56:351|56:351|91:315|91:315|134:348|134:348|176:380|176:380|215:343|215:343|262:341,1,300
255,191,87425,6,0,L|262:340,1,150.000005722046
412,332,87800,6,0,L|404:182,1,150.000005722046
322,37,87987,2,0,L|329:186,1,150.000005722046
110,346,88175,6,0,L|102:196,1,150.000005722046
171,44,88362,2,0,L|178:193,1,150.000005722046
250,114,88550,5,0,0:0:0:0:
254,189,88643,1,0,0:0:0:0:
258,264,88737,2,0,L|407:256,1,150.000005722046
250,114,88925,2,0,L|100:121,1,150.000005722046
258,264,89112,2,0,L|250:114,1,150.000005722046
110,346,89300,6,0,L|259:338,1,150.000005722046
472,100,89675,6,0,B|398:103|398:103|332:107|314:213|407:253|494:204|464:100|398:103|398:103|322:107,1,450.000017166138
333,259,90050,6,0,B|414:385|414:385|480:250,1,300
467,24,90425,6,0,L|317:31,1,150.000005722046
333,259,90800,6,0,L|325:109,1,150.000005722046
480,250,90987,2,0,L|472:100,1,150.000005722046
178,117,91175,6,0,L|185:266,1,150.000005722046
325,109,91362,2,0,L|332:258,1,150.000005722046
261,337,91550,5,0,0:0:0:0:
257,262,91643,1,0,0:0:0:0:
253,187,91737,2,0,L|103:194,1,150.000005722046
485,325,91925,2,0,L|336:333,1,150.000005722046
253,187,92112,2,0,L|402:179,1,150.000005722046
186,341,92300,2,0,L|36:348,1,150.000005722046
328,183,92487,5,0,0:0:0:0:
253,187,92581,1,0,0:0:0:0:
178,191,92675,1,0,0:0:0:0:
253,187,92768,1,0,0:0:0:0:
328,183,92862,1,0,0:0:0:0:
36,348,93050,6,0,L|28:198,1,150.000005722046
174,115,93425,1,0,0:0:0:0:
24,123,93612,1,0,0:0:0:0:
186,340,93800,5,0,0:0:0:0:
178,190,93987,1,0,0:0:0:0:
398,103,94175,6,0,L|248:110,1,150
174,115,94456,1,0,0:0:0:0:
99,119,94550,1,0,0:0:0:0:
328,182,94737,5,0,0:0:0:0:
253,186,94831,1,0,0:0:0:0:
178,190,94925,2,0,L|181:264,1,75.0000028610231
328,182,95112,5,0,0:0:0:0:
403,178,95206,1,0,0:0:0:0:
478,174,95300,2,0,L|474:99,3,75.0000028610231
484,298,95675,2,0,L|482:249,3,50.0000019073487
181,264,96050,6,0,B|100:138|100:138|33:272,1,300
185,339,96425,6,0,L|35:346,1,150
172,113,96800,6,0,L|321:105,1,150
390,26,96987,2,0,L|241:34,1,150
479,248,97175,6,0,L|329:255,1,150
259,333,97362,2,0,L|409:326,1,150
321,105,97550,5,0,0:0:0:0:
325,180,97643,1,0,0:0:0:0:
329,255,97737,2,0,L|179:262,1,150
397,102,97925,2,0,L|404:251,1,150
172,113,98112,2,0,L|321:105,1,150
104,266,98300,2,0,L|96:116,1,150
325,180,98487,5,0,0:0:0:0:
400,176,98581,1,0,0:0:0:0:
475,172,98675,2,0,L|325:179,1,150
29,270,99050,6,0,B|104:266|104:266|97:116|97:116|171:112,1,300
17,45,99425,6,0,L|24:194,1,150
183,337,99800,6,0,L|332:329,1,150
29,270,99987,2,0,L|178:262,1,150
164,36,100175,6,0,L|14:43,1,150
318,103,100362,2,0,L|168:110,1,150
98,190,100550,5,0,0:0:0:0:
173,186,100644,1,0,0:0:0:0:
248,182,100737,2,0,L|240:32,1,150
398,174,100925,2,0,L|405:323,1,150
178,262,101112,2,0,L|327:254,1,150
320,104,101300,2,0,L|327:253,1,150
105,339,101675,6,0,B|101:265|101:265|98:199|-8:181|-48:274|0:361|105:331|101:265|101:265|97:189,1,450.000017166138
243,106,102050,6,0,B|154:110|154:110|97:113|95:38|151:36|151:36|240:32,1,300
179,334,102425,6,0,L|171:184,1,150
471,168,102800,6,0,L|479:318,1,150
320,175,102987,2,0,L|328:325,1,150
388,22,103174,5,0,0:0:0:0:
392,97,103268,1,0,0:0:0:0:
396,172,103362,2,0,L|403:321,1,150
97,189,103550,6,0,L|89:39,1,150
248,182,103737,2,0,L|240:32,1,150
180,335,103924,5,0,0:0:0:0:
176,260,104018,1,0,0:0:0:0:
172,185,104112,2,0,L|164:35,1,150.000005722046
328,324,104300,6,0,L|477:316,1,150.000005722046
180,335,104487,2,0,L|30:342,1,150.000005722046
252,257,104675,5,0,0:0:0:0:
245,143,104769,1,0,0:0:0:0:
240,32,104862,1,0,0:0:0:0:
252,257,105050,6,0,L|428:249,1,150.000005722046
405,325,105425,2,0,L|229:333,1,150.000005722046
164,35,105800,1,0,0:0:0:0:
180,335,106175,5,0,0:0:0:0:
164,35,106362,1,0,0:0:0:0:
88,38,106456,1,0,0:0:0:0:
14,41,106550,2,0,L|164:35,1,150.000005722046
91,113,106925,5,0,0:0:0:0:
165,109,107019,1,0,0:0:0:0:
241,105,107112,1,0,0:0:0:0:
315,101,107206,1,0,0:0:0:0:
391,97,107300,2,0,L|465:93,3,75.0000028610231
319,177,107675,2,0,L|244:180,3,50.0000019073487
401,323,108050,6,0,L|252:330,1,150.000005722046
98,260,108425,2,0,L|248:254,1,150.000005722046
397,247,108800,6,0,L|248:254,1,150.000005722046
94,184,109175,2,0,L|244:178,1,150.000005722046
393,171,109550,6,0,L|244:178,1,150.000005722046
90,108,109925,2,0,L|240:102,1,150.000005722046
389,95,110300,6,0,L|240:102,1,150.000005722046
86,32,110675,2,0,L|236:26,1,150.000005722046
96,255,111050,6,0,L|89:105,1,150.000005722046
168,175,111425,2,0,L|174:324,1,150.000005722046
246,245,111800,6,0,L|239:95,1,150.000005722046
318,165,112175,2,0,L|324:314,1,150.000005722046
396,237,112550,6,0,L|389:87,1,150.000005722046
468,157,112925,2,0,L|474:306,1,150.000005722046
318,165,113300,6,0,L|168:171,1,150.000005722046
164,99,113675,2,0,L|313:92,1,150.000005722046
96,255,114050,6,0,L|99:329,1,75.0000028610231
88,105,114237,2,0,L|91:179,1,75.0000028610231
318,240,114425,1,0,0:0:0:0:
20,259,114612,1,0,0:0:0:0:
386,281,114800,6,0,L|382:355,1,75.0000028610231
394,131,114987,2,0,L|390:205,1,75.0000028610231
170,192,115175,1,0,0:0:0:0:
467,209,115362,1,0,0:0:0:0:
91,179,115550,6,0,L|94:253,1,75.0000028610231
84,14,115737,2,0,L|87:88,1,75.0000028610231
314,166,115925,1,0,0:0:0:0:
17,183,116112,1,0,0:0:0:0:
390,205,116300,6,0,L|386:279,1,75.0000028610231
401,25,116487,2,0,L|397:99,1,75.0000028610231
140,82,116675,1,0,0:0:0:0:
474,104,116862,1,0,0:0:0:0:
320,240,117050,5,0,0:0:0:0:
324,314,117144,1,0,0:0:0:0:
398,310,117237,1,0,0:0:0:0:
394,236,117331,1,0,0:0:0:0:
312,233,117425,5,0,0:0:0:0:
317,321,117519,1,0,0:0:0:0:
405,317,117612,1,0,0:0:0:0:
401,228,117706,1,0,0:0:0:0:
396,139,117799,5,0,0:0:0:0:
391,51,117893,1,0,0:0:0:0:
480,46,117986,1,0,0:0:0:0:
484,135,118080,1,0,0:0:0:0:
403,132,118174,5,0,0:0:0:0:
399,58,118268,1,0,0:0:0:0:
473,54,118361,1,0,0:0:0:0:
477,128,118455,1,0,0:0:0:0:
403,132,118550,5,0,0:0:0:0:
234,347,118737,6,0,P|283:341|324:314,1,100
405,281,119018,1,0,0:0:0:0:
340,219,119112,2,0,P|327:240|320:264,1,50
397,376,119300,2,0,P|367:336|323:313,1,100
340,219,119675,5,0,0:0:0:0:
327,240,119768,1,0,0:0:0:0:
320,264,119862,1,0,0:0:0:0:
318,289,119956,1,0,0:0:0:0:
323,313,120050,2,0,L|23:326,1,300.000011444092
169,242,120425,6,0,L|-5:249,1,150.000005722046
88,114,120612,2,0,L|18:247,1,150.000005722046
364,26,120800,2,0,L|294:159,1,150.000005722046
214,33,120987,2,0,L|294:159,1,150.000005722046
110,13,121175,6,0,L|271:265,1,300.000011444092
249,368,121550,6,0,L|168:241,1,150.000005722046
398,360,121737,2,0,L|317:233,1,150.000005722046
167,240,121925,2,0,L|316:233,1,150.000005722046
248,366,122112,2,0,L|397:359,1,150.000005722046
386,99,122300,6,0,L|316:232,1,150.000005722046
248,366,122487,6,0,L|282:299,1,75.0000028610231
239,228,122675,6,0,P|176:201|232:240,1,200
364,296,122862,2,0,P|385:310|362:301,1,75.0000028610231
69,115,123050,6,0,B|230:107|230:107|204:32|204:32|363:25,1,400
473,303,123425,6,0,L|323:309,1,150.000005722046
391,176,123612,2,0,L|471:302,1,150.000005722046
188,240,123800,2,0,L|258:107,1,150.000005722046
108,113,123987,2,0,L|257:106,1,150.000005722046
221,342,124175,2,0,L|290:208,1,150.000005722046
324,142,124362,5,0,0:0:0:0:
336,119,124424,1,0,0:0:0:0:
347,97,124487,1,0,0:0:0:0:
359,75,124549,1,0,0:0:0:0:
108,113,124737,5,0,0:0:0:0:
471,302,124925,1,0,0:0:0:0:
290,208,125112,2,0,L|255:274,1,75.0000028610231
393,8,125300,2,0,L|358:74,1,75.0000028610231
324,141,125487,2,0,L|289:207,1,75.0000028610231
226,293,125675,2,0,P|205:371|257:309,1,225.000008583069
323,310,126799,5,0,0:0:0:0:
249,314,126892,1,0,0:0:0:0:
173,318,126986,1,0,0:0:0:0:
165,168,127174,5,0,0:0:0:0:
169,242,127268,1,0,0:0:0:0:
173,318,127361,1,0,0:0:0:0:
173,318,127549,5,0,0:0:0:0:
99,322,127643,1,0,0:0:0:0:
23,326,127736,1,0,0:0:0:0:
