osu file format v14

[General]
AudioFilename: Bang_Riot_-_Blastix_Riotz[www.MP3Fiber.com].mp3
AudioLeadIn: 0
PreviewTime: -1
Countdown: 1
SampleSet: Normal
StackLeniency: 0.7
Mode: 0
LetterboxInBreaks: 0
WidescreenStoryboard: 0

[Editor]
DistanceSpacing: 2
BeatDivisor: 4
GridSize: 16
TimelineZoom: 2.200001

[Metadata]
Title:Blastix Riotz
TitleUnicode:Blastix Riotz
Artist:Camelia as "Bang Riot"
ArtistUnicode:かめりあ
Creator:Unity
Version:GRAVITY
Source:SOUND VOLTEX III GRAVITY WARS
Tags:sound voltex iii gravity wars speedcore
BeatmapID:848494
BeatmapSetID:389053

[Difficulty]
HPDrainRate:6
CircleSize:4
OverallDifficulty:8
ApproachRate:9.7
SliderMultiplier:2
SliderTickRate:1

[Events]
//Background and Video events
0,0,"27640356-1ed6-45bb-c50e-515818e776d0.jpg",0,0
//Break Periods
//Storyboard Layer 0 (Background)
//Storyboard Layer 1 (Fail)
//Storyboard Layer 2 (Pass)
//Storyboard Layer 3 (Foreground)
//Storyboard Sound Samples

[TimingPoints]
640,234.375,4,1,0,100,1,0

[HitObjects]
160,64,640,6,0,P|128:128|128:192,1,100
256,192,874,1,0,0:0:0:0:
416,224,991,2,0,P|416:192|384:96,1,100
256,64,1225,1,0,0:0:0:0:
160,128,1343,1,0,0:0:0:0:
352,64,1460,1,0,0:0:0:0:
352,64,1518,1,0,0:0:0:0:
352,64,1577,6,0,P|320:128|288:160,1,100
160,160,1811,1,0,0:0:0:0:
288,192,1929,1,0,0:0:0:0:
128,192,2046,1,0,0:0:0:0:
320,160,2163,1,0,0:0:0:0:
384,256,2280,1,0,0:0:0:0:
288,320,2397,1,0,0:0:0:0:
224,224,2515,2,0,P|192:160|192:96,1,100
320,64,2749,1,0,0:0:0:0:
448,128,2866,2,0,P|416:192|384:224,1,100
288,128,3100,5,0,0:0:0:0:
160,64,3218,1,0,0:0:0:0:
96,192,3335,1,0,0:0:0:0:
96,192,3393,1,0,0:0:0:0:
96,192,3452,2,0,P|128:256|192:288,1,100
224,128,3686,1,0,0:0:0:0:
352,64,3804,1,0,0:0:0:0:
352,64,3862,1,0,0:0:0:0:
352,64,3921,1,0,0:0:0:0:
352,224,4038,1,0,0:0:0:0:
352,224,4097,1,0,0:0:0:0:
352,224,4155,2,0,P|288:256|224:256,1,100
192,96,4390,6,0,P|160:128|128:192,1,100
224,288,4624,1,0,0:0:0:0:
352,192,4741,2,0,P|352:128|384:64,1,100
224,32,4975,1,0,0:0:0:0:
96,96,5093,2,0,P|128:160|160:192,1,100
192,288,5327,5,0,0:0:0:0:
256,160,5444,1,0,0:0:0:0:
320,288,5561,1,0,0:0:0:0:
384,160,5679,1,0,0:0:0:0:
288,64,5796,1,0,0:0:0:0:
160,128,5913,1,0,0:0:0:0:
256,224,6030,1,0,0:0:0:0:
384,160,6147,1,0,0:0:0:0:
256,96,6265,6,0,P|224:128|128:160,1,100
64,256,6499,1,0,0:0:0:0:
224,320,6616,2,0,P|288:288|320:256,1,100
192,160,6850,1,0,0:0:0:0:
320,64,6968,1,0,0:0:0:0:
416,192,7085,1,0,0:0:0:0:
288,288,7202,2,0,L|224:320,2,50
256,128,7436,2,0,L|192:64,2,50
160,224,7671,1,0,0:0:0:0:
160,224,7729,1,0,0:0:0:0:
160,224,7788,1,0,0:0:0:0:
160,224,7847,1,0,0:0:0:0:
432,112,8140,5,0,0:0:0:0:
444,145,8198,1,0,0:0:0:0:
447,181,8257,1,0,0:0:0:0:
442,216,8315,1,0,0:0:0:0:
427,249,8374,1,0,0:0:0:0:
405,277,8432,1,0,0:0:0:0:
376,299,8491,1,0,0:0:0:0:
343,312,8550,1,0,0:0:0:0:
307,317,8608,1,0,0:0:0:0:
272,312,8667,1,0,0:0:0:0:
238,299,8725,1,0,0:0:0:0:
210,277,8784,1,0,0:0:0:0:
192,256,8843,6,0,L|224:224,2,25
256,112,8960,2,0,L|272:144,2,25
400,80,9077,5,0,0:0:0:0:
398,113,9135,1,0,0:0:0:0:
384,143,9194,1,0,0:0:0:0:
360,166,9252,1,0,0:0:0:0:
329,178,9311,1,0,0:0:0:0:
295,178,9369,1,0,0:0:0:0:
265,167,9428,5,0,0:0:0:0:
224,160,9487,1,0,0:0:0:0:
195,153,9545,1,0,0:0:0:0:
165,157,9604,1,0,0:0:0:0:
140,173,9662,1,0,0:0:0:0:
122,197,9721,1,0,0:0:0:0:
112,224,9780,2,0,L|144:240,2,25
288,272,9897,2,0,L|320:240,2,25
432,208,10015,5,0,0:0:0:0:
436,177,10073,1,0,0:0:0:0:
432,146,10132,1,0,0:0:0:0:
421,117,10190,1,0,0:0:0:0:
403,92,10249,1,0,0:0:0:0:
379,73,10307,1,0,0:0:0:0:
351,59,10366,5,0,0:0:0:0:
321,54,10425,1,0,0:0:0:0:
290,56,10483,1,0,0:0:0:0:
261,65,10542,1,0,0:0:0:0:
235,82,10600,1,0,0:0:0:0:
214,105,10659,1,0,0:0:0:0:
208,128,10718,2,0,L|160:128,6,25
320,240,10952,5,0,0:0:0:0:
323,273,11010,1,0,0:0:0:0:
311,304,11069,1,0,0:0:0:0:
287,326,11127,1,0,0:0:0:0:
256,336,11186,2,0,L|272:304,4,25
144,208,11421,5,0,0:0:0:0:
304,96,11538,1,0,0:0:0:0:
304,96,11597,1,0,0:0:0:0:
416,272,11714,1,0,0:0:0:0:
416,272,11772,1,0,0:0:0:0:
224,224,11890,5,0,0:0:0:0:
190,236,11948,1,0,0:0:0:0:
154,235,12007,1,0,0:0:0:0:
122,220,12065,1,0,0:0:0:0:
97,193,12124,1,0,0:0:0:0:
85,160,12182,1,0,0:0:0:0:
86,124,12241,1,0,0:0:0:0:
101,92,12300,1,0,0:0:0:0:
127,67,12358,1,0,0:0:0:0:
161,55,12417,1,0,0:0:0:0:
197,56,12475,1,0,0:0:0:0:
229,71,12534,1,0,0:0:0:0:
256,96,12593,2,0,L|288:64,6,25
176,160,12827,5,0,0:0:0:0:
163,188,12885,1,0,0:0:0:0:
159,219,12944,1,0,0:0:0:0:
164,249,13002,1,0,0:0:0:0:
177,277,13061,1,0,0:0:0:0:
196,301,13119,1,0,0:0:0:0:
222,318,13178,1,0,0:0:0:0:
251,328,13237,1,0,0:0:0:0:
282,329,13295,1,0,0:0:0:0:
312,322,13354,1,0,0:0:0:0:
339,307,13412,1,0,0:0:0:0:
361,285,13471,1,0,0:0:0:0:
368,272,13530,6,0,L|416:272,2,25
320,144,13647,2,0,L|352:112,2,25
176,128,13765,5,0,0:0:0:0:
149,143,13823,1,0,0:0:0:0:
128,166,13882,1,0,0:0:0:0:
115,194,13940,1,0,0:0:0:0:
110,224,13999,1,0,0:0:0:0:
115,255,14057,1,0,0:0:0:0:
129,282,14116,1,0,0:0:0:0:
150,305,14175,1,0,0:0:0:0:
177,319,14233,1,0,0:0:0:0:
208,326,14292,1,0,0:0:0:0:
238,323,14350,1,0,0:0:0:0:
267,311,14409,1,0,0:0:0:0:
288,288,14468,2,0,L|320:304,8,25
80,112,16577,5,0,0:0:0:0:
272,80,16694,1,0,0:0:0:0:
272,80,16753,1,0,0:0:0:0:
272,80,16811,1,0,0:0:0:0:
272,80,16870,1,0,0:0:0:0:
272,80,16929,1,0,0:0:0:0:
192,256,17046,5,0,0:0:0:0:
352,144,17163,1,0,0:0:0:0:
160,192,17280,1,0,0:0:0:0:
352,208,17397,1,0,0:0:0:0:
192,96,17515,6,0,P|128:128|96:160,1,100
288,256,17749,2,0,P|352:224|384:192,1,100
288,96,17983,1,0,0:0:0:0:
112,176,18100,1,0,0:0:0:0:
288,288,18218,1,0,0:0:0:0:
336,96,18335,1,0,0:0:0:0:
336,96,18393,1,0,0:0:0:0:
336,96,18452,1,0,0:0:0:0:
160,192,18569,2,0,L|128:144,4,50
224,64,18921,5,0,0:0:0:0:
320,176,19038,1,0,0:0:0:0:
192,256,19155,1,0,0:0:0:0:
96,144,19272,1,0,0:0:0:0:
272,48,19390,1,0,0:0:0:0:
400,208,19507,1,0,0:0:0:0:
224,336,19624,1,0,0:0:0:0:
96,192,19741,6,0,L|48:144,4,50
256,80,20093,1,0,0:0:0:0:
448,160,20210,2,0,L|400:224,2,50
256,224,20444,1,0,0:0:0:0:
256,224,20503,1,0,0:0:0:0:
256,224,20561,1,0,0:0:0:0:
256,224,20620,1,0,0:0:0:0:
256,224,20679,1,0,0:0:0:0:
400,80,20796,5,0,0:0:0:0:
208,128,20913,1,0,0:0:0:0:
400,144,21030,1,0,0:0:0:0:
192,64,21147,1,0,0:0:0:0:
48,192,21265,2,0,P|96:240|144:256,1,100
272,112,21499,2,0,P|336:160|368:208,1,100
240,224,21733,1,0,0:0:0:0:
64,128,21850,1,0,0:0:0:0:
240,32,21968,2,0,L|272:32,8,25
448,80,22319,2,0,L|464:112,7,25
416,80,22554,5,0,0:0:0:0:
416,80,22612,1,0,0:0:0:0:
416,80,22671,1,0,0:0:0:0:
416,80,22729,1,0,0:0:0:0:
416,80,22788,1,0,0:0:0:0:
224,112,22905,1,0,0:0:0:0:
384,240,23022,1,0,0:0:0:0:
384,240,23081,1,0,0:0:0:0:
304,128,23257,2,0,P|256:176|224:192,1,100
96,176,23491,2,0,P|112:272|288:272,1,300
368,64,23960,1,0,0:0:0:0:
368,64,24018,1,0,0:0:0:0:
368,64,24077,6,0,P|416:112|432:160,1,100
304,176,24311,1,0,0:0:0:0:
112,112,24429,1,0,0:0:0:0:
208,304,24546,1,0,0:0:0:0:
240,96,24663,1,0,0:0:0:0:
80,240,24780,1,0,0:0:0:0:
80,240,24839,1,0,0:0:0:0:
80,240,24897,1,0,0:0:0:0:
80,240,24956,1,0,0:0:0:0:
80,240,25015,1,0,0:0:0:0:
256,160,25132,1,0,0:0:0:0:
256,160,25190,1,0,0:0:0:0:
384,336,25366,1,0,0:0:0:0:
384,336,25425,1,0,0:0:0:0:
384,336,25484,1,0,0:0:0:0:
416,64,25600,5,0,0:0:0:0:
80,304,25835,1,0,0:0:0:0:
192,112,26069,5,0,0:0:0:0:
192,112,26128,1,0,0:0:0:0:
192,112,26186,1,0,0:0:0:0:
368,240,26304,1,0,0:0:0:0:
304,32,26421,1,0,0:0:0:0:
176,192,26538,1,0,0:0:0:0:
352,80,26655,1,0,0:0:0:0:
144,144,26772,1,0,0:0:0:0:
336,224,26890,6,0,P|304:256|256:288,2,100
224,48,27241,2,0,P|160:96|128:144,2,100
80,208,27593,2,0,P|128:256|192:288,1,100
192,144,27827,1,0,0:0:0:0:
368,256,27944,1,0,0:0:0:0:
368,48,28061,2,0,P|320:112|272:128,1,100
128,112,28296,1,0,0:0:0:0:
128,112,28354,1,0,0:0:0:0:
128,112,28413,1,0,0:0:0:0:
128,112,28472,1,0,0:0:0:0:
192,256,28530,2,0,P|240:208|256:144,1,100
400,80,28765,5,0,0:0:0:0:
400,80,28823,1,0,0:0:0:0:
400,80,28882,1,0,0:0:0:0:
400,80,28940,1,0,0:0:0:0:
112,176,29233,1,0,0:0:0:0:
112,176,29292,1,0,0:0:0:0:
112,176,29350,1,0,0:0:0:0:
112,176,29409,1,0,0:0:0:0:
112,176,29468,2,0,L|144:224,2,50
304,80,29702,5,0,0:0:0:0:
272,112,29761,1,0,0:0:0:0:
304,144,29819,1,0,0:0:0:0:
256,160,29878,1,0,0:0:0:0:
272,192,29936,2,0,P|304:240|320:256,1,50
336,80,30054,2,0,P|272:64|256:64,1,50
128,112,30171,1,0,0:0:0:0:
128,112,30229,1,0,0:0:0:0:
128,112,30288,1,0,0:0:0:0:
128,112,30347,2,0,P|96:160|80:160,1,50
176,240,30464,2,0,P|224:272|240:272,1,50
416,224,30640,5,0,0:0:0:0:
416,224,30698,1,0,0:0:0:0:
208,192,30815,2,0,P|160:240|144:240,1,50
336,80,30991,1,0,0:0:0:0:
336,80,31050,1,0,0:0:0:0:
128,80,31167,2,0,P|112:128|80:144,1,50
304,240,31343,2,0,P|352:192|400:160,1,100
192,80,31577,5,0,0:0:0:0:
112,272,31694,1,0,0:0:0:0:
288,160,31811,2,0,P|336:128|384:128,1,100
256,256,31987,1,0,0:0:0:0:
224,272,32046,2,0,P|176:240|160:240,1,50
288,64,32163,2,0,P|336:80|368:80,1,50
384,256,32280,1,0,0:0:0:0:
224,128,32397,1,0,0:0:0:0:
432,64,32515,1,0,0:0:0:0:
288,224,32632,1,0,0:0:0:0:
176,48,32749,2,0,P|128:80|96:128,1,100
304,160,32983,1,0,0:0:0:0:
304,160,33100,1,0,0:0:0:0:
464,304,33218,1,0,0:0:0:0:
448,320,33276,1,0,0:0:0:0:
432,336,33335,1,0,0:0:0:0:
416,352,33393,1,0,0:0:0:0:
400,368,33452,1,0,0:0:0:0:
