osu file format v14

[General]
AudioFilename: audio.mp3
AudioLeadIn: 0
PreviewTime:194048
Countdown: 0
SampleSet: Soft
StackLeniency: 0.5
Mode: 0
LetterboxInBreaks: 0
WidescreenStoryboard: 1

[Editor]
Bookmarks: 3970,33970,63970,97720,127720,150454,157720,165220,195220,225220
DistanceSpacing: 1
BeatDivisor: 12
GridSize: 16
TimelineZoom: 2.2

[Metadata]
Title:We'll Be Coming Back feat. Example
TitleUnicode:We'll Be Coming Back feat. Example
Artist:Calvin Harris
ArtistUnicode:Calvin Harris
Creator:Skubi
Version:Extra
Source:
Tags:18 months EDM electro electronic dance house romance english chalwa sonnyc nervarien
BeatmapID:3968535
BeatmapSetID:1885359

[Difficulty]
HPDrainRate:5
CircleSize:5.3
OverallDifficulty:7
ApproachRate:9
SliderMultiplier:2.8
SliderTickRate:2

[Events]
//Background and Video events
0,0,"peakpx-low_res-width-2560px-gigapixel.jpg",0,0
//Break Periods
//Storyboard Layer 0 (Background)
//Storyboard Layer 1 (Fail)
//Storyboard Layer 2 (Pass)
//Storyboard Layer 3 (Foreground)
//Storyboard Layer 4 (Overlay)
//Storyboard Sound Samples

[TimingPoints]
3970,468.75,4,2,1,60,1,0
4087,-133.333333333333,4,2,1,60,0,0
7251,-200,4,2,1,60,0,0
7720,-133.333333333333,4,2,1,60,0,0
21782,-200,4,2,1,60,0,0
22251,-133.333333333333,4,2,1,60,0,0
26938,-200,4,2,1,60,0,0
33970,-151.515151515152,4,2,1,60,0,0
56470,-250,4,2,1,60,0,0
63032,-400,4,2,1,60,0,0
63970,-100,4,2,1,80,0,1
65376,-80,4,2,1,80,0,1
65845,-100,4,2,1,80,0,1
67251,-80,4,2,1,80,0,1
67720,-100,4,2,1,80,0,1
69126,-80,4,2,1,80,0,1
69595,-100,4,2,1,80,0,1
70532,-80,4,2,1,80,0,1
71001,-100,4,2,1,80,0,1
72876,-80,4,2,1,80,0,1
73345,-100,4,2,1,80,0,1
74751,-80,4,2,1,80,0,1
75220,-100,4,2,1,80,0,1
76626,-80,4,2,1,80,0,1
77095,-100,4,2,1,80,0,1
78032,-200,4,2,1,80,0,1
78970,-100,4,2,1,80,0,1
80376,-133.333333333333,4,2,1,80,0,1
80845,-100,4,2,1,80,0,1
82251,-80,4,2,1,80,0,1
82720,-100,4,2,1,80,0,1
84126,-133.333333333333,4,2,1,80,0,1
84595,-100,4,2,1,80,0,1
85532,-80,4,2,1,80,0,1
86001,-100,4,2,1,80,0,1
87876,-133.333333333333,4,2,1,80,0,1
88345,-100,4,2,1,80,0,1
89751,-80,4,2,1,80,0,1
90220,-100,4,2,1,80,0,1
91626,-133.333333333333,4,2,1,80,0,1
92095,-100,4,2,1,80,0,1
93970,-400,4,2,1,65,0,0
97720,-133.333333333333,4,2,1,65,0,0
112720,-100,4,2,1,65,0,0
113423,-133.333333333333,4,2,1,65,0,0
115532,-200,4,2,1,65,0,0
116001,-133.333333333333,4,2,1,65,0,0
127251,-200,4,2,1,65,0,0
127720,-80,4,2,1,90,0,1
132876,-100,4,2,1,90,0,1
133345,-80,4,2,1,90,0,1
134282,-100,4,2,1,90,0,1
135220,-100,4,2,1,90,0,1
137095,-133.333333333333,4,2,1,90,0,1
138032,-100,4,2,1,90,0,1
140845,-133.333333333333,4,2,1,90,0,1
142720,-80,4,2,1,90,0,1
147876,-100,4,2,1,90,0,1
148345,-80,4,2,1,90,0,1
152095,-106.382978723404,4,2,1,90,0,1
153032,-80,4,2,1,90,0,1
153970,-100,4,2,1,90,0,1
155845,-133.333333333333,4,2,1,90,0,1
156782,-100,4,2,1,90,0,1
157720,-80,4,2,1,30,0,0
164751,-133.333333333333,4,2,1,55,0,0
180220,-250,4,2,1,55,0,0
187720,-125,4,2,1,65,0,0
195220,-80,4,2,1,90,0,1
200376,-100,4,2,1,90,0,1
200845,-80,4,2,1,90,0,1
201782,-100,4,2,1,90,0,1
202720,-100,4,2,1,90,0,1
204595,-133.333333333333,4,2,1,90,0,1
205532,-100,4,2,1,90,0,1
208345,-133.333333333333,4,2,1,90,0,1
210220,-80,4,2,1,90,0,1
215376,-100,4,2,1,90,0,1
215845,-80,4,2,1,90,0,1
219595,-106.382978723404,4,2,1,90,0,1
220532,-80,4,2,1,90,0,1
221470,-100,4,2,1,90,0,1
223345,-133.333333333333,4,2,1,90,0,1
225220,-80,4,2,1,65,0,0
225337,-80,4,2,1,5,0,0

[Colours]
Combo1 : 0,0,206
Combo2 : 0,0,160

[HitObjects]
256,192,1157,12,0,3735,0:0:0:0:
267,36,3970,5,8,0:0:0:0:
256,119,4204,2,0,P|355:90|406:0,1,210.000008010865,0|2,0:0|0:0,0:0:0:0:
473,64,4907,5,10,0:0:0:0:
429,122,5141,1,2,0:0:0:0:
402,190,5376,1,10,0:0:0:0:
398,263,5610,1,2,0:0:0:0:
411,334,5845,6,0,P|467:372|448:275,1,210.000008010865,10|10,0:0|0:0,0:0:0:0:
402,190,6548,1,2,0:0:0:0:
346,310,6782,1,10,0:0:0:0:
285,267,7016,1,2,0:0:0:0:
231,382,7251,2,0,P|262:366|283:337,1,70,10|0,0:0|0:0,0:0:0:0:
163,353,7720,6,0,P|209:261|201:157,3,210.000008010865,10|8|8|8,0:0|0:0|0:0|0:0,0:0:0:0:
91,98,9360,5,0,0:0:0:0:
91,98,9595,1,8,0:0:0:0:
100,170,9829,6,0,P|204:180|286:242,1,210.000008010865
286,242,10532,1,8,0:0:0:0:
247,94,10766,6,0,P|331:154|371:250,1,210.000008010865
371,250,11470,1,8,0:0:0:0:
410,370,11704,6,0,P|435:336|448:274,1,105.000004005432,0|10,0:0|0:0,0:0:0:0:
424,143,12173,1,2,0:0:0:0:
378,282,12407,2,0,P|436:207|512:263,2,210.000008010865,10|10|10,0:0|0:0|0:0,0:0:0:0:
410,370,13579,5,2,0:0:0:0:
303,276,13813,2,0,P|304:223|323:163,1,105.000004005432,10|0,0:0|0:0,0:0:0:0:
186,178,14282,2,0,P|260:107|363:106,1,210.000008010865,10|10,0:0|0:0,0:0:0:0:
424,143,14985,1,0,0:0:0:0:
505,52,15220,6,0,B|421:62|388:-2|295:9,3,210.000008010865,10|8|8|8,0:0|0:0|0:0|0:0,0:0:0:0:
193,60,16860,5,0,0:0:0:0:
193,60,17095,1,8,0:0:0:0:
130,0,17329,6,0,B|130:80|210:111|210:190,1,210.000008010865
209,189,18032,1,8,0:0:0:0:
276,100,18266,6,0,B|276:180|196:211|196:290,1,210.000008010865
126,368,18852,6,0,P|136:372|148:371,2,17.500000667572
112,363,18970,6,8,P|95:294|199:313,1,210.000008010865,0|8,0:0|0:0,0:0:0:0:
264,374,19673,5,2,0:0:0:0:
305,256,19907,1,10,0:0:0:0:
367,294,20141,1,2,0:0:0:0:
417,239,20376,1,10,0:0:0:0:
354,200,20610,1,2,0:0:0:0:
374,362,20845,6,0,P|466:338|490:235,1,210.000008010865,10|10,0:0|0:0,0:0:0:0:
367,294,21548,1,2,0:0:0:0:
305,256,21782,2,0,P|252:255|221:300,1,105,10|0,0:0|0:0,0:0:0:0:
190,209,22251,2,0,P|229:162|220:117,1,105.000004005432,10|0,0:0|0:0,0:0:0:0:
300,99,22602,6,0,B|285:93|274:81,2,17.500000667572
313,102,22720,6,0,B|399:112|406:9|518:36,2,210.000008010865,8|8|10,0:0|0:0|0:0,0:0:0:0:
218,104,23891,1,2,0:0:0:0:
170,47,24126,1,10,0:0:0:0:
97,39,24360,1,2,0:0:0:0:
67,139,24595,6,0,P|145:134|218:104,1,157.500006008148,10|0,0:0|0:0,0:0:0:0:
258,167,25063,1,2,0:0:0:0:
258,167,25298,2,0,P|165:219|49:210,1,210.000008010865,2|0,0:0|0:0,0:0:0:0:
67,139,26001,1,10,0:0:0:0:
129,59,26235,1,2,0:0:0:0:
217,103,26470,5,10,0:0:0:0:
298,90,26704,1,2,0:0:0:0:
364,140,26938,2,0,P|400:199|410:267,2,140,10|8|10,0:0|0:0|0:0,0:0:0:0:
335,234,28110,1,2,0:0:0:0:
430,187,28345,5,10,0:0:0:0:
443,114,28579,1,2,0:0:0:0:
397,50,28813,1,10,0:0:0:0:
325,30,29048,1,2,0:0:0:0:
240,74,29282,6,0,P|210:136|154:176,1,140,2|2,0:0|0:0,0:0:0:0:
84,158,29985,1,2,0:0:0:0:
118,297,30220,5,0,0:0:0:0:
256,192,30337,12,0,32563,0:0:0:0:
228,145,33032,5,2,0:0:0:0:
303,164,33266,1,2,0:0:0:0:
284,239,33500,1,2,0:0:0:0:
209,220,33734,1,2,0:0:0:0:
228,145,33970,6,0,B|140:154|156:81|56:88,1,184.799999436035,2|2,1:0|1:0,0:0:0:0:
7,131,34673,1,2,0:0:0:0:
55,178,34907,2,0,P|100:171|137:144,1,92.3999997180176,2|0,1:0|0:0,0:0:0:0:
179,90,35376,2,0,P|215:62|260:54,1,92.3999997180176,2|0,1:0|0:0,0:0:0:0:
384,85,35845,5,2,1:0:0:0:
390,159,36079,1,2,0:0:0:0:
454,202,36313,2,0,P|428:233|414:310,1,92.3999997180176,2|0,1:0|0:0,0:0:0:0:
335,207,36782,2,0,P|375:251|400:395,1,184.799999436035,2|0,1:0|1:0,0:0:0:0:
412,297,37485,1,0,0:0:0:0:
316,364,37720,5,2,1:0:0:0:
242,355,37954,1,2,0:0:0:0:
204,268,38188,1,2,1:0:0:0:
278,259,38422,1,2,0:0:0:0:
321,177,38657,6,0,P|259:146|212:38,1,184.799999436035,2|2,1:0|1:0,0:0:0:0:
276,5,39360,1,2,0:0:0:0:
421,151,39595,6,0,P|376:177|329:178,1,92.3999997180176,0|0,1:0|0:0,0:0:0:0:
339,47,40063,2,0,P|384:51|423:75,1,92.3999997180176,0|0,1:0|0:0,0:0:0:0:
307,229,40532,5,2,1:0:0:0:
237,252,40766,1,2,0:0:0:0:
194,192,41001,1,2,1:0:0:0:
237,133,41235,1,2,0:0:0:0:
306,156,41470,6,0,P|343:128|357:85,1,92.3999997180176,2|0,1:0|0:0,0:0:0:0:
307,229,41938,2,0,P|350:256|394:253,1,92.3999997180176,2|0,1:0|0:0,0:0:0:0:
237,251,42407,2,0,P|224:295|239:339,1,92.3999997180176,2|0,1:0|0:0,0:0:0:0:
194,192,42876,2,0,P|148:194|111:221,1,92.3999997180176,2|0,1:0|0:0,0:0:0:0:
237,133,43345,2,0,P|221:90|184:63,3,92.3999997180176,2|0|0|0,1:0|0:0|1:0|0:0,0:0:0:0:
194,192,44282,5,2,1:0:0:0:
307,229,44516,1,2,0:0:0:0:
237,133,44751,1,2,1:0:0:0:
237,251,44985,1,2,0:0:0:0:
306,156,45220,6,0,P|343:128|357:85,1,92.3999997180176,2|0,1:0|0:0,0:0:0:0:
237,251,45688,2,0,P|224:295|239:339,1,92.3999997180176,2|0,1:0|0:0,0:0:0:0:
237,133,46157,2,0,P|221:90|184:63,1,92.3999997180176,2|0,1:0|0:0,0:0:0:0:
306,228,46626,2,0,P|344:254|390:254,1,92.3999997180176,2|0,1:0|0:0,0:0:0:0:
194,192,47095,2,0,P|148:194|111:221,3,92.3999997180176,2|0|0|0,1:0|0:0|1:0|0:0,0:0:0:0:
46,335,48032,5,2,1:0:0:0:
27,260,48266,1,2,0:0:0:0:
102,241,48500,1,2,1:0:0:0:
121,316,48735,1,2,0:0:0:0:
206,197,48970,6,0,B|301:194|275:278|367:273,1,184.799999436035,2|2,1:0|1:0,0:0:0:0:
413,221,49673,1,2,0:0:0:0:
378,161,49907,2,0,P|377:115|393:72,1,92.3999997180176,2|0,1:0|0:0,0:0:0:0:
484,91,50376,2,0,P|484:136|468:179,1,92.3999997180176,2|0,1:0|0:0,0:0:0:0:
365,273,50845,5,2,1:0:0:0:
313,224,51079,1,2,0:0:0:0:
259,275,51313,2,0,P|229:313|219:374,1,92.3999997180176,2|0,1:0|0:0,0:0:0:0:
160,186,51782,2,0,P|206:257|214:376,1,184.799999436035,2|0,1:0|1:0,0:0:0:0:
116,378,52485,1,0,0:0:0:0:
27,321,52720,5,2,1:0:0:0:
20,244,52954,1,2,0:0:0:0:
89,207,53188,1,2,1:0:0:0:
96,130,53422,1,2,0:0:0:0:
39,55,53657,6,0,P|90:111|213:102,1,184.799999436035,2|2,1:0|1:0,0:0:0:0:
280,75,54360,2,0,P|170:149|156:199,1,184.799999436035,2|0,0:0|0:0,0:0:0:0:
157,268,55063,2,0,P|184:308|243:328,1,92.3999997180176,0|0,1:0|0:0,0:0:0:0:
323,329,55532,5,2,1:0:0:0:
381,374,55766,1,2,0:0:0:0:
433,324,56001,1,2,1:0:0:0:
484,373,56235,1,2,0:0:0:0:
459,232,56470,6,0,P|430:242|401:266,1,56,2|0,1:0|1:0,0:0:0:0:
405,171,56938,2,0,P|379:188|357:218,1,56,2|0,1:0|1:0,0:0:0:0:
337,126,57407,2,0,P|316:149|303:184,1,56,2|0,1:0|1:0,0:0:0:0:
259,100,57876,2,0,P|245:127|242:165,1,56,2|0,1:0|1:0,0:0:0:0:
273,272,58345,6,0,P|259:244|256:206,1,56,2|0,1:0|1:0,0:0:0:0:
191,276,58813,2,0,P|185:245|191:208,1,56,2|0,1:0|1:0,0:0:0:0:
111,260,59282,2,0,P|113:229|128:195,1,56,2|0,1:0|1:0,0:0:0:0:
38,223,59751,2,0,P|47:193|71:164,1,56,2|0,1:0|1:0,0:0:0:0:
57,85,60220,6,0,L|93:94,1,28,2|0,1:0|1:0,0:0:0:0:
131,19,60454,2,0,L|133:56,1,28,2|0,1:0|1:0,0:0:0:0:
216,68,60688,2,0,L|181:81,1,28,2|0,1:0|1:0,0:0:0:0:
194,164,60923,2,0,L|170:135,1,28,2|0,1:0|1:0,0:0:0:0:
97,175,61157,6,0,L|116:143,1,28,2|0,1:0|1:0,0:0:0:0:
131,19,61391,2,0,L|133:56,1,28,2|0,1:0|1:0,0:0:0:0:
194,164,61626,2,0,L|170:135,1,28,2|0,1:0|1:0,0:0:0:0:
57,85,61860,2,0,L|93:94,1,28,2|0,1:0|1:0,0:0:0:0:
190,78,62095,5,2,1:0:0:0:
256,56,62212,1,0,1:0:0:0:
323,72,62329,1,0,1:0:0:0:
356,133,62446,1,0,1:0:0:0:
340,201,62563,1,2,1:0:0:0:
361,267,62680,1,0,1:0:0:0:
425,295,62798,1,0,1:0:0:0:
490,270,62915,1,0,1:0:0:0:
502,200,63032,6,0,L|500:182,3,17.5,2|0|0|0,0:0|0:0|0:0|0:0,0:0:0:0:
484,171,63501,1,14,0:1:0:0:
256,347,63970,6,0,P|216:214|219:92,1,210,10|0,0:0|0:0,0:0:0:0:
175,335,64438,2,0,P|241:213|339:121,1,210,10|0,0:0|0:0,0:0:0:0:
120,277,64907,2,0,P|253:238|384:239,1,210,10|0,0:0|0:0,0:0:0:0:
411,384,65376,6,0,B|427:252|305:274|323:141,1,262.5,10|0,0:0|0:0,0:0:0:0:
390,39,65845,6,0,P|285:82|188:185,1,210,10|0,0:0|0:0,0:0:0:0:
265,11,66313,2,0,P|219:115|224:267,1,210,10|0,0:0|0:0,0:0:0:0:
157,81,66782,2,0,P|197:187|308:294,1,210,10|0,0:0|0:0,0:0:0:0:
169,290,67251,6,0,P|215:323|324:351,1,87.5,10|0,0:0|0:0,0:0:0:0:
266,345,67485,2,0,P|321:349|430:319,1,87.5,2|0,0:0|0:0,0:0:0:0:
442,298,67720,6,0,P|456:194|427:95,1,210,10|0,0:0|0:0,0:0:0:0:
381,213,68188,2,0,P|331:122|253:53,1,210,10|0,0:0|0:0,0:0:0:0:
295,204,68657,2,0,P|210:142|110:115,1,210,10|0,0:0|0:0,0:0:0:0:
238,257,69126,6,0,B|100:242|143:356|0:333,1,262.5,10|0,0:0|0:0,0:0:0:0:
49,176,69595,6,0,P|135:235|238:257,1,210,10|0,0:0|0:0,0:0:0:0:
33,278,70063,2,0,P|137:285|238:257,1,210,10|0,0:0|0:0,0:0:0:0:
269,356,70532,6,0,P|317:286|326:247,1,87.5,10|0,0:0|0:0,0:0:0:0:
321,268,70766,2,0,P|306:185|283:146,1,87.5,2|0,0:0|0:0,0:0:0:0:
397,200,71001,6,0,P|360:122|333:97,1,70,10|0,0:0|0:0,0:0:0:0:
346,111,71235,2,0,P|266:82|223:81,1,70,2|0,0:0|0:0,0:0:0:0:
393,13,71470,6,0,P|309:5|141:86,1,210,10|0,0:0|0:0,0:0:0:0:
95,12,71938,2,0,P|200:86|255:196,1,210,10|0,0:0|0:0,0:0:0:0:
315,96,72407,2,0,P|241:202|227:324,1,210,10|0,0:0|0:0,0:0:0:0:
447,171,72876,6,0,P|319:191|224:279,1,262.5,10|0,0:0|0:0,0:0:0:0:
377,302,73345,6,0,P|284:267|216:125,1,210,10|0,0:0|0:0,0:0:0:0:
197,341,73813,2,0,P|155:250|174:100,1,210,10|0,0:0|0:0,0:0:0:0:
38,266,74282,2,0,P|56:168|157:55,1,210,10|0,0:0|0:0,0:0:0:0:
18,42,74751,6,0,P|55:19|154:10,1,87.5,10|0,0:0|0:0,0:0:0:0:
116,5,74985,2,0,P|156:7|205:25,1,87.5,2|0,0:0|0:0,0:0:0:0:
262,74,75220,6,0,P|260:204|215:322,1,210,10|0,0:0|0:0,0:0:0:0:
338,99,75688,2,0,P|286:219|199:311,1,210,10|0,0:0|0:0,0:0:0:0:
402,156,76157,2,0,P|305:244|188:293,1,210,10|0,0:0|0:0,0:0:0:0:
486,222,76626,6,0,P|365:273|235:278,1,262.5,10|0,0:0|0:0,0:0:0:0:
127,10,77095,6,0,P|232:86|363:125,1,210,10|0,0:0|0:0,0:0:0:0:
309,23,77563,2,0,P|216:70|114:91,1,210,10|0,0:0|0:0,0:0:0:0:
165,156,78032,6,0,P|139:180|109:198,1,70,14|2,0:1|0:0,0:0:0:0:
238,171,78501,2,0,P|250:203|269:232,1,70,14|2,0:1|0:0,0:0:0:0:
71,280,78970,6,0,P|175:273|273:330,1,210,10|0,0:0|0:0,0:0:0:0:
149,351,79438,2,0,P|251:330|331:250,1,210,10|0,0:0|0:0,0:0:0:0:
223,204,79907,2,0,P|316:249|372:348,1,210,10|0,0:0|0:0,0:0:0:0:
512,372,80376,6,0,P|467:322|448:386,1,157.500006008148,10|0,0:0|0:0,0:0:0:0:
417,250,80845,6,0,P|383:131|281:96,1,210,10|0,0:0|0:0,0:0:0:0:
307,218,81313,2,0,P|427:248|508:177,1,210,10|0,0:0|0:0,0:0:0:0:
390,139,81782,2,0,P|303:227|324:333,1,210,10|0,0:0|0:0,0:0:0:0:
289,384,82251,6,0,P|231:358|176:294,1,87.5,10|0,0:0|0:0,0:0:0:0:
198,324,82485,2,0,P|176:283|169:235,1,87.5,2|0,0:0|0:0,0:0:0:0:
80,246,82720,6,0,P|208:225|270:165,1,210,10|0,0:0|0:0,0:0:0:0:
211,42,83188,6,0,P|165:163|186:247,1,210,10|0,0:0|0:0,0:0:0:0:
322,258,83657,6,0,P|239:157|156:133,1,210,10|0,0:0|0:0,0:0:0:0:
22,202,84126,6,0,P|57:252|90:180,1,157.500006008148,10|0,0:0|0:0,0:0:0:0:
108,70,84595,6,0,P|236:50|355:93,1,210,10|0,0:0|0:0,0:0:0:0:
348,0,85063,2,0,P|429:101|451:225,1,210,10|0,0:0|0:0,0:0:0:0:
492,248,85532,6,0,P|452:299|391:342,1,87.5,10|0,0:0|0:0,0:0:0:0:
405,243,85766,2,0,P|340:251|264:236,1,87.5,2|0,0:0|0:0,0:0:0:0:
381,367,86001,6,0,P|315:358|252:329,1,70,10|0,0:0|0:0,0:0:0:0:
265,303,86235,2,0,P|225:251|201:185,1,70,2|0,0:0|0:0,0:0:0:0:
153,324,86470,6,0,P|146:179|183:73,1,210,10|0,0:0|0:0,0:0:0:0:
66,222,86938,2,0,P|163:115|264:66,1,210,10|0,0:0|0:0,0:0:0:0:
78,91,87407,2,0,P|222:84|328:121,1,210,10|0,0:0|0:0,0:0:0:0:
427,41,87876,6,0,P|361:21|359:90,1,157.500006008148,10|0,0:0|0:0,0:0:0:0:
432,130,88345,6,0,P|369:241|349:379,1,210,10|0,0:0|0:0,0:0:0:0:
281,147,88813,2,0,P|271:274|312:410,1,210,10|0,0:0|0:0,0:0:0:0:
157,187,89282,2,0,P|180:312|260:436,1,210,10|0,0:0|0:0,0:0:0:0:
64,198,89751,6,0,P|81:150|122:107,1,87.5,10|0,0:0|0:0,0:0:0:0:
121,110,89985,2,0,P|171:100|228:114,1,87.5,2|0,0:0|0:0,0:0:0:0:
208,16,90220,6,0,P|318:73|392:194,1,210,10|0,0:0|0:0,0:0:0:0:
437,70,90688,2,0,P|445:173|410:272,1,210,10|0,0:0|0:0,0:0:0:0:
490,304,91157,2,0,P|404:363|301:382,1,210,10|0,0:0|0:0,0:0:0:0:
163,327,91626,6,0,P|191:385|232:330,1,157.500006008148,10|0,0:0|0:0,0:0:0:0:
164,207,92095,6,0,P|106:204|101:351,1,210,10|0,0:0|0:0,0:0:0:0:
233,220,92563,2,0,P|264:171|139:93,1,210,10|0,0:0|0:0,0:0:0:0:
187,274,93032,6,0,P|213:325|284:332,1,70,10|0,0:0|0:0,0:0:0:0:
288,343,93266,2,0,P|339:316|346:246,1,70,2|0,0:0|0:0,0:0:0:0:
417,186,93501,6,0,P|385:234|314:233,1,70,10|0,0:0|0:0,0:0:0:0:
309,244,93735,2,0,P|260:212|261:141,1,70,2|0,0:0|0:0,0:0:0:0:
248,99,93970,6,0,L|264:31,7,70,2|0|0|0|0|0|0|0,0:0|0:0|0:0|0:0|0:0|0:0|0:0|0:0,0:0:0:0:
264,30,97720,5,8,0:0:0:0:
325,106,97954,2,0,P|351:89|373:52,1,52.5000020027161
372,55,98188,5,10,0:0:0:0:
327,0,98423,1,2,0:0:0:0:
313,112,98657,2,0,P|326:162|355:205,1,105.000004005432,10|2,0:0|0:0,0:0:0:0:
369,220,99009,1,0,0:0:0:0:
369,220,99126,1,10,0:0:0:0:
420,161,99360,1,2,0:0:0:0:
479,220,99595,6,0,P|472:298|442:370,1,157.500006008148,10|0,0:0|0:0,0:0:0:0:
431,384,100063,1,10,0:0:0:0:
342,333,100298,2,0,P|367:327|390:314,1,52.5000020027161,2|0,0:0|0:0,0:0:0:0:
409,244,100532,6,0,P|357:238|313:210,1,105.000004005432,10|2,0:0|0:0,0:0:0:0:
259,277,100884,1,0,0:0:0:0:
259,277,101001,2,0,P|232:208|237:147,1,105.000004005432,10|0,0:0|0:0,0:0:0:0:
252,102,101352,1,0,0:0:0:0:
252,102,101470,6,0,B|174:94|187:145|110:137|110:137|86:115|46:120,3,210.000008010865,10|8|8|8,0:0|0:0|0:0|0:0,0:0:0:0:
134,18,103110,2,0,P|135:43|130:69,1,52.5000020027161
65,42,103345,5,8,0:0:0:0:
11,182,103579,2,0,B|114:173|87:265|203:255,1,210.000008010865
249,212,104165,1,0,0:0:0:0:
249,212,104282,6,0,P|239:188|214:161,1,52.5000020027161,8|0,0:0|0:0,0:0:0:0:
259,281,104516,2,0,B|362:290|335:198|451:208,1,210.000008010865
487,154,105102,1,0,0:0:0:0:
487,154,105220,6,0,P|503:175|514:210,1,52.5000020027161,8|0,0:0|0:0,0:0:0:0:
467,290,105454,2,0,P|417:280|318:139,1,210.000008010865
268,28,106157,6,0,P|257:52|241:72,1,52.5000020027161,10|0,0:0|0:0,0:0:0:0:
231,83,106391,1,2,0:0:0:0:
132,57,106626,6,0,P|176:56|236:87,1,105.000004005432,10|2,0:0|0:0,0:0:0:0:
235,160,106977,1,0,0:0:0:0:
235,160,107095,2,0,P|188:193|134:200,1,105.000004005432,10|0,0:0|0:0,0:0:0:0:
90,158,107446,1,0,0:0:0:0:
90,158,107563,2,0,P|81:130|94:93,1,52.5000020027161,10|0,0:0|0:0,0:0:0:0:
96,91,107798,1,2,0:0:0:0:
12,151,108032,5,10,0:0:0:0:
78,229,108266,2,0,L|82:299,1,52.5000020027161,2|0,0:0|0:0,0:0:0:0:
99,348,108501,2,0,P|56:304|3:302,1,105.000004005432,10|0,0:0|0:0,0:0:0:0:
106,363,108852,1,0,0:0:0:0:
106,363,108970,6,0,B|161:331|208:381|247:342|247:342|227:313|232:270,3,210.000008010865,10|8|8|8,0:0|0:0|0:0|0:0,0:0:0:0:
258,338,110610,2,0,P|284:336|308:345,1,52.5000020027161
324,355,110845,5,8,0:0:0:0:
228,268,111079,2,0,B|326:273|306:174|442:198,1,210.000008010865
486,186,111665,1,0,0:0:0:0:
486,186,111782,6,0,P|457:194|422:196,1,52.5000020027161,8|0,0:0|0:0,0:0:0:0:
418,123,112016,2,0,B|320:128|340:29|204:53,1,210.000008010865
131,117,112602,6,0,P|132:142|134:149,2,17.500000667572
133,104,112720,6,0,P|202:55|210:189,1,280,8|8,0:0|0:0,0:0:0:0:
126,213,113423,6,0,P|150:223|168:241,1,52.5000020027161,2|0,0:0|0:0,0:0:0:0:
177,256,113657,1,10,0:0:0:0:
154,346,113891,1,2,0:0:0:0:
247,258,114126,2,0,P|298:251|346:221,1,105.000004005432,10|2,0:0|0:0,0:0:0:0:
387,158,114477,1,0,0:0:0:0:
387,158,114595,6,0,P|359:228|358:314,1,157.500006008148,10|0,0:0|0:0,0:0:0:0:
361,326,115063,1,10,0:0:0:0:
459,370,115298,1,2,0:0:0:0:
469,256,115532,6,0,P|453:222|452:179,1,70,10|0,0:0|0:0,0:0:0:0:
422,84,115884,1,0,0:0:0:0:
422,84,116001,2,0,P|405:128|344:162,1,105.000004005432,10|0,0:0|0:0,0:0:0:0:
264,160,116352,6,0,P|277:161|293:170,2,17.500000667572
248,163,116470,6,0,B|156:181|168:263|79:282,2,210.000008010865,8|8|10,0:0|0:0|0:0,0:0:0:0:
305,217,117641,2,0,P|301:242|290:266,1,52.5000020027161,2|0,0:0|0:0,0:0:0:0:
280,283,117876,1,10,0:0:0:0:
317,354,118110,2,0,P|291:361|229:352,1,52.5000020027161,2|0,0:0|0:0,0:0:0:0:
185,305,118345,6,0,P|174:363|95:323,1,157.500006008148,10|0,0:0|0:0,0:0:0:0:
94,328,118813,1,10,0:0:0:0:
28,241,119048,2,0,P|59:321|109:250,1,210.000008010865,2|0,0:0|0:0,0:0:0:0:
76,180,119751,1,10,0:0:0:0:
130,125,119985,1,2,0:0:0:0:
182,267,120220,6,0,P|207:260|230:246,1,52.5000020027161,10|0,0:0|0:0,0:0:0:0:
241,236,120454,1,2,0:0:0:0:
242,341,120688,2,0,P|279:313|313:227,1,105.000004005432,10|0,0:0|0:0,0:0:0:0:
310,247,121040,1,0,0:0:0:0:
311,229,121157,5,8,0:0:0:0:
266,171,121391,1,0,0:0:0:0:
379,272,121626,2,0,P|380:298|376:324,1,52.5000020027161,10|0,0:0|0:0,0:0:0:0:
442,243,121860,2,0,P|456:265|465:290,1,52.5000020027161,2|0,0:0|0:0,0:0:0:0:
493,194,122095,5,10,0:0:0:0:
454,113,122329,2,0,P|439:135|431:159,1,52.5000020027161,2|0,0:0|0:0,0:0:0:0:
379,207,122563,2,0,P|338:167|312:83,1,105.000004005432,10|2,0:0|0:0,0:0:0:0:
328,60,122915,1,0,0:0:0:0:
328,60,123032,6,0,P|308:112|221:65,1,157.500006008148,10|0,0:0|0:0,0:0:0:0:
222,76,123501,1,10,0:0:0:0:
262,6,123735,1,2,0:0:0:0:
328,60,123970,5,0,1:0:0:0:
358,242,124438,1,0,1:0:0:0:
176,272,124907,1,0,1:0:0:0:
146,90,125376,1,0,1:0:0:0:
304,93,125845,5,0,1:0:0:0:
324,218,126079,1,0,1:0:0:0:
199,238,126313,1,0,1:0:0:0:
179,113,126548,1,0,1:0:0:0:
304,93,126782,5,2,1:0:0:0:
304,93,127016,1,2,1:0:0:0:
199,238,127251,6,0,P|188:284|196:338,1,70,14|2,0:1|0:0,0:0:0:0:
112,315,127720,6,0,B|96:225|24:157|24:157|58:191|119:192,1,262.5,10|0,0:0|0:0,0:0:0:0:
161,175,128188,2,0,P|182:143|196:84,1,87.5,10|0,0:0|0:0,0:0:0:0:
193,28,128423,1,2,0:0:0:0:
199,238,128657,6,0,B|284:265|281:186|374:238,1,175,10|0,0:0|0:0,0:0:0:0:
413,310,129009,1,0,0:0:0:0:
413,310,129126,2,0,P|314:290|271:216,1,175,10|0,0:0|0:0,0:0:0:0:
210,361,129595,6,0,P|247:341|270:235,1,87.5,10|0,0:0|0:0,0:0:0:0:
274,232,129829,1,2,0:0:0:0:
140,354,130063,6,0,P|108:325|67:194,1,175,10|0,0:0|0:0,0:0:0:0:
27,341,130415,1,0,0:0:0:0:
27,341,130532,2,0,P|95:297|160:97,1,262.5,10|0,0:0|0:0,0:0:0:0:
163,134,131001,6,0,P|128:176|64:184,1,87.5,10|0,0:0|0:0,0:0:0:0:
91,114,131235,2,0,P|38:105|-1:54,1,87.5,2|0,0:0|0:0,0:0:0:0:
99,0,131470,6,0,P|149:68|216:0,1,175,10|2,0:0|0:0,0:0:0:0:
284,0,131821,1,0,0:0:0:0:
284,0,131938,2,0,P|306:37|298:100,1,87.5,10|0,0:0|0:0,0:0:0:0:
379,98,132173,2,0,P|358:136|299:160,1,87.5,2|0,0:0|0:0,0:0:0:0:
372,221,132407,6,0,B|283:279|210:155|107:219,1,262.5,10|0,0:0|0:0,0:0:0:0:
66,278,132876,2,0,P|93:258|109:226,1,70,10|0,0:0|0:0,0:0:0:0:
83,140,133110,2,0,P|86:174|106:203,1,70,2|0,0:0|0:0,0:0:0:0:
181,236,133345,6,0,B|261:246|301:199|301:199|264:254|292:330,1,262.5,10|0,0:0|0:0,0:0:0:0:
362,355,133813,2,0,P|385:271|375:184,1,175,10|0,0:0|0:0,0:0:0:0:
271,189,134282,6,0,P|241:206|205:209,1,70,10|0,0:0|0:0,0:0:0:0:
140,122,134516,2,0,P|154:91|180:68,1,70,2|0,0:0|0:0,0:0:0:0:
286,98,134751,2,0,P|292:132|285:166,1,70,10|0,0:0|0:0,0:0:0:0:
181,203,134985,2,0,P|156:180|142:148,1,70,2|0,0:0|0:0,0:0:0:0:
204,56,135220,6,0,B|279:35|302:131|411:72,1,210,10|0,0:0|0:0,0:0:0:0:
393,10,135688,2,0,B|436:74|351:126|441:211,1,210,10|0,0:0|0:0,0:0:0:0:
495,175,136157,2,0,B|446:236|371:171|318:283,1,210,10|0,0:0|0:0,0:0:0:0:
369,323,136626,2,0,B|295:295|333:204|210:188,1,210,10|0,0:0|0:0,0:0:0:0:
189,249,137095,2,0,B|192:171|290:178|268:57,1,210,10|10,0:0|0:0,0:0:0:0:
218,187,138032,6,0,P|198:215|189:249,1,70,10|0,0:0|0:0,0:0:0:0:
401,278,138266,2,0,P|401:243|389:210,1,70,2|0,0:0|0:0,0:0:0:0:
197,317,138501,2,0,P|217:345|246:364,1,70,10|0,0:0|0:0,0:0:0:0:
338,164,138735,2,0,P|305:153|270:155,1,70,2|0,0:0|0:0,0:0:0:0:
313,372,138970,6,0,B|407:387|419:311|513:326,1,210,10|0,0:0|0:0,0:0:0:0:
512,326,139438,2,0,B|496:232|421:243|406:149,1,210,10|0,0:0|0:0,0:0:0:0:
406,150,139907,2,0,B|320:193|354:261|270:304,1,210,10|0,0:0|0:0,0:0:0:0:
271,304,140376,2,0,B|338:370|392:317|460:385,1,210,10|0,0:0|0:0,0:0:0:0:
458,385,140845,2,0,B|501:299|434:265|477:180,1,210,10|10,0:0|0:0,0:0:0:0:
444,59,141782,5,6,0:1:0:0:
322,91,142016,1,2,0:0:0:0:
355,213,142251,1,6,0:1:0:0:
477,181,142485,1,2,0:0:0:0:
322,91,142720,6,0,B|239:87|150:159|150:159|199:138|248:157,1,262.5,10|0,0:0|0:0,0:0:0:0:
273,258,143188,2,0,P|237:232|195:221,1,87.5,10|0,0:0|0:0,0:0:0:0:
127,224,143423,1,2,0:0:0:0:
55,115,143657,6,0,P|23:173|84:146,1,175,10|0,0:0|0:0,0:0:0:0:
131,97,144009,1,0,0:0:0:0:
131,97,144126,2,0,P|162:38|102:66,1,175,10|0,0:0|0:0,0:0:0:0:
82,297,144595,6,0,P|124:286|167:289,1,87.5,10|0,0:0|0:0,0:0:0:0:
235,312,144829,1,2,0:0:0:0:
168,201,145063,2,0,P|250:225|310:288,1,175,10|0,0:0|0:0,0:0:0:0:
346,361,145415,1,0,0:0:0:0:
346,361,145532,2,0,P|307:191|349:106,1,262.5,10|0,0:0|0:0,0:0:0:0:
430,150,146001,6,0,P|421:192|399:230,1,87.5,10|0,0:0|0:0,0:0:0:0:
386,244,146235,2,0,P|349:268|307:279,1,87.5,2|0,0:0|0:0,0:0:0:0:
239,354,146470,6,0,B|227:270|169:296|158:203,1,175,10|2,0:0|0:0,0:0:0:0:
203,130,146821,1,0,0:0:0:0:
203,130,146938,2,0,P|229:165|233:216,1,87.5,10|0,0:0|0:0,0:0:0:0:
91,231,147173,2,0,P|83:188|103:140,1,87.5,2|0,0:0|0:0,0:0:0:0:
143,49,147407,6,0,B|267:30|284:118|397:103,1,262.5,10|0,0:0|0:0,0:0:0:0:
394,19,147876,2,0,P|352:17|311:32,1,70,10|0,0:0|0:0,0:0:0:0:
343,146,148110,2,0,P|385:134|412:111,1,70,2|0,0:0|0:0,0:0:0:0:
305,14,148345,6,0,B|204:65|294:194|197:240,1,262.5,10|0,0:0|0:0,0:0:0:0:
172,107,148813,2,0,P|255:131|324:209,1,175,10|0,0:0|0:0,0:0:0:0:
267,279,149282,6,0,P|256:325|217:379,1,87.5,10|0,0:0|0:0,0:0:0:0:
172,329,149516,2,0,P|125:334|62:313,1,87.5,2|0,0:0|0:0,0:0:0:0:
95,254,149751,2,0,P|75:210|76:144,1,87.5,10|0,0:0|0:0,0:0:0:0:
140,156,149985,2,0,P|174:123|237:102,1,87.5,2|0,0:0|0:0,0:0:0:0:
246,170,150220,6,0,B|350:200|332:344|430:356,1,262.5,10|0,0:0|0:0,0:0:0:0:
460,279,150688,2,0,B|358:315|288:188|201:236,1,262.5,10|0,0:0|0:0,0:0:0:0:
222,316,151157,2,0,B|282:226|414:287|455:198,1,263.199995983887,10|0,0:0|0:0,0:0:0:0:
394,145,151626,2,0,B|397:253|255:280|273:377,1,263.199995983887,10|0,0:0|0:0,0:0:0:0:
354,384,152095,2,0,B|287:298|386:192|314:125,1,263.199995983887,10|10,0:0|0:0,0:0:0:0:
167,1,153032,6,0,P|127:19|94:47,1,87.5,10|0,0:0|0:0,0:0:0:0:
212,233,153266,2,0,P|233:196|243:152,1,87.5,2|0,0:0|0:0,0:0:0:0:
30,70,153501,2,0,P|35:114|52:153,1,87.5,10|0,0:0|0:0,0:0:0:0:
288,101,153735,2,0,P|258:69|216:47,1,87.5,2|0,0:0|0:0,0:0:0:0:
65,224,153970,6,0,B|77:310|201:255|223:338,1,210,10|0,0:0|0:0,0:0:0:0:
329,148,154438,2,0,B|268:85|200:202|134:148,1,210,10|0,0:0|0:0,0:0:0:0:
159,362,154907,2,0,B|244:377|230:242|316:246,1,210,10|0,0:0|0:0,0:0:0:0:
170,90,155376,2,0,B|91:127|182:228|110:275,1,210,10|0,0:0|0:0,0:0:0:0:
322,317,155845,2,0,B|362:240|230:211|261:131,1,210,10|10,0:0|0:0,0:0:0:0:
461,60,156782,6,0,P|481:88|494:120,1,70,10|0,0:0|0:0,0:0:0:0:
397,83,157016,2,0,P|397:117|389:151,1,70,2|0,0:0|0:0,0:0:0:0:
331,65,157251,2,0,P|311:93|285:117,1,70,10|0,0:0|0:0,0:0:0:0:
280,15,157485,2,0,P|247:27|212:31,1,70,2|0,0:0|0:0,0:0:0:0:
256,192,157720,12,0,159595,0:0:0:0:
256,192,159712,12,0,161470,0:0:0:0:
256,192,161587,12,0,163345,0:0:0:0:
256,192,163462,12,0,164634,0:0:0:0:
470,40,164751,5,2,0:0:0:0:
470,40,164985,1,2,0:0:0:0:
401,81,165220,2,0,P|423:149|474:194,1,105.000004005432,10|0,0:0|0:0,0:0:0:0:
343,162,165688,5,10,0:0:0:0:
343,162,165922,1,2,0:0:0:0:
369,237,166157,2,0,P|432:269|500:265,1,105.000004005432,10|0,0:0|0:0,0:0:0:0:
402,353,166626,5,10,0:0:0:0:
333,374,166860,1,2,0:0:0:0:
263,276,167095,2,0,P|262:346|184:291,1,210.000008010865,10|10,0:0|0:0,0:0:0:0:
212,231,167798,1,2,0:0:0:0:
34,30,168501,5,10,0:0:0:0:
34,30,168735,1,2,0:0:0:0:
14,104,168970,2,0,P|47:144|91:171,1,105.000004005432,10|0,0:0|0:0,0:0:0:0:
187,132,169438,5,10,0:0:0:0:
187,132,169672,1,2,0:0:0:0:
138,234,169907,2,0,P|190:238|240:226,1,105.000004005432,10|0,0:0|0:0,0:0:0:0:
313,153,170376,5,10,0:0:0:0:
300,74,170610,1,2,0:0:0:0:
389,16,170845,2,0,P|453:47|505:183,1,210.000008010865,10|10,0:0|0:0,0:0:0:0:
499,243,171548,1,2,0:0:0:0:
277,313,172251,5,10,0:0:0:0:
236,251,172485,1,2,0:0:0:0:
215,365,172720,2,0,P|168:289|48:318,1,210.000008010865,10|10,0:0|0:0,0:0:0:0:
60,303,173423,1,2,0:0:0:0:
190,200,173657,2,0,P|100:202|65:321,1,210.000008010865,10|10,0:0|0:0,0:0:0:0:
59,303,174360,1,2,0:0:0:0:
81,103,174595,2,0,P|44:200|59:303,1,210.000008010865,10|10,0:0|0:0,0:0:0:0:
103,373,175298,1,2,0:0:0:0:
392,338,176001,5,10,0:0:0:0:
407,265,176235,1,2,0:0:0:0:
378,145,176470,2,0,P|295:162|192:238,1,210.000008010865,10|2,0:0|0:0,0:0:0:0:
194,234,177173,1,2,0:0:0:0:
282,274,177407,2,0,P|267:170|295:70,1,210.000008010865,10|10,0:0|0:0,0:0:0:0:
295,70,178110,1,2,0:0:0:0:
189,135,178345,6,0,P|279:160|366:274,1,210.000008010865,10|10,0:0|0:0,0:0:0:0:
378,315,179048,1,2,0:0:0:0:
451,311,180220,6,0,L|475:374,1,56,2|0,1:0|1:0,0:0:0:0:
378,315,180688,2,0,L|385:383,1,56,2|0,1:0|1:0,0:0:0:0:
307,301,181157,2,0,L|296:368,1,56,2|0,1:0|1:0,0:0:0:0:
242,269,181626,2,0,L|214:331,1,56,2|0,1:0|1:0,0:0:0:0:
188,222,182095,2,0,L|144:275,1,56,2|0,1:0|1:0,0:0:0:0:
146,160,182563,2,0,L|90:200,1,56,2|0,1:0|1:0,0:0:0:0:
123,92,183032,2,0,L|59:116,1,56,2|0,1:0|1:0,0:0:0:0:
118,20,183501,2,0,L|50:27,1,56,2|0,1:0|1:0,0:0:0:0:
394,20,183970,6,0,L|449:25,1,56,2|0,1:0|1:0,0:0:0:0:
389,92,184439,2,0,L|441:111,1,56,2|0,1:0|1:0,0:0:0:0:
366,160,184908,2,0,L|411:192,1,56,2|0,1:0|1:0,0:0:0:0:
324,222,185376,2,0,L|359:265,1,56,2|0,1:0|1:0,0:0:0:0:
270,269,185845,2,0,L|292:320,1,56,2|0,1:0|1:0,0:0:0:0:
205,301,186314,2,0,L|213:356,1,56,2|0,1:0|1:0,0:0:0:0:
134,315,186783,2,0,L|128:370,1,56,2|0,1:0|1:0,0:0:0:0:
61,311,187251,2,0,L|41:363,1,56,2|0,1:0|1:0,0:0:0:0:
41,363,187720,6,0,L|61:311,1,56,2|0,1:0|1:0,0:0:0:0:
128,370,187954,2,0,L|134:315,1,56,2|0,1:0|1:0,0:0:0:0:
213,356,188188,2,0,L|205:301,1,56,2|0,1:0|1:0,0:0:0:0:
292,320,188423,2,0,L|270:269,1,56,2|0,1:0|1:0,0:0:0:0:
359,265,188657,2,0,L|324:222,1,56,2|0,1:0|1:0,0:0:0:0:
411,192,188891,2,0,L|366:160,1,56,2|0,1:0|1:0,0:0:0:0:
441,111,189126,2,0,L|389:92,1,56,2|0,1:0|1:0,0:0:0:0:
449,25,189360,2,0,L|394:20,1,56,2|0,1:0|1:0,0:0:0:0:
62,25,189595,6,0,L|118:20,1,56,2|0,1:0|1:0,0:0:0:0:
70,111,189829,2,0,L|123:92,1,56,2|0,1:0|1:0,0:0:0:0:
100,192,190064,2,0,L|146:160,1,56,2|0,1:0|1:0,0:0:0:0:
152,265,190298,2,0,L|188:222,1,56,2|0,1:0|1:0,0:0:0:0:
219,320,190532,2,0,L|242:269,1,56,2|0,1:0|1:0,0:0:0:0:
298,356,190767,2,0,L|307:301,1,56,2|0,1:0|1:0,0:0:0:0:
383,370,191001,2,0,L|378:315,1,56,2|0,1:0|1:0,0:0:0:0:
470,363,191235,2,0,L|451:311,1,56,2|0,1:0|1:0,0:0:0:0:
476,209,191470,5,2,1:0:0:0:
441,191,191587,1,0,1:0:0:0:
401,189,191704,1,2,1:0:0:0:
364,203,191821,1,0,1:0:0:0:
341,235,191938,1,2,1:0:0:0:
307,255,192055,1,0,1:0:0:0:
267,258,192173,1,2,1:0:0:0:
232,239,192290,1,0,1:0:0:0:
221,201,192407,5,2,1:0:0:0:
265,150,192524,1,0,1:0:0:0:
332,151,192641,1,2,1:0:0:0:
381,197,192759,1,0,1:0:0:0:
447,206,192876,1,2,1:0:0:0:
503,169,192993,1,0,1:0:0:0:
512,102,193110,1,2,1:0:0:0:
491,38,193227,1,0,1:0:0:0:
424,30,193345,6,0,L|392:36,7,28
371,78,193813,2,0,L|381:47,7,28
356,6,194282,2,0,L|377:30,7,28,2|0|0|0|2|0|0|0,0:0|0:0|0:0|0:0|0:0|0:0|0:0|0:0,0:0:0:0:
360,155,194751,5,14,0:1:0:0:
360,155,194985,1,2,0:0:0:0:
499,177,195220,6,0,B|359:171|413:288|269:277,1,262.5,10|0,0:0|0:0,0:0:0:0:
229,179,195688,2,0,P|275:183|323:222,1,87.5,10|0,0:0|0:0,0:0:0:0:
238,342,195923,2,0,P|200:315|178:257,1,87.5,2|0,0:0|0:0,0:0:0:0:
313,118,196157,2,0,P|350:144|411:352,1,262.5,10|0,0:0|0:0,0:0:0:0:
317,319,196626,2,0,P|375:203|491:147,1,262.5,10|0,0:0|0:0,0:0:0:0:
450,85,197095,6,0,P|406:83|365:67,1,87.5,10|0,0:0|0:0,0:0:0:0:
313,118,197329,2,0,P|289:81|277:39,1,87.5,2|0,0:0|0:0,0:0:0:0:
209,0,197563,6,0,P|195:85|151:161,1,175,10|0,0:0|0:0,0:0:0:0:
186,225,197915,1,0,0:0:0:0:
186,225,198032,2,0,P|267:194|354:194,1,175,10|0,0:0|0:0,0:0:0:0:
415,239,198384,1,0,0:0:0:0:
415,239,198501,6,0,P|450:288|465:333,1,87.5,10|0,0:0|0:0,0:0:0:0:
418,375,198735,2,0,P|368:338|323:324,1,87.5,2|0,0:0|0:0,0:0:0:0:
275,357,198970,6,0,P|195:379|140:317,1,175,10|2,0:0|0:0,0:0:0:0:
112,253,199321,1,0,0:0:0:0:
45,269,199438,2,0,P|32:229|37:183,1,87.5,10|0,0:0|0:0,0:0:0:0:
100,160,199673,2,0,P|135:185|177:194,1,87.5,2|0,0:0|0:0,0:0:0:0:
269,101,199907,6,0,B|143:52|116:169|13:97,1,262.5,10|0,0:0|0:0,0:0:0:0:
95,21,200376,2,0,P|121:49|145:130,1,70,10|0,0:0|0:0,0:0:0:0:
177,194,200610,1,2,0:0:0:0:
284,107,200845,6,0,B|374:123|454:80|454:80|406:105|355:84,1,262.5,10|0,0:0|0:0,0:0:0:0:
391,13,201313,2,0,P|441:35|489:142,1,175,10|0,0:0|0:0,0:0:0:0:
409,204,201782,6,0,P|391:175|381:141,1,70,10|0,0:0|0:0,0:0:0:0:
510,209,202016,2,0,P|490:238|465:261,1,70,2|0,0:0|0:0,0:0:0:0:
322,229,202251,2,0,P|312:196|310:161,1,70,10|0,0:0|0:0,0:0:0:0:
497,326,202485,2,0,P|465:341|431:349,1,70,2|0,0:0|0:0,0:0:0:0:
267,365,202720,6,0,P|230:241|237:159,1,210,10|0,0:0|0:0,0:0:0:0:
337,265,203188,2,0,P|207:261|132:229,1,210,10|0,0:0|0:0,0:0:0:0:
263,167,203657,2,0,P|220:289|166:350,1,210,10|0,0:0|0:0,0:0:0:0:
147,206,204126,2,0,P|249:284|291:354,1,210,10|0,0:0|0:0,0:0:0:0:
149,329,204595,2,0,P|255:255|335:237,1,210,10|8,0:0|0:0,0:0:0:0:
487,237,205532,6,0,P|442:264|387:269,1,70,10|0,0:0|0:0,0:0:0:0:
327,289,205766,2,0,P|284:260|254:209,1,70,2|0,0:0|0:0,0:0:0:0:
478,359,206001,2,0,P|428:347|382:309,1,70,10|0,0:0|0:0,0:0:0:0:
368,234,206235,2,0,P|359:183|373:125,1,70,2|0,0:0|0:0,0:0:0:0:
279,105,206470,6,0,P|205:211|187:291,1,210,10|0,0:0|0:0,0:0:0:0:
386,309,206938,2,0,P|388:205|352:107,1,210,10|0,0:0|0:0,0:0:0:0:
245,334,207407,2,0,P|344:303|427:239,1,210,10|0,0:0|0:0,0:0:0:0:
178,207,207876,2,0,P|237:292|324:350,1,210,10|0,0:0|0:0,0:0:0:0:
406,167,208345,2,0,P|308:133|204:137,1,210,10|10,0:0|0:0,0:0:0:0:
22,140,209282,5,14,0:1:0:0:
55,18,209516,1,2,0:0:0:0:
177,50,209751,1,14,0:1:0:0:
144,172,209985,1,2,0:0:0:0:
283,55,210220,6,0,B|357:5|452:11|452:11|400:13|360:52,1,262.5,10|0,0:0|0:0,0:0:0:0:
359,106,210688,2,0,P|386:140|423:162,1,87.5,10|0,0:0|0:0,0:0:0:0:
486,141,210923,2,0,P|501:100|502:57,1,87.5,2|0,0:0|0:0,0:0:0:0:
292,123,211157,2,0,P|284:192|329:335,1,175,10|0,0:0|0:0,0:0:0:0:
447,309,211509,1,0,0:0:0:0:
447,309,211626,2,0,P|450:244|374:272,1,175,10|0,0:0|0:0,0:0:0:0:
266,351,212095,6,0,P|225:335|194:304,1,87.5,10|0,0:0|0:0,0:0:0:0:
139,384,212329,2,0,P|122:344|117:301,1,87.5,2|0,0:0|0:0,0:0:0:0:
157,243,212563,6,0,P|200:193|228:60,1,175,10|0,0:0|0:0,0:0:0:0:
135,62,212915,1,0,0:0:0:0:
135,62,213032,2,0,P|210:190|362:240,1,262.5,10|0,0:0|0:0,0:0:0:0:
379,233,213501,6,0,P|418:212|459:146,1,87.5,10|0,0:0|0:0,0:0:0:0:
312,76,213735,2,0,P|298:119|316:194,1,87.5,2|0,0:0|0:0,0:0:0:0:
406,330,213970,6,0,B|397:245|471:250|464:164,1,175,10|2,0:0|0:0,0:0:0:0:
399,127,214321,1,0,0:0:0:0:
400,127,214438,2,0,P|385:86|387:42,1,87.5,10|0,0:0|0:0,0:0:0:0:
312,76,214673,2,0,P|298:119|316:194,1,87.5,2|0,0:0|0:0,0:0:0:0:
261,20,214907,6,0,B|174:13|156:74|131:150|33:120,1,262.5,10|0,0:0|0:0,0:0:0:0:
76,27,215376,2,0,P|102:50|115:83,1,70,10|0,0:0|0:0,0:0:0:0:
122,153,215611,2,0,P|138:183|165:204,1,70,2|0,0:0|0:0,0:0:0:0:
272,255,215845,6,0,P|157:236|183:344,1,262.5,10|0,0:0|0:0,0:0:0:0:
290,323,216313,2,0,P|404:341|378:233,1,262.5,10|0,0:0|0:0,0:0:0:0:
333,185,216782,6,0,P|310:132|311:79,1,87.5,10|0,0:0|0:0,0:0:0:0:
253,46,217016,2,0,P|236:86|233:130,1,87.5,2|0,0:0|0:0,0:0:0:0:
413,174,217251,2,0,P|410:117|388:69,1,87.5,10|0,0:0|0:0,0:0:0:0:
425,16,217485,2,0,P|457:45|478:83,1,87.5,2|0,0:0|0:0,0:0:0:0:
484,203,217720,6,0,B|408:325|329:207|254:368,1,262.5,10|0,0:0|0:0,0:0:0:0:
431,360,218188,2,0,B|291:326|378:214|202:192,1,262.5,10|0,0:0|0:0,0:0:0:0:
265,358,218657,2,0,B|253:214|387:263|353:88,1,262.5,10|0,0:0|0:0,0:0:0:0:
215,199,219126,2,0,B|347:143|342:286|498:200,1,262.5,10|0,0:0|0:0,0:0:0:0:
351,103,219595,2,0,B|444:212|307:251|437:372,1,263.199995983887,10|10,0:0|0:0,0:0:0:0:
265,358,220532,6,0,P|260:289|283:233,1,87.5,10|0,0:0|0:0,0:0:0:0:
163,277,220766,2,0,P|181:250|222:212,1,87.5,2|0,0:0|0:0,0:0:0:0:
191,147,221001,2,0,P|158:153|112:181,1,87.5,10|0,0:0|0:0,0:0:0:0:
197,77,221235,2,0,P|168:59|115:42,1,87.5,2|0,0:0|0:0,0:0:0:0:
251,16,221470,6,0,B|303:101|360:18|412:130,1,210,10|0,0:0|0:0,0:0:0:0:
355,270,221938,2,0,B|362:170|268:204|292:81,1,210,10|0,0:0|0:0,0:0:0:0:
421,0,222407,2,0,B|355:76|452:104|360:190,1,210,10|0,0:0|0:0,0:0:0:0:
210,181,222876,2,0,B|307:157|245:78|369:63,1,210,10|0,0:0|0:0,0:0:0:0:
485,162,223345,2,0,B|392:124|395:224|286:163,1,210,10|10,0:0|0:0,0:0:0:0:
193,21,224282,5,14,0:1:0:0:
274,153,224516,1,2,0:0:0:0:
275,265,224751,1,14,0:1:0:0:
248,336,224985,1,2,0:0:0:0:
222,361,225220,5,2,0:0:0:0:
256,192,225337,12,0,228970,0:0:0:0:
