osu file format v14

[General]
AudioFilename: audio.mp3
AudioLeadIn: 0
PreviewTime: -1
Countdown: 1
SampleSet: Normal
StackLeniency: 0.7
Mode: 0
LetterboxInBreaks: 0
WidescreenStoryboard: 1

[Editor]
DistanceSpacing: 1
BeatDivisor: 4
GridSize: 4
TimelineZoom: 0.7

[Metadata]
Title:kyrie eleison/hatsune miku
TitleUnicode:kyrie eleison/hatsune miku
Artist:Calvi : Okame-P
ArtistUnicode:Calvi : Okame-P
Creator:christian321
Version:Hard
Source:hatsune miku
Tags:kyrie eleison hatsune miku
BeatmapID:1105545
BeatmapSetID:520378

[Difficulty]
HPDrainRate:5
CircleSize:5
OverallDifficulty:5
ApproachRate:5
SliderMultiplier:1.4
SliderTickRate:2

[Events]
//Background and Video events
0,0,"hqdefault.jpg",0,0
//Break Periods
2,147571,159612
//Storyboard Layer 0 (Background)
//Storyboard Layer 1 (Fail)
//Storyboard Layer 2 (Pass)
//Storyboard Layer 3 (Foreground)
//Storyboard Sound Samples

[TimingPoints]
1,389.61038961039,4,1,0,100,1,0

[Colours]
Combo1 : 0,0,255
Combo2 : 0,255,255
Combo3 : 0,255,0

[HitObjects]
48,224,5358,5,0,0:0:0:0:
204,112,6039,1,0,0:0:0:0:
272,240,6332,2,0,P|164:236|152:232,1,105
104,168,6721,2,0,L|104:80,4,70
224,96,7695,1,0,0:0:0:0:
316,112,7988,1,0,0:0:0:0:
416,220,8377,1,0,0:0:0:0:
204,320,8669,1,0,0:0:0:0:
88,260,8962,2,0,B|48:88|104:84|204:88|144:112,1,245
212,196,9936,1,0,0:0:0:0:
360,128,10423,1,0,0:0:0:0:
472,212,10715,1,0,0:0:0:0:
340,288,11007,1,0,0:0:0:0:
264,304,11591,2,0,B|56:216|28:68|72:56,1,350
168,56,12663,1,0,0:0:0:0:
248,80,12858,1,0,0:0:0:0:
408,116,13442,1,0,0:0:0:0:
408,196,13734,5,0,0:0:0:0:
240,280,14416,1,0,0:0:0:0:
56,236,14708,1,0,0:0:0:0:
88,104,15195,1,0,0:0:0:0:
312,72,15780,1,0,0:0:0:0:
412,156,16072,1,0,0:0:0:0:
400,216,16267,1,0,0:0:0:0:
328,272,16462,1,0,0:0:0:0:
216,280,16851,2,0,B|36:108|148:52|300:48|280:64,1,350
304,136,17923,1,0,0:0:0:0:
276,220,18410,1,0,0:0:0:0:
168,280,18702,1,0,0:0:0:0:
60,256,18994,1,0,0:0:0:0:
64,188,19384,2,0,P|260:24|448:92,1,455
416,200,21039,1,0,0:0:0:0:
316,300,21332,1,0,0:0:0:0:
160,300,21721,1,0,0:0:0:0:
68,216,22013,2,0,P|88:136|108:124,1,105
168,112,22403,2,0,P|284:140|288:176,1,175
216,244,23377,1,0,0:0:0:0:
88,188,24156,1,0,0:0:0:0:
212,88,24449,1,0,0:0:0:0:
384,88,24838,1,0,0:0:0:0:
456,200,25423,1,0,0:0:0:0:
120,308,26397,1,0,0:0:0:0:
232,232,26786,1,0,0:0:0:0:
104,200,27176,1,0,0:0:0:0:
228,100,27468,1,0,0:0:0:0:
392,195,28052,5,0,0:0:0:0:
375,321,28442,1,0,0:0:0:0:
272,298,28734,1,0,0:0:0:0:
158,272,29026,1,0,0:0:0:0:
81,161,29416,1,0,0:0:0:0:
173,135,29708,1,0,0:0:0:0:
289,105,30001,1,0,0:0:0:0:
378,200,30390,1,0,0:0:0:0:
278,277,30780,1,0,0:0:0:0:
166,286,31072,1,0,0:0:0:0:
417,305,31754,1,0,0:0:0:0:
417,179,32143,1,0,0:0:0:0:
359,110,32436,1,0,0:0:0:0:
273,99,32630,2,0,B|48:138|92:125,1,175
97,238,33410,2,0,B|232:248|219:245,3,105
364,191,34773,2,0,L|386:117,2,70
221,80,35650,6,0,L|157:133,2,70
190,186,36332,2,0,L|304:228,1,105
401,199,36916,2,0,L|372:104,2,70
182,180,37695,1,0,0:0:0:0:
61,176,38085,1,0,0:0:0:0:
268,296,38767,1,0,0:0:0:0:
397,209,39059,1,0,0:0:0:0:
276,78,39741,1,0,0:0:0:0:
115,93,40033,1,0,0:0:0:0:
54,189,40423,1,0,0:0:0:0:
117,263,40715,2,0,B|495:242|332:89|321:88,1,350
232,100,41884,1,0,0:0:0:0:
149,122,42371,2,0,B|75:220|246:314|341:238,2,315
327,81,44416,1,0,0:0:0:0:
459,92,45001,1,0,0:0:0:0:
417,273,45390,1,0,0:0:0:0:
302,318,45682,1,0,0:0:0:0:
148,316,46072,1,0,0:0:0:0:
90,247,46267,2,0,P|82:140|79:141,1,175
93,73,46851,1,0,0:0:0:0:
192,61,47143,2,0,B|391:162|368:234|364:235,1,245
247,275,48604,5,0,0:0:0:0:
99,293,49384,1,0,0:0:0:0:
95,178,49773,1,0,0:0:0:0:
233,115,50065,1,0,0:0:0:0:
359,189,50163,1,0,0:0:0:0:
398,128,50455,1,0,0:0:0:0:
314,32,50747,5,0,0:0:0:0:
203,33,51137,1,0,0:0:0:0:
130,38,51429,1,0,0:0:0:0:
43,68,51721,1,0,0:0:0:0:
114,202,52013,1,0,0:0:0:0:
397,293,52306,1,0,0:0:0:0:
134,318,52988,1,0,0:0:0:0:
304,140,53377,1,0,0:0:0:0:
78,144,53767,1,0,0:0:0:0:
249,3,54156,1,0,0:0:0:0:
177,278,54741,1,0,0:0:0:0:
479,271,55033,1,0,0:0:0:0:
435,98,55325,1,0,0:0:0:0:
230,117,55715,1,0,0:0:0:0:
115,197,56007,1,0,0:0:0:0:
232,326,56299,1,0,0:0:0:0:
452,255,56689,1,0,0:0:0:0:
478,136,57371,1,0,0:0:0:0:
313,76,57663,1,0,0:0:0:0:
88,89,58345,1,0,0:0:0:0:
43,184,58637,1,0,0:0:0:0:
150,300,58929,1,0,0:0:0:0:
418,248,59221,2,0,P|336:40|161:83,1,420
183,178,60585,1,0,0:0:0:0:
361,120,61169,1,0,0:0:0:0:
437,177,61462,1,0,0:0:0:0:
375,229,61754,1,0,0:0:0:0:
291,271,62046,2,0,B|70:82|266:46|343:57,1,350
370,158,63702,1,0,0:0:0:0:
340,273,63994,1,0,0:0:0:0:
163,304,64384,1,0,0:0:0:0:
35,245,64773,1,0,0:0:0:0:
260,76,65650,5,0,0:0:0:0:
428,198,66332,1,0,0:0:0:0:
314,296,66721,1,0,0:0:0:0:
127,308,67013,1,0,0:0:0:0:
58,132,67403,1,0,0:0:0:0:
334,79,68085,1,0,0:0:0:0:
372,208,68377,1,0,0:0:0:0:
370,286,69059,1,0,0:0:0:0:
202,273,69351,1,0,0:0:0:0:
96,272,69643,1,0,0:0:0:0:
152,43,70033,2,0,B|340:140|165:210|346:338,1,350
403,227,71397,1,0,0:0:0:0:
390,92,72663,1,0,0:0:0:0:
286,85,73052,1,0,0:0:0:0:
247,81,73442,5,0,0:0:0:0:
218,80,73734,1,0,0:0:0:0:
198,86,74026,1,0,0:0:0:0:
172,98,74416,1,0,0:0:0:0:
157,122,74611,1,0,0:0:0:0:
154,162,75098,1,0,0:0:0:0:
163,188,75390,1,0,0:0:0:0:
285,244,76072,1,0,0:0:0:0:
398,233,76364,1,0,0:0:0:0:
443,70,77046,1,0,0:0:0:0:
323,69,77728,2,0,B|21:91|0:287|19:304,1,420
191,268,79384,1,0,0:0:0:0:
352,245,79676,1,0,0:0:0:0:
416,158,80065,1,0,0:0:0:0:
385,115,80260,1,0,0:0:0:0:
321,332,80650,2,0,B|220:145|71:51|-26:159|-22:189,1,455
31,291,82208,1,0,0:0:0:0:
108,148,83475,1,0,0:0:0:0:
108,86,83864,1,0,0:0:0:0:
204,66,84156,1,0,0:0:0:0:
303,74,84449,5,0,0:0:0:0:
407,104,84741,1,0,0:0:0:0:
437,177,85033,1,0,0:0:0:0:
443,268,85325,1,0,0:0:0:0:
325,258,85715,1,0,0:0:0:0:
252,206,85910,2,0,L|148:155,1,105
221,91,86397,2,0,P|355:140|365:160,1,175
315,263,86981,2,0,B|206:288|219:286,3,70
165,246,87468,2,0,L|88:164,1,105
173,107,88345,1,0,0:0:0:0:
406,106,89124,1,0,0:0:0:0:
435,176,89416,1,0,0:0:0:0:
437,209,89708,1,0,0:0:0:0:
402,268,90195,1,0,0:0:0:0:
228,250,90682,5,0,0:0:0:0:
94,220,90975,1,0,0:0:0:0:
118,50,91364,2,0,B|302:206|212:265|458:229,1,420
377,111,92825,1,0,0:0:0:0:
205,297,94091,1,0,0:0:0:0:
121,272,94481,1,0,0:0:0:0:
108,262,94773,1,0,0:0:0:0:
97,240,95065,1,0,0:0:0:0:
93,225,95358,1,0,0:0:0:0:
88,206,95650,1,0,0:0:0:0:
89,198,95942,1,0,0:0:0:0:
93,184,96137,1,0,0:0:0:0:
103,142,96332,2,0,P|161:93|175:87,6,70
272,72,97501,1,0,0:0:0:0:
375,116,98377,1,0,0:0:0:0:
401,189,98767,1,0,0:0:0:0:
381,245,99059,1,0,0:0:0:0:
226,280,99449,1,0,0:0:0:0:
56,267,100130,1,0,0:0:0:0:
54,133,100423,1,0,0:0:0:0:
470,93,101104,5,0,0:0:0:0:
97,142,101397,1,0,0:0:0:0:
261,278,101689,1,0,0:0:0:0:
471,309,102078,1,0,0:0:0:0:
269,43,102760,1,0,0:0:0:0:
53,173,103442,1,0,0:0:0:0:
172,317,103734,1,0,0:0:0:0:
377,282,104026,1,0,0:0:0:0:
340,172,104319,1,0,0:0:0:0:
231,138,104611,2,0,B|-18:201|86:211,1,210
250,249,105390,1,0,0:0:0:0:
444,174,105682,1,0,0:0:0:0:
125,80,106656,1,0,0:0:0:0:
54,197,106949,1,0,0:0:0:0:
172,239,107241,2,0,L|275:253,1,70
316,224,107825,6,0,L|385:144,1,105
263,93,108410,1,0,0:0:0:0:
174,138,108799,1,0,0:0:0:0:
361,266,109384,1,0,0:0:0:0:
420,158,109773,1,0,0:0:0:0:
341,102,110065,1,0,0:0:0:0:
261,76,110260,1,0,0:0:0:0:
110,60,110650,5,0,0:0:0:0:
114,253,111721,1,0,0:0:0:0:
321,280,112013,1,0,0:0:0:0:
110,93,112403,1,0,0:0:0:0:
392,53,112695,1,0,0:0:0:0:
418,271,113377,1,0,0:0:0:0:
138,294,114059,1,0,0:0:0:0:
61,188,114351,1,0,0:0:0:0:
91,81,114741,1,0,0:0:0:0:
180,70,114936,1,0,0:0:0:0:
339,76,115325,1,0,0:0:0:0:
385,171,115617,1,0,0:0:0:0:
363,255,116007,1,0,0:0:0:0:
265,288,116299,2,0,B|121:293|152:292,1,105
88,241,117078,2,0,L|61:117,4,105
301,140,118929,1,0,0:0:0:0:
503,228,119319,1,0,0:0:0:0:
435,277,119708,1,0,0:0:0:0:
295,290,120001,1,0,0:0:0:0:
188,181,120293,1,0,0:0:0:0:
99,49,121072,5,0,0:0:0:0:
42,135,121364,1,0,0:0:0:0:
38,208,121754,1,0,0:0:0:0:
89,273,122046,1,0,0:0:0:0:
472,245,122630,1,0,0:0:0:0:
89,86,123410,1,0,0:0:0:0:
57,197,124091,1,0,0:0:0:0:
81,266,124384,1,0,0:0:0:0:
321,288,124676,1,0,0:0:0:0:
302,42,125747,1,0,0:0:0:0:
163,70,126039,1,0,0:0:0:0:
378,155,126332,1,0,0:0:0:0:
97,253,126721,1,0,0:0:0:0:
313,367,127111,1,0,0:0:0:0:
191,60,128085,1,0,0:0:0:0:
60,205,128377,1,0,0:0:0:0:
210,291,128767,2,0,L|357:229,1,140
364,158,129254,2,0,L|213:88,1,140
141,149,129643,2,0,P|62:281|138:285,1,315
285,178,130812,1,0,0:0:0:0:
470,300,131689,1,0,0:0:0:0:
458,91,132273,1,0,0:0:0:0:
213,31,132663,1,0,0:0:0:0:
52,68,132955,1,0,0:0:0:0:
72,155,133247,1,0,0:0:0:0:
256,209,133539,1,0,0:0:0:0:
388,246,134026,1,0,0:0:0:0:
315,84,134708,1,0,0:0:0:0:
256,193,135001,1,0,0:0:0:0:
167,246,135390,5,0,0:0:0:0:
51,129,136364,1,0,0:0:0:0:
158,59,136656,1,0,0:0:0:0:
259,52,136949,1,0,0:0:0:0:
373,91,137338,1,0,0:0:0:0:
431,245,137728,1,0,0:0:0:0:
57,332,138604,1,0,0:0:0:0:
331,116,139091,1,0,0:0:0:0:
68,112,139384,1,0,0:0:0:0:
450,37,140358,1,0,0:0:0:0:
454,264,141332,1,0,0:0:0:0:
160,71,142403,1,0,0:0:0:0:
36,247,142988,1,0,0:0:0:0:
295,262,143377,1,0,0:0:0:0:
375,183,143669,1,0,0:0:0:0:
309,102,144059,1,0,0:0:0:0:
201,97,144254,1,0,0:0:0:0:
168,171,144546,2,0,L|123:298,7,105
249,268,147371,1,0,0:0:0:0:
237,144,160812,5,0,0:0:0:0:
304,183,161591,1,0,0:0:0:0:
266,255,161689,2,0,L|131:258,1,105
131,175,162176,1,0,0:0:0:0:
232,83,162663,1,0,0:0:0:0:
368,119,162955,1,0,0:0:0:0:
374,187,163345,2,0,B|392:273|329:260|328:258,1,105
195,267,164026,1,0,0:0:0:0:
77,244,164416,1,0,0:0:0:0:
290,120,165001,2,0,L|288:226,4,105
185,74,167046,1,0,0:0:0:0:
103,88,167436,1,0,0:0:0:0:
29,98,167728,1,0,0:0:0:0:
30,183,168020,1,0,0:0:0:0:
232,240,168410,1,0,0:0:0:0:
403,270,168702,1,0,0:0:0:0:
434,164,169091,1,0,0:0:0:0:
369,88,169384,1,0,0:0:0:0:
265,33,169676,1,0,0:0:0:0:
79,84,170455,1,0,0:0:0:0:
26,195,170650,1,0,0:0:0:0:
246,344,171039,5,0,0:0:0:0:
335,302,171332,2,0,B|326:133|96:91|41:100|114:226,1,420
170,272,172793,1,0,0:0:0:0:
351,254,173085,1,0,0:0:0:0:
317,120,173377,1,0,0:0:0:0:
115,120,173669,1,0,0:0:0:0:
41,195,173962,1,0,0:0:0:0:
161,284,174351,5,0,0:0:0:0:
254,258,174838,1,0,0:0:0:0:
321,246,175130,1,0,0:0:0:0:
197,95,175715,1,0,0:0:0:0:
58,114,176007,1,0,0:0:0:0:
75,188,176299,2,0,L|175:302,2,140
92,74,177273,5,0,0:0:0:0:
228,67,177663,1,0,0:0:0:0:
392,57,178345,1,0,0:0:0:0:
463,138,178637,1,0,0:0:0:0:
453,206,179026,1,0,0:0:0:0:
399,297,179319,2,0,B|92:313|58:186|36:128|36:127,1,420
119,95,181072,1,0,0:0:0:0:
234,86,181364,1,0,0:0:0:0:
345,69,181656,1,0,0:0:0:0:
421,155,182143,1,0,0:0:0:0:
435,219,182728,1,0,0:0:0:0:
234,338,183020,1,0,0:0:0:0:
6,284,183702,1,0,0:0:0:0:
149,104,184091,1,0,0:0:0:0:
325,104,184481,1,0,0:0:0:0:
425,195,184871,1,0,0:0:0:0:
80,316,185358,1,0,0:0:0:0:
217,36,185747,1,0,0:0:0:0:
270,222,185845,1,0,0:0:0:0:
466,239,186332,1,0,0:0:0:0:
395,104,186721,1,0,0:0:0:0:
172,80,187013,1,0,0:0:0:0:
128,191,187501,2,0,B|464:330|448:213|349:137|341:132,1,385
203,100,188767,1,0,0:0:0:0:
81,142,189449,1,0,0:0:0:0:
92,223,190033,1,0,0:0:0:0:
264,278,190325,1,0,0:0:0:0:
412,240,190715,1,0,0:0:0:0:
410,125,191007,1,0,0:0:0:0:
209,54,191397,1,0,0:0:0:0:
66,86,191689,1,0,0:0:0:0:
200,193,192078,1,0,0:0:0:0:
467,203,192468,1,0,0:0:0:0:
203,262,192760,1,0,0:0:0:0:
425,280,193442,1,0,0:0:0:0:
217,305,193734,1,0,0:0:0:0:
119,204,194611,1,0,0:0:0:0:
155,89,195098,2,0,B|493:26|470:129|459:257|443:260,1,420
321,266,196754,1,0,0:0:0:0:
187,271,197046,1,0,0:0:0:0:
73,242,197338,1,0,0:0:0:0:
60,150,197630,1,0,0:0:0:0:
157,80,197923,2,0,B|508:155|407:333|127:347|99:347,1,560
148,129,200747,1,0,0:0:0:0:
269,115,201039,1,0,0:0:0:0:
366,121,201429,1,0,0:0:0:0:
395,186,201624,1,0,0:0:0:0:
372,255,201916,1,0,0:0:0:0:
201,321,202306,1,0,0:0:0:0:
59,323,202598,1,0,0:0:0:0:
17,256,202890,1,0,0:0:0:0:
26,160,203182,2,0,L|97:110,1,70
154,95,203572,2,0,L|197:220,1,105
109,252,204059,6,0,L|242:293,1,140
335,222,205033,2,0,L|392:155,4,70
203,235,207760,1,0,0:0:0:0:
87,211,208052,1,0,0:0:0:0:
35,260,208345,1,0,0:0:0:0:
307,293,208734,1,0,0:0:0:0:
433,158,209416,1,0,0:0:0:0:
304,68,209708,1,0,0:0:0:0:
141,101,210098,1,0,0:0:0:0:
342,253,210877,1,0,0:0:0:0:
72,56,211364,1,0,0:0:0:0:
37,100,212143,1,0,0:0:0:0:
28,119,212533,1,0,0:0:0:0:
21,138,212923,1,0,0:0:0:0:
19,159,213215,1,0,0:0:0:0:
19,176,213507,1,0,0:0:0:0:
26,195,213897,1,0,0:0:0:0:
46,222,214189,1,0,0:0:0:0:
86,238,214773,1,0,0:0:0:0:
125,231,215163,1,0,0:0:0:0:
155,208,215747,1,0,0:0:0:0:
148,148,216039,1,0,0:0:0:0:
160,119,216332,1,0,0:0:0:0:
212,81,216721,1,0,0:0:0:0:
285,93,217403,1,0,0:0:0:0:
345,149,217793,1,0,0:0:0:0:
392,212,218182,2,0,P|277:315|276:315,2,140
104,168,219449,1,0,0:0:0:0:
343,71,220033,1,0,0:0:0:0:
383,222,220617,1,0,0:0:0:0:
221,255,221007,1,0,0:0:0:0:
119,261,221397,1,0,0:0:0:0:
37,184,221689,1,0,0:0:0:0:
44,51,222078,1,0,0:0:0:0:
192,49,222371,1,0,0:0:0:0:
356,75,222663,1,0,0:0:0:0:
409,152,223052,2,0,P|392:267|323:276,1,175
238,273,223734,1,0,0:0:0:0:
120,285,224319,1,0,0:0:0:0:
65,178,224708,1,0,0:0:0:0:
103,64,225293,1,0,0:0:0:0:
276,60,225585,1,0,0:0:0:0:
426,120,225975,1,0,0:0:0:0:
381,271,226656,1,0,0:0:0:0:
223,316,227046,1,0,0:0:0:0:
71,297,227338,1,0,0:0:0:0:
46,189,228117,2,0,B|385:37|-20:71,2,385
129,236,230845,1,0,0:0:0:0:
302,242,231429,1,0,0:0:0:0:
423,182,231721,1,0,0:0:0:0:
306,73,232013,1,0,0:0:0:0:
183,55,232306,1,0,0:0:0:0:
53,89,232598,1,0,0:0:0:0:
67,170,232988,1,0,0:0:0:0:
168,253,233377,1,0,0:0:0:0:
303,273,233767,5,0,0:0:0:0:
475,173,234643,1,0,0:0:0:0:
230,55,235033,1,0,0:0:0:0:
142,153,235423,1,0,0:0:0:0:
287,284,236299,1,0,0:0:0:0:
422,217,236689,1,0,0:0:0:0:
323,128,236981,1,0,0:0:0:0:
138,105,237371,1,0,0:0:0:0:
47,180,237663,1,0,0:0:0:0:
145,257,237858,2,0,L|255:269,1,105
314,218,238247,6,0,P|419:139|356:122,1,280
216,151,239416,1,0,0:0:0:0:
81,93,240098,1,0,0:0:0:0:
3,146,240488,1,0,0:0:0:0:
5,242,240780,1,0,0:0:0:0:
215,306,241364,1,0,0:0:0:0:
398,304,241656,1,0,0:0:0:0:
440,237,242046,2,0,P|379:109|368:109,1,175
285,160,242825,1,0,0:0:0:0:
288,252,243215,1,0,0:0:0:0:
211,282,243507,1,0,0:0:0:0:
148,303,243897,1,0,0:0:0:0:
112,231,244189,2,0,P|183:74|293:77,1,280
437,97,245358,1,0,0:0:0:0:
452,202,245650,1,0,0:0:0:0:
261,303,246137,1,0,0:0:0:0:
82,198,247013,1,0,0:0:0:0:
202,29,247988,1,0,0:0:0:0:
455,131,248864,1,0,0:0:0:0:
34,149,249546,1,0,0:0:0:0:
430,252,249936,1,0,0:0:0:0:
132,297,250325,1,0,0:0:0:0:
125,185,250715,2,0,L|319:93,1,210
375,162,251397,2,0,L|255:293,1,175
143,260,251981,2,0,B|38:112|155:83|272:104,1,280
367,162,252955,1,0,0:0:0:0:
296,247,253734,1,0,0:0:0:0:
119,247,254026,1,0,0:0:0:0:
68,195,254416,1,0,0:0:0:0:
232,77,254708,1,0,0:0:0:0:
399,158,255098,1,0,0:0:0:0:
299,50,255975,5,0,0:0:0:0:
96,125,256169,5,0,0:0:0:0:
55,185,256429,1,0,0:0:0:0:
159,277,256754,1,0,0:0:0:0:
444,297,257598,1,0,0:0:0:0:
397,91,258507,1,0,0:0:0:0:
183,61,259091,1,0,0:0:0:0:
87,129,259806,1,0,0:0:0:0:
193,295,260390,1,0,0:0:0:0:
294,250,260715,1,0,0:0:0:0:
391,204,261039,1,0,0:0:0:0:
379,109,261299,1,0,0:0:0:0:
271,66,261624,1,0,0:0:0:0:
155,83,261949,1,0,0:0:0:0:
118,129,262143,2,0,B|70:277|97:239|81:257,1,116.666666666667
160,293,262728,1,0,0:0:0:0:
280,285,262988,1,0,0:0:0:0:
428,242,263377,1,0,0:0:0:0:
379,108,264091,1,0,0:0:0:0:
250,91,264351,1,0,0:0:0:0:
182,128,264416,2,0,L|74:246,1,140
175,278,264936,1,0,0:0:0:0:
306,262,265390,1,0,0:0:0:0:
322,178,265650,1,0,0:0:0:0:
190,132,266104,2,0,B|70:85|41:212|61:218,1,186.666666666667
194,296,266819,1,0,0:0:0:0:
343,264,267078,1,0,0:0:0:0:
372,129,267533,2,0,P|92:100|-38:177,1,420
1,242,269091,1,0,0:0:0:0:
159,264,269481,1,0,0:0:0:0:
262,231,269936,2,0,B|491:109|261:51|35:77,1,466.666666666667
92,195,271754,1,0,0:0:0:0:
290,223,272078,1,0,0:0:0:0:
365,230,272273,1,0,0:0:0:0:
434,168,272598,1,0,0:0:0:0:
352,86,273442,1,0,0:0:0:0:
225,44,274091,1,0,0:0:0:0:
30,73,274741,1,0,0:0:0:0:
440,195,275065,1,0,0:0:0:0:
143,281,275390,1,0,0:0:0:0:
121,136,276169,5,0,0:0:0:0:
394,180,276754,1,0,0:0:0:0:
401,275,277403,1,0,0:0:0:0:
203,272,277533,1,0,0:0:0:0:
73,231,277793,2,0,B|150:53|381:76|434:100,1,420
419,211,279351,1,0,0:0:0:0:
165,266,280065,1,0,0:0:0:0:
115,189,280390,2,0,P|357:8|455:67,1,443.333333333333
383,204,281559,1,0,0:0:0:0:
245,303,282273,1,0,0:0:0:0:
143,304,282468,1,0,0:0:0:0:
43,285,282728,1,0,0:0:0:0:
63,180,282923,1,0,0:0:0:0:
148,102,283377,1,0,0:0:0:0:
328,74,284026,1,0,0:0:0:0:
380,171,284416,1,0,0:0:0:0:
297,251,285130,1,0,0:0:0:0:
220,288,285520,1,0,0:0:0:0:
114,288,285780,1,0,0:0:0:0:
93,214,285975,2,0,P|112:111|135:104,1,140
272,89,286754,1,0,0:0:0:0:
408,120,287143,1,0,0:0:0:0:
390,277,287728,1,0,0:0:0:0:
198,276,287988,1,0,0:0:0:0:
106,279,288312,1,0,0:0:0:0:
79,202,288572,2,0,B|-14:92|-25:204|24:286,1,210
98,309,289416,1,0,0:0:0:0:
215,284,289741,1,0,0:0:0:0:
341,208,290325,1,0,0:0:0:0:
192,158,290650,1,0,0:0:0:0:
108,194,290975,2,0,B|171:48|264:71|308:129,1,256.666666666667
302,284,292078,1,0,0:0:0:0:
73,297,292403,1,0,0:0:0:0:
465,74,293117,1,0,0:0:0:0:
450,157,293377,1,0,0:0:0:0:
442,225,293767,1,0,0:0:0:0:
239,260,294091,1,0,0:0:0:0:
20,207,294741,1,0,0:0:0:0:
59,75,295065,1,0,0:0:0:0:
299,214,295715,1,0,0:0:0:0:
205,249,296039,6,0,B|65:251|80:189|144:145,1,186.666666666667
266,137,297273,1,0,0:0:0:0:
390,175,297728,1,0,0:0:0:0:
365,274,298377,1,0,0:0:0:0:
128,306,298962,1,0,0:0:0:0:
16,118,299286,2,0,L|-22:228,1,116.666666666667
165,211,300065,1,0,0:0:0:0:
345,206,300390,1,0,0:0:0:0:
256,192,300910,12,0,303182,0:0:0:0:
