osu file format v14

[General]
AudioFilename: audio.mp3
AudioLeadIn: 0
PreviewTime: 71334
Countdown: 0
SampleSet: Soft
StackLeniency: 0.4
Mode: 0
LetterboxInBreaks: 0
WidescreenStoryboard: 1

[Editor]
Bookmarks: 2650,15281,40544,65807,72123,97386,110018,135281,141597,166860,188965,192123
DistanceSpacing: 0.8
BeatDivisor: 4
GridSize: 32
TimelineZoom: 4.499999

[Metadata]
Title:If Our Love Is Wrong
TitleUnicode:If Our Love Is Wrong
Artist:Calum Scott
ArtistUnicode:Calum Scott
Creator:Altai
Version:Only Human
Source:
Tags:english pop ballad fraser t. t smith aistre seolv lukas [_l_u_k_a_s_] alphabet venax undeadphoneguy only human callum gay pride
BeatmapID:3060386
BeatmapSetID:1492986

[Difficulty]
HPDrainRate:6
CircleSize:3.8
OverallDifficulty:8
ApproachRate:9
SliderMultiplier:1.39999990463257
SliderTickRate:1

[Events]
//Background and Video events
0,0,"scott.png",0,0
//Break Periods
//Storyboard Layer 0 (Background)
//Storyboard Layer 1 (Fail)
//Storyboard Layer 2 (Pass)
//Storyboard Layer 3 (Foreground)
//Storyboard Layer 4 (Overlay)
//Storyboard Sound Samples

[TimingPoints]
2650,394.736842105263,4,2,1,100,1,0
12123,-100,4,2,1,10,0,0
12518,-100,4,2,1,20,0,0
12913,-100,4,2,1,40,0,0
13307,-100,4,2,1,45,0,0
13702,-100,4,2,1,50,0,0
14097,-100,4,2,1,55,0,0
14492,-100,4,2,1,60,0,0
14886,-100,4,2,1,65,0,0
15281,-200,4,2,1,55,0,0
16071,-133.333333333333,4,2,1,30,0,0
40544,-133.333333333333,4,2,1,45,0,0
42419,-133.333333333333,4,2,1,5,0,0
42518,-133.333333333333,4,2,1,45,0,0
43209,-133.333333333333,4,2,1,5,0,0
43307,-133.333333333333,4,2,1,45,0,0
43998,-133.333333333333,4,2,1,5,0,0
44097,-133.333333333333,4,2,1,45,0,0
48735,-133.333333333333,4,2,1,5,0,0
48834,-133.333333333333,4,2,1,45,0,0
49524,-133.333333333333,4,2,1,5,0,0
49623,-133.333333333333,4,2,1,45,0,0
50314,-133.333333333333,4,2,1,5,0,0
50413,-133.333333333333,4,2,1,45,0,0
50807,-83.3333333333333,4,2,1,45,0,0
51202,-133.333333333333,4,2,1,45,0,0
51893,-133.333333333333,4,2,1,5,0,0
51992,-133.333333333333,4,2,1,45,0,0
53176,-133.333333333333,4,2,1,35,0,0
53242,-133.333333333333,4,2,1,55,0,0
53965,-111.111111111111,4,2,1,45,0,0
54557,-133.333333333333,4,2,1,45,0,0
62649,-666.666666666667,4,2,1,45,0,0
63834,-285.714285714286,4,2,1,40,0,0
65215,-400,4,2,1,40,0,0
65709,-400,4,2,1,5,0,0
65807,-500,4,2,1,40,0,0
66498,-500,4,2,1,5,0,0
66597,-500,4,2,1,40,0,0
67288,-500,4,2,1,5,0,0
67386,-500,4,2,1,40,0,0
68077,-500,4,2,1,5,0,0
68176,-500,4,2,1,40,0,0
68867,-500,4,2,1,5,0,0
68965,-1000,4,2,1,45,0,0
70939,-1000,4,2,1,45,0,0
71334,-1000,4,2,1,55,0,0
71728,-1000,4,2,1,60,0,0
72123,-50,4,2,1,85,0,1
72419,-50,4,2,1,5,0,1
72518,-50,4,2,1,85,0,1
74837,-50,4,2,1,5,0,1
74886,-50,4,2,1,85,0,1
76367,-50,4,2,1,5,0,1
76465,-50,4,2,1,85,0,1
76663,-66.6666666666667,4,2,1,85,0,1
78044,-50,4,2,1,85,0,1
78242,-40,4,2,1,85,0,1
79031,-50,4,2,1,85,0,1
79821,-66.6666666666667,4,2,1,85,0,1
81202,-50,4,2,1,85,0,1
81399,-40,4,2,1,85,0,1
82189,-50,4,2,1,85,0,1
82978,-66.6666666666667,4,2,1,85,0,1
84755,-50,4,2,1,85,0,1
85051,-50,4,2,1,5,0,1
85149,-50,4,2,1,85,0,1
87469,-50,4,2,1,5,0,1
87518,-50,4,2,1,85,0,1
89294,-66.6666666666667,4,2,1,85,0,1
90676,-50,4,2,1,85,0,1
90873,-40,4,2,1,85,0,1
91663,-50,4,2,1,85,0,1
92452,-66.6666666666667,4,2,1,85,0,1
93834,-50,4,2,1,85,0,1
94031,-40,4,2,1,85,0,1
94821,-50,4,2,1,85,0,1
95610,-66.6666666666667,4,2,1,85,0,1
97386,-60.6060606060606,4,2,1,85,0,1
105084,-40,4,2,1,85,0,1
106860,-60.6060606060606,4,2,1,85,0,1
110018,-100,4,2,1,65,0,0
112781,-66.6666666666667,4,2,1,65,0,0
113176,-100,4,2,1,65,0,0
119097,-66.6666666666667,4,2,1,65,0,0
119492,-100,4,2,1,65,0,0
120873,-83.3333333333333,4,2,1,70,0,0
121071,-71.4285714285714,4,2,1,70,0,0
121367,-71.4285714285714,4,2,1,5,0,0
121465,-71.4285714285714,4,2,1,70,0,0
122649,-100,4,2,1,65,0,0
125413,-66.6666666666667,4,2,1,65,0,0
125807,-100,4,2,1,65,0,0
131728,-66.6666666666667,4,2,1,65,0,0
132123,-200,4,2,1,65,0,0
134492,-133.333333333333,4,2,1,55,0,0
135281,-500,4,2,1,55,0,0
135972,-500,4,2,1,5,0,0
136071,-500,4,2,1,55,0,0
136761,-500,4,2,1,5,0,0
136860,-500,4,2,1,55,0,0
137551,-500,4,2,1,5,0,0
137649,-500,4,2,1,55,0,0
138340,-500,4,2,1,5,0,0
138439,-1000,4,2,1,55,0,0
140807,-100,4,2,1,55,0,0
141005,-80,4,2,1,55,0,0
141202,-57.1428571428571,4,2,1,55,0,0
141399,-44.4444444444445,4,2,1,55,0,0
141597,-47.6190476190476,4,2,1,90,0,1
141893,-47.6190476190476,4,2,1,5,0,1
141992,-47.6190476190476,4,2,1,90,0,1
144311,-47.6190476190476,4,2,1,5,0,1
144360,-47.6190476190476,4,2,1,90,0,1
145840,-47.6190476190476,4,2,1,5,0,1
145939,-47.6190476190476,4,2,1,90,0,1
146136,-66.6666666666667,4,2,1,90,0,1
147715,-40,4,2,1,90,0,1
148505,-47.6190476190476,4,2,1,90,0,1
149097,-66.6666666666667,4,2,1,90,0,1
150676,-47.6190476190476,4,2,1,90,0,1
150873,-40,4,2,1,90,0,1
151663,-47.6190476190476,4,2,1,90,0,1
152255,-66.6666666666667,4,2,1,90,0,1
154228,-47.6190476190476,4,2,1,90,0,1
154524,-47.6190476190476,4,2,1,5,0,1
154623,-47.6190476190476,4,2,1,90,0,1
156942,-47.6190476190476,4,2,1,5,0,1
156992,-47.6190476190476,4,2,1,90,0,1
158768,-66.6666666666667,4,2,1,90,0,1
160347,-40,4,2,1,90,0,1
161136,-47.6190476190476,4,2,1,90,0,1
161926,-66.6666666666667,4,2,1,90,0,1
163307,-47.6190476190476,4,2,1,90,0,1
163505,-40,4,2,1,90,0,1
164294,-47.6190476190476,4,2,1,90,0,1
165084,-66.6666666666667,4,2,1,90,0,1
166860,-100,4,2,1,65,0,0
167649,-100,4,2,1,50,0,0
174459,-100,4,2,1,5,0,0
174557,-90.9090909090909,4,2,1,50,0,0
176334,-100,4,2,1,50,0,0
179492,-100,4,2,1,40,0,0
179886,-166.666666666667,4,2,1,40,0,0
188965,-200,4,2,1,35,0,0

[Colours]
Combo1 : 247,224,64
Combo2 : 255,51,51

[HitObjects]
256,192,12123,12,4,15281,0:0:0:0:
1,366,16071,5,2,0:0:0:0:
71,306,16268,2,0,P|122:327|123:382,2,104.999996852875,2|2|2,0:0|0:0|0:0,0:0:0:0:
42,196,17452,2,0,P|25:116|2:29,1,157.499995279312,2|2,0:0|0:0,0:0:0:0:
146,236,18439,1,2,0:0:0:0:
146,236,18636,1,2,0:0:0:0:
511,366,22386,5,2,0:0:0:0:
441,306,22583,2,0,P|389:327|388:382,2,104.999996852875,2|2|2,0:0|0:0|0:0,0:0:0:0:
512,170,23768,2,0,P|462:183|422:137,2,104.999996852875,2|2|2,0:0|0:0|0:0,0:0:0:0:
211,24,26136,5,2,0:0:0:0:
211,24,26334,2,0,P|225:75|236:147,1,104.999996852875,2|2,0:0|0:0,0:0:0:0:
338,227,27123,2,0,P|345:197|360:162,1,52.4999984264374,2|2,0:0|0:0,0:0:0:0:
260,258,27518,2,0,P|247:315|220:379,1,104.999996852875,2|0,0:0|0:0,0:0:0:0:
0,71,28702,5,2,0:0:0:0:
65,123,28899,2,0,P|105:92|89:37,2,104.999996852875,2|2|2,0:0|0:0|0:0,0:0:0:0:
152,201,30084,2,0,P|235:217|317:260,1,157.499995279312,2|2,0:0|0:0,0:0:0:0:
203,335,31071,2,0,P|158:352|122:373,1,69.9999979019165,2|2,0:0|0:0,0:0:0:0:
512,71,35018,5,2,0:0:0:0:
447,123,35215,2,0,P|407:92|423:37,2,104.999996852875,2|2|2,0:0|0:0|0:0,0:0:0:0:
505,255,36399,2,0,P|447:285|426:336,1,104.999996852875,2|2,0:0|0:0,0:0:0:0:
306,367,37189,1,2,0:0:0:0:
306,367,37386,2,0,P|291:311|273:255,1,104.999996852875,2|2,0:0|0:0,0:0:0:0:
301,24,38768,5,2,0:0:0:0:
301,24,38966,2,0,P|287:75|276:147,1,104.999996852875,2|2,0:0|0:0,0:0:0:0:
139,213,39755,1,2,0:0:0:0:
82,162,39952,1,2,0:0:0:0:
0,262,40149,2,0,P|11:298|17:326,1,52.4999984264374,2|0,0:0|0:0,0:0:0:0:
77,359,40446,5,2,0:3:0:0:
77,359,40544,2,0,P|138:342|200:331,1,104.999996852875,4|0,0:0|0:0,0:0:0:0:
199,262,41136,5,0,1:0:0:0:
465,377,41334,1,8,0:2:0:0:
465,377,41728,5,2,1:2:0:0:
396,308,41926,2,0,P|409:258|484:252,1,131.249996066093,2|0,0:0|0:0,0:0:0:0:
487,245,42518,1,2,0:0:0:0:
411,153,42715,2,0,P|456:104|442:38,1,131.249996066093,2|0,0:0|0:0,0:0:0:0:
452,39,43307,1,2,0:0:0:0:
315,135,43505,2,0,P|289:73|324:16,1,131.249996066093,2|0,0:0|0:0,0:0:0:0:
315,13,44097,1,2,0:0:0:0:
373,79,44294,5,0,1:2:0:0:
99,169,44492,1,8,3:2:0:0:
99,169,44886,2,0,P|117:100|131:59,1,104.999996852875,4|0,3:0|0:0,0:0:0:0:
38,233,45676,5,2,3:0:0:0:
38,233,45873,1,2,3:0:0:0:
160,312,46071,5,8,3:0:0:0:
107,366,46268,1,8,3:0:0:0:
317,250,46465,5,4,3:0:0:0:
273,164,46662,1,4,3:0:0:0:
480,323,46860,5,4,0:0:0:0:
480,323,47452,5,0,1:0:0:0:
348,61,47649,1,8,0:0:0:0:
348,61,48044,5,2,1:2:0:0:
426,132,48242,2,0,P|476:119|482:44,1,131.249996066093,2|0,0:0|0:0,0:0:0:0:
489,41,48834,1,2,0:0:0:0:
365,206,49031,2,0,B|334:198|307:230|310:231|314:234|292:266|249:257,1,131.249996066093,2|0,0:0|0:0,0:0:0:0:
244,251,49623,1,2,0:0:0:0:
503,364,49821,2,0,B|506:329|481:298|443:295|443:295|406:314,1,131.249996066093,2|0,0:0|0:0,0:0:0:0:
422,317,50413,1,2,0:0:0:0:
471,211,50610,5,2,1:2:0:0:
175,371,50807,2,0,P|183:344|192:313,2,41.999995857239,10|2|2,0:0|0:0|0:0,0:0:0:0:
261,365,51202,5,4,3:0:0:0:
30,270,51399,2,0,P|91:253|161:223,1,131.249996066093,2|0,0:0|0:0,0:0:0:0:
172,149,51992,5,2,3:2:0:0:
172,149,52189,1,2,3:0:0:0:
268,309,52387,5,8,3:0:0:0:
186,330,52584,1,8,3:0:0:0:
494,245,52781,5,4,3:0:0:0:
396,203,52978,1,4,3:0:0:0:
482,248,53176,6,0,L|458:252,8,17.4999994754791,4|0|0|0|0|0|0|0|0,0:0|0:0|0:0|0:0|0:0|0:0|0:0|0:0|0:0,0:0:0:0:
498,330,53768,5,0,1:0:0:0:
427,49,53965,1,10,0:0:0:0:
371,107,54163,2,0,P|334:96|314:55,1,62.9999937858584,2|0,0:0|1:0,0:0:0:0:
245,124,54557,2,0,P|219:139|199:171,1,52.4999984264374,2|0,0:0|0:0,0:0:0:0:
205,157,54952,2,0,P|182:143|156:139,1,52.4999984264374,2|0,0:0|0:0,0:0:0:0:
28,49,55347,2,0,P|85:37|147:19,1,104.999996852875,2|2,0:0|0:0,0:0:0:0:
34,228,56136,1,2,0:0:0:0:
34,228,56334,2,0,P|89:262|91:303,1,104.999996852875,2|2,0:0|0:0,0:0:0:0:
19,357,56926,5,0,1:0:0:0:
357,287,57123,1,8,0:0:0:0:
357,287,57518,2,0,P|339:218|325:177,1,104.999996852875,4|0,3:0|0:0,0:0:0:0:
450,107,58307,5,2,3:0:0:0:
450,107,58504,1,2,3:0:0:0:
328,186,58702,5,8,3:0:0:0:
399,216,58899,1,8,3:0:0:0:
155,93,59096,5,4,3:0:0:0:
233,44,59294,1,4,3:0:0:0:
9,172,59491,5,4,0:0:0:0:
9,172,60084,5,0,1:0:0:0:
254,368,60281,1,10,0:0:0:0:
331,277,60478,1,2,0:0:0:0:
331,277,60675,1,4,3:3:0:0:
144,373,60873,2,0,P|105:361|71:357,1,52.4999984264374,2|0,0:0|0:0,0:0:0:0:
51,288,61268,2,0,P|12:300|-22:304,1,52.4999984264374,2|0,0:0|0:0,0:0:0:0:
204,284,61663,2,0,P|213:241|233:164,1,104.999996852875,2|2,0:0|0:0,0:0:0:0:
93,359,62452,1,2,0:0:0:0:
307,83,62649,6,0,P|315:115|321:137,1,52.4999948215487,6|2,0:0|0:0,0:0:0:0:
360,157,63834,2,0,L|392:150,1,24.4999975833894,2|2,0:0|0:0,0:0:0:0:
191,170,65018,5,2,0:0:0:0:
191,170,65215,2,0,P|184:140|179:121,1,43.7499970197678,2|0,0:0|0:0,0:0:0:0:
368,266,65807,6,0,P|394:270|417:280,1,48.99999666214,2|0,0:0|0:0,0:0:0:0:
161,287,66597,2,0,P|143:306|126:322,1,48.99999666214,2|0,0:0|0:0,0:0:0:0:
244,99,67386,2,0,P|234:72|222:53,1,48.99999666214,2|0,0:0|0:0,0:0:0:0:
85,247,68176,6,0,P|47:236|35:234,1,48.99999666214,6|0,0:0|0:0,0:0:0:0:
424,138,68965,6,0,P|462:149|477:154,1,55.9999961853028,6|0,0:0|0:3,0:0:0:0:
261,35,70939,5,2,3:0:0:0:
261,35,71136,1,2,3:0:0:0:
154,146,71334,5,8,3:0:0:0:
81,122,71531,1,8,3:0:0:0:
359,264,71728,5,4,3:0:0:0:
462,228,71925,1,4,3:0:0:0:
20,366,72123,6,2,B|87:382|100:323|98:317|95:312|116:252|185:279,1,209.999985694886,6|0,1:2|0:0,0:1:0:0:
187,288,72518,1,2,0:3:0:0:
58,193,72715,1,2,1:2:0:0:
424,91,72913,6,0,P|409:130|400:161,1,69.9999952316285,8|0,0:1|0:0,0:0:0:0:
462,228,73110,2,0,P|493:134|514:78,2,139.999990463257,2|0|2,0:0|1:0|0:0,0:0:0:0:
359,264,73603,1,2,0:0:0:0:
359,264,73702,1,2,0:1:0:0:
458,219,73899,1,2,3:0:0:0:
512,312,74097,1,0,1:0:0:0:
276,284,74360,5,2,0:2:0:0:
291,357,74492,1,12,0:1:0:0:
180,181,74689,2,0,P|229:136|228:99,1,104.999992847443,2|0,0:0|0:0,0:0:0:0:
238,93,74886,2,0,L|231:52,6,34.9999976158143,0|0|0|0|2|0|2,3:0|3:0|3:0|3:0|3:0|3:0|3:0,0:0:0:0:
341,139,75281,6,2,P|322:74|311:-6,1,139.999990463257,2|0,1:2|0:0,0:1:0:0:
151,262,75676,2,2,P|141:192|121:125,1,139.999990463257,2|0,0:2|1:0,0:1:0:0:
383,374,76071,2,2,P|412:262|497:248,1,209.999985694886,8|0,3:1|0:0,0:1:0:0:
496,256,76465,5,4,3:0:0:0:
425,158,76663,2,0,P|461:116|443:66,1,104.999996852875,8|2,3:0|0:3,0:0:0:0:
361,43,77057,1,8,0:0:0:0:
339,138,77255,2,0,P|329:89|364:53,1,104.999996852875,0|2,1:0|0:3,0:0:0:0:
165,290,77649,5,12,3:1:0:0:
17,241,77847,1,2,3:0:0:0:
72,216,77946,1,2,3:0:0:0:
87,163,78044,2,0,P|73:113|64:88,1,69.9999952316285,2|8,3:2|3:0,0:0:0:0:
134,18,78242,6,2,P|165:123|188:199,1,174.999988079071,4|0,3:3|1:0,0:1:0:0:
364,52,78636,1,2,0:0:0:0:
176,192,78834,1,2,0:0:0:0:
345,324,79031,2,0,P|360:278|368:257,1,69.9999952316285,2|0,1:2|0:0,0:0:0:0:
275,83,79228,1,8,3:1:0:0:
456,266,79426,1,2,0:0:0:0:
185,367,79623,5,2,1:2:0:0:
185,367,79821,2,0,P|218:329|207:280,1,104.999996852875,8|2,3:0|0:0,0:0:0:0:
82,348,80215,1,8,0:0:0:0:
111,255,80413,2,0,P|77:292|90:341,1,104.999996852875,0|2,1:0|0:3,0:0:0:0:
393,154,80807,5,12,0:1:0:0:
393,154,81202,2,0,L|357:163,3,34.9999976158143,0|0|0|0,3:0|3:0|3:0|3:0,0:0:0:0:
400,140,81399,6,2,P|361:72|268:90,1,174.999988079071,2|0,3:2|1:0,0:1:0:0:
191,289,81794,1,2,0:0:0:0:
113,67,81992,1,2,0:0:0:0:
296,206,82189,2,0,P|255:215|223:224,1,69.9999952316285,2|0,1:2|0:0,0:0:0:0:
70,151,82386,1,8,3:1:0:0:
275,9,82584,1,2,0:0:0:0:
380,252,82781,5,2,1:2:0:0:
380,252,82978,2,0,P|352:208|373:155,1,104.999996852875,8|2,3:0|0:0,0:0:0:0:
512,178,83372,1,8,0:0:0:0:
472,269,83571,2,0,P|511:237|510:180,1,104.999996852875,0|2,1:0|0:3,0:0:0:0:
308,348,83965,5,12,3:1:0:0:
405,372,84163,1,8,3:0:0:0:
224,98,84360,5,4,3:3:0:0:
100,80,84557,1,4,3:0:0:0:
100,80,84655,1,2,3:0:0:0:
100,80,84755,2,2,B|147:97|141:153|141:153|89:196|108:260,1,209.999985694886,6|0,1:2|0:0,0:1:0:0:
118,261,85149,1,2,0:3:0:0:
22,131,85347,1,2,1:2:0:0:
273,372,85544,6,0,P|310:355|343:348,1,69.9999952316285,8|0,0:1|0:0,0:0:0:0:
421,288,85742,2,0,P|358:273|287:233,2,139.999990463257,2|0|2,0:0|1:0|0:0,0:0:0:0:
494,198,86235,1,2,0:0:0:0:
494,198,86334,1,2,0:1:0:0:
430,279,86531,1,2,3:0:0:0:
512,344,86728,1,0,1:0:0:0:
271,374,86992,5,2,0:2:0:0:
346,349,87124,1,12,0:1:0:0:
98,314,87321,2,0,P|49:283|54:243,1,104.999992847443,2|0,0:0|0:0,0:0:0:0:
64,237,87518,2,0,L|71:196,6,34.9999976158143,0|0|0|0|2|0|2,3:0|3:0|3:0|3:0|3:0|3:0|3:0,0:0:0:0:
153,177,87913,6,2,P|134:112|123:32,1,139.999990463257,2|0,1:2|0:0,0:1:0:0:
343,137,88308,2,2,P|333:67|313:0,1,139.999990463257,2|0,0:2|1:0,0:1:0:0:
236,381,88702,2,2,P|190:292|96:316,1,209.999985694886,8|0,3:1|0:0,0:1:0:0:
104,323,89096,5,4,3:0:0:0:
153,177,89294,2,0,P|163:122|122:88,1,104.999996852875,8|2,3:0|0:3,0:0:0:0:
41,109,89688,1,8,0:0:0:0:
69,202,89886,2,0,P|35:164|48:115,1,104.999996852875,0|2,1:0|0:3,0:0:0:0:
323,282,90281,5,12,3:1:0:0:
480,198,90479,1,2,3:0:0:0:
462,141,90578,1,2,3:0:0:0:
410,119,90676,2,0,P|370:128|324:142,1,69.9999952316285,2|8,3:2|3:0,0:0:0:0:
234,78,90873,6,2,P|322:59|405:35,1,174.999988079071,4|0,3:3|1:0,0:1:0:0:
323,282,91268,1,2,0:0:0:0:
410,41,91465,1,2,0:0:0:0:
186,150,91663,2,0,P|232:165|253:173,1,69.9999952316285,2|0,1:2|0:0,0:0:0:0:
433,273,91860,1,8,3:1:0:0:
315,27,92057,1,2,0:0:0:0:
157,247,92255,5,2,1:2:0:0:
157,247,92452,2,0,P|190:209|179:160,1,104.999996852875,8|2,3:0|0:0,0:0:0:0:
45,227,92846,1,8,0:0:0:0:
74,134,93044,2,0,P|40:171|53:220,1,104.999996852875,0|2,1:0|0:3,0:0:0:0:
402,368,93439,5,12,0:1:0:0:
402,368,93834,2,0,L|363:381,3,34.9999976158143,0|0|0|0,3:0|3:0|3:0|3:0,0:0:0:0:
414,372,94031,6,2,P|438:313|362:249,1,174.999988079071,2|0,3:2|1:0,0:1:0:0:
187,365,94426,1,2,0:0:0:0:
75,147,94623,1,2,0:0:0:0:
294,180,94821,2,0,P|253:189|221:198,1,69.9999952316285,2|0,1:2|0:0,0:0:0:0:
42,315,95018,1,8,3:1:0:0:
171,123,95215,1,2,0:0:0:0:
290,305,95413,5,2,1:2:0:0:
290,305,95610,2,0,P|314:258|370:250,1,104.999996852875,8|2,3:0|0:0,0:0:0:0:
508,361,96005,1,8,0:0:0:0:
446,293,96202,2,0,P|458:342|502:369,1,104.999996852875,0|2,1:0|0:3,0:0:0:0:
320,97,96597,5,12,3:1:0:0:
342,9,96795,1,8,3:0:0:0:
139,216,96992,5,4,3:2:0:0:
44,183,97189,1,4,3:0:0:0:
44,183,97287,1,2,3:0:0:0:
44,183,97386,6,2,P|151:201|225:316,1,230.999986467362,4|2,1:2|0:2,0:1:0:0:
194,382,97978,1,0,1:0:0:0:
454,96,98176,6,0,P|401:116|367:169,1,115.499993233681,8|2,0:1|0:3,0:0:0:0:
501,350,98571,1,4,3:0:0:0:
411,375,98768,2,0,P|432:305|449:259,1,115.499993233681,8|2,3:0|0:3,0:0:0:0:
300,319,99163,2,0,P|328:307|358:299,1,57.7499966168404,8|0,0:0|0:0,0:0:0:0:
501,350,99360,1,8,1:3:0:0:
368,163,99557,5,2,3:2:0:0:
368,163,99656,1,2,0:3:0:0:
368,163,99755,2,0,P|348:107|319:53,1,115.499993233681,14|2,0:1|0:0,0:0:0:0:
139,149,100149,2,0,L|150:109,2,28.8749983084202,2|0|0,3:0|3:0|3:0,0:0:0:0:
224,158,100347,2,0,L|264:147,2,28.8749983084202,2|0|0,3:1|3:0|3:0,0:0:0:0:
217,170,100544,6,0,P|134:204|43:315,1,230.999986467362,0|2,1:2|0:3,0:0:0:0:
138,376,101136,1,0,1:0:0:0:
0,22,101334,6,0,P|47:63|60:121,1,115.499993233681,8|2,0:1|0:3,0:0:0:0:
271,232,101728,1,4,3:0:0:0:
348,197,101925,2,0,P|337:151|316:76,1,115.499993233681,8|2,3:0|0:3,0:0:0:0:
463,272,102320,2,0,P|435:260|405:252,1,57.7499966168404,8|0,0:0|0:0,0:0:0:0:
271,232,102518,1,8,1:3:0:0:
449,44,102715,5,8,3:0:0:0:
449,44,102814,1,2,0:3:0:0:
449,44,102913,1,14,0:1:0:0:
271,232,103110,5,2,3:2:0:0:
262,195,103209,1,2,3:0:0:0:
239,154,103307,1,8,3:3:0:0:
199,115,103406,1,8,3:0:0:0:
149,91,103505,1,4,3:3:0:0:
92,78,103603,1,4,3:0:0:0:
37,101,103702,6,2,P|127:89|237:-2,1,230.999986467362,6|2,1:2|0:2,0:1:0:0:
298,66,104294,1,0,1:0:0:0:
65,313,104492,6,0,P|47:261|101:222,1,115.499993233681,8|2,0:1|0:3,0:0:0:0:
232,367,104886,1,4,3:0:0:0:
145,90,105084,6,2,B|224:59|261:131|254:137|243:145|299:211|368:179,1,262.499982118607,8|0,3:0|0:0,0:1:0:0:
361,168,105478,2,0,P|311:195|310:249,1,87.4999940395356,10|0,0:0|0:0,0:0:0:0:
493,371,105676,2,0,P|470:296|442:189,1,174.999988079071,2|2,1:2|0:0,0:0:0:0:
198,155,106071,6,0,P|227:116|220:61,1,87.4999940395356,14|0,0:1|0:0,0:0:0:0:
91,27,106268,2,0,P|62:66|69:121,1,87.4999940395356,2|2,0:2|0:3,0:0:0:0:
112,200,106465,2,0,L|121:243,6,43.7499970197678,2|0|0|0|0|0|0,3:1|3:0|3:0|3:0|3:0|3:0|3:0,0:0:0:0:
102,207,106860,6,2,P|195:245|259:361,1,230.999986467362,0|2,1:2|0:3,0:1:0:0:
173,383,107452,1,0,1:0:0:0:
504,112,107650,6,0,P|457:153|444:211,1,115.499993233681,8|2,0:1|0:3,0:0:0:0:
214,136,108044,1,4,3:0:0:0:
290,111,108241,2,0,P|279:65|260:-7,1,115.499993233681,8|2,3:0|0:3,0:0:0:0:
419,68,108636,2,0,P|391:56|361:48,1,57.7499966168404,8|0,0:0|0:0,0:0:0:0:
185,32,108834,5,2,3:0:0:0:
185,32,109031,1,2,3:0:0:0:
344,230,109228,5,12,3:1:0:0:
370,141,109426,1,8,3:0:0:0:
182,369,109623,5,4,3:2:0:0:
167,309,109722,1,2,3:0:0:0:
121,264,109821,1,4,3:0:0:0:
62,248,109919,1,2,3:0:0:0:
6,267,110018,1,4,1:2:0:0:
6,267,110610,5,0,1:0:0:0:
225,129,110807,1,10,0:2:0:0:
133,99,111005,6,0,P|118:34|110:9,1,69.9999952316285,2|2,0:0|1:3,0:0:0:0:
317,234,111399,2,0,P|332:169|340:144,1,69.9999952316285,2|0,0:0|0:0,0:0:0:0:
102,327,111794,1,2,0:0:0:0:
102,327,111992,2,0,P|87:262|79:237,1,69.9999952316285,2|2,1:3|0:0,0:0:0:0:
392,370,112386,5,12,0:1:0:0:
392,370,112781,2,0,L|397:341,6,26.2499992132187,2|0|0|0|2|0|0,3:3|3:0|3:0|3:0|3:2|3:0|3:0,0:0:0:0:
378,365,113176,6,0,P|409:318|497:287,1,139.999990463257,2|2,1:2|0:3,0:0:0:0:
509,199,113768,1,0,1:0:0:0:
327,50,113965,1,8,0:0:0:0:
327,50,114360,5,4,3:3:0:0:
389,101,114557,2,0,P|408:57|400:23,1,69.9999952316285,8|0,3:0|0:0,0:0:0:0:
240,71,114952,1,8,0:0:0:0:
265,0,115149,2,0,P|245:43|253:77,1,69.9999952316285,2|0,1:3|3:0,0:0:0:0:
40,161,115544,5,8,3:1:0:0:
156,131,115742,1,8,3:0:0:0:
37,313,115939,6,0,L|15:309,2,17.4999988079071,4|0|0,3:0|3:0|3:0,0:0:0:0:
191,340,116136,2,0,L|212:343,2,17.4999988079071,4|0|0,3:0|3:0|3:0,0:0:0:0:
113,325,116334,1,0,1:0:0:0:
113,325,116926,5,0,1:0:0:0:
321,179,117123,1,10,0:2:0:0:
348,252,117321,6,0,P|413:267|438:275,1,69.9999952316285,2|2,0:0|1:3,0:0:0:0:
269,104,117715,2,0,P|284:39|292:14,1,69.9999952316285,2|0,0:0|0:0,0:0:0:0:
106,169,118110,1,2,0:0:0:0:
106,169,118307,2,0,P|91:104|83:79,1,69.9999952316285,2|2,1:3|0:0,0:0:0:0:
10,371,118702,5,12,0:1:0:0:
113,325,118899,1,2,0:0:0:0:
10,371,119097,2,0,L|16:342,6,26.2499992132187,2|0|0|0|2|0|0,3:3|3:0|3:0|3:0|3:2|3:0|3:0,0:0:0:0:
23,367,119492,6,0,P|32:318|54:224,1,139.999990463257,2|2,1:2|0:3,0:0:0:0:
106,169,120084,1,0,1:0:0:0:
311,327,120281,1,8,0:0:0:0:
311,327,120676,5,4,3:0:0:0:
490,189,120873,2,0,P|480:215|475:231,1,41.999995857239,2|0,0:0|0:0,0:0:0:0:
376,269,121071,2,2,P|405:185|434:115,1,146.999985500336,2|0,0:0|0:0,0:1:0:0:
398,56,121465,1,2,3:2:0:0:
438,128,121663,1,2,3:0:0:0:
227,293,121860,5,10,3:1:0:0:
270,76,122057,1,8,3:0:0:0:
467,232,122254,5,2,3:1:0:0:
51,148,122452,1,4,3:0:0:0:
137,45,122649,1,0,1:2:0:0:
137,45,123242,5,0,1:2:0:0:
84,301,123439,1,10,0:0:0:0:
154,249,123636,6,0,P|143:206|131:169,1,69.9999952316285,2|2,0:0|1:3,0:0:0:0:
312,305,124031,2,0,P|324:348|335:384,1,69.9999952316285,2|0,0:0|0:0,0:0:0:0:
478,154,124426,1,2,0:0:0:0:
405,219,124623,1,2,1:3:0:0:
502,250,124821,1,2,0:0:0:0:
336,28,125018,5,12,0:1:0:0:
336,28,125414,2,0,L|340:59,6,26.2499992132187,2|0|0|0|2|0|0,3:3|3:0|3:0|3:0|3:2|3:0|3:0,0:0:0:0:
348,26,125807,6,0,P|314:82|281:159,1,139.999990463257,2|2,1:2|0:3,0:0:0:0:
218,82,126399,1,0,1:0:0:0:
395,303,126597,1,8,0:0:0:0:
395,303,126992,5,4,3:3:0:0:
333,354,127189,2,0,P|314:310|322:276,1,69.9999952316285,8|0,3:0|0:0,0:0:0:0:
482,324,127584,1,8,0:0:0:0:
457,253,127781,2,0,P|477:296|469:330,1,69.9999952316285,2|0,1:3|3:0,0:0:0:0:
224,239,128176,5,8,3:1:0:0:
194,355,128374,1,8,3:0:0:0:
30,151,128571,6,0,L|26:129,2,17.4999988079071,4|0|0,3:0|3:0|3:0,0:0:0:0:
57,305,128768,2,0,L|60:326,2,17.4999988079071,4|0|0,3:0|3:0|3:0,0:0:0:0:
42,227,128966,1,0,1:0:0:0:
42,227,129557,5,0,1:0:0:0:
313,121,129754,1,10,0:2:0:0:
378,174,129952,6,0,P|424:165|459:153,1,69.9999952316285,2|2,0:0|1:3,0:0:0:0:
216,20,130347,2,0,P|229:66|236:99,1,69.9999952316285,2|0,0:0|0:0,0:0:0:0:
42,227,130742,1,2,0:0:0:0:
115,162,130939,1,2,1:3:0:0:
18,131,131137,1,2,0:0:0:0:
226,360,131334,5,12,0:1:0:0:
226,360,131531,1,2,0:0:0:0:
291,240,131728,2,0,L|280:198,6,26.2499992132187,0|0|0|0|2|0|0,3:0|3:0|3:0|3:0|3:2|3:0|3:0,0:0:0:0:
289,252,132123,6,0,B|368:209|420:294|404:300|384:309|440:389|514:351,1,279.999980926514,2|0,0:0|0:0,0:0:0:0:
259,354,134492,6,0,P|263:371|267:386,1,26.2499992132187,2|0,0:0|0:0,0:0:0:0:
342,371,134689,2,0,P|334:342|326:310,2,52.4999984264374,2|0|0,0:0|0:0|0:0,0:0:0:0:
129,107,135281,6,0,P|101:101|81:95,1,48.99999666214,2|0,0:0|0:0,0:0:0:0:
363,84,136071,2,0,P|383:63|399:47,1,48.99999666214,2|0,0:0|0:0,0:0:0:0:
269,297,136860,2,0,P|278:319|287:342,1,48.99999666214,2|0,0:0|0:0,0:0:0:0:
431,136,137649,6,0,P|457:142|480:149,1,48.99999666214,6|0,0:0|0:0,0:0:0:0:
109,258,138439,6,0,P|74:250|54:245,1,55.9999961853028,6|0,0:0|0:3,0:0:0:0:
206,353,140807,5,6,0:0:0:0:
206,353,141005,2,0,P|185:357|163:361,1,43.7499970197678,6|0,0:0|0:0,0:0:0:0:
343,230,141202,2,0,P|364:226|407:218,1,61.2499964118004,2|0,0:0|0:0,0:0:0:0:
117,127,141399,2,0,P|70:137|25:148,1,78.7499976396561,2|0,0:0|0:0,0:0:0:0:
501,10,141597,6,2,B|430:-6|417:54|419:61|422:66|400:129|328:101,1,220.499978250504,6|0,1:2|0:0,0:1:0:0:
333,91,141992,1,2,0:3:0:0:
504,140,142189,1,2,1:2:0:0:
138,291,142386,6,0,P|152:331|163:363,1,73.4999927501682,8|0,0:1|0:0,0:0:0:0:
252,377,142584,2,0,P|223:303|200:221,2,146.999985500336,2|0|2,0:0|1:0|0:0,0:0:0:0:
310,272,143077,1,2,0:0:0:0:
310,272,143176,1,2,0:1:0:0:
195,233,143373,1,2,3:0:0:0:
153,360,143571,1,0,1:0:0:0:
75,199,143834,5,2,0:2:0:0:
0,220,143965,1,12,0:1:0:0:
277,176,144163,2,0,P|228:131|232:84,1,110.249989125252,2|0,0:0|0:0,0:0:0:0:
240,86,144360,2,0,L|248:41,6,36.7499963750841,0|0|0|0|2|0|2,3:0|3:0|3:0|3:0|3:0|3:0|3:0,0:0:0:0:
138,143,144755,6,2,P|156:79|172:-8,1,146.999985500336,2|0,1:2|0:0,0:1:0:0:
311,256,145149,2,2,P|323:185|345:110,1,146.999985500336,2|0,0:2|1:0,0:1:0:0:
153,360,145544,2,2,P|125:251|31:253,1,220.499978250504,8|0,3:1|0:0,0:1:0:0:
39,262,145939,5,4,3:0:0:0:
175,77,146136,2,0,P|182:119|199:187,1,104.999996852875,8|2,3:0|0:3,0:0:0:0:
70,93,146531,1,8,0:0:0:0:
103,202,146728,2,0,P|90:150|80:99,1,104.999996852875,0|2,1:0|0:3,0:0:0:0:
346,331,147123,5,12,3:1:0:0:
392,123,147321,1,2,3:0:0:0:
416,180,147420,1,2,3:0:0:0:
465,207,147518,1,2,3:2:0:0:
511,185,147617,1,8,3:3:0:0:
512,150,147715,6,2,P|455:179|365:265,1,174.999988079071,4|0,3:3|1:0,0:1:0:0:
204,60,148109,1,2,0:0:0:0:
378,261,148306,1,2,0:0:0:0:
127,220,148505,2,0,P|168:211|208:200,1,73.4999927501682,2|0,1:2|0:0,0:0:0:0:
349,41,148702,1,8,3:1:0:0:
246,284,148899,1,2,0:0:0:0:
102,142,149097,5,4,3:0:0:0:
102,142,149294,2,0,P|55:151|-11:167,1,104.999996852875,8|2,3:0|0:2,0:0:0:0:
127,221,149689,1,8,0:0:0:0:
18,254,149886,2,0,P|70:241|121:231,1,104.999996852875,0|2,1:0|0:3,0:0:0:0:
485,375,150281,5,12,0:1:0:0:
401,333,150478,1,2,3:0:0:0:
401,333,150577,1,2,3:0:0:0:
401,333,150676,2,0,L|361:343,3,36.7499963750841,0|0|0|0,3:0|3:0|3:0|3:0,0:0:0:0:
410,324,150873,6,2,P|429:243|457:148,1,174.999988079071,2|0,3:2|1:0,0:1:0:0:
266,15,151268,1,2,0:0:0:0:
462,148,151465,1,2,0:0:0:0:
296,238,151663,2,0,P|308:203|317:159,1,73.4999927501682,2|0,1:2|0:0,0:0:0:0:
447,50,151860,1,8,3:1:0:0:
201,94,152057,1,2,0:0:0:0:
231,374,152255,5,2,1:2:0:0:
231,374,152452,2,0,P|216:319|185:267,1,104.999996852875,8|2,3:0|0:0,0:0:0:0:
79,221,152847,1,8,0:0:0:0:
33,317,153044,2,0,P|62:281|91:218,1,104.999996852875,0|2,1:0|0:3,0:0:0:0:
244,12,153439,5,12,3:1:0:0:
268,109,153636,1,8,3:0:0:0:
459,302,153834,5,4,3:3:0:0:
444,186,154031,1,4,3:0:0:0:
444,186,154130,1,2,3:0:0:0:
444,186,154228,2,2,B|393:203|399:263|399:263|454:308|434:375,1,220.499978250504,6|0,1:2|0:0,0:1:0:0:
423,373,154623,1,2,0:3:0:0:
512,238,154821,1,2,1:2:0:0:
113,120,155018,6,0,P|150:103|185:96,1,73.4999927501682,8|0,0:1|0:0,0:0:0:0:
155,0,155215,2,0,P|94:34|12:52,2,146.999985500336,2|0|2,0:0|1:0|0:0,0:0:0:0:
268,109,155709,1,2,0:0:0:0:
268,109,155807,1,2,0:1:0:0:
310,9,156005,1,2,3:0:0:0:
174,89,156202,1,0,1:0:0:0:
415,167,156465,5,2,0:2:0:0:
490,146,156597,1,12,0:1:0:0:
284,224,156794,2,0,P|333:269|326:326,1,110.249989125252,2|0,0:0|0:0,0:0:0:0:
323,317,156992,2,0,L|315:365,6,36.7499963750841,0|0|0|0|2|0|2,3:0|3:0|3:0|3:0|3:0|3:0|3:0,0:0:0:0:
437,369,157386,6,2,P|455:305|471:214,1,146.999985500336,2|0,1:2|0:0,0:1:0:0:
170,321,157781,2,2,P|182:250|205:175,1,146.999985500336,2|0,0:2|1:0,0:1:0:0:
371,19,158176,2,2,P|399:128|496:123,1,220.499978250504,8|0,3:1|0:0,0:1:0:0:
485,117,158570,5,4,3:0:0:0:
356,121,158768,2,0,P|363:163|380:231,1,104.999996852875,8|2,3:0|0:3,0:0:0:0:
251,67,159163,1,8,0:0:0:0:
284,176,159360,2,0,P|273:124|261:73,1,104.999996852875,0|2,1:0|0:3,0:0:0:0:
19,303,159755,5,12,3:1:0:0:
222,244,159952,1,2,3:0:0:0:
202,301,160051,1,2,3:0:0:0:
153,327,160149,1,2,3:2:0:0:
107,306,160248,1,8,3:3:0:0:
102,271,160347,6,2,P|159:300|247:383,1,174.999988079071,4|0,3:3|1:0,0:1:0:0:
507,237,160742,1,2,0:0:0:0:
250,372,160939,1,2,0:0:0:0:
347,117,161136,2,0,P|356:158|365:198,1,73.4999927501682,2|0,1:2|0:0,0:0:0:0:
484,368,161334,1,8,3:1:0:0:
222,244,161531,1,2,0:0:0:0:
410,62,161728,5,2,1:2:0:0:
409,61,161926,2,0,P|467:73|533:89,1,104.999996852875,8|2,3:0|0:0,0:0:0:0:
236,44,162321,1,8,0:0:0:0:
328,15,162518,2,0,P|275:27|211:41,1,104.999996852875,0|2,1:0|0:3,0:0:0:0:
496,304,162913,5,12,0:1:0:0:
439,365,163110,1,2,3:0:0:0:
439,365,163209,1,2,3:0:0:0:
439,365,163307,2,0,L|399:355,3,36.7499963750841,0|0|0|0,3:0|3:0|3:0|3:0,0:0:0:0:
445,373,163505,6,2,P|408:314|364:206,1,174.999988079071,2|0,3:2|1:0,0:1:0:0:
499,8,163899,1,2,0:0:0:0:
362,224,164097,1,2,0:0:0:0:
180,38,164294,2,0,P|221:47|256:57,1,73.4999927501682,2|0,1:2|0:0,0:0:0:0:
488,138,164492,1,8,3:1:0:0:
237,313,164689,1,2,0:0:0:0:
92,110,164886,5,2,1:2:0:0:
92,110,165084,2,0,P|83:166|70:223,1,104.999996852875,8|2,3:0|0:0,0:0:0:0:
264,50,165479,1,8,0:0:0:0:
231,158,165676,2,0,P|239:106|250:54,1,104.999996852875,0|2,1:0|0:3,0:0:0:0:
5,292,166071,5,12,3:1:0:0:
71,373,166269,1,8,3:0:0:0:
404,230,166465,5,6,3:2:0:0:
484,320,166663,1,4,3:0:0:0:
484,320,166761,1,2,3:0:0:0:
484,320,167255,6,0,P|491:289|503:253,1,69.9999952316285,2|0,0:0|0:0,0:0:0:0:
419,371,167649,2,0,B|340:406|295:318|305:314|319:308|274:224|194:263,1,279.999980926514,8|0,0:0|0:0,0:0:0:0:
76,19,169228,6,0,P|83:53|89:87,1,69.9999952316285,2|2,0:0|0:0,0:0:0:0:
189,72,169623,1,2,0:0:0:0:
189,72,169821,1,2,0:0:0:0:
3,107,170018,2,0,B|83:95|158:147|142:239|142:239|133:191|88:184,1,279.999980926514,4|8,0:0|0:0,0:0:0:0:
484,320,172386,6,0,P|491:289|503:253,1,69.9999952316285,2|2,0:0|0:0,0:0:0:0:
337,235,172781,1,2,0:0:0:0:
378,369,172978,2,0,P|389:335|397:301,1,69.9999952316285,2|0,0:0|0:0,0:0:0:0:
397,301,173571,1,2,0:0:0:0:
37,358,173965,2,0,B|85:380|113:325|106:323|98:319|125:267|175:291,1,174.999988079071,8|0,0:0|0:0,0:0:0:0:
173,305,174557,6,0,P|149:232|130:150,1,153.99999420929,2|2,0:1|0:0,0:0:0:0:
87,370,175149,2,0,P|71:315|59:291,1,76.9999971046448,2|0,0:1|0:0,0:0:0:0:
131,156,175544,1,2,0:0:0:0:
219,178,175742,1,2,0:0:0:0:
122,147,175939,1,2,0:0:0:0:
375,373,176334,6,0,B|363:292|415:217|507:233|507:233|459:242|452:287,1,279.999980926514,6|8,0:1|0:0,0:0:0:0:
304,88,178702,6,0,P|311:41|289:19,1,69.9999952316285,2|2,0:0|0:0,0:0:0:0:
212,98,179097,1,2,0:0:0:0:
212,98,179294,2,0,P|196:67|207:35,1,69.9999952316285,2|4,0:0|0:0,0:0:0:0:
207,35,179886,6,0,P|146:152|37:156,1,251.999975143434,2|0,0:0|0:0,0:0:0:0:
401,367,181860,6,0,P|408:338|415:315,1,41.999995857239,2|2,0:0|0:0,0:0:0:0:
487,369,182255,1,2,0:0:0:0:
487,369,182452,1,2,0:0:0:0:
322,273,182649,2,0,P|409:248|501:222,1,167.999983428956,4|0,0:0|0:0,0:0:0:0:
30,198,185018,6,0,P|17:159|13:149,1,41.999995857239,2|2,0:0|0:0,0:0:0:0:
112,173,185413,1,2,0:0:0:0:
112,173,185610,2,0,P|104:153|98:133,1,41.999995857239,2|4,0:0|0:0,0:0:0:0:
98,133,186202,2,0,P|70:207|38:309,1,167.999983428956,2|0,0:0|0:0,0:0:0:0:
281,368,187189,6,0,P|282:336|231:309,1,83.9999917144779,2|2,0:0|0:0,0:0:0:0:
158,251,187781,2,0,P|186:244|207:237,1,41.999995857239,2|0,0:0|0:0,0:0:0:0:
261,147,188176,1,2,0:0:0:0:
258,139,188373,1,2,0:0:0:0:
253,144,188571,1,2,0:0:0:0:
438,369,188965,6,0,P|462:276|477:223,1,139.999990463257,6|0,0:0|0:0,0:0:0:0:
127,158,191334,6,0,P|132:185|135:199,1,34.9999976158143,2|0,0:0|0:0,0:0:0:0:
53,174,191728,2,0,P|58:201|61:215,1,34.9999976158143,2|0,0:0|0:0,0:0:0:0:
256,32,192123,5,4,0:0:0:0:
