osu file format v14

[General]
AudioFilename: audio.mp3
AudioLeadIn: 0
PreviewTime: 71334
Countdown: 0
SampleSet: Soft
StackLeniency: 0.4
Mode: 0
LetterboxInBreaks: 0
WidescreenStoryboard: 1

[Editor]
Bookmarks: 2650,15281,40544,65807,72123,97386,110018,135281,141597,166860,188965
DistanceSpacing: 1
BeatDivisor: 4
GridSize: 32
TimelineZoom: 3.5

[Metadata]
Title:If Our Love Is Wrong
TitleUnicode:If Our Love Is Wrong
Artist:Calum Scott
ArtistUnicode:Calum Scott
Creator:Altai
Version:Normal
Source:
Tags:english pop ballad fraser t. t smith aistre seolv lukas [_l_u_k_a_s_] alphabet venax undeadphoneguy only human callum gay pride
BeatmapID:3060385
BeatmapSetID:1492986

[Difficulty]
HPDrainRate:4
CircleSize:3.2
OverallDifficulty:4
ApproachRate:5
SliderMultiplier:1.09999990463257
SliderTickRate:1

[Events]
//Background and Video events
0,0,"scott.png",0,0
//Break Periods
//Storyboard Layer 0 (Background)
//Storyboard Layer 1 (Fail)
//Storyboard Layer 2 (Pass)
//Storyboard Layer 3 (Foreground)
//Storyboard Layer 4 (Overlay)
//Storyboard Sound Samples

[TimingPoints]
2650,394.736842105263,4,2,1,100,1,0
12123,-100,4,2,1,10,0,0
12518,-100,4,2,1,20,0,0
12913,-100,4,2,1,40,0,0
13307,-100,4,2,1,45,0,0
13702,-100,4,2,1,50,0,0
14097,-100,4,2,1,55,0,0
14492,-100,4,2,1,60,0,0
14886,-100,4,2,1,65,0,0
15281,-100,4,2,1,55,0,0
16071,-117.647058823529,4,2,1,30,0,0
40544,-111.111111111111,4,2,1,45,0,0
42419,-111.111111111111,4,2,1,5,0,0
42518,-111.111111111111,4,2,1,45,0,0
43209,-111.111111111111,4,2,1,5,0,0
43307,-111.111111111111,4,2,1,45,0,0
43998,-111.111111111111,4,2,1,5,0,0
44097,-111.111111111111,4,2,1,45,0,0
48735,-111.111111111111,4,2,1,5,0,0
48834,-111.111111111111,4,2,1,45,0,0
49524,-111.111111111111,4,2,1,5,0,0
49623,-111.111111111111,4,2,1,45,0,0
50314,-111.111111111111,4,2,1,5,0,0
50413,-111.111111111111,4,2,1,45,0,0
51893,-111.111111111111,4,2,1,5,0,0
51992,-111.111111111111,4,2,1,45,0,0
53176,-111.111111111111,4,2,1,35,0,0
53242,-111.111111111111,4,2,1,55,0,0
53965,-111.111111111111,4,2,1,45,0,0
63834,-111.111111111111,4,2,1,40,0,0
65709,-111.111111111111,4,2,1,5,0,0
65807,-117.647058823529,4,2,1,40,0,0
66498,-117.647058823529,4,2,1,5,0,0
66597,-117.647058823529,4,2,1,40,0,0
67288,-117.647058823529,4,2,1,5,0,0
67386,-117.647058823529,4,2,1,40,0,0
68077,-117.647058823529,4,2,1,5,0,0
68176,-117.647058823529,4,2,1,40,0,0
68867,-117.647058823529,4,2,1,5,0,0
68965,-117.647058823529,4,2,1,45,0,0
71334,-117.647058823529,4,2,1,55,0,0
71728,-117.647058823529,4,2,1,60,0,0
72123,-100,4,2,1,85,0,1
72419,-100,4,2,1,5,0,1
72518,-100,4,2,1,85,0,1
74837,-100,4,2,1,5,0,1
74886,-100,4,2,1,85,0,1
76367,-100,4,2,1,5,0,1
76465,-100,4,2,1,85,0,1
85051,-100,4,2,1,5,0,1
85149,-100,4,2,1,85,0,1
87469,-100,4,2,1,5,0,1
87518,-100,4,2,1,85,0,1
110018,-111.111111111111,4,2,1,65,0,0
120873,-111.111111111111,4,2,1,70,0,0
121367,-111.111111111111,4,2,1,5,0,0
121465,-111.111111111111,4,2,1,70,0,0
122649,-111.111111111111,4,2,1,65,0,0
134492,-111.111111111111,4,2,1,55,0,0
135281,-117.647058823529,4,2,1,55,0,0
135972,-117.647058823529,4,2,1,5,0,0
136071,-117.647058823529,4,2,1,55,0,0
136761,-117.647058823529,4,2,1,5,0,0
136860,-117.647058823529,4,2,1,55,0,0
137551,-117.647058823529,4,2,1,5,0,0
137649,-117.647058823529,4,2,1,55,0,0
138340,-117.647058823529,4,2,1,5,0,0
138439,-117.647058823529,4,2,1,55,0,0
140807,-105.263157894737,4,2,1,55,0,0
141597,-95.2380952380952,4,2,1,90,0,1
141893,-95.2380952380952,4,2,1,5,0,1
141992,-95.2380952380952,4,2,1,90,0,1
144311,-95.2380952380952,4,2,1,5,0,1
144360,-95.2380952380952,4,2,1,90,0,1
145840,-95.2380952380952,4,2,1,5,0,1
145939,-95.2380952380952,4,2,1,90,0,1
154524,-95.2380952380952,4,2,1,5,0,1
154623,-95.2380952380952,4,2,1,90,0,1
156942,-95.2380952380952,4,2,1,5,0,1
156992,-95.2380952380952,4,2,1,90,0,1
166071,-100,4,2,1,90,0,1
166663,-105.263157894737,4,2,1,90,0,1
166860,-111.111111111111,4,2,1,65,0,0
167649,-111.111111111111,4,2,1,50,0,0
174459,-111.111111111111,4,2,1,5,0,0
174557,-111.111111111111,4,2,1,50,0,0
179492,-117.647058823529,4,2,1,40,0,0
188965,-117.647058823529,4,2,1,35,0,0

[Colours]
Combo1 : 247,224,64
Combo2 : 255,51,51

[HitObjects]
256,192,12123,12,4,15281,0:0:0:0:
24,351,16071,5,2,0:0:0:0:
24,351,16268,2,0,P|47:313|101:312,1,93.4999936771393,2|2,0:0|0:0,0:0:0:0:
175,352,17057,1,2,0:0:0:0:
245,290,17452,2,0,P|225:212|211:143,1,140.249990515709,2|2,0:0|0:0,0:0:0:0:
138,107,18439,1,2,0:0:0:0:
138,107,18636,1,2,0:0:0:0:
486,301,22386,5,2,0:0:0:0:
486,301,22584,2,0,P|476:258|465:200,2,93.4999936771393,2|2|2,0:0|0:0|0:0,0:0:0:0:
414,361,23768,2,0,P|367:357|336:317,2,93.4999936771393,2|2|2,0:0|0:0|0:0,0:0:0:0:
206,49,26136,5,2,0:0:0:0:
206,49,26334,2,0,P|221:124|225:154,1,93.4999936771393,2|2,0:0|0:0,0:0:0:0:
291,205,27123,2,0,P|280:237|276:260,1,46.7499968385697,2|2,0:0|0:0,0:0:0:0:
293,293,27518,2,0,P|233:313|212:341,1,93.4999936771393,2|0,0:0|0:0,0:0:0:0:
59,240,28702,5,2,0:0:0:0:
59,240,28899,2,0,P|31:298|8:334,2,93.4999936771393,2|2|2,0:0|0:0|0:0,0:0:0:0:
148,211,30084,2,0,P|193:127|228:76,1,140.249990515709,2|2,0:0|0:0,0:0:0:0:
306,60,31071,2,0,P|295:21|290:-3,1,62.3333291180929,2|2,0:0|0:0,0:0:0:0:
427,374,35018,5,2,0:0:0:0:
427,374,35215,1,2,0:0:0:0:
500,315,35610,2,0,P|489:269|437:252,1,93.4999936771393,2|2,0:0|0:0,0:0:0:0:
399,171,36399,2,0,P|353:182|336:234,1,93.4999936771393,2|2,0:0|0:0,0:0:0:0:
247,255,37189,1,2,0:0:0:0:
247,255,37386,2,0,P|260:321|266:359,1,93.4999936771393,2|2,0:0|0:0,0:0:0:0:
36,291,38768,5,2,0:0:0:0:
36,291,38965,2,0,P|56:234|70:183,1,93.4999936771393,2|2,0:0|0:0,0:0:0:0:
132,137,39755,2,0,P|117:104|112:90,1,46.7499968385697,2|2,0:0|0:0,0:0:0:0:
75,66,40149,2,0,P|130:37|157:7,1,93.4999936771393,2|4,0:0|0:0,0:0:0:0:
253,122,41136,5,0,1:0:0:0:
253,122,41334,1,8,0:2:0:0:
325,54,41728,1,2,1:2:0:0:
325,54,41926,2,0,P|394:57|419:133,1,148.499982593537,2|2,0:0|0:0,0:0:0:0:
458,155,42715,1,2,0:0:0:0:
436,301,43307,1,2,0:0:0:0:
436,301,43505,2,0,P|351:326|306:375,1,148.499982593537,2|2,0:0|0:0,0:0:0:0:
287,324,44294,6,0,P|258:318|234:291,1,49.4999941978457,0|8,1:2|3:2,0:0:0:0:
146,327,44886,2,0,P|95:344|48:367,1,98.9999883956914,4|0,3:0|0:0,0:0:0:0:
1,279,45676,1,2,3:0:0:0:
84,225,46071,2,0,P|93:192|99:170,1,49.4999941978457,8|8,3:0|3:0,0:0:0:0:
62,141,46465,2,0,P|79:84|87:41,1,98.9999883956914,4|4,3:0|0:0,0:0:0:0:
234,13,47452,5,0,1:0:0:0:
234,13,47649,1,8,0:0:0:0:
261,113,48044,1,2,1:2:0:0:
261,113,48242,2,0,P|350:102|358:50,1,148.499982593537,2|2,0:0|0:0,0:0:0:0:
401,29,49031,1,2,0:0:0:0:
490,154,49623,1,2,0:0:0:0:
490,154,49821,2,0,P|458:214|436:311,1,148.499982593537,2|2,0:0|0:0,0:0:0:0:
404,327,50610,6,0,B|358:336|344:299|353:296|339:256|281:269,1,148.499982593537,2|4,1:2|3:0,0:0:0:0:
247,305,51399,2,0,P|169:327|108:364,1,148.499982593537,2|2,0:0|3:2,0:0:0:0:
37,295,52386,2,0,P|29:262|24:243,1,49.4999941978457,8|8,3:0|3:0,0:0:0:0:
58,210,52781,2,0,P|39:150|29:94,1,98.9999883956914,4|4,3:0|0:0,0:0:0:0:
211,27,53965,5,10,0:0:0:0:
211,27,54163,2,0,P|264:60|257:108,2,98.9999883956914,2|2|2,0:0|0:0|0:0,0:0:0:0:
130,84,55347,2,0,P|143:140|154:193,1,98.9999883956914,2|2,0:0|0:0,0:0:0:0:
111,271,56136,1,2,0:0:0:0:
111,271,56334,6,0,P|172:304|196:333,1,98.9999883956914,2|2,0:0|0:0,0:0:0:0:
213,370,56926,2,0,P|249:348|272:347,1,49.4999941978457,0|8,1:0|0:0,0:0:0:0:
334,286,57518,2,0,P|367:315|431:327,1,98.9999883956914,4|0,3:0|0:0,0:0:0:0:
494,262,58307,1,2,3:0:0:0:
426,189,58702,2,0,P|435:156|441:134,1,49.4999941978457,8|8,3:0|3:0,0:0:0:0:
479,113,59097,2,0,P|496:56|505:4,1,98.9999883956914,4|4,3:0|0:0,0:0:0:0:
306,37,60281,6,0,P|274:43|243:109,1,98.9999883956914,10|4,0:0|3:3,0:0:0:0:
198,121,60873,2,0,P|234:167|226:215,1,98.9999883956914,2|2,0:0|0:0,0:0:0:0:
140,245,61663,2,0,P|104:199|112:151,1,98.9999883956914,2|2,0:0|0:0,0:0:0:0:
74,73,62452,5,2,0:0:0:0:
74,73,62649,2,0,B|44:220|14:362|14:362|31:340|58:337,1,346.49995938492,6|2,0:0|0:0,0:0:0:0:
306,374,65018,1,2,0:0:0:0:
306,374,65215,1,2,0:0:0:0:
434,318,65807,5,2,0:0:0:0:
403,132,66597,1,2,0:0:0:0:
258,251,67386,1,2,0:0:0:0:
122,121,68176,6,0,P|132:75|146:30,1,93.4999936771393,6|0,0:0|0:0,0:0:0:0:
55,5,68965,2,0,P|35:93|7:187,1,186.999987354279,6|0,0:0|0:0,0:0:0:0:
376,108,71334,5,8,3:0:0:0:
376,108,71531,2,0,P|385:62|389:45,2,46.7499968385696,8|4|4,3:0|3:0|3:0,0:0:0:0:
411,150,72123,6,0,P|470:156|461:256,1,164.999985694885,6|2,1:1|1:2,0:0:0:0:
479,305,72913,1,8,0:1:0:0:
479,305,73110,1,2,0:0:0:0:
387,366,73505,1,2,0:0:0:0:
387,366,73702,2,0,P|324:337|260:329,1,109.999990463257,2|0,0:1|1:0,0:0:0:0:
178,360,74492,1,12,0:1:0:0:
178,360,74689,2,0,P|161:294|144:234,1,109.999990463257,2|2,0:0|3:0,0:0:0:0:
102,224,75281,6,0,P|52:190|60:144,1,109.999990463257,2|2,1:1|0:2,0:0:0:0:
155,96,76071,2,0,P|205:130|197:176,1,109.999990463257,10|4,3:1|3:0,0:0:0:0:
242,206,76663,2,0,P|306:221|420:255,1,164.999985694885,8|2,3:0|1:3,0:0:0:0:
492,188,77649,1,12,3:1:0:0:
409,114,78044,5,2,3:2:0:0:
409,114,78242,2,2,P|380:48|295:62,1,164.999985694885,4|2,3:3|0:0,0:1:0:0:
189,43,79228,2,0,P|174:79|161:101,1,54.9999952316285,8|2,3:1|0:0,0:0:0:0:
115,114,79623,2,0,P|90:101|65:91,1,54.9999952316285,2|8,1:2|3:0,0:0:0:0:
16,117,80018,2,0,P|33:190|43:245,1,109.999990463257,2|0,0:0|1:0,0:0:0:0:
0,329,80807,1,12,0:1:0:0:
102,369,81202,5,0,3:0:0:0:
102,369,81399,2,2,P|143:311|192:320,1,109.999990463257,2|2,3:2|0:0,0:1:0:0:
212,353,81992,1,2,0:0:0:0:
321,344,82386,2,0,P|336:308|344:284,1,54.9999952316285,8|2,3:1|0:0,0:0:0:0:
384,258,82781,2,0,P|408:270|433:280,1,54.9999952316285,2|8,1:2|3:0,0:0:0:0:
482,253,83176,2,0,P|471:196|456:132,1,109.999990463257,2|0,0:0|1:0,0:0:0:0:
376,81,83965,1,12,3:1:0:0:
376,81,84163,2,0,P|387:31|392:17,2,54.9999952316285,8|4|4,3:0|3:3|3:0,0:0:0:0:
329,115,84755,6,0,P|261:120|234:37,1,164.999985694885,6|2,1:1|1:2,0:0:0:0:
195,7,85544,1,8,0:1:0:0:
195,7,85742,1,2,0:0:0:0:
94,52,86136,1,2,0:0:0:0:
94,52,86334,2,0,P|109:124|114:173,1,109.999990463257,2|0,0:1|1:0,0:0:0:0:
23,221,87123,1,12,0:1:0:0:
23,221,87321,2,0,P|70:262|94:324,1,109.999990463257,2|2,0:0|3:0,0:0:0:0:
92,359,87913,6,0,P|149:366|172:309,1,109.999990463257,2|2,1:1|0:2,0:0:0:0:
283,334,88702,2,0,P|340:327|363:384,1,109.999990463257,10|4,3:1|3:0,0:0:0:0:
416,347,89294,2,0,P|443:268|478:186,1,164.999985694885,8|2,3:0|1:3,0:0:0:0:
421,96,90281,1,12,3:1:0:0:
320,133,90676,5,2,3:2:0:0:
320,133,90873,2,2,P|239:147|155:191,1,164.999985694885,4|2,3:3|0:0,0:1:0:0:
81,254,91860,2,0,P|92:283|100:310,1,54.9999952316285,8|2,3:1|0:0,0:0:0:0:
148,331,92255,2,0,P|181:317|202:306,1,54.9999952316285,2|8,1:2|3:0,0:0:0:0:
252,309,92649,2,0,P|301:342|355:368,1,109.999990463257,2|0,0:0|1:0,0:0:0:0:
454,343,93439,1,12,0:1:0:0:
433,239,93834,5,0,3:0:0:0:
433,239,94031,2,2,P|372:216|364:176,1,109.999990463257,2|2,3:2|0:0,0:1:0:0:
401,137,94623,1,2,0:0:0:0:
330,52,95018,2,0,P|285:61|264:70,1,54.9999952316285,8|2,3:1|0:0,0:0:0:0:
239,105,95413,2,0,P|208:86|182:77,1,54.9999952316285,2|8,1:2|3:0,0:0:0:0:
138,95,95807,2,0,P|71:112|15:132,1,109.999990463257,2|0,0:0|1:0,0:0:0:0:
4,232,96597,2,0,P|14:265|19:286,1,54.9999952316285,12|8,3:1|3:0,0:0:0:0:
24,339,96992,2,0,P|55:349|89:365,1,54.9999952316285,4|4,3:2|3:0,0:0:0:0:
124,383,97386,6,0,P|162:315|192:272,1,109.999990463257,4|2,1:2|0:0,0:0:0:0:
261,363,98176,1,8,0:1:0:0:
352,301,98571,1,4,3:0:0:0:
352,301,98768,2,0,P|373:239|472:249,1,164.999985694885,8|8,3:0|1:3,0:0:0:0:
458,136,99755,2,0,P|491:126|516:122,2,54.9999952316285,14|2|2,0:1|0:0|3:0,0:0:0:0:
411,106,100347,1,2,3:1:0:0:
411,106,100544,6,0,P|342:86|230:59,1,164.999985694885,0|0,1:2|1:0,0:0:0:0:
228,13,101334,1,8,0:1:0:0:
144,84,101728,1,4,3:0:0:0:
144,84,101926,2,0,P|84:97|72:146,1,109.999990463257,8|8,3:0|0:0,0:0:0:0:
24,168,102518,1,8,1:3:0:0:
75,265,102913,2,0,P|64:298|54:324,2,54.9999952316285,14|2|8,0:1|3:2|3:3,0:0:0:0:
122,242,103505,1,4,3:3:0:0:
122,242,103702,6,0,P|182:254|273:308,1,164.999985694885,6|0,1:2|1:0,0:0:0:0:
302,351,104492,1,8,0:1:0:0:
389,288,104886,1,4,3:0:0:0:
389,288,105084,2,2,P|372:232|406:193,1,109.999990463257,8|10,3:0|0:0,0:1:0:0:
454,180,105676,1,2,1:2:0:0:
422,74,106071,1,14,0:1:0:0:
368,60,106268,1,2,0:2:0:0:
314,47,106465,1,2,3:1:0:0:
228,116,106860,6,2,P|169:126|59:166,1,164.999985694885,0|0,1:2|1:0,0:1:0:0:
23,190,107649,1,8,0:1:0:0:
102,274,108044,1,4,3:0:0:0:
102,274,108242,2,0,P|161:264|271:224,1,164.999985694885,8|2,3:0|3:0,0:0:0:0:
328,315,109228,2,0,P|367:324|388:334,1,54.9999952316285,12|8,3:1|3:0,0:0:0:0:
435,325,109623,2,0,P|448:288|458:263,1,54.9999952316285,4|4,3:2|3:0,0:0:0:0:
500,256,110018,5,4,1:2:0:0:
409,145,110610,1,0,1:0:0:0:
409,145,110807,2,0,P|400:109|393:77,1,49.4999941978457,10|2,0:2|0:0,0:0:0:0:
326,28,111399,2,0,P|273:36|253:92,1,98.9999883956914,2|2,0:0|0:0,0:0:0:0:
278,114,111992,1,2,1:3:0:0:
226,198,112386,1,12,0:1:0:0:
139,150,112781,2,0,P|111:163|86:177,1,49.4999941978457,8|2,3:3|3:2,0:0:0:0:
63,210,113176,6,0,P|83:269|108:355,1,148.499982593537,2|0,1:2|1:0,0:0:0:0:
149,375,113965,1,8,0:0:0:0:
218,304,114360,1,4,3:3:0:0:
218,304,114557,1,8,3:0:0:0:
308,356,114952,1,8,0:0:0:0:
308,356,115149,1,2,1:3:0:0:
327,258,115544,2,0,P|355:252|379:246,1,49.4999941978457,8|8,3:1|3:0,0:0:0:0:
415,275,115939,2,0,P|465:266|518:255,1,98.9999883956914,4|0,3:0|1:0,0:0:0:0:
444,123,116926,5,0,1:0:0:0:
444,123,117123,2,0,P|460:86|456:67,1,49.4999941978457,10|2,0:2|0:0,0:0:0:0:
370,34,117715,2,0,P|343:69|344:135,1,98.9999883956914,2|2,0:0|0:0,0:0:0:0:
244,150,118505,2,0,P|218:134|185:130,1,49.4999941978457,2|12,0:0|0:1,0:0:0:0:
164,94,118899,2,0,P|130:127|60:142,1,98.9999883956914,2|2,0:0|3:2,0:0:0:0:
35,122,119492,6,0,P|59:198|73:274,1,148.499982593537,2|0,1:2|1:0,0:0:0:0:
36,300,120281,1,8,0:0:0:0:
113,361,120676,2,0,P|156:350|171:348,1,49.4999941978457,4|2,3:0|0:0,0:0:0:0:
191,310,121071,2,0,P|242:327|307:340,1,98.9999883956914,2|2,0:0|3:2,0:0:0:0:
381,363,121860,1,10,3:1:0:0:
427,346,122057,1,8,3:0:0:0:
474,332,122255,1,2,3:1:0:0:
507,239,122649,5,0,1:2:0:0:
387,150,123242,1,0,1:2:0:0:
387,150,123439,2,0,P|392:110|397:92,1,49.4999941978457,10|2,0:0|0:0,0:0:0:0:
319,36,124031,2,0,P|269:26|212:16,1,98.9999883956914,2|2,0:0|0:0,0:0:0:0:
189,55,124623,1,2,1:3:0:0:
95,22,125018,1,12,0:1:0:0:
33,99,125413,2,0,P|55:126|65:140,1,49.4999941978457,2|2,3:0|3:2,0:0:0:0:
106,161,125807,6,0,P|171:182|223:246,1,148.499982593537,2|0,1:2|1:0,0:0:0:0:
246,284,126597,1,8,0:0:0:0:
342,251,126992,1,4,3:3:0:0:
342,251,127189,1,8,3:0:0:0:
303,165,127584,1,8,0:0:0:0:
303,165,127781,1,2,1:3:0:0:
255,78,128176,2,0,P|208:72|188:71,1,49.4999941978457,8|8,3:1|3:0,0:0:0:0:
182,28,128571,2,0,P|116:19|67:9,1,98.9999883956914,4|0,3:0|1:0,0:0:0:0:
17,145,129557,5,0,1:0:0:0:
17,145,129755,2,0,P|44:171|49:191,1,49.4999941978457,10|2,0:2|0:0,0:0:0:0:
138,220,130347,2,0,P|105:278|97:325,1,98.9999883956914,2|2,0:0|0:0,0:0:0:0:
190,344,131136,2,0,P|212:313|215:289,1,49.4999941978457,2|12,0:0|0:1,0:0:0:0:
263,292,131531,2,0,P|312:265|361:277,1,98.9999883956914,2|2,0:0|3:2,0:0:0:0:
386,308,132123,1,2,0:0:0:0:
16,31,134492,1,2,0:0:0:0:
16,31,134689,1,2,0:0:0:0:
95,200,135281,5,2,0:0:0:0:
279,170,136071,1,2,0:0:0:0:
463,140,136860,1,2,0:0:0:0:
489,324,137649,6,0,P|445:334|411:375,1,93.4999936771393,6|0,0:0|0:0,0:0:0:0:
325,336,138439,2,0,B|277:362|240:324|246:320|252:317|211:263|159:290,1,186.999987354279,6|0,0:0|0:0,0:0:0:0:
486,28,140807,5,6,0:0:0:0:
451,67,141005,2,0,P|461:96|472:131,2,52.2499940748217,6|2|2,0:0|0:0|0:0,0:0:0:0:
393,59,141597,6,0,P|307:80|306:158,1,173.24997969246,6|2,1:1|1:2,0:0:0:0:
358,182,142386,1,8,0:1:0:0:
358,182,142584,1,2,0:0:0:0:
294,278,142978,1,2,0:0:0:0:
294,278,143176,2,0,P|250:285|186:351,1,115.49998646164,2|0,0:1|1:0,0:0:0:0:
89,366,143965,1,12,0:1:0:0:
89,366,144163,2,0,P|40:323|54:255,1,115.49998646164,2|2,0:0|3:0,0:0:0:0:
82,235,144755,6,0,P|67:180|48:113,1,115.49998646164,2|2,1:1|0:2,0:0:0:0:
163,96,145544,2,0,P|178:151|197:218,1,115.49998646164,10|4,3:1|3:0,0:0:0:0:
248,226,146136,2,0,P|286:166|386:164,1,173.24997969246,8|2,3:0|1:3,0:0:0:0:
495,175,147123,1,12,3:1:0:0:
480,293,147518,5,2,3:2:0:0:
480,293,147715,2,2,B|432:277|404:317|410:320|416:322|387:377|336:361,1,173.24997969246,4|0,3:3|0:0,0:1:0:0:
231,316,148702,2,0,P|221:272|215:238,1,57.74999323082,8|2,3:1|0:0,0:0:0:0:
183,213,149097,2,0,P|140:224|114:229,1,57.74999323082,4|8,3:0|3:0,0:0:0:0:
70,215,149492,2,0,P|48:129|38:98,1,115.49998646164,2|0,0:2|1:0,0:0:0:0:
116,17,150281,1,12,0:1:0:0:
209,95,150676,5,0,3:0:0:0:
209,95,150873,2,2,P|280:90|303:36,1,115.49998646164,2|2,3:2|0:0,0:1:0:0:
323,3,151465,1,2,0:0:0:0:
393,93,151860,2,0,P|424:102|460:110,1,57.74999323082,8|2,3:1|0:0,0:0:0:0:
491,147,152255,2,0,P|474:186|469:207,1,57.74999323082,2|8,1:2|3:0,0:0:0:0:
504,246,152649,2,0,P|444:264|406:320,1,115.49998646164,2|0,0:0|1:0,0:0:0:0:
299,312,153439,1,12,3:1:0:0:
299,312,153636,2,0,P|289:280|279:249,2,57.74999323082,8|4|4,3:0|3:3|3:0,0:0:0:0:
264,357,154228,6,0,P|185:360|113:284,1,173.24997969246,6|2,1:1|1:2,0:0:0:0:
146,250,155018,1,8,0:1:0:0:
146,250,155215,1,2,0:0:0:0:
42,197,155610,1,2,0:0:0:0:
42,197,155807,2,0,P|71:127|73:79,1,115.49998646164,2|0,0:1|1:0,0:0:0:0:
174,27,156597,1,12,0:1:0:0:
174,27,156794,2,0,P|255:48|300:78,1,115.49998646164,2|2,0:0|3:0,0:0:0:0:
339,63,157386,6,0,P|310:100|326:168,1,115.49998646164,2|2,1:1|0:2,0:0:0:0:
431,200,158176,2,0,P|445:254|414:300,1,115.49998646164,10|4,3:1|3:0,0:0:0:0:
415,358,158768,2,0,P|335:328|241:346,1,173.24997969246,8|2,3:0|1:3,0:0:0:0:
187,244,159755,1,12,3:1:0:0:
102,322,160149,5,2,3:2:0:0:
102,322,160347,2,2,P|22:274|44:197,1,173.24997969246,4|2,3:3|0:0,0:1:0:0:
97,109,161334,2,0,P|140:101|164:93,1,57.74999323082,8|2,3:1|0:0,0:0:0:0:
190,140,161728,2,0,P|222:149|246:166,1,57.74999323082,2|8,1:2|3:0,0:0:0:0:
295,139,162123,2,0,P|356:130|409:95,1,115.49998646164,2|0,0:0|1:0,0:0:0:0:
500,161,162913,1,12,0:1:0:0:
468,274,163307,5,0,3:0:0:0:
468,274,163505,2,2,P|407:283|354:318,1,115.49998646164,2|2,3:2|0:0,0:1:0:0:
336,362,164097,1,2,0:0:0:0:
222,340,164492,2,0,P|174:331|156:327,1,57.74999323082,8|2,3:1|0:0,0:0:0:0:
129,283,164886,2,0,P|137:244|146:213,1,57.74999323082,2|8,1:2|3:0,0:0:0:0:
130,169,165281,2,0,P|62:156|11:142,1,115.49998646164,2|0,0:0|1:0,0:0:0:0:
85,50,166071,6,0,P|125:38|143:31,1,54.9999952316285,12|8,3:1|3:0,0:0:0:0:
191,14,166465,1,6,3:2:0:0:
191,14,166663,2,0,P|280:51|296:112,1,156.749982224465,4|2,3:0|0:0,0:0:0:0:
382,151,167649,1,8,0:0:0:0:
48,364,169228,1,2,0:0:0:0:
2,274,169623,2,0,P|23:232|27:217,1,49.4999941978457,2|2,0:0|0:0,0:0:0:0:
71,216,170018,2,0,P|58:145|35:16,1,197.999976791383,4|8,0:0|0:0,0:0:0:0:
431,25,172386,6,0,P|415:63|405:92,1,49.4999941978457,2|2,0:0|0:0,0:0:0:0:
364,86,172781,1,2,0:0:0:0:
364,86,172978,2,0,P|394:177|412:242,1,148.499982593537,2|2,0:0|0:0,0:0:0:0:
501,261,173965,1,8,0:0:0:0:
396,365,174557,6,0,P|350:313|271:325,1,148.499982593537,2|2,0:1|0:1,0:0:0:0:
207,250,175544,2,0,P|217:212|223:194,1,49.4999941978457,2|2,0:0|0:0,0:0:0:0:
237,155,175939,1,2,0:0:0:0:
180,73,176334,2,0,P|98:82|54:183,1,197.999976791383,6|8,0:1|0:0,0:0:0:0:
396,365,178702,5,2,0:0:0:0:
474,304,179097,2,0,P|486:265|496:238,1,49.4999941978457,2|2,0:0|0:0,0:0:0:0:
470,213,179492,2,0,P|414:192|371:173,1,93.4999936771393,4|2,0:0|0:0,0:0:0:0:
0,360,181860,2,0,P|50:333|92:332,1,93.4999936771393,2|2,0:0|0:0,0:0:0:0:
110,291,182452,1,2,0:0:0:0:
110,291,182649,2,0,P|169:335|291:338,1,186.999987354279,4|0,0:0|0:0,0:0:0:0:
61,37,185018,5,2,0:0:0:0:
128,102,185413,2,0,P|169:92|194:90,1,46.7499968385696,2|2,0:0|0:0,0:0:0:0:
201,54,185807,2,0,P|257:77|304:93,1,93.4999936771393,4|2,0:0|0:0,0:0:0:0:
472,231,187189,1,2,0:0:0:0:
430,314,187584,1,2,0:0:0:0:
430,314,187781,2,0,P|373:329|345:361,1,93.4999936771393,2|2,0:0|0:0,0:0:0:0:
268,305,188571,2,0,P|256:256|243:212,1,93.4999936771393,2|6,0:0|0:0,0:0:0:0:
0,17,191334,6,0,P|21:64|32:116,1,93.4999936771393,2|2,0:0|0:0,0:0:0:0:
121,83,192123,1,4,0:0:0:0:
