osu file format v14

[General]
AudioFilename: audio.mp3
AudioLeadIn: 0
PreviewTime: 71334
Countdown: 0
SampleSet: Soft
StackLeniency: 0.4
Mode: 0
LetterboxInBreaks: 0
WidescreenStoryboard: 1

[Editor]
Bookmarks: 2650,15281,40544,65807,72123,97386,110018,135281,141597,166860,188965,192123
DistanceSpacing: 0.8
BeatDivisor: 4
GridSize: 32
TimelineZoom: 4.499999

[Metadata]
Title:If Our Love Is Wrong
TitleUnicode:If Our Love Is Wrong
Artist:Calum Scott
ArtistUnicode:Calum Scott
Creator:Altai
Version:Hard
Source:
Tags:english pop ballad fraser t. t smith aistre seolv lukas [_l_u_k_a_s_] alphabet venax undeadphoneguy only human callum gay pride
BeatmapID:3060384
BeatmapSetID:1492986

[Difficulty]
HPDrainRate:5
CircleSize:3.5
OverallDifficulty:6
ApproachRate:7
SliderMultiplier:1.24999990463257
SliderTickRate:1

[Events]
//Background and Video events
0,0,"scott.png",0,0
//Break Periods
//Storyboard Layer 0 (Background)
//Storyboard Layer 1 (Fail)
//Storyboard Layer 2 (Pass)
//Storyboard Layer 3 (Foreground)
//Storyboard Layer 4 (Overlay)
//Storyboard Sound Samples

[TimingPoints]
2650,394.736842105263,4,2,1,100,1,0
2650,-200,4,2,1,100,0,0
12123,-100,4,2,1,10,0,0
12518,-100,4,2,1,20,0,0
12913,-100,4,2,1,40,0,0
13307,-100,4,2,1,45,0,0
13702,-100,4,2,1,50,0,0
14097,-100,4,2,1,55,0,0
14492,-100,4,2,1,60,0,0
14886,-100,4,2,1,65,0,0
15281,-100,4,2,1,55,0,0
16071,-133.333333333333,4,2,1,30,0,0
40544,-117.647058823529,4,2,1,45,0,0
42419,-117.647058823529,4,2,1,5,0,0
42518,-117.647058823529,4,2,1,45,0,0
43209,-117.647058823529,4,2,1,5,0,0
43307,-117.647058823529,4,2,1,45,0,0
43998,-117.647058823529,4,2,1,5,0,0
44097,-117.647058823529,4,2,1,45,0,0
48735,-117.647058823529,4,2,1,5,0,0
48834,-117.647058823529,4,2,1,45,0,0
49524,-117.647058823529,4,2,1,5,0,0
49623,-117.647058823529,4,2,1,45,0,0
50314,-117.647058823529,4,2,1,5,0,0
50413,-117.647058823529,4,2,1,45,0,0
51893,-117.647058823529,4,2,1,5,0,0
51992,-117.647058823529,4,2,1,45,0,0
53176,-117.647058823529,4,2,1,35,0,0
53242,-117.647058823529,4,2,1,55,0,0
53965,-117.647058823529,4,2,1,45,0,0
62649,-153.846153846154,4,2,1,45,0,0
63834,-153.846153846154,4,2,1,40,0,0
65709,-153.846153846154,4,2,1,5,0,0
65807,-133.333333333333,4,2,1,40,0,0
66498,-133.333333333333,4,2,1,5,0,0
66597,-133.333333333333,4,2,1,40,0,0
67288,-133.333333333333,4,2,1,5,0,0
67386,-133.333333333333,4,2,1,40,0,0
68077,-133.333333333333,4,2,1,5,0,0
68176,-181.818181818182,4,2,1,40,0,0
68867,-181.818181818182,4,2,1,5,0,0
68965,-250,4,2,1,45,0,0
71334,-111.111111111111,4,2,1,55,0,0
71728,-111.111111111111,4,2,1,60,0,0
72123,-80,4,2,1,85,0,1
72419,-80,4,2,1,5,0,1
72518,-80,4,2,1,85,0,1
72913,-95.2380952380952,4,2,1,85,0,1
73702,-80,4,2,1,85,0,1
74492,-95.2380952380952,4,2,1,85,0,1
74837,-95.2380952380952,4,2,1,5,0,1
74886,-95.2380952380952,4,2,1,85,0,1
76367,-95.2380952380952,4,2,1,5,0,1
76465,-95.2380952380952,4,2,1,85,0,1
78242,-74.0740740740741,4,2,1,85,0,1
79228,-95.2380952380952,4,2,1,85,0,1
81399,-74.0740740740741,4,2,1,85,0,1
82386,-95.2380952380952,4,2,1,85,0,1
84755,-80,4,2,1,85,0,1
85051,-80,4,2,1,5,0,1
85149,-80,4,2,1,85,0,1
85544,-95.2380952380952,4,2,1,85,0,1
86334,-80,4,2,1,85,0,1
87123,-95.2380952380952,4,2,1,85,0,1
87469,-95.2380952380952,4,2,1,5,0,1
87518,-95.2380952380952,4,2,1,85,0,1
90873,-74.0740740740741,4,2,1,85,0,1
91860,-95.2380952380952,4,2,1,85,0,1
94031,-74.0740740740741,4,2,1,85,0,1
95018,-95.2380952380952,4,2,1,85,0,1
97386,-86.9565217391304,4,2,1,85,0,1
105084,-80,4,2,1,85,0,1
110018,-117.647058823529,4,2,1,65,0,0
120873,-117.647058823529,4,2,1,70,0,0
121367,-117.647058823529,4,2,1,5,0,0
121465,-117.647058823529,4,2,1,70,0,0
122649,-117.647058823529,4,2,1,65,0,0
132123,-166.666666666667,4,2,1,65,0,0
134492,-166.666666666667,4,2,1,55,0,0
134689,-153.846153846154,4,2,1,55,0,0
135281,-133.333333333333,4,2,1,55,0,0
135972,-133.333333333333,4,2,1,5,0,0
136071,-133.333333333333,4,2,1,55,0,0
136761,-133.333333333333,4,2,1,5,0,0
136860,-133.333333333333,4,2,1,55,0,0
137551,-133.333333333333,4,2,1,5,0,0
137649,-181.818181818182,4,2,1,55,0,0
138340,-181.818181818182,4,2,1,5,0,0
138439,-250,4,2,1,55,0,0
141597,-76.9230769230769,4,2,1,90,0,1
141893,-76.9230769230769,4,2,1,5,0,1
141992,-76.9230769230769,4,2,1,90,0,1
142189,-90.9090909090909,4,2,1,90,0,1
142978,-76.9230769230769,4,2,1,90,0,1
143965,-90.9090909090909,4,2,1,90,0,1
144311,-90.9090909090909,4,2,1,5,0,1
144360,-90.9090909090909,4,2,1,90,0,1
145840,-90.9090909090909,4,2,1,5,0,1
145939,-90.9090909090909,4,2,1,90,0,1
147715,-71.4285714285714,4,2,1,90,0,1
148307,-90.9090909090909,4,2,1,90,0,1
150873,-71.4285714285714,4,2,1,90,0,1
151465,-90.9090909090909,4,2,1,90,0,1
154228,-76.9230769230769,4,2,1,90,0,1
154524,-76.9230769230769,4,2,1,5,0,1
154623,-76.9230769230769,4,2,1,90,0,1
155018,-90.9090909090909,4,2,1,90,0,1
155807,-76.9230769230769,4,2,1,90,0,1
156597,-90.9090909090909,4,2,1,90,0,1
156942,-90.9090909090909,4,2,1,5,0,1
156992,-90.9090909090909,4,2,1,90,0,1
160347,-71.4285714285714,4,2,1,90,0,1
160939,-90.9090909090909,4,2,1,90,0,1
163505,-71.4285714285714,4,2,1,90,0,1
164097,-90.9090909090909,4,2,1,90,0,1
166663,-117.647058823529,4,2,1,90,0,1
166860,-142.857142857143,4,2,1,65,0,0
167649,-142.857142857143,4,2,1,50,0,0
174459,-142.857142857143,4,2,1,5,0,0
174557,-117.647058823529,4,2,1,50,0,0
178702,-222.222222222222,4,2,1,50,0,0
179492,-222.222222222222,4,2,1,40,0,0
188965,-222.222222222222,4,2,1,35,0,0

[Colours]
Combo1 : 247,224,64
Combo2 : 255,51,51

[HitObjects]
256,192,12123,12,4,15281,0:0:0:0:
13,355,16071,5,2,0:0:0:0:
82,319,16268,2,0,P|125:324|149:377,2,93.7499964237213,2|2|2,0:0|0:0|0:0,0:0:0:0:
9,220,17452,2,0,P|27:171|46:80,1,140.624994635582,2|2,0:0|0:0,0:0:0:0:
154,155,18439,1,2,0:0:0:0:
154,155,18636,1,2,0:0:0:0:
497,310,22386,5,2,0:0:0:0:
440,366,22584,2,0,P|377:349|372:320,2,93.7499964237213,2|2|2,0:0|0:0|0:0,0:0:0:0:
469,217,23768,2,0,P|480:161|489:118,2,93.7499964237213,2|2|2,0:0|0:0|0:0,0:0:0:0:
253,15,26136,5,2,0:0:0:0:
194,68,26334,2,0,P|208:115|219:164,1,93.7499964237213,2|2,0:0|0:0,0:0:0:0:
313,277,27123,2,0,P|301:315|296:333,1,46.8749982118607,2|2,0:0|0:0,0:0:0:0:
237,367,27518,2,0,P|189:349|140:343,1,93.7499964237213,2|0,0:0|0:0,0:0:0:0:
19,118,28702,5,2,0:0:0:0:
94,147,28899,2,0,P|127:120|125:64,2,93.7499964237213,2|2|2,0:0|0:0|0:0,0:0:0:0:
0,243,30084,2,0,P|59:260|125:320,1,140.624994635582,2|2,0:0|0:0,0:0:0:0:
259,370,31071,2,0,P|271:333|290:310,1,62.4999976158142,2|2,0:0|0:0,0:0:0:0:
433,26,35018,5,2,0:0:0:0:
502,70,35215,2,0,P|493:112|485:166,2,93.7499964237213,2|2|2,0:0|0:0|0:0,0:0:0:0:
353,47,36399,2,0,P|346:93|336:139,1,93.7499964237213,2|2,0:0|0:0,0:0:0:0:
230,227,37189,1,2,0:0:0:0:
230,227,37386,2,0,P|246:280|258:338,1,93.7499964237213,2|2,0:0|0:0,0:0:0:0:
3,171,38768,5,2,0:0:0:0:
75,202,38965,2,0,P|112:181|126:130,1,93.7499964237213,2|2,0:0|0:0,0:0:0:0:
220,31,39755,2,0,P|249:35|271:41,1,46.8749982118607,2|2,0:0|0:0,0:0:0:0:
325,92,40149,2,0,P|388:70|409:68,1,70.312497317791,2|2,0:0|0:3,0:0:0:0:
399,76,40544,1,4,0:0:0:0:
512,244,41136,5,0,1:0:0:0:
434,347,41334,1,8,0:2:0:0:
434,347,41728,5,2,1:2:0:0:
370,296,41926,2,0,P|292:300|268:377,1,159.374990880489,2|2,0:0|0:0,0:0:0:0:
185,375,42715,2,0,P|174:330|90:254,1,159.374990880489,2|2,0:0|0:0,0:0:0:0:
22,200,43505,2,0,P|71:178|125:83,1,159.374990880489,2|2,0:0|0:0,0:0:0:0:
128,12,44294,5,0,1:2:0:0:
239,79,44492,1,8,3:2:0:0:
239,79,44886,6,0,P|310:56|351:52,1,106.249993920326,4|0,3:0|0:0,0:0:0:0:
485,118,45676,5,2,3:0:0:0:
485,118,45873,1,2,3:0:0:0:
427,176,46071,2,0,P|435:212|440:242,1,53.1249969601631,8|8,3:0|3:0,0:0:0:0:
470,302,46465,2,0,P|434:310|404:315,1,53.1249969601631,4|4,3:0|3:0,0:0:0:0:
370,375,46860,1,4,0:0:0:0:
183,284,47452,5,0,1:0:0:0:
80,352,47649,1,8,0:0:0:0:
80,352,48044,5,2,1:2:0:0:
26,291,48242,2,0,P|14:229|99:183,1,159.374990880489,2|2,0:0|0:0,0:0:0:0:
139,122,49031,2,0,P|201:122|215:35,1,159.374990880489,2|2,0:0|0:0,0:0:0:0:
293,7,49821,2,0,P|372:13|429:83,1,159.374990880489,2|2,0:0|0:0,0:0:0:0:
500,103,50610,5,2,1:2:0:0:
442,212,50807,1,10,0:0:0:0:
442,212,51202,5,4,3:0:0:0:
490,279,51399,2,0,P|427:309|382:388,1,159.374990880489,2|2,0:0|3:2,0:0:0:0:
314,341,52189,1,2,3:0:0:0:
240,370,52386,2,0,P|211:364|177:358,1,53.1249969601631,8|8,3:0|3:0,0:0:0:0:
109,362,52781,2,0,P|113:335|119:309,1,53.1249969601631,4|4,3:0|3:0,0:0:0:0:
65,251,53176,6,0,P|51:189|22:93,1,159.374990880489,4|0,0:0|1:0,0:0:0:0:
131,5,53965,1,10,0:0:0:0:
195,54,54163,2,0,P|247:58|276:111,1,106.249993920326,2|2,0:0|0:0,0:0:0:0:
212,226,54952,2,0,P|160:222|131:169,1,106.249993920326,2|2,0:0|0:0,0:0:0:0:
275,99,55742,2,0,P|334:82|386:73,1,106.249993920326,2|2,0:0|0:0,0:0:0:0:
441,24,56334,2,0,P|484:60|466:125,1,106.249993920326,2|2,0:0|0:0,0:0:0:0:
509,183,56926,5,0,1:0:0:0:
401,258,57123,1,8,0:0:0:0:
401,258,57518,6,0,P|417:320|429:374,1,106.249993920326,4|0,3:0|0:0,0:0:0:0:
236,376,58307,1,2,3:0:0:0:
236,376,58505,1,2,3:0:0:0:
159,343,58702,2,0,P|128:332|99:326,1,53.1249969601631,8|8,3:0|3:0,0:0:0:0:
31,319,59097,2,0,P|39:295|47:268,1,53.1249969601631,4|4,3:0|3:0,0:0:0:0:
5,200,59492,1,4,0:0:0:0:
114,25,60084,5,0,1:0:0:0:
170,107,60281,2,0,P|208:97|228:93,1,53.1249969601631,10|2,0:0|0:0,0:0:0:0:
280,38,60676,1,4,3:3:0:0:
280,38,60873,2,0,P|346:75|339:120,1,106.249993920326,2|2,0:0|0:0,0:0:0:0:
456,187,61663,2,0,P|390:224|397:269,1,106.249993920326,2|2,0:0|0:0,0:0:0:0:
330,361,62452,5,2,0:0:0:0:
330,361,62649,2,0,P|223:339|80:321,1,243.749970245363,6|2,0:0|0:0,0:0:0:0:
32,373,64031,1,2,0:0:0:0:
174,96,65018,5,2,0:0:0:0:
174,96,65215,2,0,P|169:67|165:46,2,40.6249950408938,2|0|0,0:0|0:0|0:0,0:0:0:0:
259,124,65807,6,0,P|319:132|319:209,1,140.624994635582,2|0,0:0|0:0,0:0:0:0:
347,279,66597,2,0,P|310:326|243:288,1,140.624994635582,2|0,0:0|0:0,0:0:0:0:
168,277,67386,2,0,P|144:221|211:182,1,140.624994635582,2|0,0:0|0:0,0:0:0:0:
259,124,68176,6,0,P|253:77|243:21,1,103.124995279312,6|0,0:0|0:0,0:0:0:0:
368,10,68965,6,0,P|374:57|383:111,1,99.9999923706056,6|0,0:0|0:0,0:0:0:0:
490,359,70939,5,2,3:0:0:0:
490,359,71136,1,2,3:0:0:0:
427,302,71334,2,0,P|385:311|366:318,1,56.2499939918521,8|8,3:0|3:0,0:0:0:0:
315,371,71728,2,0,P|287:358|258:353,1,56.2499939918521,4|4,3:0|3:0,0:0:0:0:
184,364,72123,6,2,P|166:276|140:207,1,156.249988079071,6|2,1:2|0:3,0:1:0:0:
108,141,72715,1,2,1:2:0:0:
209,95,72913,5,8,0:1:0:0:
209,95,73110,2,0,P|221:52|233:17,1,65.6249929904941,2|0,0:0|1:0,0:0:0:0:
308,7,73505,1,2,0:0:0:0:
315,4,73603,1,2,0:0:0:0:
321,1,73702,2,2,P|372:43|330:132,1,156.249988079071,2|0,0:2|1:0,0:1:0:0:
487,235,74492,5,12,0:1:0:0:
427,286,74689,2,0,P|365:271|285:263,1,131.249985980988,2|2,0:0|3:0,0:0:0:0:
289,270,75182,1,2,3:0:0:0:
280,277,75281,6,0,P|235:256|225:218,1,65.6249929904941,2|0,1:1|0:0,0:0:0:0:
163,196,75676,2,0,P|184:151|222:141,1,65.6249929904941,2|0,0:2|1:0,0:0:0:0:
194,59,76071,2,0,P|254:78|353:87,1,131.249985980988,10|4,3:1|3:0,0:0:0:0:
377,27,76663,2,0,P|421:14|459:-9,1,65.6249929904941,8|2,3:0|0:3,0:0:0:0:
508,59,77057,1,8,0:0:0:0:
508,59,77255,1,0,1:0:0:0:
437,198,77649,5,12,3:1:0:0:
490,260,77847,1,2,3:0:0:0:
502,266,77946,1,2,3:0:0:0:
511,276,78044,1,2,3:2:0:0:
512,289,78143,1,8,3:0:0:0:
506,301,78242,6,2,P|449:313|333:363,1,168.749987769127,4|2,3:3|0:0,0:1:0:0:
283,301,78834,1,2,0:0:0:0:
283,301,79031,1,2,1:2:0:0:
237,369,79228,6,0,P|198:359|160:352,1,65.6249929904941,8|2,3:1|0:0,0:0:0:0:
160,278,79623,1,2,1:2:0:0:
160,278,79821,2,0,P|114:291|30:330,1,131.249985980988,8|8,3:0|0:0,0:0:0:0:
0,257,80413,1,0,1:0:0:0:
74,130,80807,5,12,0:1:0:0:
23,66,81005,1,0,0:0:0:0:
27,56,81103,1,0,0:0:0:0:
31,45,81202,1,0,3:0:0:0:
105,17,81399,6,2,P|184:18|207:108,1,168.749987769127,2|2,3:2|0:0,0:1:0:0:
292,127,81992,1,2,0:0:0:0:
292,127,82189,1,2,1:2:0:0:
366,50,82386,2,0,P|380:96|395:133,1,65.6249929904941,8|2,3:1|0:0,0:0:0:0:
466,136,82781,2,0,P|454:166|445:198,1,65.6249929904941,2|8,1:2|3:0,0:0:0:0:
512,269,83176,2,0,P|465:285|436:363,1,131.249985980988,2|0,0:0|1:0,0:0:0:0:
270,377,83965,5,12,3:1:0:0:
270,377,84163,2,0,P|209:324|149:344,1,131.249985980988,8|4,3:0|3:0,0:0:0:0:
157,340,84656,1,2,3:0:0:0:
149,348,84755,6,2,P|167:260|191:175,1,156.249988079071,6|2,1:2|0:3,0:1:0:0:
255,145,85347,1,2,1:2:0:0:
201,56,85544,5,8,0:1:0:0:
201,56,85742,2,0,P|164:45|133:24,1,65.6249929904941,2|0,0:0|1:0,0:0:0:0:
65,38,86136,1,2,0:0:0:0:
58,35,86235,1,2,0:0:0:0:
52,32,86334,2,2,P|1:74|43:163,1,156.249988079071,2|0,0:2|1:0,0:1:0:0:
41,338,87123,5,12,0:1:0:0:
98,283,87321,2,0,P|161:292|170:357,1,131.249985980988,2|2,0:0|3:0,0:0:0:0:
180,356,87814,1,2,3:0:0:0:
185,365,87913,6,0,P|228:336|253:333,1,65.6249929904941,2|0,1:1|0:0,0:0:0:0:
287,261,88307,2,0,P|327:285|359:289,1,65.6249929904941,2|0,0:2|1:0,0:0:0:0:
395,365,88702,2,0,P|458:356|467:291,1,131.249985980988,10|4,3:1|3:0,0:0:0:0:
511,227,89294,2,0,P|496:179|489:149,1,65.6249929904941,8|2,3:0|0:3,0:0:0:0:
512,82,89689,1,8,0:0:0:0:
512,82,89886,1,0,1:0:0:0:
318,5,90281,5,12,3:1:0:0:
241,68,90478,1,2,3:0:0:0:
249,77,90577,1,2,3:0:0:0:
254,88,90676,1,2,3:2:0:0:
257,98,90774,1,8,3:0:0:0:
258,111,90873,6,2,P|156:141|112:199,1,168.749987769127,4|2,3:3|0:0,0:1:0:0:
42,212,91465,1,2,0:0:0:0:
42,212,91663,1,2,1:2:0:0:
76,287,91860,2,0,P|91:328|96:355,1,65.6249929904941,8|2,3:1|0:0,0:0:0:0:
182,367,92255,1,2,1:2:0:0:
182,367,92452,2,0,P|230:312|302:291,1,131.249985980988,8|8,3:0|0:0,0:0:0:0:
355,339,93044,1,0,1:0:0:0:
512,189,93438,5,12,0:1:0:0:
489,110,93636,1,0,0:0:0:0:
485,99,93734,1,0,0:0:0:0:
482,88,93833,1,0,3:0:0:0:
402,48,94031,6,2,P|326:60|320:154,1,168.749987769127,2|2,3:2|0:0,0:1:0:0:
254,199,94623,1,2,0:0:0:0:
254,199,94821,1,2,1:2:0:0:
173,133,95018,2,0,P|143:128|106:113,1,65.6249929904941,8|2,3:1|0:0,0:0:0:0:
62,189,95413,1,2,1:2:0:0:
62,189,95610,2,0,P|19:198|-5:211,1,65.6249929904941,8|2,3:0|0:0,0:0:0:0:
26,295,96005,1,8,0:0:0:0:
26,295,96202,2,0,P|69:286|93:273,1,65.6249929904941,0|2,1:0|0:3,0:0:0:0:
186,336,96597,6,0,P|233:347|255:372,1,65.6249929904941,14|8,3:1|3:0,0:0:0:0:
318,316,96992,1,4,3:2:0:0:
392,359,97189,5,4,3:0:0:0:
401,357,97288,1,2,3:0:0:0:
411,354,97386,2,2,P|447:297|402:241,1,143.749991774559,4|2,1:2|0:2,0:1:0:0:
384,161,97978,1,0,1:0:0:0:
261,167,98176,6,0,P|281:95|309:18,1,143.749991774559,8|4,0:1|3:0,0:0:0:0:
212,0,98768,2,0,P|192:72|164:149,1,143.749991774559,8|8,3:0|0:0,0:0:0:0:
82,162,99360,1,8,1:3:0:0:
161,327,99755,1,14,0:1:0:0:
161,327,99952,1,2,0:0:0:0:
233,366,100149,1,2,3:0:0:0:
274,294,100347,5,2,3:1:0:0:
271,283,100446,1,0,3:0:0:0:
269,273,100544,2,2,P|365:266|391:307,1,143.749991774559,0|2,1:2|0:3,0:1:0:0:
447,350,101136,1,0,1:0:0:0:
512,262,101334,2,0,P|494:196|473:107,1,143.749991774559,8|4,0:1|3:0,0:0:0:0:
491,33,101926,2,0,P|423:52|336:72,1,143.749991774559,8|8,3:0|0:0,0:0:0:0:
285,18,102518,1,8,1:3:0:0:
285,18,102715,1,8,3:0:0:0:
199,121,102913,5,14,0:1:0:0:
134,69,103110,1,2,3:2:0:0:
121,66,103209,1,2,3:0:0:0:
108,63,103307,2,0,L|68:54,3,35.9374979436398,8|8|4|4,3:3|3:0|3:3|3:0,0:0:0:0:
60,64,103702,6,2,P|85:145|101:225,1,143.749991774559,6|2,1:2|0:2,0:1:0:0:
37,258,104294,1,0,1:0:0:0:
118,357,104492,2,0,P|170:298|235:314,1,143.749991774559,8|4,0:1|3:0,0:0:0:0:
292,361,105084,6,0,P|373:337|472:320,1,156.249988079071,8|10,3:0|0:0,0:0:0:0:
495,258,105676,1,2,1:2:0:0:
376,136,106071,1,14,0:1:0:0:
438,79,106268,1,2,0:2:0:0:
435,69,106367,1,2,0:3:0:0:
432,59,106465,1,2,3:1:0:0:
242,7,106860,6,2,P|256:98|269:183,1,156.249988079071,0|2,1:2|0:3,0:1:0:0:
203,213,107452,1,0,1:0:0:0:
287,302,107649,2,0,P|212:315|178:398,1,156.249988079071,8|4,0:1|3:0,0:0:0:0:
95,357,108242,2,0,P|82:282|-1:248,1,156.249988079071,8|8,3:0|0:0,0:0:0:0:
11,165,108834,1,2,3:0:0:0:
11,165,109031,1,2,3:0:0:0:
105,105,109228,6,0,P|94:60|87:28,1,78.1249940395356,12|8,3:1|3:0,0:0:0:0:
181,12,109623,1,4,3:2:0:0:
185,28,109721,1,2,3:0:0:0:
189,45,109820,1,4,3:0:0:0:
193,62,109919,1,2,3:0:0:0:
197,78,110017,5,4,1:2:0:0:
434,5,110610,5,0,1:0:0:0:
506,111,110807,1,10,0:2:0:0:
430,148,111005,2,0,P|418:200|416:219,1,53.1249969601631,2|2,0:0|1:3,0:0:0:0:
347,243,111399,2,0,P|386:279|401:290,1,53.1249969601631,2|0,0:0|0:0,0:0:0:0:
387,362,111794,1,2,0:0:0:0:
387,362,111992,2,0,P|438:346|455:338,1,53.1249969601631,2|2,1:3|0:0,0:0:0:0:
468,267,112386,5,12,0:1:0:0:
293,372,112781,1,2,3:3:0:0:
293,372,112978,1,2,3:2:0:0:
239,302,113176,2,0,P|187:311|100:370,1,159.374990880489,2|0,1:2|1:0,0:0:0:0:
30,329,113965,1,8,0:0:0:0:
84,172,114360,5,4,3:3:0:0:
84,172,114557,2,0,P|56:138|81:69,1,106.249993920326,8|8,3:0|0:0,0:0:0:0:
138,29,115149,1,2,1:3:0:0:
138,29,115347,1,0,3:0:0:0:
200,86,115544,2,0,P|237:96|257:103,1,53.1249969601631,8|8,3:1|3:0,0:0:0:0:
307,41,115939,2,0,P|344:31|364:24,1,53.1249969601631,4|4,3:0|3:0,0:0:0:0:
427,68,116334,5,0,1:0:0:0:
512,285,116926,5,0,1:0:0:0:
429,373,117123,1,10,0:2:0:0:
368,323,117321,2,0,P|333:330|314:335,1,53.1249969601631,2|2,0:0|1:3,0:0:0:0:
248,374,117715,2,0,P|206:333|155:306,1,106.249993920326,2|2,0:0|0:0,0:0:0:0:
88,342,118307,1,2,1:3:0:0:
0,228,118702,1,12,0:1:0:0:
119,154,119097,1,2,3:3:0:0:
119,154,119294,1,2,3:2:0:0:
61,93,119492,6,0,P|91:28|177:42,1,159.374990880489,2|0,1:2|1:0,0:0:0:0:
247,12,120281,1,8,0:0:0:0:
343,171,120676,1,4,3:0:0:0:
343,171,120873,1,2,0:0:0:0:
417,132,121071,2,0,P|430:202|444:260,1,106.249993920326,2|2,0:0|3:2,0:0:0:0:
318,365,121860,5,10,3:1:0:0:
249,274,122057,1,8,3:0:0:0:
151,343,122255,1,2,3:1:0:0:
151,343,122452,1,4,3:0:0:0:
97,278,122649,5,0,1:2:0:0:
173,58,123242,5,0,1:2:0:0:
269,148,123439,1,10,0:0:0:0:
315,83,123636,2,0,P|347:77|375:74,1,53.1249969601631,2|2,0:0|1:3,0:0:0:0:
442,96,124031,2,0,P|447:122|450:148,1,53.1249969601631,2|0,0:0|0:0,0:0:0:0:
429,223,124426,1,2,0:0:0:0:
429,223,124623,2,0,P|402:228|376:231,1,53.1249969601631,2|2,1:3|0:0,0:0:0:0:
342,303,125018,5,12,0:1:0:0:
197,187,125413,1,2,3:3:0:0:
197,187,125610,1,0,0:0:0:0:
243,120,125807,2,0,P|207:55|116:28,1,159.374990880489,2|0,1:2|1:0,0:0:0:0:
50,45,126597,1,8,0:0:0:0:
24,230,126992,5,4,3:3:0:0:
24,230,127189,2,0,P|76:250|144:284,1,106.249993920326,8|8,3:0|0:0,0:0:0:0:
159,351,127781,1,2,1:3:0:0:
159,351,127979,1,0,3:0:0:0:
223,300,128176,2,0,P|264:287|292:283,1,53.1249969601631,8|8,3:1|3:0,0:0:0:0:
341,335,128571,2,0,P|382:348|410:352,1,53.1249969601631,4|4,3:0|3:0,0:0:0:0:
460,308,128965,5,0,1:0:0:0:
388,124,129557,5,0,1:0:0:0:
473,54,129755,1,10,0:2:0:0:
405,2,129952,2,0,P|367:8|290:33,1,106.249993920326,2|2,0:0|0:0,0:0:0:0:
196,110,130742,1,2,0:0:0:0:
196,110,130939,2,0,P|153:94|131:86,1,53.1249969601631,2|2,1:3|0:0,0:0:0:0:
122,17,131334,2,0,P|79:33|57:41,1,53.1249969601631,12|2,0:1|0:0,0:0:0:0:
0,71,131728,1,0,3:0:0:0:
76,204,132123,6,0,B|94:290|157:275|166:270|176:266|263:250|300:369,1,299.999967956544,2|0,0:0|0:0,0:0:0:0:
338,96,134492,5,2,0:0:0:0:
338,96,134689,2,0,P|343:67|347:46,2,40.6249950408938,2|0|0,0:0|0:0|0:0,0:0:0:0:
253,124,135281,6,0,P|193:132|193:209,1,140.624994635582,2|0,0:0|0:0,0:0:0:0:
165,279,136071,2,0,P|202:326|269:288,1,140.624994635582,2|0,0:0|0:0,0:0:0:0:
344,277,136860,2,0,P|368:221|301:182,1,140.624994635582,2|0,0:0|0:0,0:0:0:0:
253,124,137649,6,0,P|259:77|265:46,1,68.7499968528748,6|0,0:0|0:0,0:0:0:0:
205,0,138242,1,0,0:0:0:0:
98,30,138439,6,0,P|92:77|82:130,1,99.9999923706056,6|0,0:0|0:0,0:0:0:0:
243,365,140807,5,6,0:0:0:0:
285,300,141005,1,6,0:0:0:0:
217,245,141202,1,2,0:0:0:0:
296,187,141399,1,2,0:0:0:0:
202,120,141597,6,2,B|150:135|131:85|135:81|140:78|113:33|69:51,1,162.499980163575,6|2,1:2|0:3,0:1:0:0:
0,26,142189,1,2,1:2:0:0:
18,137,142386,5,8,0:1:0:0:
18,137,142584,2,0,P|24:182|29:216,1,68.7499968528748,2|0,0:0|1:0,0:0:0:0:
77,271,142978,1,2,0:0:0:0:
69,278,143077,1,2,0:0:0:0:
62,286,143176,2,2,P|139:319|199:378,1,162.499980163575,2|0,0:2|1:0,0:1:0:0:
388,277,143965,5,12,0:1:0:0:
337,207,144163,2,0,P|353:142|380:51,1,137.49999370575,2|2,0:0|3:0,0:0:0:0:
380,70,144656,1,2,3:0:0:0:
387,67,144755,6,0,P|364:36|324:24,1,68.7499968528748,2|0,1:1|0:0,0:0:0:0:
258,0,145149,2,0,P|227:23|215:63,1,68.7499968528748,2|0,0:2|1:0,0:0:0:0:
136,82,145544,2,0,P|155:148|170:216,1,137.49999370575,10|4,3:1|3:0,0:0:0:0:
239,258,146136,2,0,P|219:302|196:317,1,68.7499968528748,8|2,3:0|0:3,0:0:0:0:
136,365,146531,1,8,0:0:0:0:
136,365,146728,1,0,1:0:0:0:
0,198,147123,5,12,3:1:0:0:
61,139,147321,1,2,3:0:0:0:
59,126,147419,1,2,3:0:0:0:
57,114,147518,1,2,3:2:0:0:
51,102,147617,1,8,3:3:0:0:
43,90,147715,6,2,P|110:91|201:31,1,174.999981307984,4|2,3:3|0:0,0:1:0:0:
279,10,148307,1,2,0:0:0:0:
279,10,148505,1,2,1:2:0:0:
326,107,148702,6,0,P|300:151|290:189,1,68.7499968528748,8|2,3:1|0:0,0:0:0:0:
211,187,149097,1,4,3:0:0:0:
211,187,149294,2,0,P|236:264|249:339,1,137.49999370575,8|8,3:0|0:0,0:0:0:0:
313,365,149886,1,0,1:0:0:0:
491,272,150281,5,12,0:1:0:0:
442,205,150478,1,2,3:0:0:0:
445,192,150577,1,2,3:0:0:0:
447,179,150676,1,0,3:0:0:0:
512,124,150873,6,2,P|468:68|351:62,1,174.999981307984,2|2,3:2|0:0,0:1:0:0:
294,15,151465,1,2,0:0:0:0:
294,15,151663,1,2,1:2:0:0:
229,91,151860,6,0,P|192:106|159:98,1,68.7499968528748,8|2,3:1|0:0,0:0:0:0:
95,63,152255,2,0,P|55:60|26:80,1,68.7499968528748,2|8,1:2|3:0,0:0:0:0:
5,150,152649,2,0,P|30:209|45:289,1,137.49999370575,2|0,0:0|1:0,0:0:0:0:
196,368,153439,5,12,3:1:0:0:
267,328,153636,2,0,P|302:257|382:266,1,137.49999370575,8|4,3:0|3:0,0:0:0:0:
358,262,154130,1,2,3:0:0:0:
362,271,154228,6,2,B|310:286|291:236|295:232|300:229|273:184|229:202,1,162.499980163575,6|2,1:2|0:3,0:1:0:0:
177,134,154821,1,2,1:2:0:0:
253,39,155018,5,8,0:1:0:0:
253,39,155215,2,0,P|301:32|326:24,1,68.7499968528748,2|0,0:0|1:0,0:0:0:0:
391,80,155610,1,2,0:0:0:0:
383,87,155709,1,2,0:0:0:0:
376,95,155807,2,2,P|453:128|513:187,1,162.499980163575,2|0,0:2|1:0,0:1:0:0:
441,363,156597,5,12,0:1:0:0:
376,313,156794,2,0,P|301:335|241:370,1,137.49999370575,2|2,0:0|3:0,0:0:0:0:
242,360,157288,1,2,3:0:0:0:
231,356,157386,6,0,P|204:314|208:280,1,68.7499968528748,2|0,1:1|0:0,0:0:0:0:
148,237,157781,2,0,P|170:211|175:177,1,68.7499968528748,2|0,0:2|1:0,0:0:0:0:
239,120,158176,2,0,P|208:55|120:38,1,137.49999370575,10|4,3:1|3:0,0:0:0:0:
72,20,158768,2,0,P|49:45|44:79,1,68.7499968528748,8|2,3:0|0:3,0:0:0:0:
0,156,159163,1,8,0:0:0:0:
0,156,159360,1,0,1:0:0:0:
148,237,159755,5,12,3:1:0:0:
99,298,159952,1,2,3:0:0:0:
102,311,160051,1,2,3:0:0:0:
107,325,160149,1,2,3:2:0:0:
115,336,160248,1,8,3:3:0:0:
125,346,160347,6,2,P|182:315|300:321,1,174.999981307984,4|2,3:3|0:0,0:1:0:0:
362,373,160939,1,2,0:0:0:0:
362,373,161136,1,2,1:2:0:0:
417,309,161334,2,0,P|451:296|489:291,1,68.7499968528748,8|2,3:1|0:0,0:0:0:0:
497,208,161728,1,2,1:2:0:0:
497,208,161926,2,0,P|414:174|358:124,1,137.49999370575,8|8,3:0|0:0,0:0:0:0:
378,63,162518,1,0,1:0:0:0:
223,170,162913,5,12,0:1:0:0:
167,104,163110,1,2,3:0:0:0:
155,100,163209,1,2,3:0:0:0:
142,96,163307,1,0,3:0:0:0:
61,130,163505,6,2,P|13:165|36:279,1,174.999981307984,2|2,3:2|0:0,0:1:0:0:
45,353,164097,1,2,0:0:0:0:
45,353,164294,1,2,1:2:0:0:
157,322,164492,2,0,P|207:317|232:332,1,68.7499968528748,8|2,3:1|0:0,0:0:0:0:
306,292,164886,1,2,1:2:0:0:
306,292,165084,2,0,P|335:332|334:361,1,68.7499968528748,8|2,3:0|0:0,0:0:0:0:
425,370,165478,1,8,0:0:0:0:
425,370,165675,2,0,P|443:341|473:326,1,68.7499968528748,0|2,1:0|0:3,0:0:0:0:
512,252,166071,5,12,3:1:0:0:
453,196,166268,1,8,3:0:0:0:
493,126,166465,1,6,3:2:0:0:
439,61,166663,6,0,P|374:78|331:107,1,106.249993920326,4|0,3:0|0:0,0:0:0:0:
266,64,167255,1,2,0:0:0:0:
143,185,167649,1,8,0:0:0:0:
512,346,169228,6,0,P|429:333|408:278,1,131.249985980988,2|2,0:0|0:0,0:0:0:0:
379,217,170018,2,0,P|330:252|255:292,1,131.249985980988,4|0,0:0|0:0,0:0:0:0:
246,366,170807,1,8,0:0:0:0:
11,90,172386,6,0,P|36:144|47:191,1,87.4999906539921,2|2,0:0|0:0,0:0:0:0:
119,212,172978,2,0,P|147:164|191:152,1,87.4999906539921,2|0,0:0|0:0,0:0:0:0:
220,87,173571,1,2,0:0:0:0:
362,190,173965,1,8,0:0:0:0:
188,363,174557,6,0,P|145:337|82:329,1,106.249993920326,2|2,0:1|0:0,0:0:0:0:
4,280,175149,2,0,P|43:261|68:239,1,53.1249969601631,2|0,0:1|0:0,0:0:0:0:
93,184,175544,2,0,P|82:136|74:113,2,53.1249969601631,2|2|2,0:0|0:0|0:0,0:0:0:0:
238,241,176334,2,0,P|258:161|302:36,1,212.499987840653,6|8,0:1|0:0,0:0:0:0:
497,369,178702,6,0,P|450:317|435:315,2,84.3749909877781,2|2|2,0:0|0:0|0:0,0:0:0:0:
11,200,181860,6,0,P|47:195|68:189,1,56.2499939918521,2|2,0:0|0:0,0:0:0:0:
108,120,182452,2,0,P|175:137|242:159,1,140.62498497963,2|0,0:0|0:0,0:0:0:0:
493,19,185018,6,0,P|431:35|422:58,2,84.3749909877781,2|2|2,0:0|0:0|0:0,0:0:0:0:
332,247,187189,6,0,P|323:213|311:188,1,56.2499939918521,2|2,0:0|0:0,0:0:0:0:
361,128,187781,2,0,P|365:110|372:97,1,28.124996995926,2|0,0:0|0:0,0:0:0:0:
315,42,188176,2,0,P|311:24|304:11,2,28.124996995926,2|2|2,0:0|0:0|0:0,0:0:0:0:
226,140,188965,6,0,P|174:159|134:209,1,112.499987983704,6|0,0:0|0:0,0:0:0:0:
8,362,191334,5,2,0:0:0:0:
49,246,191728,1,2,0:0:0:0:
121,345,192123,1,4,0:0:0:0:
