osu file format v14

[General]
AudioFilename: audio.mp3
AudioLeadIn: 0
PreviewTime: 71334
Countdown: 0
SampleSet: Soft
StackLeniency: 0.4
Mode: 0
LetterboxInBreaks: 0
WidescreenStoryboard: 1

[Editor]
Bookmarks: 110018
DistanceSpacing: 0.8
BeatDivisor: 4
GridSize: 32
TimelineZoom: 4.499999

[Metadata]
Title:If Our Love Is Wrong
TitleUnicode:If Our Love Is Wrong
Artist:Calum Scott
ArtistUnicode:Calum Scott
Creator:Altai
Version:Aistre x Seolv's Insane
Source:
Tags:english pop ballad fraser t. t smith aistre seolv lukas [_l_u_k_a_s_] alphabet venax undeadphoneguy only human callum gay pride
BeatmapID:3060383
BeatmapSetID:1492986

[Difficulty]
HPDrainRate:5
CircleSize:4
OverallDifficulty:7.5
ApproachRate:8.5
SliderMultiplier:1.79999990463257
SliderTickRate:1

[Events]
//Background and Video events
0,0,"scott.png",0,0
//Break Periods
//Storyboard Layer 0 (Background)
//Storyboard Layer 1 (Fail)
//Storyboard Layer 2 (Pass)
//Storyboard Layer 3 (Foreground)
//Storyboard Layer 4 (Overlay)
//Storyboard Sound Samples

[TimingPoints]
2650,394.736842105263,4,2,1,100,1,0
12913,-100,4,2,1,40,0,0
13307,-100,4,2,1,45,0,0
13702,-100,4,2,1,50,0,0
14097,-100,4,2,1,55,0,0
14492,-100,4,2,1,60,0,0
14886,-100,4,2,1,65,0,0
15281,-166.666666666667,4,2,1,55,0,0
16071,-166.666666666667,4,2,1,30,0,0
16564,-166.666666666667,4,2,1,5,0,0
16663,-166.666666666667,4,2,1,30,0,0
22880,-166.666666666667,4,2,1,5,0,0
22978,-166.666666666667,4,2,1,30,0,0
29196,-166.666666666667,4,2,1,5,0,0
29294,-166.666666666667,4,2,1,30,0,0
35511,-166.666666666667,4,2,1,5,0,0
35610,-166.666666666667,4,2,1,30,0,0
37682,-166.666666666667,4,2,1,5,0,0
37781,-166.666666666667,4,2,1,30,0,0
38965,-153.846153846154,4,2,1,30,0,0
39755,-142.857142857143,4,2,1,30,0,0
40149,-133.333333333333,4,2,1,30,0,0
40544,-133.333333333333,4,2,1,45,0,0
42419,-133.333333333333,4,2,1,5,0,0
42518,-133.333333333333,4,2,1,45,0,0
43209,-133.333333333333,4,2,1,5,0,0
43307,-133.333333333333,4,2,1,45,0,0
43998,-133.333333333333,4,2,1,5,0,0
44097,-133.333333333333,4,2,1,45,0,0
44886,-200,4,2,1,45,0,0
47255,-133.333333333333,4,2,1,45,0,0
48735,-133.333333333333,4,2,1,5,0,0
48834,-133.333333333333,4,2,1,45,0,0
49524,-133.333333333333,4,2,1,5,0,0
49623,-133.333333333333,4,2,1,45,0,0
50314,-133.333333333333,4,2,1,5,0,0
50413,-133.333333333333,4,2,1,45,0,0
51893,-133.333333333333,4,2,1,5,0,0
51992,-133.333333333333,4,2,1,45,0,0
53176,-125,4,2,1,35,0,0
53242,-125,4,2,1,55,0,0
53965,-125,4,2,1,45,0,0
54459,-125,4,2,1,5,0,0
54557,-166.666666666667,4,2,1,45,0,0
61169,-166.666666666667,4,2,1,5,0,0
61268,-166.666666666667,4,2,1,45,0,0
62649,-333.333333333333,4,2,1,45,0,0
63834,-333.333333333333,4,2,1,40,0,0
65709,-333.333333333333,4,2,1,5,0,0
65807,-166.666666666667,4,2,1,40,0,0
66498,-166.666666666667,4,2,1,5,0,0
66597,-166.666666666667,4,2,1,40,0,0
67288,-166.666666666667,4,2,1,5,0,0
67386,-166.666666666667,4,2,1,40,0,0
68077,-166.666666666667,4,2,1,5,0,0
68176,-133.333333333333,4,2,1,40,0,0
68867,-133.333333333333,4,2,1,5,0,0
68965,-333.333333333333,4,2,1,45,0,0
71334,-133.333333333333,4,2,1,55,0,0
71728,-133.333333333333,4,2,1,60,0,0
72123,-86.9565217391304,4,2,1,85,0,1
72419,-86.9565217391304,4,2,1,5,0,1
72518,-86.9565217391304,4,2,1,85,0,1
73406,-86.9565217391304,4,2,1,5,0,1
73505,-86.9565217391304,4,2,1,85,0,1
74837,-86.9565217391304,4,2,1,5,0,1
74886,-86.9565217391304,4,2,1,85,0,1
75577,-86.9565217391304,4,2,1,5,0,1
75676,-86.9565217391304,4,2,1,85,0,1
76367,-86.9565217391304,4,2,1,5,0,1
76465,-86.9565217391304,4,2,1,85,0,1
78538,-86.9565217391304,4,2,1,5,0,1
78636,-86.9565217391304,4,2,1,85,0,1
79919,-86.9565217391304,4,2,1,5,0,1
80018,-86.9565217391304,4,2,1,85,0,1
81696,-86.9565217391304,4,2,1,5,0,1
81794,-86.9565217391304,4,2,1,85,0,1
85051,-86.9565217391304,4,2,1,5,0,1
85149,-86.9565217391304,4,2,1,85,0,1
85150,-86.9565217391304,4,2,1,85,0,1
86038,-86.9565217391304,4,2,1,5,0,1
86136,-86.9565217391304,4,2,1,85,0,1
87469,-86.9565217391304,4,2,1,5,0,1
87518,-86.9565217391304,4,2,1,85,0,1
88209,-86.9565217391304,4,2,1,5,0,1
88307,-86.9565217391304,4,2,1,85,0,1
88999,-86.9565217391304,4,2,1,85,0,1
89097,-86.9565217391304,4,2,1,85,0,1
91169,-86.9565217391304,4,2,1,5,0,1
91268,-86.9565217391304,4,2,1,85,0,1
92551,-86.9565217391304,4,2,1,5,0,1
92649,-86.9565217391304,4,2,1,85,0,1
94327,-86.9565217391304,4,2,1,5,0,1
94426,-86.9565217391304,4,2,1,85,0,1
99064,-86.9565217391304,4,2,1,5,0,1
99163,-86.9565217391304,4,2,1,85,0,1
100840,-86.9565217391304,4,2,1,5,0,1
100939,-86.9565217391304,4,2,1,85,0,1
103998,-86.9565217391304,4,2,1,5,0,1
104097,-86.9565217391304,4,2,1,85,0,1
105380,-86.9565217391304,4,2,1,5,0,1
105478,-86.9565217391304,4,2,1,85,0,1
109623,-111.111111111111,4,2,1,85,0,1
110018,-111.111111111111,4,2,1,65,0,0
111301,-111.111111111111,4,2,1,5,0,0
111399,-111.111111111111,4,2,1,65,0,0
113472,-111.111111111111,4,2,1,5,0,0
113571,-111.111111111111,4,2,1,65,0,0
114261,-111.111111111111,4,2,1,5,0,0
114360,-111.111111111111,4,2,1,65,0,0
117617,-111.111111111111,4,2,1,5,0,0
117715,-111.111111111111,4,2,1,65,0,0
118406,-111.111111111111,4,2,1,5,0,0
118505,-111.111111111111,4,2,1,65,0,0
119788,-111.111111111111,4,2,1,5,0,0
119886,-111.111111111111,4,2,1,65,0,0
120577,-111.111111111111,4,2,1,5,0,0
120676,-111.111111111111,4,2,1,65,0,0
120873,-111.111111111111,4,2,1,70,0,0
121367,-111.111111111111,4,2,1,5,0,0
121465,-111.111111111111,4,2,1,70,0,0
122649,-111.111111111111,4,2,1,65,0,0
123735,-111.111111111111,4,2,1,5,0,0
123834,-111.111111111111,4,2,1,65,0,0
126893,-111.111111111111,4,2,1,5,0,0
126992,-111.111111111111,4,2,1,65,0,0
130051,-111.111111111111,4,2,1,5,0,0
130149,-111.111111111111,4,2,1,65,0,0
134492,-111.111111111111,4,2,1,55,0,0
135281,-166.666666666666,4,2,1,55,0,0
135972,-166.666666666666,4,2,1,5,0,0
136071,-76.9230769230769,4,2,1,55,0,0
136761,-76.9230769230769,4,2,1,5,0,0
136860,-200,4,2,1,55,0,0
137551,-200,4,2,1,5,0,0
137649,-100,4,2,1,55,0,0
138340,-100,4,2,1,5,0,0
138439,-1000,4,2,1,55,0,0
141597,-76.9230769230769,4,2,1,90,0,1
141893,-83.3333333333333,4,2,1,5,0,1
141992,-83.3333333333333,4,2,1,90,0,1
142090,-83.3333333333333,4,2,1,5,0,1
142189,-83.3333333333333,4,2,1,90,0,1
144311,-83.3333333333333,4,2,1,5,0,1
144360,-83.3333333333333,4,2,1,90,0,1
145840,-83.3333333333333,4,2,1,5,0,1
145939,-83.3333333333333,4,2,1,90,0,1
148011,-83.3333333333333,4,2,1,5,0,1
148110,-83.3333333333333,4,2,1,90,0,1
151169,-83.3333333333333,4,2,1,5,0,1
151268,-83.3333333333333,4,2,1,90,0,1
152551,-83.3333333333333,4,2,1,5,0,1
152649,-83.3333333333333,4,2,1,90,0,1
154524,-83.3333333333333,4,2,1,5,0,1
154623,-83.3333333333333,4,2,1,90,0,1
154722,-83.3333333333333,4,2,1,5,0,1
154821,-83.3333333333333,4,2,1,90,0,1
156942,-83.3333333333333,4,2,1,5,0,1
156992,-83.3333333333333,4,2,1,90,0,1
160643,-83.3333333333333,4,2,1,5,0,1
160742,-83.3333333333333,4,2,1,90,0,1
163801,-83.3333333333333,4,2,1,5,0,1
163899,-83.3333333333333,4,2,1,90,0,1
165182,-83.3333333333333,4,2,1,5,0,1
165281,-83.3333333333333,4,2,1,90,0,1
166860,-83.3333333333333,4,2,1,65,0,0
167649,-83.3333333333333,4,2,1,50,0,0
170018,-142.857142857143,4,2,1,50,0,0
170709,-142.857142857143,4,2,1,5,0,0
170807,-142.857142857143,4,2,1,50,0,0
174459,-142.857142857143,4,2,1,5,0,0
174557,-142.857142857143,4,2,1,50,0,0
178702,-285.714285714286,4,2,1,50,0,0
179492,-285.714285714286,4,2,1,40,0,0
188965,-285.714285714286,4,2,1,35,0,0

[Colours]
Combo1 : 247,224,64
Combo2 : 255,51,51

[HitObjects]
256,192,12123,12,4,15281,0:0:0:0:
186,214,16071,5,2,0:0:0:0:
186,214,16268,2,0,P|187:177|154:136,1,80.999993236542,2|0,0:0|0:0,0:0:0:0:
157,150,16663,2,0,P|122:156|87:162,1,53.999995491028,2|0,0:0|0:0,0:0:0:0:
26,248,17057,2,0,P|55:253|87:257,1,53.999995491028,2|0,0:0|0:0,0:0:0:0:
165,326,17452,2,0,B|272:318|222:279|333:271,1,161.999986473084,2|2,0:0|0:0,0:0:0:0:
323,283,18439,2,0,P|337:315|330:339,3,53.999995491028,2|2|0|0,0:0|0:0|0:0|0:0,0:0:0:0:
342,340,19623,1,0,0:0:0:0:
391,148,22386,5,2,0:0:0:0:
391,148,22584,2,0,P|352:126|353:81,1,80.999993236542,2|0,0:0|0:0,0:0:0:0:
359,81,22978,2,0,L|371:23,1,53.999995491028,2|0,0:0|0:0,0:0:0:0:
267,68,23373,2,0,P|192:83|141:96,2,107.999990982056,2|2|2,0:0|0:0|0:0,0:0:0:0:
279,58,24557,1,2,0:0:0:0:
279,58,24755,2,0,P|274:21|255:9,3,53.999995491028,0|0|0|0,0:0|0:0|0:0|0:0,0:0:0:0:
94,45,25939,6,0,B|93:74|93:74|87:103,1,53.999995491028,0|2,0:0|0:0,0:0:0:0:
16,127,26334,2,0,P|81:145|101:194,1,107.999990982056,2|2,0:0|0:0,0:0:0:0:
105,186,27123,2,0,L|89:254,1,53.999995491028,2|2,0:0|0:0,0:0:0:0:
252,324,27518,2,0,B|187:314|217:292|147:284,1,107.999990982056,2|0,0:0|0:0,0:0:0:0:
452,241,28702,5,2,0:0:0:0:
452,241,28899,2,0,P|426:271|430:326,1,80.999993236542,2|0,0:0|0:0,0:0:0:0:
421,320,29294,2,0,L|361:306,1,53.999995491028,2|0,0:0|0:0,0:0:0:0:
304,229,29689,2,0,L|364:215,1,53.999995491028,2|0,0:0|0:0,0:0:0:0:
472,140,30084,2,0,B|404:125|404:125|385:106|385:106|304:87,1,161.999986473084,2|2,0:0|0:0,0:0:0:0:
317,84,31071,2,0,P|316:51|332:30,3,53.999995491028,2|0|0|0,0:0|0:0|0:0|0:0,0:0:0:0:
331,39,32255,1,0,0:0:0:0:
24,123,35018,5,2,0:0:0:0:
24,123,35215,2,0,P|53:85|98:82,1,80.999993236542,2|0,0:0|0:0,0:0:0:0:
91,85,35610,2,0,L|103:20,1,53.999995491028,2|0,0:0|0:0,0:0:0:0:
183,130,36005,2,0,P|229:159|292:193,2,107.999990982056,2|2|2,0:0|0:0|0:0,0:0:0:0:
109,171,37189,2,0,P|34:198|32:259,1,134.99998872757,2|0,0:0|0:0,0:0:0:0:
34,251,37781,2,0,B|42:277|42:277|32:317,1,53.999995491028,2|0,0:0|0:0,0:0:0:0:
199,366,38571,6,0,B|205:340|205:340|197:314,1,53.999995491028,0|2,0:0|0:0,0:0:0:0:
175,230,38965,2,0,P|220:276|276:278,1,116.999988445283,2|2,0:0|0:0,0:0:0:0:
283,270,39755,2,0,L|275:197,1,62.9999947395327,2|2,0:0|0:0,0:0:0:0:
340,75,40149,2,0,B|426:84|393:120|485:129,1,134.999997997284,2|4,0:0|0:0,0:0:0:0:
470,133,41137,5,0,1:0:0:0:
470,133,41334,2,0,B|448:163|448:163|454:199,1,67.499998998642,8|0,0:2|0:0,0:0:0:0:
322,352,41728,1,2,1:2:0:0:
398,320,41926,2,0,P|374:265|260:236,1,168.749997496605,2|0,0:0|0:0,0:0:0:0:
272,239,42518,5,2,0:0:0:0:
292,146,42715,2,0,P|268:201|148:231,1,168.749997496605,2|0,0:0|0:0,0:0:0:0:
165,230,43307,5,2,0:0:0:0:
21,273,43505,2,0,B|100:282|58:320|164:335,1,134.999997997284,2|0,0:0|0:0,0:0:0:0:
221,373,44097,2,0,B|238:337|238:337|225:287,1,67.499998998642,2|0,0:0|1:2,0:0:0:0:
105,125,44492,1,8,3:2:0:0:
29,179,44886,6,0,P|15:111|-3:38,1,134.999992847443,4|0,3:0|0:0,0:0:0:0:
71,11,45676,1,2,3:0:0:0:
137,53,45873,1,2,3:0:0:0:
270,140,46071,5,8,3:0:0:0:
391,69,46268,1,8,3:0:0:0:
275,12,46465,5,4,3:0:0:0:
214,58,46663,1,4,3:0:0:0:
325,206,46860,6,0,P|332:262|341:309,1,89.9999952316285,4|0,0:0|0:0,0:0:0:0:
290,357,47452,1,0,1:0:0:0:
512,239,47649,2,0,B|488:209|488:209|425:207,1,101.249998497963,8|0,0:0|0:0,0:0:0:0:
416,213,48044,5,2,1:2:0:0:
382,14,48242,2,0,P|437:13|500:102,1,168.749997496605,2|0,0:0|0:0,0:0:0:0:
495,111,48834,5,2,0:0:0:0:
370,143,49031,2,0,P|315:142|252:231,1,168.749997496605,2|0,0:0|0:0,0:0:0:0:
257,237,49623,5,2,0:0:0:0:
386,358,49821,2,0,P|400:299|439:188,1,168.749997496605,2|0,0:0|0:0,0:0:0:0:
426,186,50413,5,2,0:0:0:0:
338,225,50610,1,2,1:2:0:0:
181,349,50807,6,0,P|101:320|48:306,1,134.999997997284,10|4,0:0|3:0,0:0:0:0:
9,243,51399,2,0,P|88:214|141:200,1,134.999997997284,2|0,0:0|0:0,0:0:0:0:
189,142,51992,5,2,3:2:0:0:
189,142,52189,1,2,3:0:0:0:
111,29,52386,5,8,3:0:0:0:
8,136,52584,1,8,3:0:0:0:
226,69,52781,5,4,3:0:0:0:
341,96,52979,1,4,3:0:0:0:
466,43,53176,6,0,B|383:39|421:71|324:70,1,143.999992370606,4|0,0:0|0:0,0:0:0:0:
470,52,53768,1,0,1:0:0:0:
397,233,53965,1,10,0:0:0:0:
397,233,54163,2,0,P|374:192|418:142,1,107.999994277954,2|0,0:0|0:0,0:0:0:0:
422,154,54557,2,0,L|488:167,1,53.999995491028,2|0,0:0|0:0,0:0:0:0:
335,327,54952,2,0,L|401:314,1,53.999995491028,2|0,0:0|0:0,0:0:0:0:
299,188,55347,2,0,B|236:200|272:220|202:234,2,107.999990982056,2|2|2,0:0|0:0|0:0,0:0:0:0:
315,199,56334,6,0,P|329:230|319:259,1,53.999995491028,2|0,0:0|0:0,0:0:0:0:
234,125,56728,2,0,P|248:94|238:65,1,53.999995491028,2|0,0:0|1:0,0:0:0:0:
157,158,57123,2,0,L|31:144,1,107.999990982056,8|4,0:0|3:0,0:0:0:0:
50,147,58307,5,2,3:0:0:0:
60,166,58505,1,2,3:0:0:0:
163,291,58702,5,8,3:0:0:0:
7,244,58900,1,8,3:0:0:0:
74,353,59097,5,4,3:0:0:0:
84,334,59295,1,4,3:0:0:0:
236,250,59492,6,0,P|232:218|211:198,2,53.999995491028,4|0|0,0:0|0:0|0:0,0:0:0:0:
287,316,60084,1,0,1:0:0:0:
452,241,60281,1,10,0:0:0:0:
452,241,60478,2,0,B|456:213|456:213|443:190,1,53.999995491028,2|4,0:0|3:3,0:0:0:0:
298,306,60873,6,0,P|352:319|367:346,1,80.999993236542,2|0,0:0|0:0,0:0:0:0:
379,347,61268,2,0,L|389:287,1,53.999995491028,2|0,0:0|0:0,0:0:0:0:
284,192,61663,2,0,L|274:132,1,53.999995491028,2|0,0:0|0:0,0:0:0:0:
373,26,62057,1,2,0:0:0:0:
377,30,62649,6,0,B|265:43|297:101|180:114,1,215.999981964112,6|0,0:0|0:0,0:0:0:0:
182,113,65018,1,2,0:0:0:0:
157,35,65215,1,2,0:0:0:0:
36,157,65413,5,0,0:0:0:0:
115,175,65610,1,0,0:0:0:0:
20,76,65807,6,0,P|20:135|11:241,1,161.999986473084,2|0,0:0|0:0,0:0:0:0:
221,336,66597,2,0,B|124:337|163:279|67:275,1,161.999986473084,2|0,0:0|0:0,0:0:0:0:
178,168,67386,2,0,B|226:150|226:150|205:261,1,161.999986473084,2|0,0:0|0:0,0:0:0:0:
308,333,68176,6,0,B|393:343|393:343|419:362|419:362|505:369,1,202.499996995926,6|0,0:0|0:0,0:0:0:0:
485,269,68965,2,0,L|457:54,1,215.999981964112,6|0,0:0|0:3,0:0:0:0:
457,54,70939,5,2,3:0:0:0:
387,107,71136,1,2,3:0:0:0:
231,56,71334,5,8,3:0:0:0:
112,23,71531,1,8,3:0:0:0:
314,7,71728,5,4,3:0:0:0:
322,24,71926,1,4,3:0:0:0:
258,197,72123,6,2,P|223:147|121:149,1,155.249994735718,6|0,1:2|0:0,0:1:0:0:
131,151,72518,2,0,B|148:171|148:171|152:204,2,51.7499982452393,2|2|2,0:3|0:3|1:2,0:0:0:0:
0,330,72913,1,8,0:1:0:0:
53,274,73110,2,0,B|148:281|99:321|198:333,1,155.249994735718,2|0,0:0|0:0,0:0:0:0:
202,329,73505,2,0,P|203:297|180:275,1,51.7499982452393,2|2,0:0|0:0,0:0:0:0:
47,169,73702,5,2,0:1:0:0:
34,178,73899,1,2,3:0:0:0:
119,49,74097,5,0,1:0:0:0:
208,82,74294,1,0,0:0:0:0:
251,192,74492,6,0,P|310:179|360:172,1,103.499996490479,12|2,0:1|0:0,0:0:0:0:
426,193,74788,1,2,0:3:0:0:
426,193,74886,2,0,P|432:162|438:140,1,51.7499982452393,0|0,3:0|3:0,0:0:0:0:
259,251,75084,2,0,P|254:225|247:200,1,51.7499982452393,2|2,3:0|3:0,0:0:0:0:
402,292,75281,6,2,B|321:299|351:344|258:355,1,155.249994735718,2|0,1:2|0:0,0:1:0:0:
256,349,75676,1,2,0:2:0:0:
256,349,75873,1,0,1:0:0:0:
496,355,76071,2,2,L|382:377,1,103.499996490479,8|0,3:1|0:0,0:1:0:0:
305,286,76465,6,0,P|373:298|525:316,1,206.999992980957,4|2,3:0|0:3,0:0:0:0:
412,210,77057,1,8,0:0:0:0:
481,135,77255,1,0,1:0:0:0:
481,135,77452,1,2,0:3:0:0:
318,59,77649,6,0,L|252:49,1,51.7499982452393,12|0,3:1|0:0,0:0:0:0:
467,6,77847,1,2,3:0:0:0:
476,14,77946,1,2,3:0:0:0:
473,23,78044,1,2,3:2:0:0:
338,157,78242,6,2,B|275:179|275:179|266:191|266:191|188:219,1,155.249994735718,4|0,3:3|0:0,0:1:0:0:
196,215,78636,1,2,0:0:0:0:
275,312,78834,2,0,L|285:362,2,51.7499982452393,2|2|2,0:0|0:3|1:2,0:0:0:0:
136,161,79228,2,0,B|101:209|101:209|121:251,1,103.499996490479,8|2,3:1|0:0,0:0:0:0:
282,310,79623,2,0,B|382:297|338:262|441:253,1,155.249994735718,2|0,1:2|0:0,0:0:0:0:
424,255,80018,5,2,0:0:0:0:
436,244,80215,1,8,0:0:0:0:
318,180,80413,5,0,1:0:0:0:
278,92,80610,1,2,0:3:0:0:
464,15,80807,6,0,B|471:41|471:41|459:62,1,51.7499982452393,12|0,0:1|0:0,0:0:0:0:
398,148,81005,1,2,0:3:0:0:
391,140,81103,1,2,0:3:0:0:
394,129,81202,1,0,3:0:0:0:
230,27,81399,6,2,B|167:49|167:49|158:61|158:61|80:89,1,155.249994735718,2|0,3:2|0:0,0:1:0:0:
88,85,81794,1,2,0:0:0:0:
191,208,81992,2,0,L|252:221,2,51.7499982452393,2|2|2,0:0|0:3|1:2,0:0:0:0:
27,138,82386,2,0,B|2:92|2:92|28:39,1,103.499996490479,8|2,3:1|0:0,0:0:0:0:
182,214,82781,2,0,L|169:328,1,103.499996490479,2|8,1:2|3:0,0:0:0:0:
47,368,83176,5,2,0:0:0:0:
34,355,83373,1,8,0:0:0:0:
101,220,83571,5,0,1:0:0:0:
257,280,83768,1,2,0:3:0:0:
146,327,83965,5,12,3:1:0:0:
363,244,84163,1,8,3:0:0:0:
300,192,84360,1,4,3:3:0:0:
292,187,84459,1,2,0:3:0:0:
281,188,84557,1,4,3:0:0:0:
399,333,84755,6,2,P|415:254|480:212,1,155.249994735718,6|0,1:2|0:0,0:1:0:0:
482,220,85149,2,0,B|499:241|499:241|494:281,2,51.7499982452393,2|2|2,0:3|0:3|1:2,0:0:0:0:
360,127,85544,1,8,0:1:0:0:
493,68,85742,2,0,B|412:67|433:8|343:11,1,155.249994735718,2|0,0:0|0:0,0:0:0:0:
342,12,86136,2,0,P|328:23|330:55,1,51.7499982452393,2|2,0:0|0:0,0:0:0:0:
456,174,86334,5,2,0:1:0:0:
470,168,86531,1,2,3:0:0:0:
266,176,86728,5,0,1:0:0:0:
388,238,86926,1,0,0:0:0:0:
189,268,87123,6,0,B|133:277|150:305|96:313,1,103.499996490479,12|2,0:1|0:0,0:0:0:0:
51,258,87419,1,2,0:3:0:0:
14,233,87518,2,0,P|8:207|-3:178,1,51.7499982452393,0|0,3:0|3:0,0:0:0:0:
203,262,87715,2,0,P|209:236|220:207,1,51.7499982452393,2|2,3:0|3:0,0:0:0:0:
96,328,87913,6,2,P|160:339|260:359,1,155.249994735718,2|0,1:2|0:0,0:1:0:0:
275,353,88307,1,2,0:2:0:0:
275,353,88505,1,0,1:0:0:0:
250,177,88702,6,2,P|271:238|283:291,1,103.499996490479,8|0,3:1|0:0,0:1:0:0:
491,307,89097,2,0,B|383:299|421:235|301:219,1,206.999992980957,4|2,3:0|0:3,0:0:0:0:
173,198,89689,1,8,0:0:0:0:
95,254,89886,1,0,1:0:0:0:
95,254,90084,1,2,0:3:0:0:
42,29,90281,6,0,B|25:56|25:56|31:79,1,51.7499982452393,12|0,3:1|0:0,0:0:0:0:
115,123,90478,1,2,3:0:0:0:
123,126,90577,1,2,3:0:0:0:
125,134,90676,1,2,3:2:0:0:
22,330,90873,6,2,B|91:320|91:320|109:305|109:305|185:293,1,155.249994735718,4|0,3:3|0:0,0:1:0:0:
170,295,91268,1,2,0:0:0:0:
55,210,91465,2,0,L|70:154,2,51.7499982452393,2|2|2,0:0|0:3|1:2,0:0:0:0:
248,257,91860,2,0,B|270:306|270:306|245:350,1,103.499996490479,8|2,3:1|0:0,0:0:0:0:
45,216,92255,2,0,B|138:218|97:173|192:166,1,155.249994735718,2|0,1:2|0:0,0:0:0:0:
187,166,92649,5,2,0:0:0:0:
205,178,92847,1,8,0:0:0:0:
379,106,93044,5,0,1:0:0:0:
308,163,93242,1,2,0:3:0:0:
91,21,93439,6,0,B|120:23|120:23|143:36,1,51.7499982452393,12|0,0:1|0:0,0:0:0:0:
248,78,93636,1,2,0:3:0:0:
255,90,93735,1,2,0:3:0:0:
250,103,93834,1,0,3:0:0:0:
217,301,94031,6,2,B|148:291|148:291|130:276|130:276|54:264,1,155.249994735718,2|0,3:2|0:0,0:1:0:0:
68,266,94426,1,2,0:0:0:0:
202,220,94623,2,0,L|216:170,2,51.7499982452393,2|2|2,0:0|0:3|1:2,0:0:0:0:
0,310,95018,2,0,B|-17:260|-17:260|11:215,1,103.499996490479,8|2,3:1|0:0,0:0:0:0:
208,228,95413,2,0,L|315:249,1,103.499996490479,2|8,1:2|3:0,0:0:0:0:
484,290,95807,5,2,0:0:0:0:
479,308,96005,1,8,0:0:0:0:
366,377,96202,5,0,1:0:0:0:
314,255,96399,1,2,0:3:0:0:
335,127,96597,6,0,P|360:136|382:159,1,51.7499982452393,12|0,3:1|0:0,0:0:0:0:
437,199,96794,2,0,P|436:225|421:253,1,51.7499982452393,8|0,3:0|0:0,0:0:0:0:
270,331,96992,1,4,3:2:0:0:
270,331,97090,1,2,0:3:0:0:
270,331,97189,1,4,3:0:0:0:
270,331,97288,1,2,3:3:0:0:
270,331,97386,6,0,B|217:311|217:311|165:314,3,103.499996490479,6|0|2|0,1:2|0:0|0:2|1:0,0:0:0:0:
21,170,98176,2,0,L|54:285,1,103.499996490479,8|2,0:1|0:3,0:0:0:0:
22,344,98571,1,4,3:0:0:0:
252,254,98768,6,0,B|171:245|203:190|103:185,1,155.249994735718,8|0,3:0|0:0,0:0:0:0:
106,177,99163,2,0,L|91:126,2,51.7499982452393,8|2|8,0:0|0:3|1:3,0:0:0:0:
157,328,99557,1,2,3:2:0:0:
256,244,99755,2,0,B|302:217|302:217|373:236,1,103.499996490479,14|2,0:1|0:0,0:0:0:0:
416,275,100051,1,2,0:3:0:0:
416,275,100149,2,0,P|405:306|401:329,1,51.7499982452393,2|0,3:0|3:0,0:0:0:0:
217,180,100347,2,0,P|228:211|232:234,1,51.7499982452393,2|0,3:1|3:0,0:0:0:0:
441,129,100544,6,0,B|376:118|376:118|353:101|353:101|276:88,1,155.249994735718,0|0,1:2|0:0,0:0:0:0:
280,95,100939,2,0,B|271:41|271:41|308:3,1,103.499996490479,2|0,0:3|1:0,0:0:0:0:
484,42,101334,5,8,0:1:0:0:
455,128,101531,1,2,0:3:0:0:
322,225,101728,5,4,3:0:0:0:
358,145,101926,1,8,3:0:0:0:
434,262,102123,5,2,0:3:0:0:
441,276,102321,1,8,0:0:0:0:
345,362,102518,2,0,B|283:358|300:332|235:325,1,103.499996490479,8|8,1:3|3:0,0:0:0:0:
182,352,102814,1,2,0:3:0:0:
182,352,102913,2,0,P|165:317|184:292,1,51.7499982452393,14|0,0:1|0:0,0:0:0:0:
249,174,103110,5,2,3:2:0:0:
264,181,103209,1,2,3:0:0:0:
274,196,103307,2,0,P|264:228|262:253,1,51.7499982452393,8|8,3:3|3:0,0:0:0:0:
90,314,103505,2,0,P|86:288|78:263,1,51.7499982452393,4|4,3:3|3:0,0:0:0:0:
0,210,103702,6,2,B|88:197|50:160|154:145,1,155.249994735718,6|0,1:2|0:0,0:1:0:0:
156,136,104097,1,2,0:2:0:0:
156,136,104294,1,0,1:0:0:0:
69,1,104492,5,8,0:1:0:0:
7,85,104689,1,2,0:3:0:0:
7,85,104886,1,4,3:0:0:0:
188,38,105084,6,2,B|252:45|252:45|280:38|280:38|360:48,1,155.249994735718,8|0,3:0|0:0,0:1:0:0:
341,45,105478,1,10,0:0:0:0:
238,153,105676,2,0,L|217:209,2,51.7499982452393,2|2|2,1:2|0:3|0:0,0:0:0:0:
417,13,106071,2,0,B|436:64|436:64|393:116,1,103.499996490479,14|2,0:1|0:2,0:0:0:0:
344,148,106367,1,2,0:3:0:0:
344,148,106465,2,0,L|361:258,1,103.499996490479,2|0,3:1|3:0,0:0:0:0:
463,372,106860,6,2,P|409:304|275:305,1,206.999992980957,0|2,1:2|0:3,0:1:0:0:
171,365,107452,2,0,B|148:350|148:350|100:344,2,51.7499982452393,0|2|8,1:0|0:3|0:1,0:0:0:0:
295,304,107847,1,2,0:3:0:0:
179,230,108044,2,0,L|160:129,1,103.499996490479,4|8,3:0|3:0,0:0:0:0:
65,66,108439,5,2,0:3:0:0:
50,59,108636,1,8,0:0:0:0:
157,15,108834,5,2,3:0:0:0:
74,148,109031,1,2,3:0:0:0:
308,22,109228,6,0,P|316:60|321:80,1,51.7499982452393,12|0,3:1|0:0,0:0:0:0:
210,140,109426,2,0,P|204:165|198:190,1,51.7499982452393,8|0,3:0|0:0,0:0:0:0:
309,229,109623,2,0,P|317:267|322:287,1,40.499996618271,4|2,3:2|3:0,0:0:0:0:
222,319,109821,2,0,P|214:357|209:377,1,40.499996618271,4|2,3:0|3:0,0:0:0:0:
305,384,110018,5,4,1:2:0:0:
314,373,110610,1,0,1:0:0:0:
174,270,110807,5,10,0:2:0:0:
106,302,111005,2,0,P|164:304|194:354,1,121.499989854813,2|0,0:0|0:0,0:0:0:0:
203,358,111399,2,0,L|282:343,1,80.999993236542,2|0,0:0|0:0,0:0:0:0:
169,177,111794,2,0,L|328:205,1,161.999986473084,2|2,0:0|0:0,0:0:0:0:
106,302,112386,5,12,0:1:0:0:
49,348,112781,2,0,L|46:368,6,20.2499983091355,2|0|0|0|2|0|0,3:3|3:0|3:0|3:0|3:2|3:0|3:0,0:0:0:0:
106,302,113176,6,0,B|125:288|125:288|222:300,1,121.499989854813,2|0,1:2|0:0,0:0:0:0:
323,350,113571,2,0,B|293:377|293:377|290:336,1,80.999993236542,2|0,0:3|1:0,0:0:0:0:
381,184,113965,2,0,B|400:198|400:198|497:185,1,121.499989854813,8|0,0:0|0:0,0:0:0:0:
508,189,114360,5,4,3:3:0:0:
341,271,114557,2,0,L|322:349,1,80.999993236542,8|0,3:0|0:0,0:0:0:0:
437,243,114952,5,8,0:0:0:0:
307,131,115149,1,2,1:3:0:0:
256,192,115347,1,0,3:0:0:0:
322,349,115544,6,0,L|362:352,1,40.499996618271,8|0,3:1|0:0,0:0:0:0:
190,349,115742,2,0,L|149:352,1,40.499996618271,8|0,3:0|0:0,0:0:0:0:
256,212,115939,2,0,L|256:191,4,20.2499983091355,4|0|0|0|4,3:0|3:0|3:0|0:0|3:0,0:0:0:0:
255,291,116334,1,0,1:0:0:0:
111,218,116728,6,0,P|93:198|36:193,1,80.999993236542,0|0,0:0|1:0,0:0:0:0:
212,160,117123,1,10,0:2:0:0:
33,189,117321,2,0,B|54:209|54:209|142:181,1,121.499989854813,2|0,0:0|0:0,0:0:0:0:
140,186,117715,6,0,L|147:105,1,80.999993236542,2|0,0:0|0:0,0:0:0:0:
0,290,118110,2,0,P|56:299|90:252,1,121.499989854813,2|0,0:0|0:0,0:0:0:0:
83,257,118505,1,2,0:0:0:0:
44,46,118702,5,12,0:1:0:0:
5,110,119097,2,0,L|7:130,6,20.2499983091355,2|0|0|0|2|0|0,3:3|3:0|3:0|3:0|3:2|3:0|3:0,0:0:0:0:
49,53,119492,6,0,B|119:65|82:101|150:113,1,121.499989854813,2|0,1:2|0:0,0:0:0:0:
232,170,119886,2,0,P|192:172|166:201,1,80.999993236542,2|0,0:3|1:0,0:0:0:0:
345,152,120281,6,0,B|415:140|378:104|446:91,1,121.499989854813,8|0,0:0|0:0,0:0:0:0:
442,98,120676,1,4,3:0:0:0:
296,35,120873,2,0,P|257:21|223:0,1,80.999993236542,2|2,0:0|0:0,0:0:0:0:
409,12,121268,5,0,0:0:0:0:
272,114,121465,1,2,3:2:0:0:
197,126,121663,1,2,3:0:0:0:
480,181,121860,6,0,P|496:192|505:210,1,40.499996618271,10|0,3:1|0:0,0:0:0:0:
470,287,122057,2,0,P|468:307|457:323,1,40.499996618271,8|0,3:0|0:0,0:0:0:0:
375,330,122255,1,2,3:1:0:0:
377,326,122452,2,0,P|337:332|297:341,1,80.999993236542,4|0,3:0|1:2,0:0:0:0:
19,161,123044,6,0,P|31:180|35:201,1,40.499996618271,0|0,0:0|0:0,0:0:0:0:
25,156,123242,1,0,1:2:0:0:
85,353,123439,2,0,P|103:295|140:247,1,121.499989854813,10|0,0:0|0:0,0:0:0:0:
150,252,123834,1,2,1:3:0:0:
218,86,124031,6,0,P|255:95|271:131,1,80.999993236542,2|0,0:0|0:0,0:0:0:0:
86,186,124426,1,2,0:0:0:0:
86,186,124623,2,0,P|113:157|152:162,1,80.999993236542,2|2,1:3|0:0,0:0:0:0:
289,330,125018,5,12,0:1:0:0:
354,369,125413,2,0,P|363:365|373:364,6,20.2499983091355,2|0|0|0|2|0|0,3:3|3:0|3:0|3:0|3:2|3:0|3:0,0:0:0:0:
291,339,125807,6,0,L|450:366,1,161.999986473084,2|2,1:2|0:3,0:0:0:0:
297,236,126399,1,0,1:0:0:0:
233,384,126597,6,0,P|238:325|196:284,1,121.499989854813,8|0,0:0|0:0,0:0:0:0:
196,284,126992,1,4,3:3:0:0:
76,159,127189,2,0,P|87:196|69:231,1,80.999993236542,8|0,3:0|0:0,0:0:0:0:
61,378,127584,5,8,0:0:0:0:
110,318,127781,1,2,1:3:0:0:
183,344,127978,1,0,3:0:0:0:
282,180,128176,6,0,L|272:136,1,40.499996618271,8|0,3:1|0:0,0:0:0:0:
306,268,128373,2,0,L|314:307,1,40.499996618271,8|0,3:0|0:0,0:0:0:0:
270,128,128571,6,0,L|243:119,4,20.2499983091355,4|0|0|0|4,3:0|3:0|3:0|0:0|3:0,0:0:0:0:
178,107,128965,1,0,1:0:0:0:
430,169,129360,5,0,0:0:0:0:
495,133,129557,1,0,1:0:0:0:
348,269,129755,2,0,B|328:248|328:248|224:273,1,121.499989854813,10|0,0:2|0:0,0:0:0:0:
230,280,130149,5,2,1:3:0:0:
116,244,130347,2,0,L|95:165,1,80.999993236542,2|0,0:0|0:0,0:0:0:0:
0,332,130742,1,2,0:0:0:0:
74,351,130939,2,0,L|152:371,1,80.999993236542,2|2,1:3|0:0,0:0:0:0:
16,149,131334,5,12,0:1:0:0:
0,76,131728,2,0,L|6:41,8,20.2499983091355,0|0|0|0|2|0|0|0|2,3:0|3:0|3:0|3:0|3:2|3:0|3:0|0:0|0:0,0:0:0:0:
375,353,135281,6,0,P|380:251|393:164,1,188.999984218598,2|0,0:0|0:0,0:0:0:0:
409,169,136071,6,0,B|268:120|248:239|252:237|221:386|83:336,1,409.499959558489,2|0,0:0|0:0,0:0:0:0:
18,317,136860,6,0,P|93:307|126:239,1,157.49999165535,2|0,0:0|0:0,0:0:0:0:
126,159,137649,6,0,P|217:279|368:270,1,314.9999833107,6|0,0:0|0:0,0:0:0:0:
374,259,138439,6,0,P|363:226|361:190,1,71.9999961853028,6|0,0:0|0:3,0:0:0:0:
361,190,140807,5,6,0:0:0:0:
339,117,141005,5,6,0:0:0:0:
235,51,141202,5,2,0:0:0:0:
86,85,141399,5,2,0:0:0:0:
17,282,141597,6,2,B|64:330|156:316|189:243|172:158|77:173|66:223,1,292.499971113207,6|0,1:2|0:0,0:1:0:0:
73,226,142189,1,2,1:2:0:0:
202,342,142386,2,0,P|230:322|274:315,1,53.999995491028,8|0,0:1|0:0,0:0:0:0:
128,333,142584,5,2,0:0:0:0:
277,230,142781,1,0,1:0:0:0:
363,379,142978,2,0,P|317:351|265:338,1,107.999990982056,2|2,0:0|0:1,0:0:0:0:
381,122,143373,6,0,B|421:148|473:163|473:163|442:219|435:270,1,215.999981964112,2|0,3:0|0:0,0:0:0:0:
261,43,143965,1,12,0:1:0:0:
336,0,144163,1,2,0:0:0:0:
345,11,144261,1,0,0:0:0:0:
345,24,144360,2,0,L|338:50,6,26.999997745514,0|0|0|0|2|0|2,3:0|3:0|3:0|3:0|3:0|3:0|3:0,0:0:0:0:
416,53,144755,6,2,B|291:81|363:151|242:172,1,215.999981964112,2|2,1:2|0:2,0:1:0:0:
53,26,145347,2,0,P|98:43|117:55,1,53.999995491028,0|0,1:0|0:0,0:0:0:0:
175,0,145544,2,2,P|141:102|140:209,1,215.999981964112,8|4,3:1|3:0,0:1:0:0:
348,361,146136,5,8,3:0:0:0:
427,340,146334,1,2,0:3:0:0:
246,171,146531,5,8,0:0:0:0:
219,96,146728,1,0,1:0:0:0:
150,128,146926,1,2,0:3:0:0:
363,276,147123,6,0,P|390:255|414:251,1,53.999995491028,12|0,3:1|0:0,0:0:0:0:
246,171,147321,2,0,P|273:192|297:196,1,53.999995491028,2|2,3:0|3:0,0:0:0:0:
189,370,147518,2,0,L|181:333,2,26.999997745514,2|0|8,3:2|0:0|3:3,0:0:0:0:
174,381,147715,6,2,P|225:284|283:290,1,161.999986473084,4|0,3:3|0:0,0:1:0:0:
256,293,148110,1,2,0:0:0:0:
364,155,148307,6,0,P|390:151|423:182,1,53.999995491028,2|0,0:0|0:0,0:0:0:0:
492,343,148505,1,2,1:2:0:0:
512,199,148702,6,0,P|502:223|458:237,1,53.999995491028,8|0,3:1|0:0,0:0:0:0:
345,333,148899,1,2,0:0:0:0:
273,225,149097,1,4,3:0:0:0:
273,225,149294,1,8,3:0:0:0:
211,283,149492,6,0,P|185:292|99:309,1,107.999990982056,2|8,0:2|0:0,0:0:0:0:
344,334,149886,2,0,P|395:317|448:308,1,107.999990982056,0|2,1:0|0:3,0:0:0:0:
254,79,150281,5,12,0:1:0:0:
318,161,150479,1,2,3:0:0:0:
323,168,150577,1,2,3:0:0:0:
327,176,150676,2,0,L|323:202,2,26.999997745514,0|0|0,3:0|3:0|3:0,0:0:0:0:
387,130,150873,6,2,P|308:148|230:172,1,161.999986473084,2|0,3:2|0:0,0:1:0:0:
230,186,151268,1,2,0:0:0:0:
92,52,151465,6,0,P|99:77|105:104,1,53.999995491028,2|0,0:0|0:0,0:0:0:0:
97,184,151663,1,2,1:2:0:0:
227,323,151860,6,0,P|234:297|240:270,1,53.999995491028,8|0,3:1|0:0,0:0:0:0:
283,204,152058,1,2,0:0:0:0:
358,36,152255,6,0,B|408:21|446:65|446:65|446:104|473:118,1,161.999986473084,2|0,1:2|0:0,0:0:0:0:
475,115,152649,1,2,0:0:0:0:
283,204,152847,1,8,0:0:0:0:
344,121,153044,5,0,1:0:0:0:
502,215,153242,1,2,0:3:0:0:
332,351,153439,6,0,L|317:275,1,53.999995491028,12|0,3:1|0:0,0:0:0:0:
196,140,153636,6,0,L|185:192,1,53.999995491028,8|0,3:0|0:0,0:0:0:0:
55,319,153834,6,0,L|44:266,1,53.999995491028
29,257,154031,5,4,3:0:0:0:
29,257,154130,1,2,3:0:0:0:
28,257,154228,2,2,P|159:291|293:298,1,269.99997745514,6|0,1:2|0:0,0:1:0:0:
298,290,154821,1,2,1:2:0:0:
441,358,155018,2,0,P|419:342|410:316,1,53.999995491028,8|0,0:1|0:0,0:0:0:0:
475,282,155216,5,2,0:0:0:0:
336,381,155413,1,0,1:0:0:0:
233,246,155610,2,0,P|214:197|164:182,1,107.999990982056,2|2,0:0|0:1,0:0:0:0:
0,326,156005,6,0,B|59:314|95:362|95:362|85:303|137:271,1,215.999981964112,2|0,3:0|0:0,0:0:0:0:
73,126,156597,1,12,0:1:0:0:
4,161,156795,1,2,0:0:0:0:
1,170,156893,1,0,0:0:0:0:
7,180,156992,2,0,L|33:187,6,26.999997745514,0|0|0|0|2|0|2,3:0|3:0|3:0|3:0|3:0|3:0|3:0,0:0:0:0:
51,265,157387,6,2,B|71:124|114:214|123:66,1,215.999981964112,2|2,1:2|0:2,0:1:0:0:
252,140,157979,2,0,P|297:157|316:169,1,53.999995491028,0|0,1:0|0:0,0:0:0:0:
300,58,158176,2,2,P|197:55|148:146,1,215.999981964112,8|4,3:1|3:0,0:1:0:0:
276,306,158768,5,8,3:0:0:0:
298,374,158966,1,2,0:3:0:0:
441,252,159163,5,8,0:0:0:0:
456,182,159360,1,0,1:0:0:0:
389,142,159558,1,2,0:3:0:0:
298,374,159755,6,0,P|325:353|349:349,1,53.999995491028,12|0,3:1|0:0,0:0:0:0:
441,252,159953,2,0,P|415:244|395:227,1,53.999995491028,2|2,3:0|3:0,0:0:0:0:
506,366,160150,2,0,L|498:329,2,26.999997745514,2|0|8,3:2|0:0|3:3,0:0:0:0:
512,384,160347,6,2,P|427:342|356:333,1,161.999986473084,4|0,3:3|0:0,0:1:0:0:
355,340,160742,1,2,0:0:0:0:
288,204,160939,6,0,P|314:200|347:231,1,53.999995491028,2|0,0:0|0:0,0:0:0:0:
430,308,161137,1,2,1:2:0:0:
452,153,161334,6,0,P|468:173|458:217,1,53.999995491028,8|0,3:1|0:0,0:0:0:0:
433,314,161532,1,2,0:0:0:0:
288,289,161729,1,2,1:2:0:0:
225,341,161926,1,8,3:0:0:0:
65,200,162124,6,0,P|55:146|39:95,1,107.999990982056,2|8,0:0|0:0,0:0:0:0:
198,236,162518,2,0,P|206:289|224:340,1,107.999990982056,0|2,1:0|0:3,0:0:0:0:
221,81,162913,5,12,0:1:0:0:
139,140,163111,1,2,3:0:0:0:
132,145,163209,1,2,3:0:0:0:
124,149,163308,2,0,L|98:145,2,26.999997745514,0|0|0,3:0|3:0|3:0,0:0:0:0:
67,217,163505,6,2,P|144:193|223:175,1,161.999986473084,2|0,3:2|0:0,0:1:0:0:
230,186,163900,1,2,0:0:0:0:
365,34,164097,6,0,P|340:41|313:47,1,53.999995491028,2|0,0:0|0:0,0:0:0:0:
239,37,164295,1,2,1:2:0:0:
386,207,164492,6,0,P|411:200|438:194,1,53.999995491028,8|0,3:1|0:0,0:0:0:0:
512,204,164690,1,2,0:0:0:0:
317,317,164886,6,0,P|297:246|367:224,1,161.999986473084,2|0,1:2|0:0,0:0:0:0:
377,238,165281,1,2,0:0:0:0:
262,296,165479,1,8,0:0:0:0:
427,308,165676,5,0,1:0:0:0:
214,214,165874,1,2,0:3:0:0:
119,349,166071,6,0,P|145:353|170:364,1,53.999995491028,12|0,3:1|0:0,0:0:0:0:
261,296,166268,6,0,P|285:285|312:280,1,53.999995491028,8|0,3:0|0:0,0:0:0:0:
427,308,166465,6,0,L|430:264,8,26.999997745514,6|0|0|0|4|0|2|0|0,3:2|0:0|0:0|0:0|3:0|0:0|3:0|0:0|0:0,0:0:0:0:
359,375,167649,5,8,0:0:0:0:
69,241,170018,6,0,P|80:152|145:213,1,220.499981588364,4|0,0:0|0:0,0:0:0:0:
145,213,170807,1,8,0:0:0:0:
420,63,172781,6,0,P|396:121|386:183,1,125.999989479065,2|0,0:0|0:0,0:0:0:0:
339,126,173965,1,8,0:0:0:0:
336,137,174557,6,0,P|314:81|255:78,1,125.999989479065,2|2,0:1|0:0,0:0:0:0:
169,188,175149,2,0,P|197:175|228:168,1,62.9999947395327,2|0,0:1|0:0,0:0:0:0:
123,82,175544,2,0,P|92:75|63:62,1,62.9999947395327,2|2,0:0|0:0,0:0:0:0:
63,69,175939,1,2,0:0:0:0:
9,220,176334,5,6,0:1:0:0:
26,291,177123,1,8,0:0:0:0:
303,354,178702,6,0,P|347:342|312:372,1,125.999989479065,2|4,0:0|0:0,0:0:0:0:
