osu file format v14

[General]
AudioFilename: audio.mp3
AudioLeadIn: 0
PreviewTime: 88072
Countdown: 0
SampleSet: Soft
StackLeniency: 0.7
Mode: 0
LetterboxInBreaks: 0
WidescreenStoryboard: 1

[Editor]
DistanceSpacing: 1.2
BeatDivisor: 4
GridSize: 32
TimelineZoom: 1.5

[Metadata]
Title:Q
TitleUnicode:Q
Artist:Calliope Mori x Gawr Gura x DECO*27
ArtistUnicode:Calliope Mori x Gawr Gura x DECO*27
Creator:SMOKELIND
Version:XIDORN'S HARD
Source:
Tags:japanese english pop j-pop jpop female vocal ホロライブ hololive hololive-en en バーチャルユーチューバー virtual yt youtube youtuber vtuber がうる・ぐら 森カリオペ Mocaotic xidorn flame haze flake Kujinn Reform
BeatmapID:3535753
BeatmapSetID:1699993

[Difficulty]
HPDrainRate:5
CircleSize:3.4
OverallDifficulty:6
ApproachRate:7.8
SliderMultiplier:1.37
SliderTickRate:1

[Events]
//Background and Video events
0,0,"BG.jpg",0,0
Video,-100,"vid.mp4"
//Break Periods
2,51446,53163
2,143131,144849
//Storyboard Layer 0 (Background)
//Storyboard Layer 1 (Fail)
//Storyboard Layer 2 (Pass)
//Storyboard Layer 3 (Foreground)
//Storyboard Layer 4 (Overlay)
//Storyboard Sound Samples

[TimingPoints]
2707,337.078651685393,4,2,77,27,1,0
8100,-100,4,2,77,57,0,0
18886,-95.2380952380952,4,2,77,67,0,0
29673,-86.9565217391304,4,2,77,87,0,0
40459,-90.9090909090909,4,2,77,87,0,0
51246,-90.9090909090909,4,2,77,5,0,0
53942,-100,4,2,77,57,0,0
75515,-95.2380952380952,4,2,77,67,0,0
88999,-111.111111111111,4,2,77,47,0,0
96920,-90.9090909090909,4,2,77,77,0,0
97089,-90.9090909090909,4,2,77,87,0,0
110572,-83.3333333333333,4,2,77,87,0,0
121358,-86.9565217391304,4,2,77,87,0,0
132145,-83.3333333333333,4,2,77,87,0,0
142931,-83.3333333333333,4,2,77,47,0,0
145628,-100,4,2,77,57,0,0
155235,-100,4,2,77,47,0,0
155572,-100,4,2,77,27,0,0
156414,-100,4,2,77,5,0,0

[Colours]
Combo1 : 255,191,220
Combo2 : 191,209,255

[HitObjects]
23,364,8100,6,0,L|170:338,1,137,4|2,1:0|0:0,0:0:0:0:
235,367,8605,1,2,0:0:0:0:
235,367,8774,2,0,L|317:344,1,68.5,10|2,0:0|0:0,0:0:0:0:
288,267,9111,2,0,L|222:285,1,68.5,2|2,0:0|0:0,0:0:0:0:
143,260,9448,6,0,L|124:97,2,137,2|2|8,0:0|3:0|0:0,0:0:0:0:
274,160,10459,2,0,L|347:167,1,68.5,2|2,0:0|0:0,0:0:0:0:
419,194,10796,1,2,3:0:0:0:
456,354,11133,2,0,L|529:364,2,68.5,2|0|8,3:0|0:0|0:0,0:0:0:0:
391,303,11639,1,2,0:0:0:0:
391,303,11808,1,2,0:0:0:0:
339,366,11976,6,0,L|256:356,1,68.5,2|0,0:0|3:0,0:0:0:0:
188,361,12313,2,0,L|196:292,1,68.5,2|0,3:0|3:0,0:0:0:0:
268,253,12650,2,0,L|284:106,1,137,2|2,3:0|0:0,0:0:0:0:
282,116,13072,1,0,0:0:0:0:
282,116,13156,1,6,1:0:0:0:
409,11,13493,6,0,B|477:8|477:8|521:80,1,137,6|2,1:0|0:0,0:0:0:0:
501,152,13999,1,2,0:0:0:0:
501,152,14167,2,0,L|483:230,1,68.5,10|2,0:0|0:0,0:0:0:0:
414,159,14504,2,0,L|432:81,1,68.5,2|2,0:0|0:0,0:0:0:0:
332,191,14841,6,0,L|188:147,2,137,2|2|8,1:0|3:0|0:0,0:0:0:0:
391,248,15684,1,2,0:0:0:0:
391,248,15853,2,0,L|381:330,1,68.5,2|2,3:0|0:0,0:0:0:0:
316,365,16190,5,2,1:0:0:0:
175,279,16527,2,0,L|92:261,1,68.5,2|8,1:0|0:0,0:0:0:0:
92,183,16864,1,8,1:2:0:0:
278,196,17201,1,10,1:2:0:0:
278,196,17369,2,0,L|422:226,2,137,2|10|2,1:0|0:0|3:0,0:0:0:0:
190,62,18381,1,2,0:0:0:0:
190,62,18549,2,0,L|103:53,1,68.5,2|0,1:0|0:0,0:0:0:0:
40,75,18886,5,4,1:0:0:0:
40,75,19055,2,0,P|33:26|58:-8,2,71.9249978050233,2|2|2,0:0|0:0|0:0,0:0:0:0:
102,133,19560,2,0,P|140:163|179:156,2,71.9249978050233,2|2|2,0:0|1:0|1:0,0:0:0:0:
22,161,20066,1,2,1:0:0:0:
22,161,20235,6,0,L|10:257,1,71.9249978050233,2|2,1:0|1:0,0:0:0:0:
14,318,20572,2,0,P|56:308|97:312,1,71.9249978050233,10|2,0:0|0:0,0:0:0:0:
150,367,20909,2,0,P|192:377|229:372,1,71.9249978050233,2|2,0:0|1:0,0:0:0:0:
220,374,21162,1,2,1:0:0:0:
220,374,21246,1,10,0:0:0:0:
201,203,21583,6,0,P|185:152|191:121,1,71.9249978050233,2|2,1:0|0:0,0:0:0:0:
185,48,21920,2,0,P|234:52|262:90,1,71.9249978050233,10|2,0:0|0:0,0:0:0:0:
336,71,22257,2,0,P|385:67|413:29,2,71.9249978050233,2|2|10,1:0|1:0|0:0,0:0:0:0:
292,146,22763,1,2,0:0:0:0:
292,146,22931,6,0,L|299:224,1,71.9249978050233,2|2,1:0|1:0,0:0:0:0:
376,254,23268,2,0,L|382:182,1,71.9249978050233,10|2,0:0|0:0,0:0:0:0:
456,138,23605,1,10,0:0:0:0:
499,224,23774,1,2,1:0:0:0:
499,224,23858,1,0,1:0:0:0:
499,224,23942,2,0,L|481:343,1,107.887496707535,2|2,1:0|0:0,0:0:0:0:
458,367,24280,5,2,1:0:0:0:
289,331,24617,1,8,0:0:0:0:
325,162,24954,1,2,1:0:0:0:
494,198,25291,1,8,0:0:0:0:
379,68,25628,6,0,L|284:54,1,71.9249978050233,2|2,1:0|0:0,0:0:0:0:
232,15,25965,2,0,L|140:26,1,71.9249978050233,10|0,0:0|0:0,0:0:0:0:
134,110,26302,1,2,1:0:0:0:
134,110,26386,1,2,0:0:0:0:
134,110,26471,1,2,1:0:0:0:
213,146,26639,2,0,L|198:191,3,35.9624989025116,10|0|2|0,1:2|1:0|1:0|1:0,0:0:0:0:
173,213,26976,5,2,1:0:0:0:
90,186,27145,1,2,1:0:0:0:
49,359,27482,1,0,0:0:0:0:
49,359,27566,1,0,0:0:0:0:
49,359,27650,6,0,L|132:347,1,71.9249978050233,0|0,1:0|1:0,0:0:0:0:
180,286,27987,2,0,L|168:233,2,35.9624989025116,0|0|0,3:0|0:0|1:0,0:0:0:0:
266,278,28324,2,0,L|419:300,2,143.849995610047,0|0|0,1:0|1:0|1:0,0:0:0:0:
220,51,29336,1,8,0:0:0:0:
64,157,29673,6,0,P|12:73|16:-14,2,157.550003005028,6|10|2,1:0|0:2|1:0,0:0:0:0:
155,178,30515,1,0,0:0:0:0:
222,111,30684,1,10,1:2:0:0:
222,111,30853,2,0,L|318:100,1,78.7750015025139,2|0,0:0|1:0,0:0:0:0:
376,45,31190,6,0,P|398:112|383:135,1,78.7750015025139,2|10,0:0|0:0,0:0:0:0:
485,147,31527,2,0,P|437:199|410:198,1,78.7750015025139,2|2,0:0|1:0,0:0:0:0:
376,276,31864,2,0,P|408:297|447:293,2,78.7750015025139,2|10|2,0:0|0:0|0:0,0:0:0:0:
300,201,32369,6,0,P|329:294|321:385,2,157.550003005028,2|10|2,1:0|0:0|1:0,0:0:0:0:
219,151,33212,1,0,0:0:0:0:
162,219,33381,1,10,0:0:0:0:
162,219,33549,1,2,0:0:0:0:
165,313,33718,6,0,P|148:338|97:361,1,78.7750015025139,2|2,1:0|0:0,0:0:0:0:
73,270,34055,2,0,P|42:267|-2:235,1,78.7750015025139,10|2,0:0|0:0,0:0:0:0:
65,171,34392,1,2,1:0:0:0:
65,171,34560,2,0,P|51:143|57:88,2,78.7750015025139,2|10|2,0:0|0:0|0:0,0:0:0:0:
147,123,35066,6,0,B|232:112|232:112|239:116|239:116|335:103,1,157.550003005028,6|8,1:0|0:0,0:0:0:0:
490,125,35740,2,0,P|506:84|503:49,1,78.7750015025139,2|0,1:0|0:0,0:0:0:0:
421,3,36077,2,0,P|404:43|407:78,1,78.7750015025139,10|0,0:0|0:0,0:0:0:0:
414,172,36414,6,0,P|464:185|494:284,2,157.550003005028,2|10|2,1:0|0:0|1:0,0:0:0:0:
349,241,37257,1,0,3:0:0:0:
283,172,37426,1,10,0:0:0:0:
228,248,37594,5,0,3:0:0:0:
228,248,37763,2,0,L|250:351,2,78.7750015025139,6|0|10,1:0|0:0|0:0,0:0:0:0:
132,198,38268,5,2,0:0:0:0:
132,198,38437,2,0,L|154:95,2,78.7750015025139,6|0|10,1:0|0:0|0:0,0:0:0:0:
30,203,38942,5,2,0:0:0:0:
30,203,39111,2,0,P|-10:145|44:66,1,157.550003005028,14|14,1:2|1:2,0:0:0:0:
113,37,39617,2,0,L|103:-14,2,39.387500751257,2|0|14,1:0|0:0|1:2,0:0:0:0:
199,98,39954,1,8,0:0:0:0:
199,98,40038,1,8,0:0:0:0:
199,98,40122,2,0,L|293:84,1,78.7750015025139,10|0,1:2|0:0,0:0:0:0:
352,36,40459,6,0,P|424:49|439:126,2,150.700004598999,6|10|2,1:0|0:0|1:0,0:0:0:0:
181,96,41471,2,0,P|141:124|149:167,1,75.3500022994996,10|0,0:0|3:0,0:0:0:0:
49,155,41808,2,0,P|63:201|106:207,1,75.3500022994996,2|0,1:0|3:0,0:0:0:0:
64,298,42145,2,0,P|112:298|131:259,1,75.3500022994996,10|0,0:0|3:0,0:0:0:0:
188,213,42482,2,0,P|228:202|275:220,1,75.3500022994996,2|0,1:0|3:0,0:0:0:0:
315,281,42819,2,0,P|377:301|457:246,1,150.700004598999,10|0,0:0|1:0,0:0:0:0:
489,181,43324,5,2,0:0:0:0:
489,181,43493,1,10,0:0:0:0:
444,102,43662,1,2,0:0:0:0:
444,102,43830,2,0,L|283:81,1,150.700004598999,2|10,1:0|0:0,0:0:0:0:
252,2,44336,6,0,L|91:23,1,150.700004598999,2|2,0:0|0:0,0:0:0:0:
31,76,44841,2,0,L|39:164,1,75.3500022994996,10|2,0:0|0:0,0:0:0:0:
129,178,45178,1,2,1:0:0:0:
129,178,45347,1,2,0:0:0:0:
136,274,45515,1,10,0:0:0:0:
136,274,45684,1,2,0:0:0:0:
45,264,45853,6,0,P|0:276|2:367,2,150.700004598999,6|10|2,1:0|0:0|1:0,0:0:0:0:
202,354,46864,2,0,P|251:349|272:313,1,75.3500022994996,10|0,0:0|3:0,0:0:0:0:
356,323,47201,2,0,P|351:274|315:253,1,75.3500022994996,2|0,1:0|3:0,0:0:0:0:
325,169,47538,2,0,P|276:174|255:210,1,75.3500022994996,10|0,0:0|3:0,0:0:0:0:
193,264,47875,2,0,P|169:236|171:200,1,75.3500022994996,2|0,1:0|3:0,0:0:0:0:
102,140,48212,2,0,P|113:105|146:87,1,75.3500022994996,10|0,0:0|3:0,0:0:0:0:
236,99,48549,5,4,1:0:0:0:
236,99,48718,2,0,L|217:4,2,75.3500022994996,2|10|2,0:0|0:0|0:0,0:0:0:0:
319,132,49223,2,0,L|400:106,1,75.3500022994996,6|0,1:0|0:0,0:0:0:0:
470,66,49560,2,0,L|498:168,1,75.3500022994996,10|0,0:0|0:0,0:0:0:0:
496,229,49898,5,10,1:2:0:0:
496,229,49982,1,8,0:0:0:0:
496,229,50066,2,0,L|539:218,2,37.6750011497498,10|8|10,0:0|0:0|1:2,0:0:0:0:
442,301,50403,1,10,0:0:0:0:
358,265,50572,1,14,1:2:0:0:
310,341,50740,1,2,1:0:0:0:
222,315,50909,2,0,L|199:161,1,150.700004598999,10|0,1:2|0:0,0:0:0:0:
200,157,53942,6,0,B|106:157|106:157|89:258|89:258|195:262,1,274,4|8,1:0|0:0,0:0:0:0:
317,271,54954,2,0,L|320:224,2,34.25,2|0|0,0:0|0:0|0:0,0:0:0:0:
310,353,55291,1,0,0:0:0:0:
474,355,55628,6,0,L|468:258,1,68.5,0|2,0:0|0:0,0:0:0:0:
470,287,55881,1,2,0:0:0:0:
470,287,55965,1,10,0:0:0:0:
421,220,56133,2,0,L|425:151,2,68.5,2|2|2,0:0|0:0|0:0,0:0:0:0:
341,243,56639,5,2,1:0:0:0:
341,243,56808,2,0,B|175:218|175:218|142:164,1,205.5,0|10,3:0|0:0,0:0:0:0:
101,31,57650,1,2,0:0:0:0:
265,38,57987,6,0,P|363:34|421:185,1,274,2|10,1:0|0:0,0:0:0:0:
405,258,58830,2,0,L|429:315,2,34.25,2|2|12,0:0|0:0|0:0,0:0:0:0:
262,340,59336,6,0,B|28:326|28:326|37:276,1,274,6|10,1:0|0:0,0:0:0:0:
98,135,60347,2,0,L|89:95,2,34.25,2|0|0,0:0|0:0|0:0,0:0:0:0:
165,182,60684,1,0,1:0:0:0:
231,31,61021,6,0,L|317:42,1,68.5,2|2,0:0|0:0,0:0:0:0:
298,39,61274,1,2,0:0:0:0:
298,39,61358,1,10,0:0:0:0:
462,59,61695,1,2,0:0:0:0:
336,164,62032,5,2,1:0:0:0:
336,164,62201,2,0,B|119:190,1,205.5,0|10,1:0|0:0,0:0:0:0:
4,293,63044,1,2,0:0:0:0:
168,287,63381,2,0,L|324:271,2,137,2|2|10,1:0|0:0|0:0,0:0:0:0:
120,355,64223,1,2,0:0:0:0:
120,355,64308,1,2,0:0:0:0:
120,355,64392,5,6,3:2:0:0:
47,194,64729,2,0,B|32:131|32:131|105:89,1,137,6|0,1:0|0:0,0:0:0:0:
157,42,65235,1,2,0:0:0:0:
219,95,65403,1,10,0:0:0:0:
370,31,65740,1,2,0:0:0:0:
500,130,66077,6,0,L|481:291,1,137,2|2,0:0|3:0,0:0:0:0:
434,332,66583,1,0,0:0:0:0:
434,332,66751,1,2,3:0:0:0:
346,192,67089,1,2,0:0:0:0:
281,343,67426,5,2,1:0:0:0:
281,343,67594,2,0,L|75:321,1,205.5,0|10,1:0|0:0,0:0:0:0:
13,168,68437,1,2,0:0:0:0:
139,63,68774,6,0,B|300:71|300:71|277:149|277:149|229:149,1,274,2|10,1:0|0:0,0:0:0:0:
245,149,70122,6,0,B|159:145|159:145|150:270,1,205.5,6|0,1:0|0:0,0:0:0:0:
182,339,70796,1,10,0:0:0:0:
345,358,71133,2,0,L|424:363,1,68.5,2|0,0:0|1:0,0:0:0:0:
495,375,71471,5,2,1:0:0:0:
477,243,71808,1,2,0:0:0:0:
477,243,71892,2,0,L|471:155,1,68.5,2|2,0:0|0:0,0:0:0:0:
473,140,72145,5,10,0:0:0:0:
294,109,72482,1,2,1:0:0:0:
115,78,72819,1,2,1:0:0:0:
11,156,73156,6,0,L|32:247,1,68.5,2|2,1:0|1:0,0:0:0:0:
49,301,73493,1,10,0:0:0:0:
198,369,73830,1,2,0:0:0:0:
279,339,73999,1,2,1:0:0:0:
279,339,74083,1,0,1:0:0:0:
279,339,74167,6,0,L|254:180,1,137,0|2,1:0|1:0,0:0:0:0:
239,40,74841,2,0,L|235:0,2,34.25,10|8|8,0:0|0:0|0:0,0:0:0:0:
306,95,75178,1,10,0:0:0:0:
306,95,75347,1,8,0:0:0:0:
386,65,75515,5,4,1:0:0:0:
386,65,75684,2,0,P|441:31|475:35,2,71.9249978050233,2|10|0,0:0|0:0|0:0,0:0:0:0:
457,113,76190,2,0,L|451:202,1,71.9249978050233,2|0,0:0|1:0,0:0:0:0:
468,274,76527,1,10,0:0:0:0:
468,274,76695,6,0,P|372:282|359:347,1,143.849995610047,2|2,0:0|1:0,0:0:0:0:
281,357,77201,2,0,L|263:266,1,71.9249978050233,10|0,0:0|0:0,0:0:0:0:
314,214,77538,2,0,L|318:133,1,71.9249978050233,2|2,0:0|1:0,0:0:0:0:
317,142,77791,1,0,1:0:0:0:
317,142,77875,1,10,0:0:0:0:
175,43,78212,5,0,1:0:0:0:
175,43,78381,2,0,P|114:26|84:29,1,71.9249978050233,2|10,0:0|0:0,0:0:0:0:
19,17,78718,2,0,L|42:167,1,143.849995610047,0|2,0:0|1:0,0:0:0:0:
123,182,79223,2,0,L|112:286,1,71.9249978050233,10|0,0:0|0:0,0:0:0:0:
43,300,79560,5,2,1:0:0:0:
43,300,79729,2,0,P|76:339|119:337,1,71.9249978050233,2|10,1:0|0:0,0:0:0:0:
177,320,80066,2,0,L|250:297,1,71.9249978050233,2|0,0:0|0:0,0:0:0:0:
336,280,80403,1,2,1:0:0:0:
336,280,80487,1,0,1:0:0:0:
336,280,80572,1,10,0:0:0:0:
491,354,80909,6,0,P|423:339|398:316,1,71.9249978050233,6|2,1:0|0:0,0:0:0:0:
455,258,81246,2,0,P|403:211|393:178,1,71.9249978050233,10|2,0:0|0:0,0:0:0:0:
436,135,81583,1,2,3:0:0:0:
436,135,81667,1,2,0:0:0:0:
436,135,81751,2,0,P|467:145|485:145,2,35.9624989025116,2|0|10,1:0|0:0|0:0,0:0:0:0:
391,59,82089,1,2,0:0:0:0:
318,105,82257,5,2,1:0:0:0:
318,105,82426,2,0,L|311:272,1,143.849995610047,2|2,1:0|0:0,0:0:0:0:
282,333,82931,1,14,0:0:0:0:
282,333,83015,1,0,0:0:0:0:
282,333,83100,1,2,1:0:0:0:
204,280,83268,1,10,1:2:0:0:
131,326,83437,1,14,0:0:0:0:
56,283,83605,5,2,1:0:0:0:
56,283,83774,2,0,L|32:120,1,143.849995610047,0|2,1:0|1:0,0:0:0:0:
24,98,84195,1,2,1:0:0:0:
24,98,84280,5,10,1:2:0:0:
79,32,84448,2,0,L|235:50,1,143.849995610047,0|2,1:0|0:0,0:0:0:0:
256,192,84954,12,2,86302,1:0:0:0:
256,192,88999,6,0,L|272:335,2,123.299996237183,6|2|2,1:0|0:0|0:0,0:0:0:0:
211,82,90009,1,2,0:0:0:0:
211,82,90178,1,2,0:0:0:0:
60,34,90515,6,0,L|0:21,1,61.6499981185914,2|2,0:0|0:0,0:0:0:0:
17,107,90852,2,0,L|77:118,1,61.6499981185914,2|2,0:0|0:0,0:0:0:0:
89,202,91189,2,0,L|29:191,2,61.6499981185914,2|2|2,0:0|0:0|0:0,0:0:0:0:
190,158,91695,6,0,L|153:297,2,123.299996237183,2|2|2,0:0|0:0|0:0,0:0:0:0:
288,82,92706,1,2,0:0:0:0:
288,82,92875,1,2,0:0:0:0:
378,50,93044,5,2,0:0:0:0:
378,50,93212,2,0,L|439:39,1,61.6499981185914,2|2,0:0|0:0,0:0:0:0:
475,126,93549,2,0,L|414:137,1,61.6499981185914,2|2,0:0|0:0,0:0:0:0:
412,234,93886,2,0,L|472:222,2,61.6499981185914,2|2|2,0:0|0:0|0:0,0:0:0:0:
316,226,94392,1,2,0:0:0:0:
316,226,95066,5,2,0:0:0:0:
270,85,95403,1,2,0:0:0:0:
129,131,95740,1,2,0:0:0:0:
175,272,96077,1,2,0:0:0:0:
28,294,96414,1,2,0:0:0:0:
9,147,96751,1,2,0:0:0:0:
59,73,96920,5,0,1:0:0:0:
59,73,97089,2,0,L|40:-21,2,75.3500022994996,6|0|10,1:0|0:0|0:0,0:0:0:0:
159,115,97594,5,2,1:0:0:0:
159,115,97763,2,0,L|140:209,2,75.3500022994996,6|0|10,1:0|0:0|0:0,0:0:0:0:
249,52,98268,5,2,0:0:0:0:
249,52,98437,2,0,L|352:68,1,75.3500022994996,14|2,1:2|1:0,0:0:0:0:
369,141,98774,2,0,L|266:157,1,75.3500022994996,14|2,1:2|1:0,0:0:0:0:
226,212,99111,1,14,1:2:0:0:
226,212,99280,1,8,0:0:0:0:
284,280,99448,1,10,1:2:0:0:
284,280,99617,1,0,1:0:0:0:
364,239,99785,6,0,P|432:241|473:331,2,150.700004598999,6|10|2,1:0|0:0|1:0,0:0:0:0:
197,308,100796,2,0,P|141:351|106:353,1,75.3500022994996,10|0,0:0|3:0,0:0:0:0:
114,264,101133,2,0,P|48:237|29:207,1,75.3500022994996,2|0,1:0|3:0,0:0:0:0:
110,170,101471,2,0,P|100:100|116:68,1,75.3500022994996,10|0,0:0|3:0,0:0:0:0:
187,68,101808,2,0,P|196:137|180:169,1,75.3500022994996,2|0,1:0|3:0,0:0:0:0:
226,225,102145,2,0,L|389:194,1,150.700004598999,10|0,0:0|1:0,0:0:0:0:
455,158,102650,5,2,0:0:0:0:
455,158,102819,1,10,0:0:0:0:
463,71,102987,1,2,0:0:0:0:
463,71,103156,2,0,L|366:50,1,75.3500022994996,2|0,1:0|0:0,0:0:0:0:
302,30,103493,1,10,0:0:0:0:
302,30,103662,6,0,L|320:204,1,150.700004598999,2|2,0:0|0:0,0:0:0:0:
395,225,104167,2,0,L|385:330,1,75.3500022994996,10|2,0:0|0:0,0:0:0:0:
316,355,104504,1,2,1:0:0:0:
316,355,104673,1,2,0:0:0:0:
250,292,104841,1,10,0:0:0:0:
250,292,105010,1,2,0:0:0:0:
173,339,105178,6,0,P|110:346|79:259,2,150.700004598999,6|10|2,1:0|0:0|1:0,0:0:0:0:
249,174,106190,2,0,P|228:125|236:92,1,75.3500022994996,10|0,0:0|3:0,0:0:0:0:
205,17,106527,2,0,P|156:38|123:30,1,75.3500022994996,2|0,1:0|3:0,0:0:0:0:
48,61,106864,2,0,P|69:110|61:143,1,75.3500022994996,10|0,0:0|3:0,0:0:0:0:
92,218,107201,2,0,P|141:197|174:205,1,75.3500022994996,2|0,1:0|3:0,0:0:0:0:
223,134,107538,2,0,P|256:198|246:243,1,113.025003449249,10|0,0:0|0:0,0:0:0:0:
227,276,107875,6,0,L|143:293,1,75.3500022994996,4|2,1:0|1:0,0:0:0:0:
93,359,108212,2,0,L|5:332,1,75.3500022994996,2|2,1:0|1:0,0:0:0:0:
6,247,108549,1,4,1:0:0:0:
6,247,108718,1,0,1:0:0:0:
54,172,108886,1,4,1:2:0:0:
54,172,109055,1,0,1:0:0:0:
46,82,109223,5,8,1:2:0:0:
46,82,109308,1,8,0:0:0:0:
46,82,109392,1,8,0:0:0:0:
46,82,109476,1,8,0:0:0:0:
46,82,109560,2,0,L|54:22,3,37.6750011497498,8|8|8|8,1:2|0:0|0:0|0:0,0:0:0:0:
93,26,109898,2,0,L|227:44,1,113.025003449249,8|0,1:2|0:0,0:0:0:0:
248,53,110235,1,0,0:0:0:0:
303,242,110572,6,0,P|273:304|174:285,2,164.39999498291,6|10|2,1:0|0:2|1:0,0:0:0:0:
307,143,111414,1,0,0:0:0:0:
406,171,111583,1,10,1:2:0:0:
406,171,111751,2,0,L|413:261,1,82.1999974914552,2|0,0:0|1:0,0:0:0:0:
451,344,112089,6,0,P|391:348|352:314,1,82.1999974914552,2|10,0:0|0:0,0:0:0:0:
319,255,112426,2,0,P|259:251|220:285,1,82.1999974914552,2|2,0:0|1:0,0:0:0:0:
191,345,112763,2,0,P|230:353|268:339,2,82.1999974914552,2|10|2,0:0|0:0|0:0,0:0:0:0:
130,267,113268,6,0,P|135:333|45:331,2,164.39999498291,2|10|2,1:0|0:0|1:0,0:0:0:0:
76,183,114111,1,0,0:0:0:0:
153,121,114280,1,10,0:0:0:0:
153,121,114448,1,2,0:0:0:0:
216,196,114617,6,0,P|277:184|288:149,1,82.1999974914552,2|2,1:0|0:0,0:0:0:0:
364,228,114954,2,0,P|384:169|359:142,1,82.1999974914552,10|2,0:0|0:0,0:0:0:0:
465,115,115291,1,2,1:0:0:0:
465,115,115459,2,0,P|424:68|388:76,2,82.1999974914552,2|10|2,0:0|0:0|0:0,0:0:0:0:
495,209,115965,6,0,B|492:296|492:296|486:301|486:301|485:376,1,164.39999498291,6|8,1:0|0:0,0:0:0:0:
288,359,116639,2,0,P|223:349|209:319,1,82.1999974914552,2|0,1:0|0:0,0:0:0:0:
237,243,116976,2,0,P|302:253|316:283,1,82.1999974914552,10|0,0:0|0:0,0:0:0:0:
383,326,117313,6,0,P|434:318|432:217,2,164.39999498291,2|10|2,1:0|0:0|1:0,0:0:0:0:
304,265,118156,1,0,3:0:0:0:
221,318,118324,1,10,0:0:0:0:
149,249,118493,5,0,3:0:0:0:
149,249,118662,2,0,L|160:156,2,82.1999974914552,6|0|10,1:0|0:0|0:0,0:0:0:0:
51,300,119167,5,2,0:0:0:0:
51,300,119336,2,0,L|62:393,2,82.1999974914552,6|0|10,1:0|0:0|0:0,0:0:0:0:
38,202,119841,5,2,0:0:0:0:
38,202,120010,2,0,P|39:149|72:123,1,82.1999974914552,14|2,1:2|1:0,0:0:0:0:
43,31,120347,2,0,P|96:32|122:65,1,82.1999974914552,14|2,1:2|1:0,0:0:0:0:
155,140,120684,1,14,1:2:0:0:
245,99,120853,1,8,0:0:0:0:
245,99,120937,1,8,0:0:0:0:
245,99,121021,2,0,L|247:49,3,41.0999987457276,10|8|0|8,1:2|0:0|0:0|0:0,0:0:0:0:
282,26,121358,6,0,P|364:48|390:124,2,157.550003005028,6|10|2,1:0|0:0|1:0,0:0:0:0:
181,186,122369,2,0,L|195:272,1,78.7750015025139,10|0,0:0|3:0,0:0:0:0:
271,317,122706,2,0,L|283:239,1,78.7750015025139,2|0,1:0|3:0,0:0:0:0:
365,176,123044,2,0,L|377:253,1,78.7750015025139,10|0,0:0|3:0,0:0:0:0:
456,306,123381,2,0,L|468:228,1,78.7750015025139,2|0,1:0|3:0,0:0:0:0:
449,135,123718,2,0,P|399:59|335:77,1,157.550003005028,10|0,0:0|1:0,0:0:0:0:
259,111,124223,5,2,0:0:0:0:
259,111,124392,1,10,0:0:0:0:
187,49,124560,1,2,0:0:0:0:
187,49,124729,2,0,L|26:81,1,157.550003005028,2|10,1:0|0:0,0:0:0:0:
26,174,125235,6,0,L|194:184,1,157.550003005028,2|2,0:0|0:0,0:0:0:0:
275,165,125740,2,0,L|266:281,1,78.7750015025139,10|2,0:0|0:0,0:0:0:0:
267,342,126077,1,2,1:0:0:0:
267,342,126246,1,2,0:0:0:0:
187,301,126414,1,10,0:0:0:0:
187,301,126583,1,2,0:0:0:0:
100,338,126751,6,0,P|47:356|18:258,2,157.550003005028,6|10|2,1:0|0:0|1:0,0:0:0:0:
138,152,127763,2,0,L|223:131,1,78.7750015025139,10|0,0:0|3:0,0:0:0:0:
195,40,128100,2,0,L|280:61,1,78.7750015025139,2|0,1:0|3:0,0:0:0:0:
315,142,128437,2,0,L|400:121,1,78.7750015025139,10|0,0:0|3:0,0:0:0:0:
462,59,128774,2,0,L|484:157,1,78.7750015025139,2|0,1:0|3:0,0:0:0:0:
496,228,129111,2,0,L|362:282,1,118.162502253771,10|0,0:0|0:0,0:0:0:0:
340,259,129448,5,4,1:0:0:0:
258,307,129617,2,0,L|276:385,2,78.7750015025139,2|10|2,0:0|0:0|0:0,0:0:0:0:
206,228,130122,2,0,P|144:224|112:240,1,78.7750015025139,6|0,1:0|0:0,0:0:0:0:
92,316,130459,2,0,P|44:311|21:276,1,78.7750015025139,10|0,0:0|0:0,0:0:0:0:
36,195,130796,5,10,1:2:0:0:
36,195,130881,1,8,0:0:0:0:
36,195,130965,2,0,L|13:136,2,39.387500751257,10|8|10,0:0|0:0|1:2,0:0:0:0:
127,220,131302,1,10,0:0:0:0:
187,147,131471,2,0,L|278:140,1,78.7750015025139,14|2,1:2|1:0,0:0:0:0:
359,131,131808,1,10,1:2:0:0:
359,131,131976,1,2,0:0:0:0:
409,45,132145,6,0,P|458:40|506:141,2,164.39999498291,6|10|2,1:0|0:0|1:0,0:0:0:0:
339,229,133156,2,0,P|292:261|255:252,1,82.1999974914552,10|0,0:0|3:0,0:0:0:0:
213,340,133493,2,0,P|168:305|165:267,1,82.1999974914552,2|0,1:0|3:0,0:0:0:0:
68,254,133830,2,0,P|87:200|122:186,1,82.1999974914552,10|0,0:0|3:0,0:0:0:0:
103,89,134167,2,0,P|143:83|177:105,1,82.1999974914552,2|0,1:0|3:0,0:0:0:0:
220,16,134504,2,0,L|236:187,1,164.39999498291,10|0,0:0|1:0,0:0:0:0:
278,268,135010,5,2,0:0:0:0:
278,268,135178,1,10,0:0:0:0:
247,362,135347,1,2,0:0:0:0:
247,362,135515,2,0,L|144:355,1,82.1999974914552,2|0,1:0|0:0,0:0:0:0:
102,279,135853,2,8,L|203:255,1,82.1999974914552,10|0,0:0|0:0,0:0:0:0:
255,193,136190,5,2,1:0:0:0:
323,263,136358,1,2,0:0:0:0:
353,169,136527,2,0,L|330:68,1,82.1999974914552,10|2,0:0|0:0,0:0:0:0:
287,1,136864,1,2,1:0:0:0:
287,1,137032,1,2,0:0:0:0:
222,75,137201,1,10,0:0:0:0:
222,75,137369,1,2,0:0:0:0:
134,29,137538,6,0,P|30:41|22:107,2,164.39999498291,6|10|2,1:0|0:0|1:0,0:0:0:0:
238,168,138549,2,0,P|249:209|225:243,1,82.1999974914552,10|0,0:0|3:0,0:0:0:0:
260,334,138886,2,0,P|219:345|185:321,1,82.1999974914552,2|0,1:0|3:0,0:0:0:0:
94,356,139223,2,0,P|83:315|107:281,1,82.1999974914552,10|0,0:0|3:0,0:0:0:0:
144,199,139560,2,0,P|110:178|72:190,1,82.1999974914552,2|0,1:0|3:0,0:0:0:0:
17,106,139898,2,0,P|89:72|184:99,1,164.39999498291,10|4,0:0|1:0,0:0:0:0:
256,43,140403,5,2,0:0:0:0:
256,43,140572,1,10,0:0:0:0:
322,115,140740,1,2,0:0:0:0:
322,115,140909,2,0,L|326:215,1,82.1999974914552,6|0,1:0|0:0,0:0:0:0:
423,210,141246,2,0,L|419:292,1,82.1999974914552,14|0,0:0|0:0,0:0:0:0:
368,377,141583,5,2,1:0:0:0:
368,377,141751,1,2,1:0:0:0:
288,317,141920,2,0,L|189:300,1,82.1999974914552,10|2,1:2|0:0,0:0:0:0:
112,274,142257,1,14,1:2:0:0:
23,318,142426,1,10,0:0:0:0:
23,318,142510,1,8,0:0:0:0:
23,318,142594,2,0,L|5:260,2,41.0999987457276,10|0|2,1:2|0:0|3:0,0:0:0:0:
107,369,142931,5,0,3:0:0:0:
107,369,145628,6,0,L|93:212,1,137,4|2,1:0|0:0,0:0:0:0:
33,178,146133,1,2,0:0:0:0:
33,178,146302,2,0,L|25:97,1,68.5,10|2,0:0|0:0,0:0:0:0:
104,84,146639,2,0,L|110:152,1,68.5,2|2,0:0|0:0,0:0:0:0:
168,210,146976,6,0,L|330:182,2,137,2|2|8,0:0|3:0|0:0,0:0:0:0:
173,374,147987,2,0,L|272:353,1,68.5,2|2,0:0|0:0,0:0:0:0:
320,342,148324,1,2,3:0:0:0:
484,357,148662,2,0,L|452:194,1,137,2|8,3:0|0:0,0:0:0:0:
423,148,149167,1,2,0:0:0:0:
423,148,149336,1,2,0:0:0:0:
341,153,149504,6,0,L|266:133,1,68.5,2|0,0:0|3:0,0:0:0:0:
192,137,149841,2,0,L|212:62,1,68.5,2|0,3:0|3:0,0:0:0:0:
142,22,150178,2,0,L|-2:41,1,137,2|2,3:0|0:0,0:0:0:0:
6,39,150600,1,0,0:0:0:0:
6,39,150684,5,6,1:0:0:0:
6,204,151021,2,0,B|27:271|27:271|112:266,1,137,6|2,1:0|0:0,0:0:0:0:
159,217,151527,1,2,0:0:0:0:
159,217,151695,2,0,L|248:222,1,68.5,10|2,0:0|0:0,0:0:0:0:
269,150,152032,2,0,L|190:129,1,68.5,2|2,0:0|0:0,0:0:0:0:
214,50,152369,6,0,L|64:78,2,137,2|2|8,1:0|3:0|0:0,0:0:0:0:
287,13,153212,1,2,0:0:0:0:
287,13,153381,2,0,L|308:103,1,68.5,2|2,1:0|0:0,0:0:0:0:
326,158,153718,5,2,1:0:0:0:
485,119,154055,2,0,L|471:259,1,137,2|0,0:0|3:0,0:0:0:0:
354,370,154729,5,2,0:0:0:0:
354,370,154898,1,2,0:0:0:0:
231,281,155235,1,2,0:0:0:0:
108,368,155572,1,2,0:0:0:0:
19,246,155909,5,2,0:0:0:0:
19,246,156077,1,2,0:0:0:0:
