osu file format v14

[General]
AudioFilename: audio.mp3
AudioLeadIn: 0
PreviewTime: 88072
Countdown: 0
SampleSet: Soft
StackLeniency: 0.7
Mode: 0
LetterboxInBreaks: 0
WidescreenStoryboard: 1

[Editor]
DistanceSpacing: 0.2
BeatDivisor: 4
GridSize: 32
TimelineZoom: 1

[Metadata]
Title:Q
TitleUnicode:Q
Artist:Calliope Mori x Gawr Gura x DECO*27
ArtistUnicode:Calliope Mori x Gawr Gura x DECO*27
Creator:SMOKELIND
Version:MOCAOTIC'S NORMAL
Source:
Tags:japanese english pop j-pop jpop female vocal ホロライブ hololive hololive-en en バーチャルユーチューバー virtual yt youtube youtuber vtuber がうる・ぐら 森カリオペ Mocaotic xidorn flame haze flake Kujinn Reform
BeatmapID:3497827
BeatmapSetID:1699993

[Difficulty]
HPDrainRate:3
CircleSize:3.4
OverallDifficulty:4
ApproachRate:5
SliderMultiplier:1
SliderTickRate:1

[Events]
//Background and Video events
0,0,"BG.jpg",0,0
Video,-100,"vid.mp4"
//Break Periods
2,51277,52742
2,89199,95720
2,142963,144428
//Storyboard Layer 0 (Background)
//Storyboard Layer 1 (Fail)
//Storyboard Layer 2 (Pass)
//Storyboard Layer 3 (Foreground)
//Storyboard Layer 4 (Overlay)
//Storyboard Sound Samples

[TimingPoints]
2707,337.078651685393,4,2,77,27,1,0
8100,-100,4,2,77,57,0,0
18886,-100,4,2,77,67,0,0
29673,-90.9090909090909,4,2,77,87,0,0
51246,-90.9090909090909,4,2,77,5,0,0
53942,-100,4,2,77,57,0,0
75515,-100,4,2,77,67,0,0
88999,-100,4,2,77,47,0,0
96920,-90.9090909090909,4,2,77,77,0,0
97089,-90.9090909090909,4,2,77,87,0,0
142931,-90.9090909090909,4,2,77,47,0,0
145628,-100,4,2,77,57,0,0
155235,-100,4,2,77,47,0,0
155572,-100,4,2,77,27,0,0
156414,-100,4,2,77,5,0,0

[Colours]
Combo1 : 255,191,220
Combo2 : 191,209,255

[HitObjects]
46,125,8100,6,0,P|94:104|186:113,1,100,4|2,1:0|0:0,0:0:0:0:
188,80,8605,1,2,0:0:0:0:
188,80,8774,2,0,P|195:43|183:7,2,50,10|2|2,0:0|0:0|0:0,0:0:0:0:
254,154,9448,1,2,0:0:0:0:
345,113,9785,6,0,P|393:134|485:125,1,100,2|8,3:0|0:0,0:0:0:0:
506,211,10459,2,0,P|490:243|489:272,1,50,2|2,0:0|0:0,0:0:0:0:
512,300,10796,1,2,3:0:0:0:
449,378,11133,2,0,P|401:357|309:366,1,100,2|8,3:0|0:0,0:0:0:0:
307,335,11639,2,0,P|275:351|246:352,1,50,2|2,0:0|0:0,0:0:0:0:
222,384,11976,5,2,0:0:0:0:
129,342,12313,1,2,3:0:0:0:
140,242,12650,1,2,3:0:0:0:
240,219,12987,1,2,0:0:0:0:
240,219,13156,1,6,1:0:0:0:
323,273,13493,6,0,P|371:252|463:261,1,100,6|2,1:0|0:0,0:0:0:0:
458,218,13999,1,2,0:0:0:0:
458,218,14167,2,0,P|497:235|524:235,2,50,10|2|2,0:0|0:0|0:0,0:0:0:0:
397,138,14841,1,2,1:0:0:0:
300,165,15178,6,0,P|252:144|160:153,1,100,2|8,3:0|0:0,0:0:0:0:
164,121,15684,1,2,0:0:0:0:
164,121,15853,1,2,3:0:0:0:
87,185,16190,1,2,1:0:0:0:
0,135,16527,2,0,P|-7:75|30:26,1,100,2|8,1:0|1:2,0:0:0:0:
52,15,17032,6,0,P|81:26|122:25,1,50,0|10,1:0|1:2,0:0:0:0:
139,57,17369,1,2,1:0:0:0:
202,134,17706,2,0,P|191:163|192:204,1,50,10|8,0:0|0:0,0:0:0:0:
151,215,18044,2,0,P|162:244|161:285,1,50,2|8,3:0|0:0,0:0:0:0:
203,301,18381,1,2,0:0:0:0:
203,301,18549,1,2,1:0:0:0:
271,373,18886,6,0,P|319:374|369:315,1,100,4|2,1:0|0:0,0:0:0:0:
398,312,19392,1,2,0:0:0:0:
398,312,19560,2,0,P|389:271|391:245,1,50,2|2,0:0|1:0,0:0:0:0:
361,221,19898,1,2,1:0:0:0:
282,159,20235,6,0,P|291:118|278:42,1,100,2|10,1:0|0:0,0:0:0:0:
322,27,20740,1,2,0:0:0:0:
322,27,20909,2,0,P|362:31|393:53,1,50,2|2,0:0|1:0,0:0:0:0:
417,17,21246,1,10,0:0:0:0:
500,72,21583,6,0,P|491:113|504:189,1,100,2|10,1:0|0:0,0:0:0:0:
468,212,22089,1,2,0:0:0:0:
468,212,22257,2,0,P|428:208|397:186,1,50,2|2,1:0|1:0,0:0:0:0:
373,222,22594,1,10,0:0:0:0:
291,174,22931,5,2,1:0:0:0:
291,174,23100,2,0,P|311:122|313:66,1,100,2|2,1:0|0:0,0:0:0:0:
282,40,23605,2,0,P|249:40|222:23,1,50,10|2,0:0|1:0,0:0:0:0:
189,9,23942,1,2,1:0:0:0:
101,58,24280,6,0,P|92:112|130:163,1,100,2|8,1:0|0:0,0:0:0:0:
148,185,24785,1,2,0:0:0:0:
148,185,24954,2,0,P|218:175|261:172,1,100,2|8,1:0|0:0,0:0:0:0:
335,128,25628,6,0,P|396:141|448:141,1,100,2|10,1:0|0:0,0:0:0:0:
479,173,26133,1,0,0:0:0:0:
479,173,26302,2,0,P|481:215|468:238,1,50,2|2,1:0|1:0,0:0:0:0:
495,268,26639,1,10,1:2:0:0:
422,336,26976,5,2,1:0:0:0:
422,336,27145,1,2,1:0:0:0:
284,289,27650,1,0,1:0:0:0:
284,289,27819,1,0,1:0:0:0:
189,312,28156,5,0,1:0:0:0:
189,312,28324,2,0,P|184:272|202:235,1,50,0|0,1:0|1:0,0:0:0:0:
219,225,28662,2,0,P|224:185|206:148,1,50,0|0,1:0|1:0,0:0:0:0:
196,132,28999,2,0,P|143:127|88:158,1,100,0|8,1:0|0:0,0:0:0:0:
29,229,29673,6,0,P|44:276|51:345,1,110.000003356934,6|10,1:0|0:2,0:0:0:0:
153,382,30347,1,2,1:0:0:0:
248,324,30684,1,10,1:2:0:0:
248,324,30853,6,0,P|301:347|361:340,1,110.000003356934,2|2,0:0|0:0,0:0:0:0:
390,381,31358,2,0,P|426:370|468:378,1,55.0000016784668,10|2,0:0|0:0,0:0:0:0:
493,348,31695,2,0,P|497:303|477:273,1,55.0000016784668,2|2,1:0|0:0,0:0:0:0:
462,249,32032,1,10,0:0:0:0:
375,180,32369,6,0,P|375:119|397:74,1,110.000003356934,2|10,1:0|0:0,0:0:0:0:
314,1,33044,1,2,1:0:0:0:
207,27,33381,2,0,P|207:69|194:92,1,55.0000016784668,10|2,0:0|0:0,0:0:0:0:
170,125,33718,6,0,P|134:110|113:112,2,55.0000016784668,2|2|10,1:0|0:0|0:0,0:0:0:0:
211,168,34223,1,2,0:0:0:0:
211,168,34392,2,0,P|247:153|268:155,2,55.0000016784668,2|2|10,1:0|0:0|0:0,0:0:0:0:
142,254,35066,6,0,P|164:319|164:374,1,110.000003356934,6|8,1:0|0:0,0:0:0:0:
273,381,35740,1,2,1:0:0:0:
340,294,36077,1,10,0:0:0:0:
289,196,36414,6,0,L|209:213,1,55.0000016784668,2|0,1:0|3:0,0:0:0:0:
189,238,36751,1,10,0:0:0:0:
115,156,37088,1,2,1:0:0:0:
184,70,37426,2,0,L|264:87,1,55.0000016784668,10|0,0:0|3:0,0:0:0:0:
290,98,37763,6,0,P|360:75|404:78,1,110.000003356934,6|10,1:0|0:0,0:0:0:0:
451,62,38268,1,2,0:0:0:0:
451,62,38437,2,0,P|498:100|489:164,1,110.000003356934,6|10,1:0|0:0,0:0:0:0:
412,213,39111,6,0,P|376:204|343:204,1,55.0000016784668,14|2,1:2|1:0,0:0:0:0:
314,169,39448,2,0,P|278:178|245:178,1,55.0000016784668,14|2,1:2|1:0,0:0:0:0:
212,206,39785,1,14,1:2:0:0:
110,162,40122,1,10,1:2:0:0:
25,232,40459,6,0,P|13:295|55:343,1,110.000003356934,6|10,1:0|0:0,0:0:0:0:
133,383,41133,1,2,1:0:0:0:
215,309,41470,1,10,0:0:0:0:
297,382,41808,2,0,P|352:366|420:376,1,110.000003356934,2|10,1:0|0:0,0:0:0:0:
510,342,42482,1,2,1:0:0:0:
475,237,42819,6,0,P|467:169|478:122,1,110.000003356934,10|0,0:0|1:0,0:0:0:0:
435,99,43324,1,2,0:0:0:0:
435,99,43493,2,0,P|396:100|377:116,1,55.0000016784668,10|2,0:0|0:0,0:0:0:0:
348,150,43830,1,2,1:0:0:0:
314,257,44167,1,10,0:0:0:0:
314,257,44336,6,0,P|253:263|221:203,1,110.000003356934,2|2,0:0|0:0,0:0:0:0:
180,196,44841,2,0,P|189:155|185:126,1,55.0000016784668,10|2,0:0|0:0,0:0:0:0:
238,119,45178,2,0,P|229:78|233:49,1,55.0000016784668,2|2,1:0|0:0,0:0:0:0:
201,17,45515,1,10,0:0:0:0:
90,13,45853,6,0,P|33:34|24:104,1,110.000003356934,6|10,1:0|0:0,0:0:0:0:
94,155,46527,1,2,1:0:0:0:
38,251,46864,1,10,0:0:0:0:
124,318,47201,2,0,P|181:297|190:227,1,110.000003356934,2|10,1:0|0:0,0:0:0:0:
254,160,47875,1,2,1:0:0:0:
184,74,48212,1,10,0:0:0:0:
271,6,48549,6,0,P|332:13|394:15,1,110.000003356934,4|10,1:0|0:0,0:0:0:0:
430,49,49055,1,2,0:0:0:0:
430,49,49223,2,0,P|429:87|416:109,1,55.0000016784668,6|0,1:0|0:0,0:0:0:0:
385,143,49560,1,10,0:0:0:0:
279,175,49898,6,0,P|248:167|214:170,1,55.0000016784668,10|10,1:2|0:0,0:0:0:0:
185,206,50235,2,0,P|194:243|195:273,1,55.0000016784668,10|10,1:2|0:0,0:0:0:0:
224,306,50572,2,0,P|255:298|289:301,1,55.0000016784668,14|2,1:2|1:0,0:0:0:0:
329,329,50909,1,10,1:2:0:0:
329,329,51077,1,2,0:0:0:0:
330,330,53942,6,0,P|392:342|422:260,1,150,4|0,1:0|0:0,0:0:0:0:
461,236,54617,1,8,0:0:0:0:
403,154,54954,2,0,P|356:166|298:174,1,100,2|0,0:0|0:0,0:0:0:0:
218,135,55628,1,0,0:0:0:0:
218,135,55796,2,0,P|211:106|226:61,2,50,2|10|2,0:0|0:0|0:0,0:0:0:0:
193,179,56302,2,0,P|200:208|185:253,1,50,2|2,0:0|0:0,0:0:0:0:
165,266,56639,6,0,P|81:231|23:261,1,150,2|0,1:0|0:0,0:0:0:0:
8,297,57313,1,10,0:0:0:0:
69,375,57650,1,2,0:0:0:0:
168,362,57987,2,0,P|235:327|257:256,1,150,2|8,1:0|3:3,0:0:0:0:
296,228,58662,2,0,P|290:189|296:166,1,50,10|2,0:0|0:0,0:0:0:0:
252,147,58999,1,12,0:0:0:0:
164,194,59336,6,0,P|91:197|38:147,1,150,6|0,1:0|0:0,0:0:0:0:
6,107,60010,1,10,0:0:0:0:
68,29,60347,2,0,P|124:24|192:5,1,100,2|0,0:0|1:0,0:0:0:0:
260,48,61021,1,2,0:0:0:0:
260,48,61190,2,0,P|267:91|263:115,1,50,2|10,0:0|0:0,0:0:0:0:
219,185,61695,1,2,0:0:0:0:
290,254,62032,6,0,P|363:234|438:239,1,150,2|0,1:0|0:0,0:0:0:0:
482,219,62706,1,10,0:0:0:0:
511,123,63044,1,2,0:0:0:0:
451,42,63381,2,0,P|378:62|333:59,1,100,2|2,1:0|0:0,0:0:0:0:
269,114,64055,2,0,P|234:104|199:104,1,50,10|2,0:0|0:0,0:0:0:0:
183,69,64392,1,6,3:2:0:0:
100,125,64729,6,0,P|88:191|131:236,1,100,6|0,1:0|0:0,0:0:0:0:
142,256,65235,1,2,0:0:0:0:
142,256,65403,2,0,P|226:234|260:240,1,100,10|2,0:0|0:0,0:0:0:0:
326,188,66077,6,0,P|410:210|444:204,1,100,2|2,0:0|3:0,0:0:0:0:
471,232,66583,1,0,0:0:0:0:
471,232,66751,2,0,P|483:298|440:343,1,100,2|2,3:0|0:0,0:0:0:0:
386,382,67426,6,0,P|302:360|268:366,1,100,2|2,1:0|0:0,0:0:0:0:
207,305,68100,1,10,0:0:0:0:
121,357,68437,1,2,0:0:0:0:
48,288,68774,6,0,P|16:279|-13:280,2,50,2|2|2,1:0|0:0|0:0,0:0:0:0:
94,264,69280,1,2,0:0:0:0:
94,264,69448,2,0,P|117:201|89:147,1,100,10|2,0:0|0:0,0:0:0:0:
24,117,70122,6,0,P|37:56|146:47,1,150,6|0,1:0|0:0,0:0:0:0:
156,53,70796,1,10,0:0:0:0:
232,117,71133,2,0,P|218:153|215:177,1,50,2|0,0:0|1:0,0:0:0:0:
176,195,71471,6,0,P|196:260|198:317,1,100,2|2,1:0|0:0,0:0:0:0:
180,340,71976,1,0,0:0:0:0:
180,340,72145,1,10,0:0:0:0:
270,383,72482,1,2,1:0:0:0:
350,323,72819,6,0,P|392:335|466:320,1,100,2|2,1:0|1:0,0:0:0:0:
500,341,73324,1,2,1:0:0:0:
500,341,73493,1,10,0:0:0:0:
510,241,73830,2,0,P|504:210|509:179,1,50,2|2,0:0|1:0,0:0:0:0:
480,148,74167,5,0,1:0:0:0:
386,112,74504,1,2,1:0:0:0:
312,180,74841,2,0,P|318:211|313:242,1,50,10|8,0:0|0:0,0:0:0:0:
348,267,75178,2,0,P|342:298|347:329,1,50,10|8,0:0|0:0,0:0:0:0:
314,357,75515,6,0,P|262:372|208:343,1,100,4|10,1:0|0:0,0:0:0:0:
188,325,76021,1,0,0:0:0:0:
188,325,76190,1,2,0:0:0:0:
155,235,76527,1,10,0:0:0:0:
155,235,76695,6,0,P|172:179|177:96,1,100,2|2,0:0|1:0,0:0:0:0:
214,104,77201,2,0,P|203:63|209:41,1,50,10|0,0:0|0:0,0:0:0:0:
174,16,77538,2,0,P|133:27|111:21,1,50,2|2,0:0|1:0,0:0:0:0:
78,9,77875,1,10,0:0:0:0:
1,73,78212,6,0,P|18:129|23:212,1,100,0|10,1:0|0:0,0:0:0:0:
7,217,78718,1,0,0:0:0:0:
85,288,79055,1,2,1:0:0:0:
85,288,79223,2,0,P|121:284|154:262,1,50,10|0,0:0|0:0,0:0:0:0:
168,243,79560,6,0,P|162:219|163:184,2,50,2|2|10,1:0|1:0|0:0,0:0:0:0:
213,264,80066,1,2,0:0:0:0:
303,217,80403,1,2,1:0:0:0:
303,217,80572,1,10,0:0:0:0:
396,251,80909,6,0,P|404:312|380:361,1,100,6|10,1:0|0:0,0:0:0:0:
350,374,81414,1,2,0:0:0:0:
350,374,81583,2,0,P|288:362|257:370,1,50,2|2,3:0|1:0,0:0:0:0:
255,378,81920,1,10,0:0:0:0:
177,323,82257,6,0,P|187:290|190:257,1,50,2|2,1:0|1:0,0:0:0:0:
227,242,82594,2,0,P|211:155|212:117,1,100,10|14,0:0|0:0,0:0:0:0:
188,104,83100,1,2,1:0:0:0:
188,104,83268,1,10,1:2:0:0:
241,19,83605,5,2,1:0:0:0:
241,19,83774,2,0,P|310:39|368:37,1,100,0|2,1:0|1:0,0:0:0:0:
372,83,84280,1,10,1:2:0:0:
372,83,84448,2,0,P|441:63|499:65,1,100,0|2,1:0|0:0,0:0:0:0:
256,192,84954,12,2,86302,1:0:0:0:
256,192,88999,5,6,1:0:0:0:
511,86,96920,5,0,1:0:0:0:
511,86,97089,2,0,P|407:63|359:64,1,110.000003356934,6|10,1:0|0:0,0:0:0:0:
369,27,97594,1,2,1:0:0:0:
369,27,97763,2,0,P|265:50|217:49,1,110.000003356934,6|10,1:0|0:0,0:0:0:0:
179,122,98437,6,0,P|164:203|194:233,1,110.000003356934,14|14,1:2|1:2,0:0:0:0:
223,249,98942,1,2,1:0:0:0:
223,249,99111,2,0,P|267:233|305:232,1,55.0000016784668,14|8,1:2|0:0,0:0:0:0:
324,207,99448,1,10,1:2:0:0:
428,242,99785,6,0,P|440:309|408:358,1,110.000003356934,6|10,1:0|0:0,0:0:0:0:
334,384,100459,1,2,1:0:0:0:
250,312,100796,1,10,0:0:0:0:
154,367,101133,2,0,P|95:345|41:349,1,110.000003356934,2|10,1:0|0:0,0:0:0:0:
0,248,101808,1,2,1:0:0:0:
80,172,102145,6,0,P|101:104|86:44,1,110.000003356934,10|0,0:0|1:0,0:0:0:0:
141,35,102650,1,2,0:0:0:0:
141,35,102819,2,0,P|180:36|199:52,1,55.0000016784668,10|2,0:0|0:0,0:0:0:0:
240,71,103156,1,2,1:0:0:0:
309,162,103493,1,10,0:0:0:0:
309,162,103662,6,0,P|286:217|277:288,1,110.000003356934,2|2,0:0|0:0,0:0:0:0:
235,302,104167,2,0,P|249:341|246:371,1,55.0000016784668,10|2,0:0|0:0,0:0:0:0:
298,378,104504,2,0,P|337:364|367:367,1,55.0000016784668,2|2,1:0|0:0,0:0:0:0:
401,382,104841,1,10,0:0:0:0:
495,324,105179,6,0,P|504:256|453:193,1,110.000003356934,6|10,1:0|0:0,0:0:0:0:
392,163,105853,1,2,1:0:0:0:
318,243,106190,1,10,0:0:0:0:
219,194,106527,2,0,P|161:218|95:211,1,110.000003356934,2|10,1:0|0:0,0:0:0:0:
22,276,107201,1,2,1:0:0:0:
77,370,107538,1,10,0:0:0:0:
180,331,107875,6,0,P|215:328|248:315,1,55.0000016784668,4|2,1:0|1:0,0:0:0:0:
284,343,108212,2,0,P|310:335|337:333,1,55.0000016784668,2|2,1:0|1:0,0:0:0:0:
382,302,108549,2,0,P|374:275|372:248,1,55.0000016784668,4|0,1:0|1:0,0:0:0:0:
340,203,108886,1,4,1:2:0:0:
246,145,109223,6,0,P|219:152|192:154,1,55.0000016784668,8|8,1:2|0:0,0:0:0:0:
157,196,109560,2,0,P|130:188|103:186,1,55.0000016784668,8|8,1:2|0:0,0:0:0:0:
55,157,109898,2,0,P|34:96|73:34,1,110.000003356934,8|0,1:2|0:0,0:0:0:0:
145,2,110572,6,0,B|196:12|206:34|269:46,1,110.000003356934,6|10,1:0|0:2,0:0:0:0:
331,113,111246,1,2,1:0:0:0:
264,201,111583,1,10,1:2:0:0:
264,201,111752,6,0,P|211:178|147:169,1,110.000003356934,2|2,0:0|0:0,0:0:0:0:
118,132,112257,2,0,P|92:141|39:138,1,55.0000016784668,10|2,0:0|0:0,0:0:0:0:
22,178,112594,2,0,P|31:204|28:257,1,55.0000016784668,2|2,1:0|0:0,0:0:0:0:
14,283,112931,1,10,0:0:0:0:
89,363,113268,6,0,P|152:343|208:345,1,110.000003356934,2|10,1:0|0:0,0:0:0:0:
299,383,113943,1,2,1:0:0:0:
390,321,114280,2,0,P|389:279|375:253,1,55.0000016784668,10|2,0:0|0:0,0:0:0:0:
341,232,114617,6,0,P|305:247|284:245,2,55.0000016784668,2|2|10,1:0|0:0|0:0,0:0:0:0:
373,189,115122,1,2,0:0:0:0:
373,189,115291,2,0,P|360:153|360:132,1,55.0000016784668,2|2,1:0|0:0,0:0:0:0:
318,100,115628,2,0,P|331:64|331:43,1,55.0000016784668,10|2,0:0|0:0,0:0:0:0:
372,10,115965,6,0,P|435:34|434:110,1,110.000003356934,6|8,1:0|0:0,0:0:0:0:
501,165,116639,1,2,1:0:0:0:
425,244,116976,1,10,0:0:0:0:
324,198,117313,6,0,P|286:211|246:212,1,55.0000016784668,2|0,1:0|3:0,0:0:0:0:
223,239,117650,1,10,0:0:0:0:
140,166,117987,1,2,1:0:0:0:
210,81,118324,2,0,P|197:43|196:3,1,55.0000016784668,10|0,0:0|3:0,0:0:0:0:
147,0,118662,6,0,P|77:23|33:20,1,110.000003356934,6|10,1:0|0:0,0:0:0:0:
0,56,119167,1,2,0:0:0:0:
0,56,119336,2,0,P|23:126|20:170,1,110.000003356934,6|10,1:0|0:0,0:0:0:0:
118,213,120010,6,0,P|109:249|109:282,1,55.0000016784668,14|2,1:2|1:0,0:0:0:0:
64,300,120347,2,0,P|73:336|73:369,1,55.0000016784668,14|2,1:2|1:0,0:0:0:0:
121,382,120684,1,14,1:2:0:0:
213,323,121021,1,10,1:2:0:0:
309,375,121358,6,0,P|366:350|434:363,1,110.000003356934,6|10,1:0|0:0,0:0:0:0:
483,269,122032,1,2,1:0:0:0:
412,184,122369,1,10,0:0:0:0:
316,238,122706,2,0,P|259:213|191:226,1,110.000003356934,2|10,1:0|0:0,0:0:0:0:
112,261,123380,1,2,1:0:0:0:
13,211,123718,6,0,P|30:153|25:86,1,110.000003356934,10|0,0:0|1:0,0:0:0:0:
68,65,124223,1,2,0:0:0:0:
68,65,124392,2,0,P|107:66|133:81,1,55.0000016784668,10|2,0:0|0:0,0:0:0:0:
168,101,124729,1,2,1:0:0:0:
233,195,125066,1,10,0:0:0:0:
233,195,125235,6,0,P|293:199|326:141,1,110.000003356934,2|2,0:0|0:0,0:0:0:0:
366,131,125740,2,0,P|360:92|361:61,1,55.0000016784668,10|2,0:0|0:0,0:0:0:0:
391,31,126077,2,0,P|430:25|461:26,1,55.0000016784668,2|2,1:0|0:0,0:0:0:0:
488,59,126414,1,10,0:0:0:0:
474,168,126752,6,0,P|477:230|503:310,1,110.000003356934,6|10,1:0|0:0,0:0:0:0:
428,368,127426,1,2,1:0:0:0:
325,320,127763,1,10,0:0:0:0:
231,377,128100,2,0,P|174:356|113:361,1,110.000003356934,2|10,1:0|0:0,0:0:0:0:
61,268,128774,1,2,1:0:0:0:
133,185,129111,1,10,0:0:0:0:
231,234,129448,6,0,P|288:213|349:218,1,110.000003356934,4|10,1:0|0:0,0:0:0:0:
385,187,129954,1,2,0:0:0:0:
385,187,130122,2,0,P|384:149|375:125,1,55.0000016784668,6|0,1:0|0:0,0:0:0:0:
403,83,130459,1,10,0:0:0:0:
317,14,130796,6,0,P|286:22|252:19,1,55.0000016784668,10|10,1:2|0:0,0:0:0:0:
217,51,131133,2,0,P|225:82|222:116,1,55.0000016784668,10|10,1:2|0:0,0:0:0:0:
188,147,131471,2,0,P|157:139|123:142,1,55.0000016784668,14|2,1:2|1:0,0:0:0:0:
84,116,131808,1,10,1:2:0:0:
3,190,132145,6,0,P|33:269|28:317,1,110.000003356934,6|10,1:0|0:0,0:0:0:0:
113,367,132819,1,2,1:0:0:0:
203,303,133156,1,10,0:0:0:0:
302,350,133493,2,0,P|381:320|429:325,1,110.000003356934,2|10,1:0|0:0,0:0:0:0:
459,224,134167,1,2,1:0:0:0:
372,156,134504,6,0,P|293:186|245:181,1,110.000003356934,10|0,0:0|1:0,0:0:0:0:
225,218,135010,1,2,0:0:0:0:
225,218,135178,2,0,P|237:262|238:283,1,55.0000016784668,10|2,0:0|0:0,0:0:0:0:
265,318,135515,1,2,1:0:0:0:
174,381,135853,1,10,0:0:0:0:
88,312,136190,6,0,P|76:268|75:247,1,55.0000016784668,2|2,1:0|0:0,0:0:0:0:
33,223,136527,2,0,P|45:179|46:158,1,55.0000016784668,10|2,0:0|0:0,0:0:0:0:
89,136,136864,2,0,P|77:92|76:71,1,55.0000016784668,2|2,1:0|0:0,0:0:0:0:
41,40,137201,1,10,0:0:0:0:
143,0,137538,6,0,P|209:17|278:18,1,110.000003356934,6|10,1:0|0:0,0:0:0:0:
330,95,138212,1,2,1:0:0:0:
245,165,138549,1,10,0:0:0:0:
321,243,138886,2,0,P|304:309|303:378,1,110.000003356934,2|10,1:0|0:0,0:0:0:0:
196,384,139560,1,2,1:0:0:0:
103,324,139898,6,0,P|120:258|121:189,1,110.000003356934,10|4,0:0|1:0,0:0:0:0:
169,186,140403,1,2,0:0:0:0:
169,186,140572,2,0,P|160:147|160:118,1,55.0000016784668,10|2,0:0|0:0,0:0:0:0:
131,84,140909,1,6,1:0:0:0:
226,28,141246,1,14,0:0:0:0:
294,114,141583,6,0,P|303:153|303:182,1,55.0000016784668,2|2,1:0|1:0,0:0:0:0:
348,200,141920,2,0,P|339:239|339:268,1,55.0000016784668,10|2,1:2|0:0,0:0:0:0:
292,284,142257,2,0,P|301:323|301:352,1,55.0000016784668,14|10,1:2|0:0,0:0:0:0:
348,375,142594,1,10,1:2:0:0:
348,375,142763,1,2,3:0:0:0:
348,375,145628,6,0,P|300:354|208:363,1,100,4|2,1:0|0:0,0:0:0:0:
216,325,146133,1,2,0:0:0:0:
216,325,146302,2,0,P|179:332|143:320,2,50,10|2|2,0:0|0:0|0:0,0:0:0:0:
288,256,146976,1,2,0:0:0:0:
213,189,147313,6,0,P|202:136|223:69,1,100,2|8,3:0|0:0,0:0:0:0:
291,32,147987,2,0,P|322:44|359:44,1,50,2|2,0:0|0:0,0:0:0:0:
388,38,148324,1,2,3:0:0:0:
470,95,148662,2,0,P|481:148|460:215,1,100,2|8,3:0|0:0,0:0:0:0:
437,228,149167,2,0,P|405:212|376:211,1,50,2|2,0:0|0:0,0:0:0:0:
343,224,149504,5,2,0:0:0:0:
273,151,149841,1,2,3:0:0:0:
179,187,150178,1,2,3:0:0:0:
198,289,150515,1,2,0:0:0:0:
198,289,150684,1,6,1:0:0:0:
296,307,151021,6,0,P|344:328|436:319,1,100,6|2,1:0|0:0,0:0:0:0:
444,338,151527,1,2,0:0:0:0:
444,338,151695,2,0,P|461:377|461:404,2,50,10|2|2,0:0|0:0|0:0,0:0:0:0:
492,250,152369,1,2,1:0:0:0:
410,191,152706,6,0,P|362:212|270:203,1,100,2|8,3:0|0:0,0:0:0:0:
271,201,153212,1,2,0:0:0:0:
271,201,153381,1,2,1:0:0:0:
186,254,153718,1,2,1:0:0:0:
97,207,154055,2,0,P|105:155|97:69,1,100,2|0,0:0|3:0,0:0:0:0:
34,43,154729,5,2,0:0:0:0:
34,43,154898,1,2,0:0:0:0:
125,3,155235,1,2,0:0:0:0:
198,71,155572,1,2,0:0:0:0:
294,36,155909,1,2,0:0:0:0:
294,36,156077,1,2,0:0:0:0:
