osu file format v14

[General]
AudioFilename: audio.mp3
AudioLeadIn: 0
PreviewTime: 88072
Countdown: 0
SampleSet: Soft
StackLeniency: 0.7
Mode: 0
LetterboxInBreaks: 0
WidescreenStoryboard: 1

[Editor]
DistanceSpacing: 0.2
BeatDivisor: 4
GridSize: 32
TimelineZoom: 1.8

[Metadata]
Title:Q
TitleUnicode:Q
Artist:Calliope Mori x Gawr Gura x DECO*27
ArtistUnicode:Calliope Mori x Gawr Gura x DECO*27
Creator:SMOKELIND
Version:KUJINN'S EXPERT
Source:
Tags:japanese english pop j-pop jpop female vocal ホロライブ hololive hololive-en en バーチャルユーチューバー virtual yt youtube youtuber vtuber がうる・ぐら 森カリオペ Mocaotic xidorn flame haze flake Kujinn Reform
BeatmapID:3543489
BeatmapSetID:1699993

[Difficulty]
HPDrainRate:5.5
CircleSize:4
OverallDifficulty:8.4
ApproachRate:9.2
SliderMultiplier:1.84
SliderTickRate:1

[Events]
//Background and Video events
0,0,"BG.jpg",0,0
Video,-100,"vid.mp4"
//Break Periods
2,88999,96350
//Storyboard Layer 0 (Background)
//Storyboard Layer 1 (Fail)
//Storyboard Layer 2 (Pass)
//Storyboard Layer 3 (Foreground)
//Storyboard Layer 4 (Overlay)
//Storyboard Sound Samples

[TimingPoints]
2707,337.078651685393,4,2,77,27,1,0
8100,-74.074074074074,4,2,77,57,0,0
8352,-74.074074074074,4,2,77,5,0,0
8437,-117.647058823529,4,2,77,57,0,0
13156,-54.054054054054,4,2,77,57,0,0
13408,-54.054054054054,4,2,77,5,0,0
13493,-117.647058823529,4,2,77,57,0,0
18801,-117.647058823529,4,2,77,5,0,0
18886,-86.9565217391304,4,2,77,67,0,0
19138,-86.9565217391304,4,2,77,5,0,0
19223,-86.9565217391304,4,2,77,67,0,0
20993,-86.9565217391304,4,2,77,5,0,0
21077,-86.9565217391304,4,2,77,67,0,0
21330,-86.9565217391304,4,2,77,5,0,0
21414,-86.9565217391304,4,2,77,67,0,0
26217,-86.9565217391304,4,2,77,5,0,0
26302,-86.9565217391304,4,2,77,67,0,0
28408,-86.9565217391304,4,2,77,5,0,0
28493,-86.9565217391304,4,2,77,67,0,0
28577,-86.9565217391304,4,2,77,5,0,0
28662,-86.9565217391304,4,2,77,67,0,0
28746,-86.9565217391304,4,2,77,5,0,0
28831,-86.9565217391304,4,2,77,67,0,0
28915,-86.9565217391304,4,2,77,5,0,0
28999,-86.9565217391304,4,2,77,67,0,0
29336,-64.5161290322581,4,2,77,67,0,0
29588,-64.5161290322581,4,2,77,5,0,0
29673,-222.222222222222,4,2,77,87,0,0
29925,-222.222222222222,4,2,77,5,0,0
30010,-64.5161290322581,4,2,77,87,0,0
30262,-64.5161290322581,4,2,77,5,0,0
30347,-95.2380952380952,4,2,77,87,0,0
31274,-95.2380952380952,4,2,77,5,0,0
31358,-95.2380952380952,4,2,77,87,0,0
31442,-95.2380952380952,4,2,77,5,0,0
31527,-95.2380952380952,4,2,77,87,0,0
31611,-95.2380952380952,4,2,77,5,0,0
31695,-74.0740740740741,4,2,77,87,0,0
31779,-74.0740740740741,4,2,77,5,0,0
31864,-74.0740740740741,4,2,77,87,0,0
31948,-74.0740740740741,4,2,77,5,0,0
32032,-74.0740740740741,4,2,77,87,0,0
32116,-74.0740740740741,4,2,77,5,0,0
32201,-74.0740740740741,4,2,77,87,0,0
32369,-222.222222222222,4,2,77,87,0,0
32621,-222.222222222222,4,2,77,5,0,0
32706,-64.5161290322581,4,2,77,87,0,0
32958,-64.5161290322581,4,2,77,5,0,0
33043,-95.2380952380952,4,2,77,87,0,0
34476,-95.2380952380952,4,2,77,5,0,0
34560,-95.2380952380952,4,2,77,87,0,0
34644,-95.2380952380952,4,2,77,5,0,0
34729,-95.2380952380952,4,2,77,87,0,0
34813,-95.2380952380952,4,2,77,5,0,0
34897,-95.2380952380952,4,2,77,87,0,0
34981,-95.2380952380952,4,2,77,5,0,0
35066,-95.2380952380952,4,2,77,87,0,0
39111,-64.5161290322581,4,2,77,87,0,0
39195,-64.5161290322581,4,2,77,5,0,0
39280,-64.5161290322581,4,2,77,87,0,0
39364,-64.5161290322581,4,2,77,5,0,0
39448,-64.5161290322581,4,2,77,87,0,0
39532,-64.5161290322581,4,2,77,5,0,0
39617,-64.5161290322581,4,2,77,87,0,0
39701,-64.5161290322581,4,2,77,5,0,0
39785,-64.5161290322581,4,2,77,87,0,0
39869,-64.5161290322581,4,2,77,5,0,0
39954,-64.5161290322581,4,2,77,87,0,0
43156,-80,4,2,77,87,0,0
48801,-80,4,2,77,5,0,0
48886,-80,4,2,77,87,0,0
48970,-80,4,2,77,5,0,0
49055,-80,4,2,77,87,0,0
50572,-57.1428571428571,4,2,77,87,0,0
50656,-57.1428571428571,4,2,77,5,0,0
50740,-57.1428571428571,4,2,77,87,0,0
50824,-57.1428571428571,4,2,77,5,0,0
50909,-57.1428571428571,4,2,77,87,0,0
50993,-57.1428571428571,4,2,77,5,0,0
51077,-57.1428571428571,4,2,77,87,0,0
51161,-57.1428571428571,4,2,77,5,0,0
51246,-57.1428571428571,4,2,77,27,0,0
53942,-181.818181818182,4,2,77,57,0,0
59251,-181.818181818182,4,2,77,5,0,0
59336,-181.818181818182,4,2,77,57,0,0
61947,-181.818181818182,4,2,77,5,0,0
62032,-181.818181818182,4,2,77,57,0,0
63465,-181.818181818182,4,2,77,5,0,0
63718,-181.818181818182,4,2,77,57,0,0
63802,-181.818181818182,4,2,77,5,0,0
64055,-181.818181818182,4,2,77,57,0,0
64139,-181.818181818182,4,2,77,5,0,0
64392,-181.818181818182,4,2,77,57,0,0
64644,-181.818181818182,4,2,77,5,0,0
64729,-105.263157894737,4,2,77,57,0,0
67678,-105.263157894737,4,2,77,5,0,0
67763,-105.263157894737,4,2,77,57,0,0
70122,-86.9565217391306,4,2,77,57,0,0
70796,-105.263157894737,4,2,77,57,0,0
75515,-86.9565217391306,4,2,77,67,0,0
81835,-86.9565217391306,4,2,77,5,0,0
81920,-86.9565217391306,4,2,77,67,0,0
82004,-86.9565217391306,4,2,77,5,0,0
82089,-86.9565217391306,4,2,77,67,0,0
83352,-86.9565217391306,4,2,77,5,0,0
83437,-86.9565217391306,4,2,77,67,0,0
84869,-86.9565217391306,4,2,77,5,0,0
84954,-86.9565217391306,4,2,77,67,0,0
88999,-86.9565217391306,4,2,77,47,0,0
96920,-74.0740740740741,4,2,77,77,0,0
97004,-74.0740740740741,4,2,77,5,0,0
97089,-95.2380952380952,4,2,77,87,0,0
97510,-95.2380952380952,4,2,77,5,0,0
97594,-74.0740740740741,4,2,77,87,0,0
97678,-95.2380952380952,4,2,77,5,0,0
97763,-95.2380952380952,4,2,77,87,0,0
98184,-95.2380952380952,4,2,77,5,0,0
98268,-74.0740740740741,4,2,77,87,0,0
98352,-74.0740740740741,4,2,77,5,0,0
98437,-95.2380952380952,4,2,77,87,0,0
98689,-95.2380952380952,4,2,77,5,0,0
98774,-95.2380952380952,4,2,77,87,0,0
99026,-95.2380952380952,4,2,77,5,0,0
99111,-74.0740740740741,4,2,77,87,0,0
99195,-74.0740740740741,4,2,77,5,0,0
99280,-74.0740740740741,4,2,77,87,0,0
99532,-74.0740740740741,4,2,77,5,0,0
99617,-74.0740740740741,4,2,77,87,0,0
99701,-74.0740740740741,4,2,77,5,0,0
99785,-86.9565217391304,4,2,77,87,0,0
102482,-80,4,2,77,87,0,0
107875,-57.1428571428571,4,2,77,87,0,0
107959,-57.1428571428571,4,2,77,5,0,0
108044,-57.1428571428571,4,2,77,87,0,0
108128,-57.1428571428571,4,2,77,5,0,0
108212,-57.1428571428571,4,2,77,87,0,0
108296,-57.1428571428571,4,2,77,5,0,0
108381,-57.1428571428571,4,2,77,87,0,0
108465,-57.1428571428571,4,2,77,5,0,0
108549,-57.1428571428571,4,2,77,87,0,0
108633,-57.1428571428571,4,2,77,5,0,0
108718,-57.1428571428571,4,2,77,87,0,0
108802,-57.1428571428571,4,2,77,5,0,0
108886,-57.1428571428571,4,2,77,87,0,0
108970,-57.1428571428571,4,2,77,5,0,0
109055,-57.1428571428571,4,2,77,87,0,0
109139,-57.1428571428571,4,2,77,5,0,0
109223,-57.1428571428571,4,2,77,87,0,0
110572,-222.222222222222,4,2,77,87,0,0
110824,-222.222222222222,4,2,77,5,0,0
110909,-54.054054054054,4,2,77,87,0,0
111161,-54.054054054054,4,2,77,5,0,0
111246,-80,4,2,77,87,0,0
112173,-80,4,2,77,5,0,0
112257,-80,4,2,77,87,0,0
112341,-80,4,2,77,5,0,0
112426,-80,4,2,77,87,0,0
112510,-80,4,2,77,5,0,0
112594,-68.9655172413793,4,2,77,87,0,0
112678,-68.9655172413793,4,2,77,5,0,0
112763,-68.9655172413793,4,2,77,87,0,0
112847,-68.9655172413793,4,2,77,5,0,0
112931,-68.9655172413793,4,2,77,87,0,0
113015,-68.9655172413793,4,2,77,5,0,0
113100,-68.9655172413793,4,2,77,87,0,0
113184,-68.9655172413793,4,2,77,5,0,0
113268,-222.222222222222,4,2,77,87,0,0
113520,-222.222222222222,4,2,77,5,0,0
113605,-54.054054054054,4,2,77,87,0,0
113857,-54.054054054054,4,2,77,5,0,0
113942,-80,4,2,77,87,0,0
120010,-57.1428571428571,4,2,77,87,0,0
120094,-57.1428571428571,4,2,77,5,0,0
120178,-57.1428571428571,4,2,77,87,0,0
120262,-57.1428571428571,4,2,77,5,0,0
120347,-57.1428571428571,4,2,77,87,0,0
120431,-57.1428571428571,4,2,77,5,0,0
120515,-57.1428571428571,4,2,77,87,0,0
120599,-57.1428571428571,4,2,77,5,0,0
120684,-57.1428571428571,4,2,77,87,0,0
124055,-80,4,2,77,87,0,0
129700,-80,4,2,77,5,0,0
129785,-80,4,2,77,87,0,0
131555,-80,4,2,77,5,0,0
131640,-80,4,2,77,87,0,0
131724,-80,4,2,77,5,0,0
131808,-80,4,2,77,87,0,0
131892,-80,4,2,77,5,0,0
131977,-80,4,2,77,87,0,0
132061,-80,4,2,77,5,0,0
132145,-80,4,2,77,87,0,0
135767,-80,4,2,77,5,0,0
135853,-80,4,2,77,87,0,0
136274,-80,4,2,77,5,0,0
136358,-80,4,2,77,87,0,0
136442,-80,4,2,77,5,0,0
136527,-80,4,2,77,87,0,0
136611,-80,4,2,77,5,0,0
136695,-80,4,2,77,87,0,0
136779,-80,4,2,77,5,0,0
136864,-80,4,2,77,87,0,0
141667,-80,4,2,77,5,0,0
141751,-80,4,2,77,87,0,0
141835,-80,4,2,77,5,0,0
141920,-80,4,2,77,87,0,0
142004,-80,4,2,77,5,0,0
142089,-80,4,2,77,87,0,0
142173,-80,4,2,77,5,0,0
142257,-80,4,2,77,87,0,0
142341,-80,4,2,77,5,0,0
142426,-80,4,2,77,87,0,0
142510,-80,4,2,77,87,0,0
142594,-80,4,2,77,87,0,0
142931,-80,4,2,77,47,0,0
145628,-95.2380952380954,4,2,77,57,0,0
146302,-133.333333333333,4,2,77,57,0,0
150684,-64.516129032258,4,2,77,57,0,0
150936,-64.516129032258,4,2,77,5,0,0
151021,-133.333333333333,4,2,77,57,0,0
155235,-133.333333333333,4,2,77,47,0,0
155572,-133.333333333333,4,2,77,27,0,0
156414,-133.333333333333,4,2,77,5,0,0

[Colours]
Combo1 : 255,191,220
Combo2 : 191,209,255

[HitObjects]
468,94,8100,6,0,B|416:65|365:129|410:115|356:184|293:140,1,186.300000710678,4|0,1:0|0:0,0:0:0:0:
300,154,8437,2,0,P|288:108|277:66,1,78.2000014915467,2|2,0:0|0:0,0:0:0:0:
235,243,8774,2,0,P|223:289|212:331,1,78.2000014915467,10|2,0:0|0:0,0:0:0:0:
155,179,9111,1,2,0:0:0:0:
145,173,9280,1,2,0:0:0:0:
268,320,9448,6,0,P|313:307|360:295,1,78.2000014915467,2|0,0:0|0:0,0:0:0:0:
493,303,9785,2,0,P|447:319|369:228,1,156.400002983093,2|8,3:0|0:0,0:0:0:0:
369,257,10291,1,0,0:0:0:0:
464,193,10459,1,2,0:0:0:0:
472,189,10628,1,2,0:0:0:0:
305,115,10796,2,0,P|317:160|329:205,1,78.2000014915467,2|0,3:0|3:0,0:0:0:0:
489,73,11133,6,0,P|433:60|327:35,1,156.400002983093,2|8,3:0|0:0,0:0:0:0:
336,37,11639,1,2,0:0:0:0:
157,144,11808,1,2,0:0:0:0:
176,8,11976,6,0,P|212:17|233:67,1,78.2000014915467,2|0,0:0|3:0,0:0:0:0:
328,138,12313,2,0,P|316:186|306:232,1,78.2000014915467,2|0,3:0|3:0,0:0:0:0:
165,353,12650,6,0,P|161:307|201:271,1,78.2000014915467,2|8,3:0|0:0,0:0:0:0:
270,339,12987,1,2,0:0:0:0:
188,186,13156,6,0,B|143:210|94:178|90:127|94:124|101:120|105:81|64:39|4:65,1,255.299999026108,6|0,1:0|0:0,0:0:0:0:
7,76,13493,6,0,P|45:102|88:89,1,78.2000014915467,6|0,1:0|0:0,0:0:0:0:
171,10,13830,5,2,0:0:0:0:
242,64,13999,1,2,0:0:0:0:
327,14,14167,5,10,0:0:0:0:
396,73,14336,1,2,0:0:0:0:
500,19,14504,5,2,0:0:0:0:
505,9,14673,1,2,0:0:0:0:
479,118,14841,6,0,P|493:166|507:211,1,78.2000014915467,2|0,1:0|0:0,0:0:0:0:
462,285,15178,2,0,P|411:275|362:374,1,156.400002983093,2|8,3:0|0:0,0:0:0:0:
355,350,15684,1,2,0:0:0:0:
224,286,15853,6,0,P|235:248|246:211,1,78.2000014915467,2|2,3:0|0:0,0:0:0:0:
161,137,16190,6,0,P|130:143|82:108,2,78.2000014915467,2|0|2,1:0|1:0|1:0,0:0:0:0:
159,128,16695,1,8,0:0:0:0:
297,80,16864,2,0,P|341:99|384:115,1,78.2000014915467,8|0,1:2|1:0,0:0:0:0:
379,105,17201,1,10,1:2:0:0:
237,246,17369,1,2,1:0:0:0:
242,240,17538,6,0,P|232:193|222:152,1,78.2000014915467,8|10,1:2|0:0,0:0:0:0:
355,47,17875,2,0,L|366:9,5,26.0666671638489,8|0|0|2|0|0,0:0|3:0|3:0|3:0|3:0|3:0,0:0:0:0:
407,147,18212,5,8,0:0:0:0:
266,57,18381,1,2,0:0:0:0:
373,24,18549,2,0,P|356:77|326:162,1,117.30000223732,2|0,1:0|0:0,0:0:0:0:
157,172,18886,6,0,P|206:158|258:258,1,158.700003026962,4|0,1:0|0:0,0:0:0:0:
262,244,19223,2,0,P|271:287|337:302,1,105.800002017975,2|2,0:0|0:0,0:0:0:0:
481,172,19560,5,2,0:0:0:0:
425,379,19729,1,2,1:0:0:0:
484,161,19898,2,0,P|467:107|446:52,1,105.800002017975,2|2,1:0|1:0,0:0:0:0:
354,222,20235,5,2,1:0:0:0:
500,323,20403,1,2,1:0:0:0:
296,362,20572,5,10,0:0:0:0:
309,352,20740,1,2,0:0:0:0:
134,161,20909,6,0,L|118:104,1,52.9000010089875,2|0,0:0|0:0,0:0:0:0:
179,292,21077,1,2,1:0:0:0:
179,292,21162,1,2,1:0:0:0:
179,292,21246,2,0,L|164:342,1,52.9000010089875,10|0,0:0|0:0,0:0:0:0:
242,126,21414,1,2,0:0:0:0:
7,272,21583,6,0,P|35:238|107:250,1,105.800002017975,2|2,1:0|0:0,0:0:0:0:
288,347,21920,1,10,0:0:0:0:
294,337,22089,1,2,0:0:0:0:
234,143,22257,6,0,P|213:198|194:255,1,105.800002017975,2|2,1:0|1:0,0:0:0:0:
137,66,22594,1,10,0:0:0:0:
133,56,22763,1,2,0:0:0:0:
42,232,22931,5,2,1:0:0:0:
128,45,23100,1,2,1:0:0:0:
179,315,23268,5,10,0:0:0:0:
93,128,23437,1,2,0:0:0:0:
284,272,23605,6,0,P|338:287|386:318,1,105.800002017975,10|2,0:0|1:0,0:0:0:0:
454,305,23858,1,0,1:0:0:0:
464,299,23942,2,0,P|480:257|427:215,1,105.800002017975,2|10,1:0|0:0,0:0:0:0:
347,193,24195,5,2,0:0:0:0:
353,199,24280,2,0,P|378:135|401:76,1,105.800002017975,2|2,1:0|0:0,0:0:0:0:
391,100,24532,1,2,0:0:0:0:
391,100,24617,1,8,0:0:0:0:
170,25,24785,6,0,P|137:37|101:42,1,52.9000010089875,2|2,0:0|0:0,0:0:0:0:
29,115,24954,1,2,1:0:0:0:
29,115,25038,1,0,0:0:0:0:
29,115,25122,1,2,0:0:0:0:
29,115,25206,1,2,0:0:0:0:
29,115,25291,2,0,P|89:111|123:165,1,105.800002017975,8|2,0:0|0:0,0:0:0:0:
280,197,25628,6,0,P|263:261|250:328,1,105.800002017975,2|2,1:0|0:0,0:0:0:0:
314,374,25965,1,10,0:0:0:0:
314,374,26049,1,0,0:0:0:0:
314,374,26133,2,0,P|355:382|390:393,1,52.9000010089875
191,208,26302,6,0,P|150:200|115:189,1,52.9000010089875,2|2,1:0|0:0,0:0:0:0:
351,138,26471,1,2,1:0:0:0:
181,15,26639,1,10,1:2:0:0:
228,23,26723,1,0,1:0:0:0:
248,71,26808,1,2,1:0:0:0:
221,112,26892,1,0,1:0:0:0:
178,118,26976,5,2,1:0:0:0:
238,305,27145,1,2,1:0:0:0:
512,184,27650,5,0,1:0:0:0:
448,384,27819,1,0,1:0:0:0:
380,201,28156,5,0,1:0:0:0:
380,201,28240,1,0,1:0:0:0:
380,201,28324,2,0,L|401:135,1,52.9000010089875,0|0,1:0|0:0,0:0:0:0:
242,323,28493,2,0,L|258:373,1,52.9000010089875,0|0,1:0|0:0,0:0:0:0:
229,111,28662,6,0,L|250:45,1,52.9000010089875,0|0,1:0|0:0,0:0:0:0:
91,233,28831,2,0,L|107:283,1,52.9000010089875,0|0,1:0|0:0,0:0:0:0:
23,21,28999,5,0,1:0:0:0:
452,357,29336,6,0,B|426:345|393:355|393:355|359:301|382:239|447:237,1,213.900001631927,8|0,0:0|0:0,0:0:0:0:
412,153,29673,6,0,P|427:190|462:202,1,62.0999981048585,6|0,1:0|0:0,0:0:0:0:
512,256,30010,6,0,P|430:225|306:191,1,213.900001631927,10|0,0:2|0:0,0:0:0:0:
229,225,30347,2,0,P|206:248|213:320,1,96.5999970520021,2|0,1:0|0:0,0:0:0:0:
205,308,30684,1,10,1:2:0:0:
36,197,30853,2,0,P|92:186|141:169,1,96.5999970520021,2|0,0:0|1:0,0:0:0:0:
379,119,31190,6,0,L|392:61,1,48.299998526001,2|0,0:0|0:0,0:0:0:0:
385,132,31358,2,0,L|428:172,1,48.299998526001,10|0,0:0|0:0,0:0:0:0:
369,131,31527,2,0,L|312:148,1,48.299998526001,2|0,0:0|0:0,0:0:0:0:
258,37,31695,6,0,P|285:43|310:85,1,62.1000002368927,2|0,1:0|0:0,0:0:0:0:
354,276,31864,2,0,P|345:249|369:206,1,62.1000002368927,2|0,0:0|0:0,0:0:0:0:
512,70,32032,2,0,P|493:90|444:91,1,62.1000002368927,10|0,0:0|0:0,0:0:0:0:
369,131,32201,1,2,0:0:0:0:
116,17,32369,6,0,P|88:30|74:70,1,62.0999981048585,2|0,1:0|0:0,0:0:0:0:
1,83,32706,6,0,B|45:62|80:80|93:116|90:120|87:124|92:160|131:182|176:156,1,213.900001631927,10|0,0:0|0:0,0:0:0:0:
232,112,33044,2,0,P|214:173|203:233,1,96.5999970520021,2|0,1:0|0:0,0:0:0:0:
207,205,33381,1,10,0:0:0:0:
298,308,33549,1,2,0:0:0:0:
177,365,33718,5,2,1:0:0:0:
411,269,33886,1,2,0:0:0:0:
512,195,34055,5,10,0:0:0:0:
278,99,34223,1,2,0:0:0:0:
458,29,34392,6,0,P|447:60|438:100,1,48.299998526001,2|0,1:0|0:0,0:0:0:0:
360,88,34560,2,0,P|371:57|380:17,1,48.299998526001,2|0,0:0|0:0,0:0:0:0:
161,182,34729,6,0,P|172:213|181:253,1,48.299998526001,10|0,0:0|0:0,0:0:0:0:
259,241,34897,2,0,P|248:210|239:170,1,48.299998526001,2|0,0:0|0:0,0:0:0:0:
17,327,35066,6,0,P|85:311|189:401,1,193.199994104004,6|8,1:0|0:0,0:0:0:0:
180,377,35572,1,0,0:0:0:0:
444,378,35740,6,0,P|399:366|382:298,1,96.5999970520021,2|0,1:0|0:0,0:0:0:0:
328,209,36077,2,0,P|346:153|363:98,1,96.5999970520021,10|0,0:0|0:0,0:0:0:0:
220,24,36414,5,2,1:0:0:0:
211,29,36583,1,0,3:0:0:0:
125,42,36751,5,10,0:0:0:0:
256,111,36920,1,0,3:0:0:0:
350,159,37089,5,2,1:0:0:0:
121,261,37257,1,0,3:0:0:0:
27,270,37426,5,10,0:0:0:0:
291,384,37594,1,0,3:0:0:0:
222,255,37763,6,0,P|209:197|193:147,1,96.5999970520021,6|0,1:0|0:0,0:0:0:0:
434,30,38100,5,10,0:0:0:0:
504,65,38268,1,2,0:0:0:0:
291,384,38437,6,0,P|304:326|320:276,1,96.5999970520021,6|0,1:0|0:0,0:0:0:0:
500,74,38774,5,10,0:0:0:0:
430,39,38942,1,2,0:0:0:0:
101,50,39111,6,0,P|95:80|121:121,1,71.3000005439758,14|0,1:2|0:0,0:0:0:0:
185,38,39280,2,0,P|202:68|196:103,1,71.3000005439758,2|0,1:0|0:0,0:0:0:0:
424,192,39448,6,0,P|430:222|404:263,1,71.3000005439758,14|0,1:2|0:0,0:0:0:0:
341,171,39617,2,0,P|323:201|329:236,1,71.3000005439758,2|0,1:0|0:0,0:0:0:0:
60,340,39785,6,0,P|109:318|161:310,1,71.3000005439758,14|0,1:2|0:0,0:0:0:0:
307,366,39954,5,8,0:0:0:0:
348,335,40038,1,8,0:0:0:0:
387,333,40122,1,10,1:2:0:0:
413,342,40206,1,0,0:0:0:0:
427,352,40291,1,0,0:0:0:0:
435,360,40375,1,0,0:0:0:0:
442,368,40459,5,6,1:0:0:0:
387,112,40628,1,0,3:0:0:0:
339,16,40796,5,10,0:0:0:0:
284,272,40965,1,0,3:0:0:0:
241,371,41133,5,2,1:0:0:0:
186,115,41302,1,0,3:0:0:0:
138,19,41470,5,10,0:0:0:0:
83,275,41639,1,0,3:0:0:0:
0,114,41808,5,2,1:0:0:0:
135,184,41976,1,0,3:0:0:0:
192,254,42145,5,10,0:0:0:0:
327,184,42313,1,0,3:0:0:0:
372,114,42482,5,2,1:0:0:0:
507,184,42650,1,0,3:0:0:0:
512,269,42819,5,10,0:0:0:0:
377,339,42987,1,0,3:0:0:0:
113,330,43156,6,0,P|169:334|196:384,1,115,0|2,1:0|0:0,0:0:0:0:
62,231,43493,1,10,0:0:0:0:
72,229,43662,1,2,0:0:0:0:
210,179,43830,2,0,P|181:245|168:301,1,115,2|0,1:0|0:0,0:0:0:0:
85,121,44167,1,10,0:0:0:0:
201,34,44336,6,0,B|269:0|328:89|258:77|319:171|400:121,1,230,2|2,0:0|0:0,0:0:0:0:
505,8,44841,2,0,P|471:11|449:97,1,115,10|2,0:0|0:0,0:0:0:0:
475,190,45178,5,2,1:0:0:0:
487,184,45347,1,2,0:0:0:0:
501,347,45515,2,0,P|455:314|381:301,1,115,10|2,0:0|0:0,0:0:0:0:
261,384,45853,5,6,1:0:0:0:
2,310,46021,1,0,3:0:0:0:
74,284,46190,5,10,0:0:0:0:
333,210,46358,1,0,3:0:0:0:
259,190,46527,5,2,1:0:0:0:
0,116,46695,1,0,3:0:0:0:
72,90,46864,5,10,0:0:0:0:
331,16,47032,1,0,3:0:0:0:
147,6,47201,5,2,1:0:0:0:
193,152,47369,1,0,3:0:0:0:
246,229,47538,5,10,0:0:0:0:
292,83,47706,1,0,3:0:0:0:
342,151,47875,5,2,1:0:0:0:
388,297,48043,1,0,3:0:0:0:
459,365,48212,5,10,0:0:0:0:
505,219,48380,1,0,3:0:0:0:
345,39,48549,6,0,P|297:20|227:110,1,172.5,4|0,1:0|0:0,0:0:0:0:
210,114,48886,2,0,P|228:143|238:195,1,57.5,10|0,0:0|0:0,0:0:0:0:
203,230,49055,1,2,0:0:0:0:
325,351,49223,6,0,P|377:358|448:394,1,115,6|0,1:0|0:0,0:0:0:0:
142,167,49560,2,0,P|90:160|19:124,1,115,10|0,0:0|0:0,0:0:0:0:
239,378,49898,5,10,1:2:0:0:
210,334,49982,1,8,0:0:0:0:
212,282,50066,1,10,0:0:0:0:
242,240,50150,1,8,0:0:0:0:
291,222,50235,1,10,1:2:0:0:
316,177,50319,1,8,0:0:0:0:
308,125,50403,1,10,0:0:0:0:
270,89,50487,1,8,0:0:0:0:
232,68,50572,6,0,P|241:120|250:183,1,80.5000007677078,14|0,1:2|0:0,0:0:0:0:
142,167,50740,2,0,P|151:219|160:282,1,80.5000007677078,2|0,1:0|0:0,0:0:0:0:
403,167,50909,6,0,P|394:219|385:282,1,80.5000007677078,10|0,1:2|0:0,0:0:0:0:
493,266,51077,2,0,P|484:318|475:381,1,80.5000007677078,2|0,0:0|0:0,0:0:0:0:
305,375,51246,5,0,0:0:0:0:
36,303,53942,6,0,B|133:266|133:266|185:303|141:365,1,202.400006176758,4|8,1:0|0:0,0:0:0:0:
149,352,54954,1,2,0:0:0:0:
395,343,55291,6,0,P|452:363|513:385,1,101.200003088379
380,247,55797,5,2,0:0:0:0:
383,236,55881,1,2,0:0:0:0:
387,227,55965,1,10,0:0:0:0:
501,188,56133,5,2,0:0:0:0:
491,151,56302,1,2,0:0:0:0:
480,104,56470,1,2,0:0:0:0:
342,41,56639,6,0,P|298:56|135:113,1,202.400006176758,2|10,1:0|0:0,0:0:0:0:
0,56,57650,6,0,P|28:69|60:84,1,50.6000015441895,2|0,0:0|0:0,0:0:0:0:
62,170,57987,2,0,L|41:225,1,50.6000015441895,2|8,1:0|0:3,0:0:0:0:
11,368,58324,5,0,0:0:0:0:
81,335,58493,1,8,3:3:0:0:
151,302,58662,1,10,0:0:0:0:
329,383,58830,5,2,0:0:0:0:
322,377,58914,1,2,0:0:0:0:
317,369,58999,2,0,L|344:280,1,75.9000023162843,12|0,0:0|0:0,0:0:0:0:
363,298,59336,5,6,1:0:0:0:
255,243,59504,2,0,P|237:295|139:296,1,151.800004632569,0|10,3:0|0:0,0:0:0:0:
11,202,60347,2,0,L|28:142,1,50.6000015441895,2|0,0:0|0:0,0:0:0:0:
53,81,60684,1,0,1:0:0:0:
53,81,61021,5,2,0:0:0:0:
141,137,61190,1,2,0:0:0:0:
159,129,61274,1,2,0:0:0:0:
175,123,61358,1,10,0:0:0:0:
349,40,61695,6,0,P|390:39|418:73,1,75.9000023162843,2|0,0:0|0:0,0:0:0:0:
504,54,62032,6,0,P|461:56|441:193,1,202.400006176758,2|10,1:0|0:0,0:0:0:0:
431,185,63044,1,2,0:0:0:0:
507,328,63381,6,0,L|474:318,1,25.3000007720948,2|0,1:0|0:0,0:0:0:0:
309,296,63718,6,0,L|322:332,1,25.3000007720948,2|0,0:0|0:0,0:0:0:0:
127,293,64055,6,0,L|138:258,1,25.3000007720948,10|0,0:0|0:0,0:0:0:0:
121,26,64392,6,0,L|138:103,1,75.9000023162843,6|0,3:2|0:0,0:0:0:0:
58,123,64729,6,0,B|107:92|159:125|162:168|157:171|152:174|157:231|221:259|268:215,1,262.199992998505,6|2,1:0|0:0,0:0:0:0:
348,187,65403,2,0,P|391:201|426:230,1,87.3999976661683,10|0,0:0|0:0,0:0:0:0:
418,319,65740,2,0,P|408:274|416:229,1,87.3999976661683,2|0,0:0|0:0,0:0:0:0:
485,111,66077,6,0,P|446:163|329:200,1,174.799995332337,2|2,0:0|3:0,0:0:0:0:
345,200,66583,1,0,0:0:0:0:
220,56,66751,1,2,3:0:0:0:
220,56,67089,2,0,P|207:101|196:159,1,87.3999976661683,2|0,0:0|0:0,0:0:0:0:
92,214,67341,5,0,3:0:0:0:
102,222,67426,2,0,P|118:276|134:362,1,131.099996499252,2|0,1:0|0:0,0:0:0:0:
132,349,67763,2,0,P|168:370|223:349,1,87.3999976661683,2|0,0:0|0:0,0:0:0:0:
375,301,68100,1,10,0:0:0:0:
375,301,68437,2,0,P|358:354|347:405,1,87.3999976661683,2|0,0:0|0:0,0:0:0:0:
305,246,68774,5,2,1:0:0:0:
319,240,68942,1,2,0:0:0:0:
458,208,69111,5,2,0:0:0:0:
316,119,69280,1,2,0:0:0:0:
512,30,69448,5,10,0:0:0:0:
131,229,69785,5,2,0:0:0:0:
131,229,70122,6,0,B|121:180|75:166|75:166|171:120|249:194|224:277,1,317.400006053925,6|0,1:0|0:0,0:0:0:0:
175,352,70796,6,0,P|209:315|269:322,1,87.3999976661683,10|0,0:0|0:0,0:0:0:0:
319,245,71133,2,0,P|363:254|392:303,1,87.3999976661683,2|0,0:0|1:0,0:0:0:0:
410,384,71471,6,0,P|426:307|450:207,1,174.799995332337,2|2,1:0|0:0,0:0:0:0:
457,211,71892,1,2,0:0:0:0:
296,34,72060,5,2,0:0:0:0:
305,27,72145,2,0,P|319:81|330:133,1,87.3999976661683,10|0,0:0|0:0,0:0:0:0:
247,253,72482,2,0,P|269:226|334:230,1,87.3999976661683,2|0,1:0|0:0,0:0:0:0:
499,156,72819,6,0,P|428:132|315:94,1,174.799995332337,2|2,1:0|1:0,0:0:0:0:
333,100,73324,1,2,1:0:0:0:
164,206,73493,6,0,P|110:215|55:224,1,87.3999976661683,10|0,0:0|0:0,0:0:0:0:
77,220,73830,1,2,0:0:0:0:
263,59,73999,5,2,1:0:0:0:
266,66,74083,1,0,1:0:0:0:
268,73,74167,1,0,1:0:0:0:
340,109,74336,1,2,3:0:0:0:
470,203,74504,5,2,1:0:0:0:
396,228,74673,1,2,0:0:0:0:
209,347,74841,5,10,0:0:0:0:
201,344,74926,1,8,0:0:0:0:
191,340,75010,1,8,0:0:0:0:
340,290,75178,1,10,0:0:0:0:
202,229,75347,1,8,0:0:0:0:
387,371,75515,6,0,P|370:280|350:221,1,105.800002017975,4|2,1:0|0:0,0:0:0:0:
488,196,75853,1,10,0:0:0:0:
302,78,76021,1,0,0:0:0:0:
302,78,76105,1,0,0:0:0:0:
302,78,76190,2,0,P|334:122|389:118,1,105.800002017975,2|0,0:0|1:0,0:0:0:0:
261,205,76527,5,10,0:0:0:0:
431,335,76695,2,0,P|382:348|320:382,1,105.800002017975,2|0,0:0|1:0,0:0:0:0:
0,203,77032,5,2,1:0:0:0:
156,264,77201,1,10,0:0:0:0:
17,368,77369,1,0,0:0:0:0:
181,95,77538,5,2,0:0:0:0:
226,366,77706,1,2,1:0:0:0:
220,359,77791,1,0,1:0:0:0:
212,354,77875,1,10,0:0:0:0:
304,170,78044,5,2,0:0:0:0:
493,375,78212,2,0,B|472:310|392:314|392:314|379:374|311:359,1,211.60000403595,0|10,1:0|0:0,0:0:0:0:
89,315,78718,2,0,P|144:325|177:379,1,105.800002017975,0|0,0:0|1:0,0:0:0:0:
237,129,79055,5,2,1:0:0:0:
39,214,79223,1,10,0:0:0:0:
235,306,79392,1,0,0:0:0:0:
100,95,79560,5,2,1:0:0:0:
122,193,79729,1,2,1:0:0:0:
144,291,79898,1,10,0:0:0:0:
285,114,80066,6,0,P|298:56|323:1,1,105.800002017975,2|0,0:0|0:0,0:0:0:0:
26,229,80403,1,2,1:0:0:0:
33,225,80487,1,0,1:0:0:0:
40,222,80572,2,0,P|27:164|2:109,1,105.800002017975,10|0,0:0|0:0,0:0:0:0:
25,361,80909,5,6,1:0:0:0:
99,308,81077,1,2,0:0:0:0:
176,375,81246,5,10,0:0:0:0:
250,322,81414,1,2,0:0:0:0:
428,378,81583,5,2,3:0:0:0:
417,372,81667,1,2,0:0:0:0:
406,368,81751,2,0,P|408:334|435:298,1,52.9000010089875,2|0,1:0|0:0,0:0:0:0:
329,88,81920,2,0,P|327:122|300:158,1,52.9000010089875,10|0,0:0|0:0,0:0:0:0:
261,190,82089,1,2,0:0:0:0:
500,237,82257,6,0,P|445:228|389:186,1,105.800002017975,2|2,1:0|1:0,0:0:0:0:
333,260,82510,1,2,0:0:0:0:
325,257,82594,2,0,P|295:280|305:360,1,105.800002017975,10|2,0:0|0:0,0:0:0:0:
478,176,82931,5,14,0:0:0:0:
475,167,83015,1,0,0:0:0:0:
472,154,83100,1,2,1:0:0:0:
470,144,83184,2,0,P|479:72|499:3,1,105.800002017975,2|0,1:0|0:0,0:0:0:0:
475,29,83437,1,14,0:0:0:0:
123,52,83605,5,2,1:0:0:0:
187,237,83774,1,0,1:0:0:0:
351,363,84111,5,2,1:0:0:0:
343,366,84195,1,2,1:0:0:0:
335,371,84280,1,10,1:2:0:0:
399,186,84449,1,0,1:0:0:0:
315,130,84617,6,0,P|241:142|142:157,1,158.700003026962,10|0,0:0|0:0,0:0:0:0:
148,165,84954,1,2,3:0:0:0:
256,192,85038,12,2,86302,1:0:0:0:
349,40,96920,6,0,P|372:45|401:85,1,62.1000002368927,0|0,1:0|0:0,0:0:0:0:
472,82,97089,6,0,B|433:68|390:91|386:142|390:145|397:149|401:188|360:230|298:202,1,241.499992630005,6|0,1:0|0:0,0:0:0:0:
173,164,97594,6,0,P|150:169|121:209,1,62.1000002368927,2|0,1:0|0:0,0:0:0:0:
50,206,97763,6,0,B|89:192|132:215|136:266|132:269|125:273|121:312|162:354|224:326,1,241.499992630005,6|0,1:0|0:0,0:0:0:0:
427,384,98268,6,0,P|434:350|455:310,1,62.1000002368927,2|0,0:0|0:0,0:0:0:0:
331,305,98437,6,0,P|322:249|286:156,1,144.899995578003,14|0,1:2|0:0,0:0:0:0:
206,164,98774,6,0,P|156:145|185:66,1,144.899995578003,14|0,1:2|0:0,0:0:0:0:
263,50,99111,6,0,P|305:61|341:68,1,62.1000002368927,14|0,1:2|0:0,0:0:0:0:
389,118,99280,2,0,P|418:109|449:103,1,62.1000002368927,8|8,0:0|0:0,0:0:0:0:
206,164,99448,6,0,P|164:175|128:182,1,62.1000002368927,10|0,1:2|0:0,0:0:0:0:
69,223,99617,2,0,P|39:214|8:208,1,62.1000002368927,0|0,1:0|0:0,0:0:0:0:
243,347,99785,5,6,1:0:0:0:
312,73,99954,1,0,3:0:0:0:
371,121,100122,5,10,0:0:0:0:
182,296,100291,1,0,3:0:0:0:
177,215,100459,5,2,1:0:0:0:
389,196,100628,1,0,3:0:0:0:
343,261,100796,5,10,0:0:0:0:
211,141,100965,1,0,3:0:0:0:
277,201,101133,5,2,1:0:0:0:
278,208,101302,1,0,3:0:0:0:
248,285,101471,5,10,0:0:0:0:
300,132,101639,1,0,3:0:0:0:
240,84,101808,5,2,1:0:0:0:
308,342,101976,1,0,3:0:0:0:
239,363,102145,5,10,0:0:0:0:
315,56,102313,1,0,3:0:0:0:
180,277,102482,6,0,P|114:288|57:327,1,115,0|2,1:0|0:0,0:0:0:0:
198,137,102819,1,10,0:0:0:0:
194,146,102987,1,2,0:0:0:0:
4,108,103156,2,0,P|43:159|107:148,1,115,2|0,1:0|0:0,0:0:0:0:
232,17,103493,1,10,0:0:0:0:
296,176,103662,6,0,B|228:210|169:121|239:133|178:39|97:89,1,230,2|2,0:0|0:0,0:0:0:0:
103,335,104167,2,0,P|121:271|144:222,1,115,10|2,0:0|0:0,0:0:0:0:
4,108,104504,1,2,1:0:0:0:
13,107,104673,1,2,0:0:0:0:
212,42,104841,2,0,P|190:74|112:74,1,115,10|2,0:0|0:0,0:0:0:0:
0,280,105178,5,6,1:0:0:0:
201,188,105347,1,0,3:0:0:0:
95,239,105515,5,10,0:0:0:0:
296,331,105684,1,0,3:0:0:0:
199,283,105853,5,2,1:0:0:0:
400,191,106022,1,0,3:0:0:0:
294,242,106190,5,10,0:0:0:0:
495,334,106359,1,0,3:0:0:0:
466,147,106527,5,2,1:0:0:0:
403,344,106695,1,0,3:0:0:0:
338,293,106864,5,10,0:0:0:0:
277,102,107032,1,0,3:0:0:0:
222,162,107201,5,2,1:0:0:0:
161,353,107369,1,0,3:0:0:0:
90,316,107538,5,10,0:0:0:0:
29,125,107706,1,0,3:0:0:0:
139,34,107875,6,0,P|158:69|214:75,1,80.5000007677078,4|0,1:0|0:0,0:0:0:0:
237,145,108044,2,0,P|274:133|293:98,1,80.5000007677078,2|0,1:0|0:0,0:0:0:0:
426,0,108212,6,0,P|386:-1|352:44,1,80.5000007677078,2|0,1:0|0:0,0:0:0:0:
280,26,108381,2,0,P|271:64|292:97,1,80.5000007677078,2|0,1:0|0:0,0:0:0:0:
313,267,108549,6,0,P|333:233|311:181,1,80.5000007677078,4|0,1:0|0:0,0:0:0:0:
360,123,108718,2,0,P|331:96|291:97,1,80.5000007677078,0|0,1:0|0:0,0:0:0:0:
85,204,108886,6,0,P|56:217|-8:227,1,80.5000007677078,4|0,1:2|0:0,0:0:0:0:
31,314,109055,2,0,P|60:301|124:291,1,80.5000007677078,0|0,1:0|0:0,0:0:0:0:
205,349,109223,5,8,1:2:0:0:
228,326,109308,1,8,0:0:0:0:
267,316,109392,1,8,0:0:0:0:
309,325,109476,1,8,0:0:0:0:
347,352,109560,1,8,1:2:0:0:
401,370,109645,1,8,0:0:0:0:
454,358,109729,1,8,0:0:0:0:
482,309,109813,1,8,0:0:0:0:
467,256,109898,5,8,1:2:0:0:
248,43,110235,5,0,0:0:0:0:
251,48,110572,6,0,P|224:53|196:82,1,62.0999981048585,6|0,1:0|0:0,0:0:0:0:
105,67,110909,6,0,B|157:45|201:76|205:127|201:130|194:134|190:173|237:215|292:188,1,255.299999026108,10|0,0:2|0:0,0:0:0:0:
349,147,111246,6,0,P|388:142|429:210,1,115,2|0,1:0|0:0,0:0:0:0:
430,196,111583,1,10,1:2:0:0:
337,345,111751,2,0,P|275:359|214:395,1,115,2|0,0:0|1:0,0:0:0:0:
32,260,112089,6,0,P|46:229|84:212,1,57.5,2|0,0:0|0:0,0:0:0:0:
61,136,112257,2,0,P|94:132|128:157,1,57.5,10|0,0:0|0:0,0:0:0:0:
177,86,112426,2,0,P|196:113|192:155,1,57.5,2|0,0:0|0:0,0:0:0:0:
176,311,112594,6,0,P|165:269|152:227,1,66.7000020355225,2|0,1:0|0:0,0:0:0:0:
310,156,112763,2,0,P|321:114|334:72,1,66.7000020355225,2|0,0:0|0:0,0:0:0:0:
461,246,112931,6,0,P|472:204|485:162,1,66.7000020355225,10|0,0:0|0:0,0:0:0:0:
319,86,113100,2,0,P|308:44|295:2,1,66.7000020355225,2|0,0:0|0:0,0:0:0:0:
331,320,113268,6,0,L|315:384,1,62.0999981048585,2|0,1:0|0:0,0:0:0:0:
392,384,113605,6,0,B|416:339|384:290|333:286|330:290|326:297|287:301|245:254|272:199,1,255.299999026108,10|0,0:0|0:0,0:0:0:0:
353,193,113942,2,0,P|372:248|315:292,1,115,2|0,1:0|0:0,0:0:0:0:
211,372,114280,5,10,0:0:0:0:
216,380,114448,1,2,0:0:0:0:
92,322,114617,5,2,1:0:0:0:
252,230,114785,1,2,0:0:0:0:
161,70,114954,1,10,0:0:0:0:
0,161,115122,1,2,0:0:0:0:
1,252,115291,5,2,1:0:0:0:
50,74,115459,1,2,0:0:0:0:
228,122,115628,1,10,0:0:0:0:
180,301,115796,1,2,0:0:0:0:
89,283,115965,6,0,P|188:256|325:220,1,230,6|8,1:0|0:0,0:0:0:0:
311,223,116471,1,0,0:0:0:0:
484,320,116639,6,0,P|431:325|400:394,1,115,2|0,1:0|0:0,0:0:0:0:
256,309,116976,2,0,P|237:242|211:188,1,115,10|0,0:0|0:0,0:0:0:0:
257,39,117313,5,2,1:0:0:0:
249,34,117482,1,0,3:0:0:0:
181,87,117650,5,10,0:0:0:0:
331,41,117819,1,0,3:0:0:0:
349,208,117987,5,2,1:0:0:0:
144,163,118156,1,0,3:0:0:0:
108,239,118324,5,10,0:0:0:0:
388,139,118493,1,0,3:0:0:0:
227,379,118662,6,0,P|185:331|211:259,1,115,6|0,1:0|0:0,0:0:0:0:
326,16,118999,5,10,0:0:0:0:
249,34,119167,1,2,0:0:0:0:
467,288,119336,6,0,P|509:240|483:168,1,115,6|0,1:0|0:0,0:0:0:0:
241,27,119673,5,10,0:0:0:0:
318,9,119841,1,2,0:0:0:0:
11,189,120010,6,0,P|47:200|91:240,1,80.5000007677078,14|0,1:2|0:0,0:0:0:0:
108,359,120178,2,0,P|119:323|159:279,1,80.5000007677078,2|0,1:0|0:0,0:0:0:0:
318,266,120347,6,0,P|282:255|238:215,1,80.5000007677078,14|0,1:2|0:0,0:0:0:0:
207,94,120515,2,0,P|196:130|156:174,1,80.5000007677078,2|0,1:0|0:0,0:0:0:0:
135,23,120684,1,14,1:2:0:0:
387,11,120853,5,8,0:0:0:0:
428,73,120937,1,8,0:0:0:0:
413,133,121021,1,10,1:2:0:0:
384,168,121105,1,8,0:0:0:0:
377,195,121190,1,0,0:0:0:0:
386,219,121274,1,8,0:0:0:0:
398,235,121358,5,6,1:0:0:0:
274,31,121527,1,0,3:0:0:0:
65,285,121695,5,10,0:0:0:0:
189,81,121864,1,0,3:0:0:0:
409,322,122032,5,2,1:0:0:0:
285,118,122201,1,0,3:0:0:0:
76,372,122369,5,10,0:0:0:0:
200,168,122538,1,0,3:0:0:0:
320,248,122706,5,2,1:0:0:0:
259,382,122875,1,0,3:0:0:0:
110,181,123044,5,10,0:0:0:0:
171,315,123213,1,0,3:0:0:0:
420,149,123381,5,2,1:0:0:0:
333,333,123550,1,0,3:0:0:0:
149,44,123719,5,10,0:0:0:0:
229,222,123886,1,0,3:0:0:0:
444,46,124055,6,0,P|389:41|328:10,1,115,0|2,1:0|0:0,0:0:0:0:
465,148,124392,1,10,0:0:0:0:
474,144,124560,1,2,0:0:0:0:
266,150,124729,2,0,B|335:120|384:203|321:182|389:281|458:236,1,230,2|10,1:0|0:0,0:0:0:0:
160,370,125235,6,0,P|178:311|206:250,1,115,2|0,0:0|1:0,0:0:0:0:
38,142,125572,1,2,0:0:0:0:
152,11,125740,2,0,P|195:52|168:129,1,115,10|2,0:0|0:0,0:0:0:0:
66,269,126077,5,2,1:0:0:0:
77,261,126246,1,2,0:0:0:0:
248,177,126414,5,10,0:0:0:0:
56,60,126583,1,2,0:0:0:0:
257,20,126751,5,6,1:0:0:0:
163,251,126920,1,0,3:0:0:0:
269,302,127089,5,10,0:0:0:0:
175,71,127258,1,0,3:0:0:0:
371,77,127426,5,2,1:0:0:0:
277,308,127595,1,0,3:0:0:0:
383,359,127764,5,10,0:0:0:0:
289,128,127931,1,0,3:0:0:0:
504,280,128100,5,2,1:0:0:0:
303,378,128268,1,0,3:0:0:0:
206,174,128437,5,10,0:0:0:0:
407,272,128605,1,0,3:0:0:0:
512,131,128774,5,2,1:0:0:0:
311,229,128942,1,0,3:0:0:0:
214,25,129111,5,10,0:0:0:0:
415,123,129279,1,0,3:0:0:0:
183,166,129448,6,0,B|131:148|95:214|139:189|102:261|45:243,1,172.5,4|0,1:0|0:0,0:0:0:0:
44,236,129785,1,10,0:0:0:0:
215,337,129954,1,2,0:0:0:0:
21,381,130122,6,0,P|51:331|123:343,1,115,6|0,1:0|0:0,0:0:0:0:
274,251,130459,2,0,P|286:194|311:123,1,115,10|0,0:0|0:0,0:0:0:0:
73,83,130796,5,10,1:2:0:0:
89,77,130881,1,8,0:0:0:0:
109,70,130965,1,10,0:0:0:0:
127,64,131049,1,8,0:0:0:0:
143,57,131133,6,0,P|112:48|63:35,1,57.5,10|8,1:2|0:0,0:0:0:0:
0,119,131302,2,0,P|31:128|80:141,1,57.5,10|8,0:0|0:0,0:0:0:0:
248,155,131471,6,0,P|279:146|328:133,1,57.5,14|0,1:2|0:0,0:0:0:0:
387,217,131640,2,0,P|356:226|307:239,1,57.5,2|0,1:0|0:0,0:0:0:0:
139,278,131808,6,0,P|108:269|59:256,1,57.5,10|0,1:2|0:0,0:0:0:0:
0,340,131977,2,0,P|31:349|80:362,1,57.5,2|0,0:0|0:0,0:0:0:0:
325,356,132145,5,6,1:0:0:0:
210,35,132313,1,0,3:0:0:0:
342,47,132482,5,10,0:0:0:0:
214,347,132650,1,0,3:0:0:0:
116,244,132819,5,2,1:0:0:0:
430,119,132987,1,0,3:0:0:0:
425,271,133156,5,10,0:0:0:0:
115,104,133324,1,0,3:0:0:0:
259,178,133493,5,2,1:0:0:0:
264,184,133662,1,0,3:0:0:0:
221,95,133830,5,10,0:0:0:0:
304,280,133999,1,0,3:0:0:0:
209,318,134167,5,2,1:0:0:0:
325,67,134336,1,0,3:0:0:0:
219,18,134504,5,10,0:0:0:0:
358,340,134673,1,0,3:0:0:0:
142,248,134841,6,0,P|92:263|29:323,1,115,0|2,1:0|0:0,0:0:0:0:
208,334,135178,1,10,0:0:0:0:
198,338,135347,1,2,0:0:0:0:
72,156,135515,2,0,P|117:220|224:191,1,172.5,2|0,1:0|0:0,0:0:0:0:
203,212,135853,2,8,P|192:149|174:89,1,115,10|0,0:0|0:0,0:0:0:0:
332,17,136190,6,0,P|365:26|385:64,1,57.5,2|0,1:0|0:0,0:0:0:0:
456,18,136358,2,0,P|463:43|445:88,1,57.5,2|0,0:0|0:0,0:0:0:0:
512,130,136527,2,0,P|493:148|445:155,1,57.5,10|0,0:0|0:0,0:0:0:0:
426,233,136695,2,0,P|393:218|377:183,1,57.5,2|0,0:0|0:0,0:0:0:0:
222,52,136864,5,2,1:0:0:0:
22,189,137032,1,2,0:0:0:0:
242,269,137201,5,10,0:0:0:0:
24,110,137369,1,2,0:0:0:0:
275,98,137538,5,6,1:0:0:0:
141,335,137706,1,0,3:0:0:0:
418,384,137875,5,10,0:0:0:0:
367,112,138044,1,0,3:0:0:0:
273,83,138212,5,2,1:0:0:0:
139,320,138380,1,0,3:0:0:0:
425,371,138549,5,10,0:0:0:0:
374,99,138718,1,0,3:0:0:0:
228,21,138886,5,2,1:0:0:0:
251,250,139054,1,0,3:0:0:0:
330,279,139223,5,10,0:0:0:0:
454,77,139391,1,0,3:0:0:0:
218,15,139560,5,2,1:0:0:0:
241,244,139728,1,0,3:0:0:0:
347,275,139897,5,10,0:0:0:0:
471,73,140065,1,0,3:0:0:0:
197,140,140235,6,0,P|145:166|71:173,1,115,4|2,1:0|0:0,0:0:0:0:
13,172,140572,1,10,0:0:0:0:
16,163,140740,1,2,0:0:0:0:
332,273,140909,6,0,P|384:299|458:306,1,115,6|0,1:0|0:0,0:0:0:0:
512,297,141246,1,14,0:0:0:0:
508,287,141414,1,0,0:0:0:0:
258,34,141583,6,0,P|251:64|242:105,1,57.5,2|0,1:0|0:0,0:0:0:0:
275,346,141751,2,0,P|268:317|262:289,1,57.5,2|0,1:0|0:0,0:0:0:0:
157,127,141920,6,0,L|102:108,1,57.5,10|0,1:2|0:0,0:0:0:0:
343,248,142089,2,0,L|397:265,1,57.5,2|0,0:0|0:0,0:0:0:0:
120,231,142257,6,0,L|175:214,1,57.5,14|0,1:2|0:0,0:0:0:0:
381,148,142426,2,0,L|327:167,1,57.5,10|8,0:0|0:0,0:0:0:0:
244,183,142594,5,10,1:2:0:0:
251,190,142763,1,2,3:0:0:0:
476,278,145628,6,0,B|425:250|368:317|421:306|368:379|300:340,1,193.199994104004,4|2,1:0|0:0,0:0:0:0:
316,347,146133,1,2,0:0:0:0:
213,339,146302,6,0,P|170:354|137:377,1,69.0000026321412,10|2,0:0|0:0,0:0:0:0:
69,318,146639,2,0,P|79:281|82:233,1,69.0000026321412,2|2,0:0|0:0,0:0:0:0:
0,125,146976,6,0,P|29:142|62:152,1,69.0000026321412,2|0,0:0|0:0,0:0:0:0:
152,203,147313,2,0,P|201:178|291:164,1,138.000005264282,2|8,3:0|0:0,0:0:0:0:
282,163,147819,1,0,0:0:0:0:
350,104,147987,5,2,0:0:0:0:
347,98,148156,1,2,0:0:0:0:
485,85,148324,6,0,P|452:93|431:133,1,69.0000026321412,2|0,3:0|3:0,0:0:0:0:
376,191,148661,2,0,P|393:249|407:353,1,138.000005264282,2|8,3:0|0:0,0:0:0:0:
405,325,149167,1,2,0:0:0:0:
475,372,149336,1,2,0:0:0:0:
331,359,149504,6,0,P|295:369|259:391,1,69.0000026321412,2|0,0:0|3:0,0:0:0:0:
194,314,149841,2,0,P|158:304|122:282,1,69.0000026321412,2|0,3:0|3:0,0:0:0:0:
73,345,150178,2,0,P|83:276|102:210,1,138.000005264282,2|2,3:0|0:0,0:0:0:0:
363,10,150684,6,0,B|321:-7|286:17|283:60|286:62|292:66|295:98|263:134|210:115,1,213.900001631927,6|0,1:0|0:0,0:0:0:0:
211,122,151021,6,0,P|200:73|180:35,1,69.0000026321412,6|0,1:0|0:0,0:0:0:0:
300,197,151358,5,2,0:0:0:0:
305,194,151527,1,2,0:0:0:0:
205,291,151695,5,10,0:0:0:0:
200,288,151864,1,2,0:0:0:0:
338,357,152032,6,0,P|378:363|412:385,1,69.0000026321412,2|2,0:0|0:0,0:0:0:0:
500,329,152369,6,0,P|479:327|448:278,1,69.0000026321412,2|0,1:0|0:0,0:0:0:0:
357,271,152706,2,0,P|420:278|421:193,1,138.000005264282,2|8,3:0|0:0,0:0:0:0:
327,111,153212,5,2,0:0:0:0:
320,105,153381,2,0,P|331:67|349:27,1,69.0000026321412,2|2,1:0|0:0,0:0:0:0:
233,189,153718,6,0,P|191:198|152:226,1,69.0000026321412,2|0,1:0|1:0,0:0:0:0:
51,154,154055,2,0,P|71:203|85:294,1,138.000005264282,2|0,0:0|3:0,0:0:0:0:
289,367,154729,5,2,0:0:0:0:
291,361,154898,2,0,P|325:343|366:339,1,69.0000026321412,2|0,0:0|0:0,0:0:0:0:
359,262,155235,2,0,P|392:267|422:284,1,69.0000026321412,2|0,0:0|0:0,0:0:0:0:
464,221,155572,2,0,P|489:243|506:273,1,69.0000026321412,2|0,0:0|0:0,0:0:0:0:
495,363,155909,5,2,0:0:0:0:
498,372,156077,1,2,0:0:0:0:
