osu file format v14

[General]
AudioFilename: audio.mp3
AudioLeadIn: 0
PreviewTime: 88072
Countdown: 0
SampleSet: Soft
StackLeniency: 0.7
Mode: 0
LetterboxInBreaks: 0
WidescreenStoryboard: 1

[Editor]
DistanceSpacing: 0.2
BeatDivisor: 4
GridSize: 32
TimelineZoom: 1.7

[Metadata]
Title:Q
TitleUnicode:Q
Artist:Calliope Mori x Gawr Gura x DECO*27
ArtistUnicode:Calliope Mori x Gawr Gura x DECO*27
Creator:SMOKELIND
Version:FLAME HAZE'S INSANE
Source:
Tags:japanese english pop j-pop jpop female vocal ホロライブ hololive hololive-en en バーチャルユーチューバー virtual yt youtube youtuber vtuber がうる・ぐら 森カリオペ Mocaotic xidorn flame haze flake Kujinn Reform
BeatmapID:3523087
BeatmapSetID:1699993

[Difficulty]
HPDrainRate:5
CircleSize:4
OverallDifficulty:8
ApproachRate:9
SliderMultiplier:2.22
SliderTickRate:1

[Events]
//Background and Video events
0,0,"BG.jpg",0,0
Video,-100,"vid.mp4"
//Break Periods
2,51920,53268
2,86502,88324
2,143437,144859
//Storyboard Layer 0 (Background)
//Storyboard Layer 1 (Fail)
//Storyboard Layer 2 (Pass)
//Storyboard Layer 3 (Foreground)
//Storyboard Layer 4 (Overlay)
//Storyboard Sound Samples

[TimingPoints]
2707,337.078651685393,4,2,77,27,1,0
7257,-181.818181818181,4,2,77,27,0,0
8100,-144.927536231884,4,2,77,57,0,0
11049,-144.927536231884,4,2,77,5,0,0
11133,-144.927536231884,4,2,77,57,0,0
12313,-181.818181818181,4,2,77,57,0,0
12987,-100,4,2,77,57,0,0
13072,-100,4,2,77,57,0,0
13156,-74.0740740740741,4,2,77,57,0,0
13409,-74.0740740740741,4,2,77,5,0,0
13493,-83.3333333333333,4,2,77,57,0,0
13746,-83.3333333333333,4,2,77,5,0,0
13830,-144.927536231884,4,2,77,57,0,0
14757,-144.927536231884,4,2,77,5,0,0
14841,-144.927536231884,4,2,77,57,0,0
17706,-133.333333333333,4,2,77,57,0,0
18044,-121.951219512195,4,2,77,57,0,0
18381,-90.9090909090909,4,2,77,57,0,0
18802,-95.2380952380952,4,2,77,5,0,0
18886,-111.111111111111,4,2,77,67,0,0
21499,-111.111111111111,4,2,77,5,0,0
21583,-111.111111111111,4,2,77,67,0,0
24195,-111.111111111111,4,2,77,5,0,0
24280,-121.951219512195,4,2,77,67,0,0
26639,-111.111111111111,4,2,77,67,0,0
26976,-80,4,2,77,67,0,0
28324,-111.111111111111,4,2,77,67,0,0
29336,-399.999999999997,4,2,77,67,0,0
29589,-399.999999999997,4,2,77,5,0,0
29673,-90.9090909090909,4,2,77,87,0,0
29926,-90.9090909090909,4,2,77,87,0,0
30010,-181.818181818181,4,2,77,87,0,0
30347,-90.9090909090909,4,2,77,87,0,0
30600,-90.9090909090909,4,2,77,5,0,0
30684,-90.9090909090909,4,2,77,87,0,0
30853,-102.040816326531,4,2,77,87,0,0
31190,-90.9090909090909,4,2,77,87,0,0
32622,-90.9090909090909,4,2,77,5,0,0
32706,-181.818181818181,4,2,77,87,0,0
33043,-90.9090909090909,4,2,77,87,0,0
33296,-90.9090909090909,4,2,77,5,0,0
33380,-90.9090909090909,4,2,77,87,0,0
33718,-98.0392156862745,4,2,77,87,0,0
35066,-86.9565217391304,4,2,77,87,0,0
35319,-86.9565217391304,4,2,77,5,0,0
35403,-121.951219512195,4,2,77,87,0,0
35740,-98.0392156862745,4,2,77,87,0,0
37089,-117.647058823529,4,2,77,87,0,0
37341,-117.647058823529,4,2,77,5,0,0
37426,-153.846153846153,4,2,77,87,0,0
37763,-222.222222222221,4,2,77,87,0,0
38015,-222.22222222222,4,2,77,5,0,0
38100,-83.3333333333333,4,2,77,87,0,0
38353,-76.9230769230769,4,2,77,5,0,0
38437,-222.22222222222,4,2,77,87,0,0
38690,-222.22222222222,4,2,77,5,0,0
38774,-83.3333333333333,4,2,77,87,0,0
39027,-83.3333333333333,4,2,77,5,0,0
39111,-76.9230769230769,4,2,77,87,0,0
40122,-90.9090909090909,4,2,77,87,0,0
40459,-90.9090909090909,4,2,77,87,0,0
42735,-90.9090909090909,4,2,77,5,0,0
42819,-90.9090909090909,4,2,77,87,0,0
48128,-90.9090909090909,4,2,77,5,0,0
48212,-90.9090909090909,4,2,77,87,0,0
49476,-90.9090909090909,4,2,77,5,0,0
49560,-90.909090909091,4,2,77,87,0,0
49898,-90.9090909090909,4,2,77,87,0,0
51246,-90.9090909090909,4,2,77,5,0,0
53942,-153.846153846153,4,2,77,57,0,0
54954,-175.438596491228,4,2,77,57,0,0
55965,-133.333333333333,4,2,77,57,0,0
56639,-153.846153846153,4,2,77,57,0,0
57650,-175.438596491228,4,2,77,57,0,0
57903,-175.438596491228,4,2,77,5,0,0
57987,-166.666666666666,4,2,77,57,0,0
58999,-111.111111111111,4,2,77,57,0,0
59251,-111.111111111111,4,2,77,5,0,0
59336,-153.846153846153,4,2,77,57,0,0
60347,-175.438596491228,4,2,77,57,0,0
62032,-153.846153846153,4,2,77,57,0,0
63043,-175.438596491228,4,2,77,57,0,0
64392,-83.3333333333333,4,2,77,57,0,0
64645,-83.3333333333333,4,2,77,5,0,0
64729,-135.135135135135,4,2,77,57,0,0
74167,-100,4,2,77,57,0,0
75515,-96.1538461538461,4,2,77,67,0,0
78718,-108.695652173913,4,2,77,67,0,0
79223,-96.1538461538461,4,2,77,67,0,0
80403,-96.1538461538461,4,2,77,67,0,0
80824,-96.1538461538461,4,2,77,5,0,0
80909,-96.1538461538461,4,2,77,67,0,0
84617,-147.058823529412,4,2,77,67,0,0
88999,-153.846153846153,4,2,77,47,0,0
96920,-153.846153846153,4,2,77,77,0,0
97089,-153.846153846153,4,2,77,87,0,0
97426,-90.9090909090909,4,2,77,87,0,0
97763,-153.846153846153,4,2,77,87,0,0
98100,-90.9090909090909,4,2,77,87,0,0
98437,-105.263157894737,4,2,77,87,0,0
98690,-105.263157894737,4,2,77,5,0,0
98774,-105.263157894737,4,2,77,87,0,0
99027,-105.263157894737,4,2,77,5,0,0
99111,-105.263157894737,4,2,77,87,0,0
99785,-98.0392156862745,4,2,77,87,0,0
102398,-98.0392156862745,4,2,77,5,0,0
102482,-98.0392156862745,4,2,77,87,0,0
103409,-98.0392156862745,4,2,77,5,0,0
103493,-98.0392156862745,4,2,77,87,0,0
107454,-98.0392156862745,4,2,77,87,0,0
107538,-98.0392156862745,4,2,77,87,0,0
107791,-98.0392156862745,4,2,77,5,0,0
107875,-98.0392156862745,4,2,77,87,0,0
110572,-250,4,2,77,87,0,0
110824,-250,4,2,77,5,0,0
110909,-74.0740740740741,4,2,77,87,0,0
111162,-74.0740740740741,4,2,77,5,0,0
111246,-166.666666666667,4,2,77,87,0,0
111499,-166.666666666667,4,2,77,5,0,0
111583,-95.2380952380951,4,2,77,87,0,0
113268,-250,4,2,77,87,0,0
113520,-250,4,2,77,5,0,0
113605,-74.0740740740741,4,2,77,87,0,0
113858,-74.0740740740741,4,2,77,5,0,0
113942,-166.666666666667,4,2,77,87,0,0
114195,-166.666666666667,4,2,77,5,0,0
114279,-95.2380952380951,4,2,77,87,0,0
115965,-153.846153846153,4,2,77,87,0,0
116218,-153.846153846153,4,2,77,5,0,0
116302,-153.846153846153,4,2,77,87,0,0
116639,-95.2380952380952,4,2,77,87,0,0
118662,-222.222222222221,4,2,77,87,0,0
118914,-222.222222222221,4,2,77,5,0,0
118999,-76.9230769230769,4,2,77,87,0,0
119251,-76.9230769230769,4,2,77,5,0,0
119336,-222.222222222221,4,2,77,87,0,0
119589,-222.222222222221,4,2,77,5,0,0
119673,-76.9230769230769,4,2,77,87,0,0
119926,-76.9230769230769,4,2,77,5,0,0
120010,-76.9230769230769,4,2,77,87,0,0
121358,-90.9090909090909,4,2,77,87,0,0
122706,-222.222222222222,4,2,77,87,0,0
122959,-222.222222222222,4,2,77,5,0,0
123044,-111.111111111111,4,2,77,87,0,0
123296,-111.111111111111,4,2,77,5,0,0
123381,-192.307692307692,4,2,77,87,0,0
123633,-192.307692307692,4,2,77,5,0,0
123718,-86.9565217391304,4,2,77,87,0,0
123971,-86.9565217391304,4,2,77,5,0,0
124055,-95.2380952380952,4,2,77,87,0,0
129448,-86.9565217391304,4,2,77,87,0,0
133493,-208.333333333333,4,2,77,87,0,0
133746,-208.333333333333,4,2,77,5,0,0
133830,-83.3333333333333,4,2,77,87,0,0
134083,-83.3333333333333,4,2,77,5,0,0
134167,-208.333333333333,4,2,77,87,0,0
134420,-208.333333333333,4,2,77,5,0,0
134504,-83.3333333333333,4,2,77,87,0,0
134757,-83.3333333333333,4,2,77,5,0,0
134841,-95.2380952380952,4,2,77,87,0,0
136190,-86.9565217391304,4,2,77,87,0,0
141162,-86.9565217391304,4,2,77,87,0,0
141246,-105.263157894737,4,2,77,87,0,0
141499,-105.263157894737,4,2,77,87,0,0
141583,-90.9090909090909,4,2,77,87,0,0
142931,-90.9090909090909,4,2,77,47,0,0
145628,-133.333333333333,4,2,77,57,0,0
150684,-74.0740740740741,4,2,77,57,0,0
150937,-74.0740740740741,4,2,77,5,0,0
151021,-83.3333333333333,4,2,77,57,0,0
151274,-83.3333333333333,4,2,77,5,0,0
151358,-133.333333333333,4,2,77,57,0,0
155235,-133.333333333333,4,2,77,47,0,0
155572,-133.333333333333,4,2,77,27,0,0
156077,-285.714285714284,4,2,77,27,0,0
156414,-285.714285714284,4,2,77,5,0,0

[Colours]
Combo1 : 255,191,220
Combo2 : 191,209,255

[HitObjects]
121,380,8100,6,0,P|53:379|13:297,1,153.180000233734,4|2,1:0|0:0,0:0:0:0:
11,311,8605,1,2,0:0:0:0:
122,231,8774,2,0,L|207:241,1,76.5900001168671,10|2,0:0|0:0,0:0:0:0:
283,310,9111,2,0,L|206:318,1,76.5900001168671,2|2,0:0|0:0,0:0:0:0:
43,206,9448,2,0,P|114:189|138:119,1,153.180000233734,2|2,0:0|3:0,0:0:0:0:
239,262,9954,5,0,3:0:0:0:
239,262,10038,1,0,3:0:0:0:
239,262,10122,2,0,P|210:229|203:193,1,76.5900001168671,8|0,0:0|0:0,0:0:0:0:
248,109,10459,2,0,P|277:142|284:178,1,76.5900001168671,2|2,0:0|0:0,0:0:0:0:
138,119,10796,6,0,P|154:53|171:-13,1,114.885000175301,2|0,3:0|0:0,0:0:0:0:
175,15,11133,2,0,B|80:11|123:62|11:48,1,153.180000233734,2|8,3:0|0:0,0:0:0:0:
0,226,11639,5,2,0:0:0:0:
70,195,11808,1,2,0:0:0:0:
140,234,11976,1,2,0:0:0:0:
140,234,12313,6,0,P|170:271|242:267,2,122.100003726196,2|2|2,3:0|3:0|0:0,0:0:0:0:
213,185,13156,6,0,B|255:169|290:184|309:224|309:224|328:265|370:279|413:256,1,224.775000857449,6|0,1:0|0:0,0:0:0:0:
508,297,13493,6,0,P|415:276|367:356,1,199.799993902588,6|0,1:0|0:0,0:0:0:0:
373,361,13830,5,2,0:0:0:0:
505,304,13999,1,2,0:0:0:0:
403,265,14167,5,10,0:0:0:0:
466,384,14336,1,2,0:0:0:0:
403,265,14504,6,0,P|411:208|422:151,1,114.885000175301,2|0,0:0|0:0,0:0:0:0:
429,163,14841,6,0,P|357:175|305:123,1,153.180000233734,2|2,1:0|3:0,0:0:0:0:
273,8,15347,1,0,3:0:0:0:
273,8,15431,1,0,3:0:0:0:
273,8,15515,2,0,P|230:15|197:20,1,76.5900001168671,8|2,0:0|0:0,0:0:0:0:
123,152,15853,2,0,P|160:146|198:139,1,76.5900001168671,2|2,3:0|0:0,0:0:0:0:
371,241,16190,5,2,1:0:0:0:
245,211,16358,1,0,1:0:0:0:
296,288,16527,5,2,1:0:0:0:
442,197,16695,1,8,0:0:0:0:
302,113,16864,1,8,1:2:0:0:
302,113,17032,1,0,1:0:0:0:
441,0,17201,5,10,1:2:0:0:
374,58,17369,2,0,L|389:132,1,76.5900001168671,2|8,1:0|1:2,0:0:0:0:
470,269,17706,6,0,P|493:274|510:277,2,41.6250015878678,10|0|8,0:0|0:0|0:0,0:0:0:0:
346,207,18044,2,0,L|276:218,1,60.6800009259034,2|0,3:0|3:0,0:0:0:0:
245,278,18212,5,8,0:0:0:0:
67,349,18381,6,0,P|92:365|132:352,1,61.0500018630982,2|0,0:0|0:0,0:0:0:0:
130,367,18549,2,0,P|47:361|19:259,1,183.150005589295,2|0,1:0|0:0,0:0:0:0:
24,269,18886,5,4,1:0:0:0:
130,192,19055,5,2,0:0:0:0:
253,271,19223,1,2,0:0:0:0:
253,271,19392,1,2,0:0:0:0:
297,154,19560,6,0,L|221:168,1,49.949998475647,2|0,0:0|0:0,0:0:0:0:
240,172,19729,1,2,1:0:0:0:
127,280,19898,2,0,P|176:287|235:298,1,99.8999969512941,2|2,1:0|1:0,0:0:0:0:
329,376,20235,5,2,1:0:0:0:
329,376,20403,1,2,1:0:0:0:
414,276,20572,2,0,P|463:267|512:259,1,99.8999969512941,10|2,0:0|0:0,0:0:0:0:
414,276,20909,5,2,0:0:0:0:
327,172,21077,1,2,1:0:0:0:
327,172,21162,1,2,1:0:0:0:
327,172,21246,2,0,P|355:113|449:108,1,149.849995426941,10|0,0:0|0:0,0:0:0:0:
441,110,21583,6,0,P|376:94|333:84,1,99.8999969512941,2|2,1:0|0:0,0:0:0:0:
256,0,21920,1,10,0:0:0:0:
256,0,22089,1,2,0:0:0:0:
141,121,22257,6,0,L|203:111,1,49.949998475647,2|0,1:0|0:0,0:0:0:0:
205,104,22426,1,2,1:0:0:0:
82,6,22594,2,0,P|36:33|29:87,1,99.8999969512941,10|2,0:0|0:0,0:0:0:0:
79,243,22931,5,2,1:0:0:0:
79,243,23100,1,2,1:0:0:0:
0,163,23268,5,10,0:0:0:0:
141,121,23437,1,2,0:0:0:0:
204,275,23605,5,10,0:0:0:0:
79,243,23774,1,2,1:0:0:0:
79,243,23858,1,0,1:0:0:0:
79,242,23942,2,0,P|29:294|52:361,1,149.849995426941,2|2,1:0|0:0,0:0:0:0:
71,368,24280,5,2,1:0:0:0:
214,342,24617,1,8,0:0:0:0:
444,294,24954,5,2,1:0:0:0:
301,251,25291,1,8,0:0:0:0:
66,137,25628,5,2,1:0:0:0:
216,105,25965,1,10,0:0:0:0:
500,50,26302,5,2,1:0:0:0:
393,26,26471,1,2,1:0:0:0:
296,2,26639,1,10,1:2:0:0:
298,11,26723,1,0,1:0:0:0:
300,20,26808,1,2,1:0:0:0:
301,29,26892,1,0,1:0:0:0:
303,37,26976,5,2,1:0:0:0:
339,201,27145,1,2,1:0:0:0:
121,347,27650,5,0,1:0:0:0:
173,195,27819,1,0,1:0:0:0:
334,277,27987,5,0,3:0:0:0:
368,277,28072,1,0,0:0:0:0:
398,259,28156,2,0,P|414:229|415:196,1,69.375,0|0,1:0|1:0,0:0:0:0:
350,16,28324,5,0,1:0:0:0:
350,16,28493,1,0,1:0:0:0:
173,91,28662,1,0,1:0:0:0:
173,91,28830,1,0,1:0:0:0:
300,157,28999,1,0,1:0:0:0:
259,9,29336,6,0,L|251:57,1,41.625,8|0,0:0|0:0,0:0:0:0:
203,178,29673,6,0,P|139:185|82:69,1,183.150005589295,6|0,1:0|0:0,0:0:0:0:
4,88,30010,2,0,P|12:58|33:37,1,61.0500018630982,10|0,0:2|0:0,0:0:0:0:
118,19,30347,6,0,B|194:33|194:33|220:60|220:60|304:73,1,183.150005589295,2|0,1:0|0:0,0:0:0:0:
340,128,30684,1,10,1:2:0:0:
504,17,30853,2,0,L|386:0,1,108.779999004089,2|0,0:0|1:0,0:0:0:0:
261,152,31190,5,2,0:0:0:0:
422,117,31358,1,10,0:0:0:0:
422,117,31527,1,2,0:0:0:0:
346,262,31695,1,2,1:0:0:0:
346,262,31864,1,2,0:0:0:0:
384,190,32032,5,10,0:0:0:0:
476,345,32201,1,2,0:0:0:0:
384,190,32369,6,0,P|297:193|262:273,1,183.150005589295,2|0,1:0|0:0,0:0:0:0:
193,296,32706,2,0,P|207:323|232:341,1,61.0500018630982,10|0,0:0|0:0,0:0:0:0:
261,272,33044,6,0,B|200:251|166:289|166:289|129:325|72:308,1,183.150005589295,2|0,1:0|0:0,0:0:0:0:
28,351,33381,1,10,0:0:0:0:
98,174,33549,1,2,0:0:0:0:
182,256,33718,5,2,1:0:0:0:
182,256,33886,1,2,0:0:0:0:
0,193,34055,1,10,0:0:0:0:
0,193,34223,1,2,0:0:0:0:
77,275,34392,5,2,1:0:0:0:
153,116,34560,1,2,0:0:0:0:
100,17,34729,1,10,0:0:0:0:
100,17,34898,1,2,0:0:0:0:
254,96,35066,6,0,P|241:184|224:293,1,191.475003652096,6|0,1:0|0:0,0:0:0:0:
284,354,35403,6,0,P|327:346|347:307,1,91.020001388855,8|0,0:0|0:0,0:0:0:0:
512,239,35740,5,2,1:0:0:0:
442,220,35909,1,0,0:0:0:0:
332,95,36077,5,10,0:0:0:0:
402,76,36246,1,0,0:0:0:0:
347,207,36414,5,2,1:0:0:0:
249,170,36583,1,0,3:0:0:0:
215,78,36751,5,10,0:0:0:0:
107,112,36920,1,0,3:0:0:0:
6,118,37089,6,0,P|72:130|93:194,1,141.525002699375,2|0,1:0|0:0,0:0:0:0:
46,257,37426,6,0,P|17:248|1:202,1,72.1499966972353,10|0,0:0|3:0,0:0:0:0:
107,112,37763,6,0,L|181:122,1,74.9249977134705,6|0,1:0|0:0,0:0:0:0:
224,182,38100,2,0,P|286:251|372:214,1,199.799993902588,10|0,0:0|0:0,0:0:0:0:
501,174,38437,6,0,L|424:164,1,74.9249977134705,6|0,1:0|0:0,0:0:0:0:
372,214,38774,2,0,P|285:251|223:181,1,199.799993902588,10|0,0:0|0:0,0:0:0:0:
143,169,39111,6,0,P|163:130|197:109,1,72.1499966972353,14|0,1:2|0:0,0:0:0:0:
196,104,39280,6,0,P|244:104|279:124,1,72.1499966972353,2|0,1:0|0:0,0:0:0:0:
278,118,39448,6,0,P|301:161|297:200,1,72.1499966972353,14|0,1:2|0:0,0:0:0:0:
303,197,39617,6,0,P|266:249|246:254,1,72.1499966972353,2|0,1:0|0:0,0:0:0:0:
249,259,39785,6,0,P|210:259|180:244,1,72.1499966972353,14|0,1:2|0:0,0:0:0:0:
166,245,39954,6,0,P|145:214|141:171,1,72.1499966972353,8|8,0:0|0:0,0:0:0:0:
196,104,40122,6,0,B|255:112|255:112|261:117|261:117|315:124,1,122.100003726196,10|0,1:2|0:0,0:0:0:0:
394,185,40459,5,6,1:0:0:0:
509,100,40628,1,0,3:0:0:0:
488,208,40796,5,10,0:0:0:0:
420,70,40965,1,0,3:0:0:0:
435,325,41133,5,2,1:0:0:0:
496,203,41302,1,0,3:0:0:0:
488,384,41471,6,0,P|428:371|366:361,1,122.100003726196,10|0,0:0|3:0,0:0:0:0:
263,245,41808,1,2,1:0:0:0:
263,245,41976,1,0,3:0:0:0:
190,302,42145,6,0,P|200:356|274:366,1,122.100003726196,10|0,0:0|3:0,0:0:0:0:
339,165,42482,2,0,B|268:178|268:178|244:209|244:209|169:220,1,183.150005589295,2|0,1:0|0:0,0:0:0:0:
114,265,42819,5,10,0:0:0:0:
18,127,42987,1,0,3:0:0:0:
172,137,43156,1,0,1:0:0:0:
24,218,43324,5,2,0:0:0:0:
102,58,43493,1,10,0:0:0:0:
172,137,43662,1,2,0:0:0:0:
94,49,43830,6,0,L|30:37,2,61.0500018630982,2|0|0,1:0|0:0|0:0,0:0:0:0:
181,144,44167,1,10,0:0:0:0:
308,30,44336,1,2,0:0:0:0:
308,30,44420,1,0,0:0:0:0:
308,30,44504,6,0,L|429:15,1,122.100003726196,0|2,1:0|0:0,0:0:0:0:
502,177,44841,2,0,P|442:163|382:153,1,122.100003726196,10|2,0:0|0:0,0:0:0:0:
245,220,45178,6,0,P|192:228|171:233,2,61.0500018630982,2|0|2,1:0|0:0|0:0,0:0:0:0:
303,287,45515,2,0,P|277:345|210:342,1,122.100003726196,10|2,0:0|0:0,0:0:0:0:
61,169,45853,5,6,1:0:0:0:
184,229,46022,1,0,3:0:0:0:
119,121,46190,5,10,0:0:0:0:
125,272,46358,1,0,3:0:0:0:
193,93,46527,5,2,1:0:0:0:
58,246,46695,1,0,3:0:0:0:
193,93,46864,6,0,P|168:35|89:30,1,122.100003726196,10|0,0:0|3:0,0:0:0:0:
61,169,47201,1,2,1:0:0:0:
61,169,47369,1,0,3:0:0:0:
206,82,47538,2,0,P|266:90|326:98,1,122.100003726196,10|0,0:0|3:0,0:0:0:0:
509,164,47875,6,0,P|423:160|392:247,1,183.150005589295,2|0,1:0|0:0,0:0:0:0:
338,298,48212,1,10,0:0:0:0:
458,384,48381,1,0,3:0:0:0:
338,298,48549,1,4,1:0:0:0:
263,341,48718,5,2,0:0:0:0:
389,239,48886,2,0,P|448:250|508:262,1,122.100003726196,10|2,0:0|0:0,0:0:0:0:
384,148,49223,6,0,L|192:176,1,183.150005589295,6|0,1:0|0:0,0:0:0:0:
151,123,49560,2,0,P|210:134|270:146,1,122.100003726196,10|0,0:0|0:0,0:0:0:0:
136,260,49898,6,0,B|98:264|98:264|119:255,3,61.0500018630982,10|8|10|8,1:2|0:0|0:0|0:0,0:0:0:0:
150,248,50235,2,0,P|90:236|30:224,1,122.100003726196,10|10,1:2|0:0,0:0:0:0:
69,351,50572,5,14,1:2:0:0:
188,327,50740,1,2,1:0:0:0:
308,304,50909,1,10,1:2:0:0:
196,179,51077,5,2,0:0:0:0:
370,26,53942,6,0,L|521:53,2,144.299993394471,4|0|8,1:0|0:0|0:0,0:0:0:0:
268,109,54954,2,0,L|137:124,1,126.539998455322,2|0,0:0|0:0,0:0:0:0:
83,178,55628,1,0,0:0:0:0:
203,262,55796,5,2,0:0:0:0:
203,262,55881,1,2,0:0:0:0:
203,262,55965,2,0,P|232:217|220:179,1,83.2500031757356,10|2,0:0|0:0,0:0:0:0:
124,243,56302,2,0,P|95:288|107:326,1,83.2500031757356,2|2,0:0|0:0,0:0:0:0:
166,370,56639,6,0,L|15:343,2,144.299993394471,2|0|10,1:0|0:0|0:0,0:0:0:0:
304,288,57650,2,0,L|416:271,1,94.9049988414917,2|0,0:0|0:0,0:0:0:0:
407,278,57987,6,0,L|325:266,1,66.5999979675294,2|8,1:0|0:3,0:0:0:0:
192,230,58324,2,0,L|274:218,1,66.5999979675294,0|8,0:0|3:3,0:0:0:0:
324,156,58662,5,10,0:0:0:0:
499,167,58830,1,2,0:0:0:0:
499,167,58914,1,2,0:0:0:0:
499,167,58999,2,0,P|458:108|387:116,1,149.849995426941,12|0,0:0|0:0,0:0:0:0:
324,156,59336,6,0,L|172:131,2,144.299993394471,6|0|10,1:0|0:0|0:0,0:0:0:0:
221,30,60347,2,0,L|95:49,1,126.539998455322,2|0,0:0|1:0,0:0:0:0:
51,113,61021,1,2,0:0:0:0:
51,113,61190,6,0,L|105:122,1,31.6349996138306,2|2,0:0|0:0,0:0:0:0:
206,144,61358,1,10,0:0:0:0:
51,113,61695,1,2,0:0:0:0:
105,262,62032,6,0,L|257:237,2,144.299993394471,2|0|10,1:0|0:0|0:0,0:0:0:0:
206,144,63044,2,0,L|332:163,1,126.539998455322,2|2,0:0|1:0,0:0:0:0:
247,238,63718,1,2,0:0:0:0:
334,153,64055,1,10,0:0:0:0:
429,295,64223,5,2,0:0:0:0:
429,295,64308,1,2,0:0:0:0:
429,295,64392,2,0,B|373:277|326:316|346:319|305:361|235:338,1,199.799993902588,6|0,3:2|0:0,0:0:0:0:
183,299,64729,6,0,B|117:282|61:317|61:317|119:266|192:287,1,246.420006016113,6|2,1:0|0:0,0:0:0:0:
183,299,65403,1,10,0:0:0:0:
32,202,65740,1,2,0:0:0:0:
115,229,66077,2,0,P|168:219|175:105,1,164.280004010742,2|2,0:0|3:0,0:0:0:0:
132,71,66583,1,0,0:0:0:0:
267,0,66751,1,2,3:0:0:0:
132,71,67089,5,2,0:0:0:0:
277,157,67426,1,2,1:0:0:0:
190,122,67594,2,0,P|142:151|171:249,1,164.280004010742,0|0,1:0|0:0,0:0:0:0:
236,252,68100,1,10,0:0:0:0:
190,122,68437,5,2,0:0:0:0:
190,122,68774,2,0,P|146:130|102:138,1,82.1400020053711,2|2,1:0|0:0,0:0:0:0:
80,213,69111,2,0,P|40:206|0:199,1,82.1400020053711,2|2,0:0|0:0,0:0:0:0:
105,292,69448,1,10,0:0:0:0:
258,192,69785,5,2,0:0:0:0:
258,192,70122,1,6,1:0:0:0:
396,329,70291,2,0,B|462:346|517:310|517:310|459:361|386:340,1,246.420006016113,0|10,0:0|0:0,0:0:0:0:
327,276,71133,2,0,L|236:291,1,82.1400020053711,2|0,0:0|1:0,0:0:0:0:
327,276,71471,1,2,1:0:0:0:
407,183,71808,6,0,L|447:189,1,41.0700010026856,2|2,0:0|0:0,0:0:0:0:
334,168,72145,1,10,0:0:0:0:
512,88,72482,5,2,1:0:0:0:
512,88,72819,1,2,1:0:0:0:
426,11,72987,2,0,P|349:19|344:108,1,164.280004010742,0|2,0:0|1:0,0:0:0:0:
396,146,73493,1,10,0:0:0:0:
297,292,73830,1,2,0:0:0:0:
359,235,73999,5,2,1:0:0:0:
359,235,74083,1,0,1:0:0:0:
359,235,74167,2,0,B|401:240|401:240|417:253|417:253|475:261,1,111,0|2,1:0|3:0,0:0:0:0:
369,359,74504,2,0,B|327:363|327:363|311:376|311:376|253:384,1,111,2|2,1:0|0:0,0:0:0:0:
171,315,74841,6,0,P|159:340|154:367,2,55.5,10|8|8,0:0|0:0|0:0,0:0:0:0:
255,195,75178,1,10,0:0:0:0:
297,292,75347,1,8,0:0:0:0:
218,98,75515,5,4,1:0:0:0:
98,185,75684,1,2,0:0:0:0:
0,80,75853,1,10,0:0:0:0:
21,159,76021,1,0,0:0:0:0:
49,16,76190,6,0,P|104:9|168:-1,1,115.43999929541,2|0,0:0|1:0,0:0:0:0:
218,98,76527,1,10,0:0:0:0:
346,144,76695,2,0,P|289:133|231:123,1,115.43999929541,2|0,0:0|1:0,0:0:0:0:
305,51,77032,5,2,1:0:0:0:
410,184,77201,1,10,0:0:0:0:
498,75,77369,1,0,0:0:0:0:
485,155,77538,1,2,0:0:0:0:
443,30,77706,5,2,1:0:0:0:
443,30,77791,1,0,1:0:0:0:
443,30,77875,5,10,0:0:0:0:
346,144,78044,1,2,0:0:0:0:
366,0,78212,1,0,1:0:0:0:
295,199,78381,6,0,P|365:188|433:181,1,115.43999929541,2|10,0:0|0:0,0:0:0:0:
276,115,78718,2,0,P|219:139|261:275,1,204.239993143799,0|2,0:0|1:0,0:0:0:0:
292,364,79223,5,10,0:0:0:0:
428,308,79392,1,0,0:0:0:0:
292,364,79560,2,0,P|222:353|154:346,1,115.43999929541,2|2,1:0|1:0,0:0:0:0:
86,131,79898,1,10,0:0:0:0:
37,238,80066,2,0,P|82:229|156:219,1,115.43999929541,2|0,0:0|0:0,0:0:0:0:
247,196,80403,5,2,1:0:0:0:
247,196,80487,1,0,1:0:0:0:
247,196,80572,2,0,P|243:134|143:97,1,173.159998943115,10|0,0:0|0:0,0:0:0:0:
92,135,80909,5,6,1:0:0:0:
92,135,81077,1,2,0:0:0:0:
3,318,81246,2,0,P|59:308|116:298,1,115.43999929541,10|2,0:0|0:0,0:0:0:0:
297,384,81583,6,0,P|241:379|215:328,1,115.43999929541,2|2,3:0|1:0,0:0:0:0:
258,269,81836,1,0,0:0:0:0:
269,265,81920,2,0,P|325:274|382:284,1,115.43999929541,10|2,0:0|0:0,0:0:0:0:
456,359,82257,6,0,P|484:354|513:350,2,57.7199996477051,2|0|2,1:0|0:0|1:0,0:0:0:0:
374,279,82594,1,10,0:0:0:0:
224,338,82763,1,2,0:0:0:0:
224,338,82847,1,2,0:0:0:0:
224,338,82931,1,14,0:0:0:0:
102,228,83100,6,0,P|130:233|158:238,1,57.7199996477051,2|2,1:0|1:0,0:0:0:0:
169,234,83268,5,10,1:2:0:0:
179,229,83353,1,0,0:0:0:0:
189,223,83437,2,0,L|130:210,1,57.7199996477051,14|0,0:0|0:0,0:0:0:0:
97,144,83605,5,2,1:0:0:0:
0,273,83774,1,0,1:0:0:0:
0,273,84111,5,2,1:0:0:0:
0,273,84195,1,2,1:0:0:0:
0,273,84280,1,10,1:2:0:0:
97,144,84448,1,0,1:0:0:0:
29,188,84617,2,0,P|43:262|55:339,1,150.960000921387,10|2,0:0|3:0,0:0:0:0:
256,192,85038,12,2,86302,1:0:0:0:
276,19,88999,5,6,1:0:0:0:
392,104,89336,1,2,0:0:0:0:
512,67,89673,1,2,0:0:0:0:
512,67,90010,1,2,0:0:0:0:
392,104,90178,1,2,0:0:0:0:
323,178,90515,5,2,0:0:0:0:
244,154,90684,1,2,0:0:0:0:
329,186,90853,1,2,0:0:0:0:
394,246,91021,5,2,0:0:0:0:
489,222,91190,1,2,0:0:0:0:
385,251,91359,1,2,0:0:0:0:
376,256,91527,1,2,0:0:0:0:
236,365,91695,5,2,0:0:0:0:
134,262,92032,1,2,0:0:0:0:
12,300,92369,1,2,0:0:0:0:
12,300,92706,1,2,0:0:0:0:
134,262,92875,1,2,0:0:0:0:
205,196,93044,5,2,0:0:0:0:
287,220,93212,1,2,0:0:0:0:
131,171,93381,1,2,0:0:0:0:
121,177,93549,1,2,0:0:0:0:
254,121,93718,1,2,0:0:0:0:
266,127,93886,1,2,0:0:0:0:
146,48,94055,2,0,L|55:63,1,72.1499966972353,2|2,0:0|0:0,0:0:0:0:
62,57,94392,2,0,P|130:50|166:108,1,144.299993394471,2|0,0:0|0:0,0:0:0:0:
446,377,95066,5,2,0:0:0:0:
307,323,95403,1,2,0:0:0:0:
70,233,95740,5,2,0:0:0:0:
209,179,96077,1,2,0:0:0:0:
440,32,96414,6,0,P|371:40|348:105,1,144.299993394471,2|2,0:0|0:0,0:0:0:0:
404,159,96920,1,0,1:0:0:0:
322,314,97089,6,0,L|342:392,1,72.1499966972353,6|0,1:0|0:0,0:0:0:0:
391,279,97426,2,0,L|270:256,1,122.100003726196,10|0,0:0|1:0,0:0:0:0:
142,156,97763,6,0,L|163:78,1,72.1499966972353,6|0,1:0|0:0,0:0:0:0:
208,192,98100,2,0,L|86:212,1,122.100003726196,10|2,0:0|0:0,0:0:0:0:
0,280,98437,6,0,B|58:289|58:289|84:318|84:318|158:332,1,158.174995776272,14|0,1:2|0:0,0:0:0:0:
215,185,98774,6,0,B|273:175|273:175|299:146|299:146|358:134,1,158.174995776272,14|0,1:2|0:0,0:0:0:0:
442,211,99111,6,0,L|492:226,1,52.7249985920907,14|0,1:2|0:0,0:0:0:0:
364,124,99280,6,0,L|299:137,1,52.7249985920907,8|8,0:0|0:0,0:0:0:0:
207,189,99448,6,0,L|146:174,1,52.7249985920907,10|0,1:2|0:0,0:0:0:0:
50,89,99617,6,0,L|111:75,1,52.7249985920907,0|0,1:0|0:0,0:0:0:0:
207,7,99785,6,0,P|262:18|317:29,1,113.22000069104,6|0,1:0|3:0,0:0:0:0:
423,156,100122,2,0,P|367:144|312:133,1,113.22000069104,10|0,0:0|3:0,0:0:0:0:
201,0,100459,6,0,P|256:11|311:22,1,113.22000069104,2|0,1:0|3:0,0:0:0:0:
429,163,100796,2,0,P|373:151|318:140,1,113.22000069104,10|0,0:0|3:0,0:0:0:0:
195,279,101133,5,2,1:0:0:0:
79,183,101302,1,0,3:0:0:0:
109,270,101471,5,10,0:0:0:0:
109,270,101639,1,0,3:0:0:0:
143,127,101808,2,0,P|132:71|121:14,1,113.22000069104,2|0,1:0|3:0,0:0:0:0:
284,190,102145,2,0,P|357:158|340:68,1,169.83000103656,10|0,0:0|0:0,0:0:0:0:
282,51,102482,1,0,1:0:0:0:
191,221,102650,6,0,P|218:269|291:279,2,113.22000069104,2|10|2,0:0|0:0|0:0,0:0:0:0:
167,83,103156,2,0,P|141:30|27:39,1,169.83000103656,2|0,1:0|0:0,0:0:0:0:
1,88,103493,1,10,0:0:0:0:
79,241,103662,6,0,P|134:230|190:221,1,113.22000069104,2|0,0:0|1:0,0:0:0:0:
311,308,103999,1,2,0:0:0:0:
441,353,104167,2,0,P|385:342|329:333,1,113.22000069104,10|2,0:0|0:0,0:0:0:0:
308,189,104504,6,0,P|328:133|392:117,1,113.22000069104,2|2,1:0|0:0,0:0:0:0:
447,164,104841,1,10,0:0:0:0:
447,164,105010,1,2,0:0:0:0:
280,7,105178,6,0,P|224:18|169:29,1,113.22000069104,6|0,1:0|3:0,0:0:0:0:
64,156,105515,2,0,P|119:144|174:133,1,113.22000069104,10|0,0:0|3:0,0:0:0:0:
286,0,105852,6,0,P|230:11|175:22,1,113.22000069104,2|0,1:0|3:0,0:0:0:0:
58,163,106189,2,0,P|113:151|168:140,1,113.22000069104,10|0,0:0|3:0,0:0:0:0:
386,266,106527,6,0,P|330:254|275:243,1,113.22000069104,2|0,1:0|3:0,0:0:0:0:
154,335,106864,1,10,0:0:0:0:
154,335,107032,1,0,3:0:0:0:
287,238,107201,2,0,P|342:249|398:261,1,113.22000069104,2|0,1:0|3:0,0:0:0:0:
509,57,107538,6,0,P|441:67|435:163,1,169.83000103656,10|0,0:0|0:0,0:0:0:0:
497,195,107875,5,4,1:0:0:0:
497,195,108044,1,2,1:0:0:0:
414,48,108212,5,2,1:0:0:0:
299,94,108381,1,2,1:0:0:0:
222,38,108549,5,4,1:0:0:0:
222,38,108718,1,0,1:0:0:0:
396,127,108886,1,4,1:2:0:0:
396,127,109055,1,0,1:0:0:0:
292,210,109223,6,0,L|214:195,1,56.61000034552,8|8,1:2|0:0,0:0:0:0:
227,191,109392,2,0,L|301:207,1,56.61000034552,8|8,0:0|0:0,0:0:0:0:
377,269,109560,6,0,L|455:254,1,56.61000034552,8|8,1:2|0:0,0:0:0:0:
442,250,109729,2,0,L|368:266,1,56.61000034552,8|8,0:0|0:0,0:0:0:0:
318,339,109898,5,8,1:2:0:0:
307,342,110066,5,0,0:0:0:0:
209,375,110235,5,0,0:0:0:0:
198,378,110403,5,0,0:0:0:0:
82,327,110572,6,0,P|49:322|16:317,1,66.6,6|0,1:0|0:0,0:0:0:0:
7,310,110909,6,0,B|88:290|131:340|92:351|154:406|250:360,1,224.775000857449,10|0,0:2|0:0,0:0:0:0:
310,283,111246,6,0,P|357:276|436:263,1,99.899996951294,2|0,1:0|0:0,0:0:0:0:
421,274,111583,5,10,1:2:0:0:
311,170,111751,2,0,B|264:176|264:176|248:190|248:190|199:197,1,116.549996443176,2|0,0:0|1:0,0:0:0:0:
113,257,112089,5,2,0:0:0:0:
1,218,112257,1,10,0:0:0:0:
122,264,112426,1,2,0:0:0:0:
186,342,112594,5,2,1:0:0:0:
304,298,112763,1,2,0:0:0:0:
176,346,112931,1,10,0:0:0:0:
165,350,113100,1,2,0:0:0:0:
362,237,113268,6,0,P|395:242|428:247,1,66.6,2|0,1:0|0:0,0:0:0:0:
437,257,113605,6,0,P|502:219|443:101,1,224.775000857449,10|0,0:0|0:0,0:0:0:0:
386,0,113942,6,0,P|335:6|286:13,1,99.899996951294,2|0,1:0|0:0,0:0:0:0:
277,19,114280,5,10,0:0:0:0:
169,124,114448,1,2,0:0:0:0:
73,6,114617,5,2,1:0:0:0:
159,33,114785,1,2,0:0:0:0:
169,124,114954,5,10,0:0:0:0:
3,70,115122,1,2,0:0:0:0:
68,161,115291,5,2,1:0:0:0:
68,161,115459,1,2,0:0:0:0:
233,78,115628,1,10,0:0:0:0:
233,78,115796,1,2,0:0:0:0:
334,224,115965,6,0,P|280:213|214:202,1,108.224995045853,6|0,1:0|0:0,0:0:0:0:
218,194,116302,5,8,0:0:0:0:
360,384,116639,5,2,1:0:0:0:
360,384,116808,1,0,0:0:0:0:
383,311,116976,5,10,0:0:0:0:
301,335,117145,1,0,0:0:0:0:
247,286,117313,5,2,1:0:0:0:
408,241,117482,1,0,3:0:0:0:
418,171,117650,5,10,0:0:0:0:
418,171,117819,1,0,3:0:0:0:
209,228,117987,1,2,1:0:0:0:
209,228,118156,1,0,3:0:0:0:
231,126,118324,6,0,P|288:135|346:143,1,116.549996443176,10|0,0:0|3:0,0:0:0:0:
476,68,118662,6,0,L|402:79,1,74.9249977134705,6|0,1:0|0:0,0:0:0:0:
353,150,118999,2,0,B|304:131|304:65|304:65|273:128|210:127,1,216.449990091706,10|0,0:0|0:0,0:0:0:0:
117,38,119336,6,0,L|192:49,1,74.9249977134705,6|0,1:0|0:0,0:0:0:0:
218,126,119673,2,0,B|272:126|304:65|304:65|305:134|357:151,1,216.449990091706,10|0,0:0|0:0,0:0:0:0:
368,232,120010,6,0,P|407:212|428:178,1,72.1499966972353,14|0,1:2|0:0,0:0:0:0:
433,179,120179,6,0,P|433:131|413:96,1,72.1499966972353,2|0,1:0|0:0,0:0:0:0:
419,97,120347,6,0,P|376:74|337:78,1,72.1499966972353,14|0,1:2|0:0,0:0:0:0:
340,72,120516,6,0,P|288:109|283:129,1,72.1499966972353,2|0,1:0|0:0,0:0:0:0:
278,126,120684,6,0,P|278:165|293:195,1,72.1499966972353,14|0,1:2|0:0,0:0:0:0:
292,209,120853,6,0,P|323:230|366:234,1,72.1499966972353,8|8,0:0|0:0,0:0:0:0:
487,284,121021,5,10,1:2:0:0:
487,284,121105,1,8,0:0:0:0:
487,284,121190,2,0,B|456:290|456:290|448:295|448:295|416:303,1,72.1499966972353,0|8,0:0|0:0,0:0:0:0:
328,346,121358,5,6,1:0:0:0:
450,384,121527,1,0,3:0:0:0:
213,378,121695,5,10,0:0:0:0:
338,340,121864,1,0,3:0:0:0:
96,350,122032,5,2,1:0:0:0:
223,384,122201,1,0,3:0:0:0:
76,273,122369,5,10,0:0:0:0:
76,273,122538,1,0,3:0:0:0:
199,197,122706,2,0,L|287:208,1,74.9249977134705,2|0,1:0|0:0,0:0:0:0:
279,220,123044,2,0,L|122:202,1,149.849995426941,10|0,0:0|0:0,0:0:0:0:
92,112,123381,6,0,L|-2:125,1,86.5799994715576,2|0,1:0|0:0,0:0:0:0:
0,137,123718,2,0,B|78:125|78:125|104:96|104:96|188:84,1,191.475003652096,10|0,0:0|0:0,0:0:0:0:
187,93,124055,1,0,1:0:0:0:
279,220,124223,5,2,0:0:0:0:
395,115,124392,1,10,0:0:0:0:
510,152,124560,1,2,0:0:0:0:
386,106,124729,5,2,1:0:0:0:
381,101,124813,1,0,0:0:0:0:
376,96,124898,1,0,0:0:0:0:
294,0,125066,1,10,0:0:0:0:
158,113,125235,6,0,P|218:107|277:100,2,116.549996443176,2|0|2,0:0|1:0|0:0,0:0:0:0:
72,188,125740,2,0,P|18:171|6:116,1,116.549996443176,10|2,0:0|0:0,0:0:0:0:
106,20,126077,1,2,1:0:0:0:
118,23,126246,1,2,0:0:0:0:
339,66,126414,2,0,P|281:56|223:47,1,116.549996443176,10|2,0:0|0:0,0:0:0:0:
280,159,126751,5,6,1:0:0:0:
442,122,126920,1,0,3:0:0:0:
343,70,127089,1,10,0:0:0:0:
343,70,127257,1,0,3:0:0:0:
347,253,127426,5,2,1:0:0:0:
185,216,127595,1,0,3:0:0:0:
284,164,127764,1,10,0:0:0:0:
284,164,127932,1,0,3:0:0:0:
382,343,128100,6,0,L|507:324,1,116.549996443176,2|0,1:0|3:0,0:0:0:0:
289,263,128437,2,0,L|414:244,1,116.549996443176,10|0,0:0|3:0,0:0:0:0:
188,152,128774,6,0,L|63:133,1,116.549996443176,2|0,1:0|3:0,0:0:0:0:
281,72,129111,2,0,L|156:53,1,116.549996443176,10|0,0:0|3:0,0:0:0:0:
284,164,129448,1,4,1:0:0:0:
443,88,129617,5,2,0:0:0:0:
512,127,129785,1,10,0:0:0:0:
509,208,129954,1,2,0:0:0:0:
397,295,130122,5,6,1:0:0:0:
324,253,130291,1,0,0:0:0:0:
397,215,130459,5,10,0:0:0:0:
252,285,130628,1,0,0:0:0:0:
163,224,130796,5,10,1:2:0:0:
146,218,130881,1,8,0:0:0:0:
128,214,130965,1,10,0:0:0:0:
110,210,131049,1,8,0:0:0:0:
93,204,131133,6,0,L|78:138,1,63.8250012173653,10|8,1:2|0:0,0:0:0:0:
12,93,131302,2,0,L|0:28,1,63.8250012173653,10|8,0:0|0:0,0:0:0:0:
92,2,131471,6,0,B|143:7|143:7|165:28|165:28|243:39,1,127.650002434731,14|2,1:2|1:0,0:0:0:0:
323,123,131808,2,0,B|374:118|374:118|396:97|396:97|474:86,1,127.650002434731,10|2,1:2|0:0,0:0:0:0:
318,30,132145,5,6,1:0:0:0:
228,166,132313,1,0,3:0:0:0:
243,78,132482,5,10,0:0:0:0:
306,208,132650,1,0,3:0:0:0:
391,217,132819,5,2,1:0:0:0:
250,292,132987,1,0,3:0:0:0:
340,290,133156,5,10,0:0:0:0:
201,217,133324,1,0,3:0:0:0:
388,134,133493,6,0,L|470:148,1,79.9200019511719,2|0,1:0|0:0,0:0:0:0:
476,141,133830,2,0,B|402:123|363:167|387:173|348:225|267:193,1,199.799993902588,10|0,0:0|0:0,0:0:0:0:
118,314,134167,6,0,L|35:328,1,79.9200019511719,2|0,1:0|0:0,0:0:0:0:
27,323,134504,2,0,B|98:303|128:354|128:354|158:398|234:373,1,199.799993902588,10|0,0:0|0:0,0:0:0:0:
215,384,134841,1,0,1:0:0:0:
335,297,135010,5,2,0:0:0:0:
466,332,135178,1,10,0:0:0:0:
327,289,135347,1,2,0:0:0:0:
319,280,135515,2,0,B|300:235|300:235|331:153,1,116.549996443176,2|0,1:0|0:0,0:0:0:0:
190,0,135853,2,8,B|209:45|209:45|178:127,1,116.549996443176,10|0,0:0|0:0,0:0:0:0:
340,85,136190,5,2,1:0:0:0:
298,0,136358,1,2,0:0:0:0:
323,171,136527,5,10,0:0:0:0:
400,26,136695,1,2,0:0:0:0:
425,270,136864,5,2,1:0:0:0:
348,93,137032,1,2,0:0:0:0:
348,93,137117,1,2,0:0:0:0:
348,93,137201,1,10,0:0:0:0:
277,242,137369,1,2,0:0:0:0:
423,116,137538,5,6,1:0:0:0:
438,121,137706,1,0,3:0:0:0:
348,93,137875,1,10,0:0:0:0:
512,147,138044,1,0,3:0:0:0:
277,242,138212,5,2,1:0:0:0:
261,246,138380,1,0,3:0:0:0:
352,221,138549,1,10,0:0:0:0:
186,269,138718,1,0,3:0:0:0:
377,359,138886,6,0,P|425:320|429:258,1,127.650002434731,2|0,1:0|3:0,0:0:0:0:
510,251,139223,2,0,P|484:194|427:169,1,127.650002434731,10|0,0:0|3:0,0:0:0:0:
307,19,139560,6,0,P|276:72|215:86,1,127.650002434731,2|0,1:0|3:0,0:0:0:0:
221,167,139898,2,0,P|160:150|127:97,1,127.650002434731,10|0,0:0|3:0,0:0:0:0:
306,156,140235,1,4,1:0:0:0:
163,258,140403,5,2,0:0:0:0:
36,224,140572,1,10,0:0:0:0:
171,264,140740,1,2,0:0:0:0:
233,328,140909,5,6,1:0:0:0:
239,326,140993,1,0,0:0:0:0:
245,324,141077,1,0,0:0:0:0:
339,248,141246,5,14,0:0:0:0:
345,250,141330,1,0,0:0:0:0:
351,252,141414,1,0,0:0:0:0:
484,321,141583,6,0,B|442:331|442:331|419:358|419:358|358:372,1,122.100003726196,2|2,1:0|1:0,0:0:0:0:
249,246,141920,2,0,B|207:236|207:236|184:209|184:209|123:195,1,122.100003726196,10|2,1:2|0:0,0:0:0:0:
22,270,142257,1,14,1:2:0:0:
121,357,142426,1,10,0:0:0:0:
121,357,142510,1,8,0:0:0:0:
121,357,142594,6,0,L|108:277,1,61.0500018630982,10|0,1:2|0:0,0:0:0:0:
84,128,142763,2,0,L|74:67,2,61.0500018630982,2|0|0,3:0|3:0|3:0,0:0:0:0:
478,352,145459,5,0,0:0:0:0:
495,359,145544,1,0,0:0:0:0:
507,358,145628,1,4,1:0:0:0:
418,237,145965,5,2,0:0:0:0:
285,300,146133,1,2,0:0:0:0:
356,341,146302,5,10,0:0:0:0:
371,346,146471,1,2,0:0:0:0:
214,272,146639,1,2,0:0:0:0:
199,277,146808,1,2,0:0:0:0:
57,323,146976,6,0,B|156:321|108:380|219:377,1,166.500006351471,2|2,0:0|3:0,0:0:0:0:
339,248,147482,1,0,3:0:0:0:
339,248,147566,1,0,3:0:0:0:
339,248,147650,2,0,P|295:252|253:211,1,83.2500031757356,8|0,0:0|0:0,0:0:0:0:
199,277,147987,2,0,P|181:236|207:183,1,83.2500031757356,2|2,0:0|0:0,0:0:0:0:
291,140,148324,6,0,L|471:175,2,166.500006351471,2|2|8,3:0|3:0|0:0,0:0:0:0:
210,30,149167,5,2,0:0:0:0:
122,47,149336,1,2,0:0:0:0:
32,66,149504,1,2,0:0:0:0:
210,30,149841,5,2,3:0:0:0:
122,47,150178,1,2,3:0:0:0:
32,66,150515,1,2,0:0:0:0:
34,74,150600,1,0,0:0:0:0:
35,81,150684,6,0,P|81:152|215:132,1,224.775000857449,6|0,1:0|0:0,0:0:0:0:
213,132,151021,6,0,P|308:125|366:204,1,199.799993902588,6|0,1:0|0:0,0:0:0:0:
413,261,151358,5,2,0:0:0:0:
396,268,151527,1,2,0:0:0:0:
282,323,151695,5,10,0:0:0:0:
265,330,151864,1,2,0:0:0:0:
149,371,152032,6,0,P|98:350|119:251,1,166.500006351471,2|2,0:0|1:0,0:0:0:0:
124,260,152706,6,0,L|180:273,2,41.6250015878678,2|0|0,3:0|3:0|3:0,0:0:0:0:
78,148,153044,2,0,P|33:174|21:221,1,83.2500031757356,8|2,0:0|0:0,0:0:0:0:
145,83,153381,2,0,P|112:59|72:60,1,83.2500031757356,2|2,1:0|0:0,0:0:0:0:
188,164,153718,6,0,P|234:120|208:20,1,166.500006351471,2|2,1:0|0:0,0:0:0:0:
313,147,154392,1,0,3:0:0:0:
323,151,154729,5,2,0:0:0:0:
161,87,154898,1,2,0:0:0:0:
257,231,155235,1,2,0:0:0:0:
142,348,155572,1,2,0:0:0:0:
341,304,155909,5,2,0:0:0:0:
257,231,156077,2,0,L|180:241,1,77.6999976287843,2|0,0:0|0:0,0:0:0:0:
