osu file format v14

[General]
AudioFilename: audio.mp3
AudioLeadIn: 0
PreviewTime:29620
Countdown: 0
SampleSet: Soft
StackLeniency: 0.7
Mode: 0
LetterboxInBreaks: 0
WidescreenStoryboard: 1

[Editor]
DistanceSpacing: 0.9
BeatDivisor: 4
GridSize: 8
TimelineZoom: 2.2

[Metadata]
Title:Q
TitleUnicode:Q
Artist:Calliope Mori x Gawr Gura x DECO*27
ArtistUnicode:Calliope Mori x Gawr Gura x DECO*27
Creator:Ryuusei Aika
Version:Pokey's Insane feat. inti
Source:
Tags:gokugohan12468 kittyadventure astrolis intiaz nyantiaz [poke] pokey xandeez nuts gigarobloxian21 shikibe mayu shizuku- kazato asa japanese english pop jpop j-pop female vocal ホロライブ hololive hololive-en バーチャルユーチューバー virtual youtuber vtuber deco 27 rockwell kay yu riguruma なつめ千秋 natsume chiaki
BeatmapID:3467633
BeatmapSetID:1693923

[Difficulty]
HPDrainRate:5
CircleSize:4
OverallDifficulty:8
ApproachRate:9
SliderMultiplier:1.8
SliderTickRate:1

[Events]
//Background and Video events
0,0,"bg.jpg",0,0
Video,-120,"video.mp4"
//Break Periods
2,88988,96309
//Storyboard Layer 0 (Background)
//Storyboard Layer 1 (Fail)
//Storyboard Layer 2 (Pass)
//Storyboard Layer 3 (Foreground)
//Storyboard Layer 4 (Overlay)
//Storyboard Sound Samples

[TimingPoints]
2696,337.078651685393,4,2,1,50,1,0
8089,-100,4,2,1,50,0,0
8342,-100,4,2,1,5,0,0
8426,-133.333333333333,4,2,1,50,0,0
12555,-133.333333333333,4,2,1,5,0,0
12639,-133.333333333333,4,2,1,50,0,0
13145,-90.9090909090909,4,2,1,50,0,0
13398,-90.9090909090909,4,2,1,5,0,0
13482,-90.9090909090909,4,2,1,50,0,0
13735,-90.9090909090909,4,2,1,5,0,0
13819,-133.333333333333,4,2,1,50,0,0
18370,-90.9090909090909,4,2,1,50,0,0
18791,-90.9090909090909,4,2,1,5,0,0
18875,-111.111111111111,4,2,1,60,0,0
29662,-500,4,2,1,80,0,1
29999,-66.6666666666667,4,2,1,80,0,1
30336,-100,4,2,1,80,0,1
32358,-333.333333333333,4,2,1,80,0,1
32695,-66.6666666666667,4,2,1,80,0,1
33033,-100,4,2,1,80,0,1
37752,-66.6666666666667,4,2,1,80,0,1
38089,-100,4,2,1,80,0,1
38763,-66.6666666666667,4,2,1,80,0,1
39437,-100,4,2,1,80,0,1
40448,-66.6666666666667,4,2,1,80,0,1
40785,-66.6666666666667,4,2,1,80,0,1
41122,-100,4,2,1,80,0,1
41460,-133.333333333333,4,2,1,80,0,1
41797,-200,4,2,1,80,0,1
42134,-333.333333333333,4,2,1,80,0,1
42471,-66.6666666666667,4,2,1,80,0,1
42808,-100,4,2,1,80,0,1
45842,-66.6666666666667,4,2,1,80,0,1
46179,-80,4,2,1,80,0,1
46516,-100,4,2,1,80,0,1
46853,-133.333333333333,4,2,1,80,0,1
47190,-200,4,2,1,80,0,1
47527,-333.333333333333,4,2,1,80,0,1
47864,-66.6666666666667,4,2,1,80,0,1
48201,-100,4,2,1,80,0,1
51235,-100,4,2,1,40,0,0
51740,-100,4,2,1,30,0,0
53931,-1000,4,2,1,60,0,0
55785,-200,4,2,1,60,0,0
56628,-1000,4,2,1,60,0,0
64212,-200,4,2,1,60,0,0
64381,-500,4,2,1,60,0,0
64718,-133.333333333333,4,2,1,60,0,0
70111,-100,4,2,1,60,0,0
70701,-133.333333333333,4,2,1,60,0,0
75504,-66.6666666666667,4,2,1,70,0,0
75842,-133.333333333333,4,2,1,70,0,0
78201,-100,4,2,1,70,0,0
78538,-133.333333333333,4,2,1,70,0,0
80898,-100,4,2,1,70,0,0
81235,-133.333333333333,4,2,1,70,0,0
86291,-133.333333333333,4,2,1,30,0,0
88988,-133.333333333333,4,2,1,40,0,0
97078,-200,4,2,1,65,0,0
98426,-133.333333333333,4,2,1,65,0,0
99774,-66.6666666666667,4,2,1,80,0,1
99858,-66.6666666666667,4,2,1,80,0,0
100111,-80,4,2,1,80,0,0
100448,-100,4,2,1,80,0,0
100785,-133.333333333333,4,2,1,80,0,0
101122,-200,4,2,1,80,0,0
101460,-333.333333333333,4,2,1,80,0,0
101797,-66.6666666666667,4,2,1,80,0,0
102134,-100,4,2,1,80,0,0
105083,-66.6666666666667,4,2,1,80,0,0
105504,-80,4,2,1,80,0,0
105842,-100,4,2,1,80,0,0
106179,-133.333333333333,4,2,1,80,0,0
106516,-200,4,2,1,80,0,0
106853,-333.333333333333,4,2,1,80,0,0
107190,-66.6666666666667,4,2,1,80,0,0
107527,-100,4,2,1,80,0,0
110561,-333.333333333333,4,2,1,90,0,1
110898,-50,4,2,1,90,0,1
111235,-333.333333333333,4,2,1,90,0,1
111740,-100,4,2,1,90,0,1
113257,-333.333333333333,4,2,1,90,0,1
113594,-50,4,2,1,90,0,1
113931,-333.333333333333,4,2,1,90,0,1
115954,-66.6666666666667,4,2,1,90,0,1
116628,-100,4,2,1,90,0,1
119999,-66.6666666666667,4,2,1,90,0,1
120336,-100,4,2,1,90,0,1
121347,-50,4,2,1,90,0,1
121684,-66.6666666666667,4,2,1,90,0,1
122021,-100,4,2,1,90,0,1
122358,-133.333333333333,4,2,1,90,0,1
122695,-200,4,2,1,90,0,1
123033,-333.333333333333,4,2,1,90,0,1
123370,-66.6666666666667,4,2,1,90,0,1
123707,-100,4,2,1,90,0,1
126740,-50,4,2,1,90,0,1
127078,-66.6666666666667,4,2,1,90,0,1
127415,-100,4,2,1,90,0,1
127752,-133.333333333333,4,2,1,90,0,1
128089,-200,4,2,1,90,0,1
128426,-333.333333333333,4,2,1,90,0,1
128763,-50,4,2,1,90,0,1
129100,-100,4,2,1,90,0,1
132134,-50,4,2,1,90,0,1
132471,-66.6666666666667,4,2,1,90,0,1
132808,-100,4,2,1,90,0,1
133145,-133.333333333333,4,2,1,90,0,1
133482,-200,4,2,1,90,0,1
133819,-333.333333333333,4,2,1,90,0,1
134156,-50,4,2,1,90,0,1
134493,-100,4,2,1,90,0,1
137527,-50,4,2,1,90,0,1
137864,-66.6666666666667,4,2,1,90,0,1
138201,-100,4,2,1,90,0,1
138538,-133.333333333333,4,2,1,90,0,1
138875,-200,4,2,1,90,0,1
139128,-333.333333333333,4,2,1,90,0,1
139549,-50,4,2,1,90,0,1
139887,-100,4,2,1,90,0,1
142920,-333.333333333333,4,2,1,30,0,0
145617,-133.333333333333,4,2,1,70,0,0
150673,-100,4,2,1,70,0,0
151347,-133.333333333333,4,2,1,70,0,0

[Colours]
Combo1 : 0,80,159
Combo2 : 255,128,191
Combo3 : 128,214,255
Combo4 : 244,74,100
Combo5 : 64,159,255
Combo6 : 128,128,128
Combo7 : 192,192,192
Combo8 : 159,0,0

[HitObjects]
256,192,3033,12,0,8004,0:0:0:0:
80,328,8089,22,0,P|40:264|80:184,1,135,6|0,1:1|0:0,0:0:0:0:
64,192,8426,101,2,0:2:0:0:
136,226,8594,1,2,0:2:0:0:
216,228,8763,1,10,0:2:0:0:
291,198,8931,1,2,0:2:0:0:
347,140,9100,2,0,P|401:115|430:112,1,67.5000025749208,2|2,0:2|0:2,0:0:0:0:
432,240,9437,22,0,P|391:283|365:296,1,67.5000025749208,2|0,1:2|0:0,0:0:0:0:
304,264,9774,2,0,L|291:198,1,67.5000025749208,2|0,0:2|0:0,0:0:0:0:
283,180,10027,1,0,0:0:0:0:
272,168,10111,1,8,0:2:0:0:
213,105,10280,1,0,0:0:0:0:
273,44,10448,1,2,0:0:0:0:
333,105,10617,1,2,0:0:0:0:
186,189,10785,86,0,P|125:176|98:171,1,67.5000025749208,2|0,1:2|0:0,0:0:0:0:
96,80,11122,2,0,P|35:93|8:98,1,67.5000025749208,2|0,0:0|0:0,0:0:0:0:
8,252,11460,1,8,0:2:0:0:
46,170,11628,1,2,0:0:0:0:
127,188,11797,1,2,0:0:0:0:
200,303,11965,22,0,P|144:295|120:295,1,67.5000025749208,2|0,0:0|1:2,0:0:0:0:
272,232,12302,2,0,L|376:240,1,101.250003862381,2|0,0:0|0:0,0:0:0:0:
384,232,12639,1,2,0:0:0:0:
488,320,12808,1,8,0:2:0:0:
480,184,12976,1,2,0:0:0:0:
464,160,13061,1,2,0:0:0:0:
448,136,13145,86,0,P|412:75|464:0,1,148.50000453186,2|0,1:1|0:0,0:0:0:0:
488,72,13482,2,0,B|392:88|424:40|320:64,1,148.50000453186,6|0,1:1|0:0,0:0:0:0:
328,72,13819,5,2,0:0:0:0:
266,123,13987,1,2,0:0:0:0:
187,135,14156,2,0,L|184:170,1,33.7500012874604,10|0,0:2|0:0,0:0:0:0:
114,103,14324,1,2,0:0:0:0:
69,37,14493,2,0,B|35:34|35:34|2:43,1,67.5000025749208,2|2,0:0|0:0,0:0:0:0:
12,182,14830,22,0,B|46:185|46:185|79:176,1,67.5000025749208,2|0,1:2|0:0,0:0:0:0:
178,56,15167,1,2,0:0:0:0:
184,168,15336,1,0,0:0:0:0:
185,151,15420,1,0,0:0:0:0:
187,135,15504,1,8,0:2:0:0:
208,246,15673,1,2,0:0:0:0:
280,200,15842,1,2,0:0:0:0:
336,136,16010,1,2,0:0:0:0:
320,0,16179,86,0,L|280:72,1,67.5000025749208,2|0,1:2|0:0,0:0:0:0:
408,72,16516,2,0,L|430:151,1,67.5000025749208,2|0,0:0|0:0,0:0:0:0:
496,240,16853,2,0,P|452:260|437:260,1,33.7500012874604,8|0,0:2|0:0,0:0:0:0:
392,240,17021,1,0,0:0:0:0:
380,367,17190,2,0,P|334:350|324:339,1,33.7500012874604,2|0,1:2|0:0,0:0:0:0:
306,293,17358,22,0,P|232:298|213:302,1,67.5000025749208,2|0,1:2|1:2,0:0:0:0:
226,159,17695,2,0,P|284:204|298:218,1,67.5000025749208,2|0,0:0|1:2,0:0:0:0:
144,272,18033,2,0,P|153:345|152:365,1,67.5000025749208,2|8,0:0|0:2,0:0:0:0:
64,200,18370,85,2,0:0:0:0:
152,48,18538,2,0,B|72:72|72:72|0:48,1,148.50000453186,2|0,0:0|0:0,0:0:0:0:
16,32,18875,101,6,1:1:0:0:
128,136,19043,1,2,0:2:0:0:
14,127,19212,1,10,0:2:0:0:
64,200,19381,1,2,0:2:0:0:
136,128,19549,2,0,L|232:136,1,80.9999975280763,2|2,0:2|1:2,0:0:0:0:
359,193,19887,1,10,0:2:0:0:
299,133,20055,1,2,0:2:0:0:
205,240,20224,22,0,L|301:248,1,80.9999975280763,2|2,1:2|1:2,0:0:0:0:
432,160,20561,1,10,0:2:0:0:
290,155,20729,1,2,0:2:0:0:
369,275,20898,2,0,P|420:286|450:292,1,80.9999975280763,2|2,0:2|1:2,0:0:0:0:
462,283,21151,1,0,1:2:0:0:
478,268,21235,1,10,0:2:0:0:
512,188,21403,1,2,0:2:0:0:
374,264,21572,102,0,L|270:272,1,80.9999975280763,2|2,1:2|0:2,0:0:0:0:
135,264,21909,2,0,L|239:272,1,80.9999975280763,10|2,0:2|0:2,0:0:0:0:
309,348,22246,1,2,0:2:0:0:
203,349,22415,1,2,1:2:0:0:
256,200,22583,2,0,P|258:145|259:109,1,80.9999975280763,10|2,0:2|0:0,0:0:0:0:
171,174,22920,21,2,1:2:0:0:
342,177,23089,1,2,1:2:0:0:
176,168,23257,2,0,L|151:75,1,80.9999975280763,10|2,0:0|0:0,0:0:0:0:
336,168,23594,2,0,L|360:75,1,80.9999975280763,10|2,0:2|1:2,0:0:0:0:
352,80,23847,1,0,1:2:0:0:
344,72,23931,1,10,0:2:0:0:
241,102,24100,1,2,1:2:0:0:
217,108,24184,1,2,0:0:0:0:
198,98,24269,70,0,P|186:55|156:6,1,80.9999975280763,2|2,1:2|0:0,0:0:0:0:
146,20,24521,1,2,0:0:0:0:
132,36,24606,1,0,1:2:0:0:
37,106,24774,1,2,0:0:0:0:
48,122,24858,1,2,0:0:0:0:
41,145,24943,22,0,L|52:244,1,80.9999975280763,2|2,1:2|0:0,0:0:0:0:
72,248,25195,2,0,L|60:347,1,80.9999975280763,2|0,0:0|0:0,0:0:0:0:
147,371,25448,1,2,0:0:0:0:
168,369,25532,1,2,0:0:0:0:
191,366,25616,101,2,1:2:0:0:
279,338,25785,1,2,0:0:0:0:
280,240,25954,1,2,1:2:0:0:
290,227,26038,1,2,0:0:0:0:
423,133,26207,1,2,0:0:0:0:
431,152,26291,22,0,P|445:197|437:205,1,40.4999987640381,2|0,1:2|0:0,0:0:0:0:
378,233,26460,1,2,0:0:0:0:
339,112,26628,1,2,1:2:0:0:
317,115,26712,1,0,1:0:0:0:
291,117,26796,1,2,1:2:0:0:
272,119,26880,1,0,1:0:0:0:
253,122,26965,69,2,1:2:0:0:
138,50,27134,1,2,0:0:0:0:
184,185,27639,21,2,1:2:0:0:
105,140,27808,1,0,1:2:0:0:
105,140,28145,2,0,L|80:210,1,40.4999987640381,2|0,1:2|1:2,0:0:0:0:
159,309,28313,102,0,L|149:264,3,40.4999987640381,2|2|2|2,1:2|1:2|1:2|1:2,0:0:0:0:
248,320,28651,2,0,L|265:277,3,40.4999987640381,2|0|2|2,1:2|1:0|1:2|1:2,0:0:0:0:
317,376,28988,1,2,1:2:0:0:
317,376,29325,21,10,0:2:0:0:
356,367,29409,1,2,0:0:0:0:
396,358,29493,1,2,0:0:0:0:
143,308,29662,70,0,L|139:341,1,27,6|0,1:1|0:0,0:0:0:0:
62,266,29999,2,0,B|121:305|158:250|150:243|173:180|249:230,1,202.500007724762,14|0,0:2|0:0,0:0:0:0:
302,269,30336,2,0,P|303:325|259:348,1,90,2|0,1:2|0:0,0:0:0:0:
303,124,30673,1,10,0:2:0:0:
497,249,30842,22,0,P|442:228|352:201,1,135,2|0,0:0|0:0,0:0:0:0:
360,216,31179,1,2,0:0:0:0:
512,121,31347,1,10,0:2:0:0:
435,144,31516,1,2,0:0:0:0:
316,2,31684,1,2,1:2:0:0:
437,45,31853,1,2,0:0:0:0:
296,144,32021,1,10,0:2:0:0:
348,84,32190,1,2,0:0:0:0:
172,40,32358,102,0,L|212:32,1,40.4999987640381,2|0,1:2|0:0,0:0:0:0:
73,30,32695,2,0,P|169:95|142:174,1,202.500007724762,14|0,0:2|0:0,0:0:0:0:
85,205,33033,2,0,P|32:186|-4:178,1,90,2|0,1:2|0:0,0:0:0:0:
249,293,33370,1,10,0:2:0:0:
138,318,33538,1,2,0:0:0:0:
331,225,33707,21,2,1:2:0:0:
207,83,33875,1,2,0:0:0:0:
342,232,34044,2,0,P|412:221|436:216,1,90,10|2,0:2|0:0,0:0:0:0:
236,168,34381,1,2,1:2:0:0:
319,301,34549,1,2,0:0:0:0:
372,155,34718,1,10,0:2:0:0:
320,219,34887,1,2,0:0:0:0:
433,43,35055,70,0,P|446:118|478:235,1,180,6|8,1:2|0:2,0:0:0:0:
472,218,35561,1,0,0:0:0:0:
299,346,35729,2,0,P|335:290|365:286,1,90,2|0,1:2|0:0,0:0:0:0:
169,145,36066,2,0,P|214:181|198:268,1,135,10|0,0:2|0:0,0:0:0:0:
194,261,36403,22,0,P|135:278|90:296,1,90,2|0,1:2|0:0,0:0:0:0:
284,136,36740,2,0,P|339:154|382:163,1,90,10|0,0:2|0:0,0:0:0:0:
190,33,37078,1,2,1:2:0:0:
277,15,37246,1,0,0:0:0:0:
133,147,37415,1,10,0:2:0:0:
27,75,37583,1,2,0:0:0:0:
267,134,37752,102,0,P|197:148|166:275,1,202.500007724762,6|0,1:2|0:0,0:0:0:0:
238,262,38089,2,0,P|284:237|269:200,1,90,0|2,1:2|0:0,0:0:0:0:
256,370,38426,1,6,1:2:0:0:
366,307,38594,1,0,0:0:0:0:
146,353,38763,2,0,P|66:376|-1:386,1,135.000005149842,0|2,1:2|0:0,0:0:0:0:
68,145,39100,22,0,B|53:114|53:114|88:151,1,67.5000025749208,6|0,1:2|0:0,0:0:0:0:
156,274,39269,1,8,3:2:0:0:
173,136,39437,70,0,B|179:115|179:115|179:149,1,45,2|0,1:2|0:0,0:0:0:0:
154,261,39606,1,10,0:2:0:0:
242,206,39774,22,0,P|298:212|317:299,1,135,2|8,1:2|0:2,0:0:0:0:
264,328,40111,1,2,1:2:0:0:
264,328,40195,1,0,1:0:0:0:
264,328,40280,1,8,0:2:0:0:
404,263,40448,102,0,P|436:178|344:65,1,202.500007724762,6|0,1:1|0:0,0:0:0:0:
300,95,40785,2,0,B|367:111|400:37|396:32|437:-20|510:47,1,202.500007724762,10|0,0:2|0:0,0:0:0:0:
288,101,41122,2,0,P|260:158|305:204,1,135,2|0,1:2|0:0,0:0:0:0:
283,91,41460,2,0,P|224:111|185:123,1,101.250003862381,10|0,0:2|0:0,0:0:0:0:
174,128,41797,22,0,L|163:178,1,45,2|0,1:2|0:0,0:0:0:0:
107,221,42134,2,0,L|112:252,1,26.9999991760254,10|0,0:2|0:0,0:0:0:0:
16,384,42471,70,0,B|79:350|79:350|130:356|130:356|235:290,1,202.500007724762,2|0,1:2|0:0,0:0:0:0:
259,268,42808,2,0,P|318:272|331:322,1,90,10|0,0:2|0:0,0:0:0:0:
257,144,43145,21,0,1:2:0:0:
337,75,43313,1,2,0:0:0:0:
250,134,43482,1,10,0:2:0:0:
386,213,43651,1,2,0:0:0:0:
497,99,43819,2,0,P|441:96|413:131,1,90,2|0,1:2|0:0,0:0:0:0:
508,286,44156,2,0,L|492:237,1,45,10|0,0:2|0:0,0:0:0:0:
470,172,44325,1,2,0:0:0:0:
450,354,44493,102,0,P|398:340|346:328,1,90,0|2,1:2|0:0,0:0:0:0:
177,367,44830,2,0,P|230:348|237:305,1,90,10|2,0:2|0:0,0:0:0:0:
159,212,45167,1,2,1:2:0:0:
108,270,45336,1,2,0:0:0:0:
249,210,45504,1,10,0:2:0:0:
154,133,45673,1,2,0:0:0:0:
330,0,45842,22,0,B|400:23|400:23|423:62|423:62|538:101,1,202.500007724762,2|0,1:2|0:0,0:0:0:0:
426,112,46179,2,0,B|357:127|357:127|339:120|339:120|240:139,1,168.75,10|0,0:2|0:0,0:0:0:0:
439,122,46516,2,0,B|479:175|479:175|451:253,1,135,2|0,1:2|0:0,0:0:0:0:
398,291,46853,2,0,B|368:249|368:249|385:201,1,101.250003862381,10|0,0:2|0:0,0:0:0:0:
381,190,47190,70,0,L|332:207,1,45,2|0,1:2|0:0,0:0:0:0:
290,262,47527,2,0,L|257:254,1,26.9999991760254,10|0,0:2|0:0,0:0:0:0:
61,323,47864,22,0,B|52:333|52:333|122:364|122:364|171:220,1,202.500007724762,2|0,1:2|0:0,0:0:0:0:
135,180,48201,2,0,B|110:143|110:143|123:198,1,90,10|0,0:2|0:0,0:0:0:0:
162,249,48538,101,4,1:2:0:0:
235,226,48707,1,2,0:0:0:0:
296,62,48875,1,10,0:2:0:0:
192,117,49044,1,2,0:0:0:0:
331,187,49212,2,0,P|388:207|440:232,1,90,6|0,1:2|0:0,0:0:0:0:
186,106,49549,2,0,P|117:128|89:139,1,90,10|0,0:2|0:0,0:0:0:0:
371,50,49887,21,10,0:2:0:0:
242,18,50055,1,10,0:2:0:0:
373,40,50224,1,10,0:2:0:0:
244,8,50392,1,10,0:2:0:0:
378,134,50561,1,10,0:2:0:0:
256,229,50729,1,2,1:2:0:0:
240,83,50898,1,10,0:2:0:0:
288,150,51066,69,2,0:0:0:0:
30,36,53931,54,0,L|20:-1,2,36,6|8|0,1:1|0:0|1:2,0:0:0:0:
276,172,55617,5,2,0:0:0:0:
218,118,55785,2,0,L|209:79,2,22.5,2|2|10,0:0|0:0|0:1,0:0:0:0:
136,211,56122,101,2,0:0:0:0:
150,218,56291,1,2,0:0:0:0:
149,202,56460,1,2,0:0:0:0:
30,36,56628,6,0,L|20:-1,2,36,2|8|2,1:2|0:0|1:2,0:0:0:0:
323,153,58651,101,10,0:0:0:0:
254,70,58819,1,2,0:0:0:0:
254,70,58903,1,2,0:0:0:0:
254,70,58988,1,2,1:2:0:0:
30,36,59325,6,0,L|20:-1,2,36,6|8|0,1:1|0:0|1:2,0:0:0:0:
91,260,61010,101,2,0:0:0:0:
170,229,61179,1,2,0:0:0:0:
170,229,61263,1,2,0:0:0:0:
170,229,61347,1,10,0:1:0:0:
350,355,61684,1,2,0:0:0:0:
30,36,62021,6,0,L|20:-1,2,36,2|10|2,1:2|0:0|1:2,0:0:0:0:
186,155,63707,101,2,1:2:0:0:
473,66,64044,1,10,0:0:0:0:
420,16,64212,2,0,L|385:24,1,22.5,2|2,0:0|0:0,0:0:0:0:
346,164,64381,6,0,L|316:156,1,27,2|0,1:2|0:0,0:0:0:0:
444,152,64718,6,0,P|368:175|239:217,1,202.500007724762,6|2,1:1|0:2,0:0:0:0:
428,297,65392,2,0,P|386:286|347:279,1,67.5000025749208,10|0,0:2|0:0,0:0:0:0:
298,323,65729,1,2,0:2:0:0:
138,293,66066,1,2,1:2:0:0:
169,144,66403,1,2,0:2:0:0:
169,144,66572,1,2,0:2:0:0:
233,223,66740,1,10,0:2:0:0:
69,120,67078,1,2,0:2:0:0:
282,25,67415,86,0,L|237:17,1,33.7500012874604,2|0,1:2|0:0,0:0:0:0:
177,10,67583,1,0,1:2:0:0:
254,100,67752,1,2,0:0:0:0:
49,20,68089,1,10,0:2:0:0:
3,168,68426,1,2,0:0:0:0:
190,162,68763,21,2,1:2:0:0:
190,162,68932,1,2,1:2:0:0:
126,287,69101,85,2,1:2:0:0:
126,287,69269,1,2,0:0:0:0:
273,282,69437,21,10,0:2:0:0:
273,282,69774,1,2,0:2:0:0:
128,67,70111,6,0,B|198:3|250:63|244:85|282:156|387:97,1,270,6|0,1:1|0:0,0:0:0:0:
242,194,70785,2,0,P|273:203|300:237,1,67.5000025749208,10|0,0:2|0:0,0:0:0:0:
272,301,71122,1,2,0:0:0:0:
374,342,71291,1,0,1:0:0:0:
464,287,71460,85,2,1:2:0:0:
447,136,71797,1,2,0:0:0:0:
439,144,71881,1,2,0:0:0:0:
445,373,72134,1,10,0:2:0:0:
317,275,72471,1,2,1:2:0:0:
366,122,72808,21,2,1:2:0:0:
226,33,73145,1,2,0:0:0:0:
152,49,73313,1,0,1:2:0:0:
122,117,73482,1,8,0:2:0:0:
204,264,73819,1,2,0:0:0:0:
144,317,73988,85,2,1:2:0:0:
116,314,74072,1,0,1:2:0:0:
89,308,74156,1,0,1:2:0:0:
44,245,74325,1,2,1:2:0:0:
218,274,74493,1,2,1:2:0:0:
218,276,74662,1,2,0:0:0:0:
368,307,74830,21,10,0:2:0:0:
350,296,74915,1,8,0:0:0:0:
340,279,74999,1,8,0:2:0:0:
481,203,75167,1,10,0:2:0:0:
316,149,75336,1,8,0:2:0:0:
463,37,75504,102,0,B|475:20|504:16|504:16|412:4|379:99,1,202.500007724762,6|0,1:1|0:0,0:0:0:0:
392,98,75842,2,0,P|445:119|460:130,1,67.5000025749208,2|2,0:0|0:0,0:0:0:0:
339,16,76179,2,0,P|275:35|210:44,1,101.250003862381,2|0,0:0|0:0,0:0:0:0:
229,33,76516,1,10,0:0:0:0:
160,65,76684,1,2,0:0:0:0:
263,159,76853,53,0,1:0:0:0:
152,77,77021,1,2,1:2:0:0:
79,155,77190,2,0,P|91:198|120:211,1,67.5000025749208,10|2,0:2|0:0,0:0:0:0:
184,196,77527,1,2,0:0:0:0:
82,295,77695,1,2,1:2:0:0:
106,301,77780,1,0,1:2:0:0:
124,315,77864,1,10,0:2:0:0:
10,376,78033,1,2,0:0:0:0:
193,351,78201,54,0,P|238:341|351:323,1,135,0|0,1:2|0:0,0:0:0:0:
336,335,78538,1,10,0:2:0:0:
457,373,78707,2,0,P|440:316|412:307,1,67.5000025749208,2|0,0:0|0:0,0:0:0:0:
318,245,79044,1,2,1:2:0:0:
490,269,79212,2,0,P|474:294|420:301,1,67.5000025749208,10|2,0:2|0:0,0:0:0:0:
486,104,79549,53,2,1:2:0:0:
405,217,79718,1,2,1:2:0:0:
331,235,79887,1,10,0:2:0:0:
266,168,80055,1,2,0:0:0:0:
74,312,80392,53,2,1:2:0:0:
101,296,80476,1,0,1:2:0:0:
110,268,80561,1,10,0:2:0:0:
63,200,80729,1,0,0:0:0:0:
200,267,80898,6,0,P|249:289|337:343,1,135,2|0,1:2|0:0,0:0:0:0:
312,342,81235,2,0,P|259:354|223:370,1,67.5000025749208,10|2,0:2|0:0,0:0:0:0:
456,299,81572,1,2,0:0:0:0:
456,299,81656,1,2,0:0:0:0:
456,299,81740,1,2,1:2:0:0:
456,299,81825,1,2,0:0:0:0:
456,299,81909,2,0,P|403:287|367:271,1,67.5000025749208,10|2,0:2|0:0,0:0:0:0:
255,156,82246,53,2,1:2:0:0:
416,210,82415,1,2,1:2:0:0:
217,234,82583,1,10,0:0:0:0:
266,150,82752,1,2,0:0:0:0:
290,143,82836,1,2,0:0:0:0:
312,158,82920,2,0,L|325:207,1,33.7500012874604,10|2,0:2|0:0,0:0:0:0:
180,98,83089,1,2,1:2:0:0:
183,88,83173,2,0,P|241:69|303:48,1,101.250003862381,2|2,1:2|0:0,0:0:0:0:
72,32,83594,54,0,L|18:24,1,33.7500012874604,2|2,1:2|0:0,0:0:0:0:
61,107,83763,2,0,L|7:99,1,33.7500012874604,0|2,1:2|0:0,0:0:0:0:
163,253,84100,1,2,1:2:0:0:
163,253,84184,1,2,1:2:0:0:
163,253,84269,2,0,L|217:245,1,33.7500012874604,2|0,1:2|0:0,0:0:0:0:
174,328,84438,2,0,L|228:320,1,33.7500012874604,2|2,1:2|0:0,0:0:0:0:
355,267,84774,1,2,0:0:0:0:
409,327,84943,54,0,L|399:370,7,33.7500012874604,2|0|2|2|0|2|2|0,1:2|1:2|1:2|1:2|1:2|1:2|1:2|1:2,0:0:0:0:
474,278,85617,2,0,L|501:303,3,33.7500012874604,10|0|10|8,1:2|1:0|0:0|0:0,0:0:0:0:
470,183,85954,1,0,1:0:0:0:
465,163,86038,1,0,1:0:0:0:
451,146,86122,1,10,0:0:0:0:
428,137,86207,1,8,0:0:0:0:
407,142,86291,37,4,1:0:0:0:
101,95,96909,21,2,1:2:0:0:
165,143,97078,2,0,P|226:125|264:114,1,90,14|0,0:0|0:0,0:0:0:0:
99,89,97583,1,2,1:2:0:0:
163,137,97752,2,0,P|224:119|262:108,1,90,14|0,0:0|0:0,0:0:0:0:
98,82,98257,1,2,1:2:0:0:
148,217,98426,22,0,P|100:201|71:192,1,67.5000025749208,14|2,0:0|0:0,0:0:0:0:
22,249,98763,1,14,1:2:0:0:
22,249,98931,1,2,0:0:0:0:
163,301,99100,2,0,P|214:289|251:281,1,67.5000025749208,14|8,1:2|1:2,0:0:0:0:
23,370,99437,1,10,1:2:0:0:
447,109,99774,102,0,B|474:110|483:91|483:91|456:33|358:42|366:132,1,202.500007724762,6|0,1:1|0:0,0:0:0:0:
306,159,100111,2,0,P|343:229|452:232,1,168.75,10|0,0:2|0:0,0:0:0:0:
299,156,100448,2,0,P|267:213|293:286,1,135,2|0,1:2|0:0,0:0:0:0:
291,152,100785,2,0,P|247:152|192:198,1,101.250003862381,10|0,0:2|0:0,0:0:0:0:
196,193,101122,22,0,L|144:183,1,45,2|0,1:2|0:0,0:0:0:0:
118,114,101460,2,0,L|150:107,1,26.9999991760254,10|0,0:2|0:0,0:0:0:0:
279,298,101797,70,0,B|211:311|211:311|151:290|151:290|75:303,1,202.500007724762,2|0,1:2|0:0,0:0:0:0:
8,322,102134,2,0,P|28:375|88:381,1,90,10|0,0:2|0:0,0:0:0:0:
166,264,102471,21,0,1:2:0:0:
120,200,102639,1,2,0:0:0:0:
270,281,102808,1,10,0:2:0:0:
341,141,102976,1,2,0:0:0:0:
179,81,103145,2,0,B|230:49|262:98|253:110|287:152|339:122,1,180,2|10,1:2|0:2,0:0:0:0:
439,48,103651,1,2,0:0:0:0:
449,216,103819,102,0,P|477:165|509:122,1,90,0|2,1:2|0:0,0:0:0:0:
323,359,104156,2,0,P|301:309|280:274,1,90,10|2,0:2|0:0,0:0:0:0:
456,312,104493,1,2,1:2:0:0:
416,381,104662,1,2,0:0:0:0:
336,225,104830,1,10,0:2:0:0:
483,141,104999,1,2,0:0:0:0:
343,213,105167,22,0,B|268:188|268:188|221:203|221:203|125:171,1,202.500007724762,2|0,1:2|0:0,0:0:0:0:
120,104,105504,2,0,B|62:164|62:164|105:264,1,168.75,10|0,0:2|0:0,0:0:0:0:
120,93,105842,2,0,B|59:55|59:55|-9:96,1,135,2|0,1:2|0:0,0:0:0:0:
130,87,106179,2,0,B|163:50|163:50|132:-3,1,101.250003862381,10|0,0:2|0:0,0:0:0:0:
202,49,106516,70,0,L|245:59,1,45,2|0,1:2|0:0,0:0:0:0:
301,116,106853,2,0,L|329:111,1,26.9999991760254,10|0,0:2|0:0,0:0:0:0:
163,221,107190,22,0,B|153:202|124:195|124:195|219:173|243:277,1,202.500007724762,2|0,1:2|0:0,0:0:0:0:
300,324,107527,2,0,P|253:351|200:334,1,90,10|0,0:2|0:0,0:0:0:0:
405,234,107864,101,4,1:2:0:0:
476,279,108033,1,2,0:0:0:0:
307,334,108201,1,10,0:2:0:0:
385,338,108370,1,2,0:0:0:0:
298,220,108538,2,0,P|242:236|202:247,1,90,6|0,1:2|0:0,0:0:0:0:
367,113,108875,2,0,P|425:130|474:137,1,90,10|0,0:2|0:0,0:0:0:0:
259,21,109212,21,10,0:2:0:0:
237,34,109297,1,8,0:2:0:0:
225,51,109381,1,10,0:2:0:0:
222,72,109465,1,8,0:2:0:0:
230,93,109549,2,0,L|290:80,1,45,10|0,0:2|0:0,0:0:0:0:
145,43,109718,2,0,L|86:27,1,45,10|8,0:2|0:2,0:0:0:0:
181,172,109887,1,2,0:0:0:0:
415,87,110561,70,0,L|403:46,1,40.4999987640381,6|0,1:1|0:0,0:0:0:0:
439,174,110898,2,0,B|473:179|493:208|493:208|468:115|375:97|307:187,1,270,14|0,0:2|0:0,0:0:0:0:
300,229,111235,2,0,L|310:271,1,40.4999987640381,2|0,1:2|0:0,0:0:0:0:
324,346,111572,1,10,0:2:0:0:
214,227,111740,2,0,L|237:344,1,90,2|0,0:0|1:2,0:0:0:0:
71,351,112078,21,2,0:0:0:0:
114,208,112246,1,10,0:2:0:0:
136,290,112415,1,2,0:0:0:0:
25,171,112583,1,2,1:2:0:0:
180,138,112752,1,2,0:0:0:0:
137,297,112920,1,10,0:2:0:0:
114,208,113089,1,2,0:0:0:0:
258,64,113257,102,0,L|219:55,1,40.4999987640381,2|0,1:2|0:0,0:0:0:0:
316,132,113594,2,0,B|347:137|349:166|349:166|252:156|270:-1|393:34,1,270,14|0,0:2|0:0,0:0:0:0:
449,24,113931,2,0,L|439:67,1,40.4999987640381,2|0,1:2|0:0,0:0:0:0:
419,138,114269,1,10,0:2:0:0:
419,138,114437,1,2,0:0:0:0:
488,318,114606,21,2,1:2:0:0:
292,216,114774,1,2,0:0:0:0:
484,309,114943,1,10,0:2:0:0:
352,341,115111,1,2,0:0:0:0:
454,233,115280,1,2,1:2:0:0:
454,233,115448,1,2,0:0:0:0:
361,257,115617,1,10,0:2:0:0:
351,349,115785,1,2,0:0:0:0:
281,211,115954,70,0,B|214:157|167:222|176:231|115:317|27:236,1,270.000010299683,6|8,1:2|0:2,0:0:0:0:
16,168,116460,1,0,0:0:0:0:
165,278,116628,2,0,P|142:345|134:385,1,90,2|0,1:2|0:0,0:0:0:0:
112,122,116965,2,0,P|142:68|196:60,1,90,10|0,0:2|0:0,0:0:0:0:
301,298,117302,2,0,P|284:241|280:204,1,90,2|0,1:2|0:0,0:0:0:0:
477,154,117639,2,0,P|402:135|335:104,1,135,10|0,0:2|0:0,0:0:0:0:
293,48,117976,2,0,P|313:12|382:24,1,90,2|0,1:2|0:0,0:0:0:0:
395,181,118313,1,10,0:2:0:0:
395,181,118482,1,2,0:0:0:0:
242,110,118651,22,0,P|337:85|440:70,1,180,6|0,1:2|1:2,0:0:0:0:
482,127,119156,1,2,0:0:0:0:
322,214,119325,2,0,P|407:237|487:269,1,135,6|0,1:2|0:0,0:0:0:0:
459,267,119662,2,0,P|441:310|391:303,1,90,0|2,1:2|0:0,0:0:0:0:
214,182,119999,102,0,B|183:200|183:200|226:195,1,67.5000025749208,6|0,1:2|0:0,0:0:0:0:
369,145,120167,1,8,3:2:0:0:
255,104,120336,22,0,B|236:91|236:91|280:101,1,45,2|0,1:2|0:0,0:0:0:0:
378,149,120504,1,10,0:2:0:0:
293,226,120673,2,0,P|270:284|311:328,1,90,2|8,1:2|0:2,0:0:0:0:
363,328,120926,1,8,0:2:0:0:
356,340,121010,2,0,P|284:349|195:371,1,135,2|0,1:2|0:0,0:0:0:0:
146,305,121347,70,0,B|153:267|184:255|184:255|96:235|37:310|77:388,1,270,6|0,1:1|0:0,0:0:0:0:
139,298,121684,2,0,P|89:191|57:105,1,202.500007724762,10|0,0:2|0:0,0:0:0:0:
2,168,122021,2,0,P|56:192|127:157,1,135,2|0,1:2|0:0,0:0:0:0:
130,157,122358,2,0,P|140:103|112:54,1,101.250003862381,10|0,0:2|0:0,0:0:0:0:
118,52,122695,22,0,L|168:37,1,45,2|0,1:2|0:0,0:0:0:0:
224,89,123033,2,0,L|251:95,1,26.9999991760254,10|0,0:2|0:0,0:0:0:0:
439,263,123370,86,0,B|425:187|425:187|385:150|385:150|364:56,1,202.500007724762,2|0,1:2|0:0,0:0:0:0:
425,19,123707,2,0,P|469:3|505:32,1,90,10|0,0:2|0:0,0:0:0:0:
384,188,124044,21,0,1:2:0:0:
303,162,124212,1,2,0:0:0:0:
485,142,124381,1,10,0:2:0:0:
485,142,124549,1,2,0:0:0:0:
364,271,124718,2,0,P|311:282|260:298,1,90,2|0,1:2|0:0,0:0:0:0:
163,343,125055,1,10,0:2:0:0:
237,373,125224,1,2,0:0:0:0:
189,226,125392,102,0,P|128:207|87:190,1,90,0|2,1:2|0:0,0:0:0:0:
273,284,125729,2,0,P|316:271|361:263,1,90,10|2,0:2|0:0,0:0:0:0:
244,111,126066,1,2,1:2:0:0:
244,111,126235,1,2,0:0:0:0:
385,178,126403,1,10,0:2:0:0:
342,111,126572,1,2,0:0:0:0:
188,240,126740,22,0,B|196:264|215:275|215:275|121:234|141:110|252:102,1,270,2|0,1:2|0:0,0:0:0:0:
287,181,127078,2,0,P|183:139|92:94,1,202.500007724762,10|0,0:2|0:0,0:0:0:0:
170,40,127415,2,0,P|246:21|314:1,1,135,2|0,1:2|0:0,0:0:0:0:
175,30,127752,2,0,P|130:21|75:7,1,101.250003862381,10|0,0:2|0:0,0:0:0:0:
69,13,128089,86,0,L|24:33,1,45,2|0,1:2|0:0,0:0:0:0:
101,99,128426,2,0,L|131:114,1,26.9999991760254,10|0,0:2|0:0,0:0:0:0:
82,322,128763,22,0,B|106:339|144:335|144:335|71:381|-12:317|25:243,1,270,2|0,1:2|0:0,0:0:0:0:
86,200,129100,2,0,L|186:179,1,90,10|0,0:2|0:0,0:0:0:0:
345,317,129437,69,4,1:2:0:0:
250,274,129606,1,2,0:0:0:0:
422,187,129774,1,10,0:2:0:0:
490,322,129943,1,2,0:0:0:0:
412,182,130111,2,0,P|437:127|450:87,1,90,6|0,1:2|0:0,0:0:0:0:
244,284,130448,2,0,P|262:355|271:400,1,90,10|0,0:2|0:0,0:0:0:0:
290,134,130785,21,10,0:2:0:0:
96,21,130954,1,10,0:2:0:0:
290,123,131122,1,10,0:2:0:0:
202,176,131291,1,10,0:2:0:0:
349,31,131460,1,10,0:2:0:0:
266,27,131628,1,2,1:2:0:0:
433,114,131797,1,10,0:2:0:0:
433,114,131965,1,2,0:0:0:0:
360,246,132134,22,0,B|337:252|309:277|309:277|344:183|465:201|499:300,1,270,6|0,1:1|0:0,0:0:0:0:
364,260,132471,2,0,P|254:236|146:216,1,202.500007724762,10|0,0:2|0:0,0:0:0:0:
122,152,132808,2,0,P|154:97|233:124,1,135,2|0,1:2|0:0,0:0:0:0:
210,118,133145,2,0,P|170:91|171:29,1,101.250003862381,10|0,0:2|0:0,0:0:0:0:
172,33,133482,86,0,L|108:41,1,45,2|0,1:2|0:0,0:0:0:0:
63,95,133819,2,0,L|36:88,1,26.9999991760254,10|0,0:2|0:0,0:0:0:0:
268,161,134156,38,0,B|297:144|333:142|333:142|245:113|166:191|225:301,1,270,2|0,1:2|0:0,0:0:0:0:
272,298,134493,2,0,P|319:316|358:334,1,90,10|0,0:2|0:0,0:0:0:0:
116,325,134830,53,0,1:2:0:0:
44,351,134999,1,2,0:0:0:0:
217,360,135167,1,10,0:2:0:0:
217,360,135336,1,2,0:0:0:0:
80,214,135504,2,0,P|137:196|168:184,1,90,2|0,1:2|0:0,0:0:0:0:
390,254,135842,2,0,P|330:224|333:150,1,135,10|0,0:2|0:0,0:0:0:0:
387,113,136179,38,0,P|444:138|488:149,1,90,2|2,1:2|0:0,0:0:0:0:
194,114,136516,1,10,0:2:0:0:
215,19,136684,1,2,0:0:0:0:
258,190,136853,1,2,1:2:0:0:
108,152,137021,1,2,0:0:0:0:
212,31,137190,1,10,0:2:0:0:
194,114,137358,1,2,0:0:0:0:
411,41,137527,86,0,B|437:23|468:19|468:19|370:-18|312:50|332:118,1,270,2|0,1:2|0:0,0:0:0:0:
403,132,137864,2,0,P|324:78|203:19,1,202.500007724762,10|0,0:2|0:0,0:0:0:0:
164,72,138201,2,0,P|133:126|189:189,1,135,2|0,1:2|0:0,0:0:0:0:
181,192,138538,2,0,P|107:221|76:236,1,101.250003862381,10|0,0:2|0:0,0:0:0:0:
75,242,138875,38,0,L|30:227,1,45,2|0,1:2|0:0,0:0:0:0:
133,304,139212,2,0,L|119:336,1,26.9999991760254,10|0,0:2|0:0,0:0:0:0:
349,218,139549,2,0,B|340:181|311:172|311:172|369:138|448:219|379:312,1,270,2|0,1:2|0:0,0:0:0:0:
311,328,139887,2,0,P|261:338|215:351,1,90,10|0,0:2|0:0,0:0:0:0:
443,248,140224,37,4,1:2:0:0:
443,248,140392,1,2,0:0:0:0:
272,250,140561,1,10,0:2:0:0:
390,322,140729,1,2,0:0:0:0:
257,153,140898,1,6,1:2:0:0:
322,95,141066,1,0,0:0:0:0:
274,266,141235,1,10,0:2:0:0:
274,266,141403,1,0,0:0:0:0:
138,161,141572,21,10,0:2:0:0:
236,179,141740,1,10,0:2:0:0:
132,175,141909,1,10,0:2:0:0:
235,72,142078,1,10,0:2:0:0:
172,249,142246,1,10,0:2:0:0:
58,213,142415,1,2,1:2:0:0:
33,192,142499,1,8,3:2:0:0:
21,156,142583,1,10,3:2:0:0:
25,120,142667,1,8,3:2:0:0:
53,81,142752,1,10,3:2:0:0:
101,55,142836,1,8,3:2:0:0:
151,63,142920,101,2,0:0:0:0:
357,115,145617,22,0,P|339:160|379:210,1,101.250003862381,6|0,1:1|0:0,0:0:0:0:
442,206,145954,2,0,L|487:198,1,33.7500012874604,2|0,0:2|0:0,0:0:0:0:
364,219,146122,1,2,0:2:0:0:
444,220,146291,2,0,L|489:212,1,33.7500012874604,10|0,0:2|0:0,0:0:0:0:
366,233,146459,1,2,0:2:0:0:
445,232,146628,2,0,L|490:224,1,33.7500012874604,2|0,0:2|0:0,0:0:0:0:
367,245,146796,1,2,0:2:0:0:
468,111,146965,70,0,P|451:59|371:38,1,135.000005149842,2|2,1:2|0:2,0:0:0:0:
206,190,147639,2,0,P|242:163|246:141,1,67.5000025749208,8|0,0:1|0:0,0:0:0:0:
189,77,147976,1,2,0:0:0:0:
189,77,148145,1,2,0:0:0:0:
259,263,148313,22,0,P|159:216|117:199,1,135.000005149842,2|2,1:2|0:0,0:0:0:0:
429,353,148988,1,8,0:1:0:0:
497,308,149156,1,2,0:0:0:0:
343,348,149325,1,2,0:0:0:0:
251,275,149493,1,2,0:0:0:0:
181,320,149662,102,0,P|198:360|206:388,1,67.5000025749208,0|2,1:2|0:0,0:0:0:0:
331,234,149999,2,0,P|342:190|355:154,1,67.5000025749208,0|2,0:0|0:0,0:0:0:0:
214,34,150336,1,8,0:1:0:0:
283,84,150504,1,2,0:0:0:0:
119,65,150673,2,0,P|173:62|203:141,1,135,2|0,1:1|0:0,0:0:0:0:
177,207,151010,22,0,B|136:193|120:231|124:236|91:267|44:244,1,135,6|0,1:1|0:0,0:0:0:0:
61,162,151347,2,0,L|70:116,1,33.7500012874604,2|0,0:0|0:0,0:0:0:0:
50,241,151516,1,2,0:0:0:0:
52,162,151684,2,0,L|61:116,1,33.7500012874604,10|0,0:2|0:0,0:0:0:0:
41,241,151853,1,2,0:0:0:0:
44,163,152021,2,0,L|53:117,1,33.7500012874604,2|0,0:0|0:0,0:0:0:0:
33,242,152190,1,2,0:0:0:0:
195,319,152358,70,0,P|265:340|332:360,1,135.000005149842,2|2,1:2|0:0,0:0:0:0:
487,161,153033,2,0,P|433:172|414:183,1,67.5000025749208,8|2,0:1|0:0,0:0:0:0:
449,302,153370,2,0,P|377:273|336:264,1,101.250003862381,2|0,1:2|0:0,0:0:0:0:
290,314,153707,6,0,P|321:240|286:186,1,135.000005149842,2|2,1:2|0:0,0:0:0:0:
90,98,154381,2,0,P|111:130|144:132,1,67.5000025749208,8|0,0:1|0:0,0:0:0:0:
205,92,154718,1,2,0:2:0:0:
172,14,154887,1,2,0:2:0:0:
213,98,155055,102,0,P|269:82|303:75,1,67.5000025749208,0|2,0:2|0:0,0:0:0:0:
418,154,155392,1,0,0:2:0:0:
418,154,155561,2,0,P|364:140|328:136,1,67.5000025749208,2|0,0:0|0:0,0:0:0:0:
319,236,155898,1,2,0:0:0:0:
319,236,156066,1,2,0:0:0:0:
